<?xml version="1.0" standalone="no"?>
<!DOCTYPE svg PUBLIC "-//W3C//DTD SVG 1.1//EN" "http://www.w3.org/Graphics/SVG/1.1/DTD/svg11.dtd" >
<svg xmlns="http://www.w3.org/2000/svg" xmlns:xlink="http://www.w3.org/1999/xlink" version="1.1">
<metadata>
Created by FontForge 20201107 at Tue Nov 12 19:55:43 2024
 By 
2024 copyright (c) Tyrsa Alexis Taieb with Benjamin Blaess. All rights reserved. Any distribution to a third party is prohibited. Names are trademarked.
</metadata>
<defs>
<font id="ParisBasketball-Regular" horiz-adv-x="0" >
  <font-face 
    font-family="Paris Basketball"
    font-weight="400"
    font-stretch="semi-condensed"
    units-per-em="2048"
    panose-1="0 0 0 0 0 0 0 0 0 0"
    ascent="1638"
    descent="-410"
    cap-height="1536"
    bbox="-70 -340 1389 1866"
    underline-thickness="102"
    underline-position="-255"
    unicode-range="U+000D-2212"
  />
<missing-glyph horiz-adv-x="827" 
d="M0 1536h827v-1536h-827v1536zM295 481h184v137q0 24 21 56l147 239q6 10 21 33.5t20.5 33t11 26.5t5.5 34v156q0 41 -31 72l-115 114q-31 31 -72 31h-147q-41 0 -72 -31l-114 -114q-31 -31 -31 -72v-174h217v156q0 19 13.5 32t33.5 13h53q20 0 32.5 -13t12.5 -32v-127
q0 -28 -18 -58l-117 -200q-7 -12 -20 -33.5t-19 -31.5t-11 -26.5t-5 -33.5v-187zM279 356v-217h213v217h-213z" />
    <glyph glyph-name=".notdef" horiz-adv-x="827" 
d="M0 1536h827v-1536h-827v1536zM295 481h184v137q0 24 21 56l147 239q6 10 21 33.5t20.5 33t11 26.5t5.5 34v156q0 41 -31 72l-115 114q-31 31 -72 31h-147q-41 0 -72 -31l-114 -114q-31 -31 -31 -72v-174h217v156q0 19 13.5 32t33.5 13h53q20 0 32.5 -13t12.5 -32v-127
q0 -28 -18 -58l-117 -200q-7 -12 -20 -33.5t-19 -31.5t-11 -26.5t-5 -33.5v-187zM279 356v-217h213v217h-213z" />
    <glyph glyph-name=".null" 
 />
    <glyph glyph-name="nonmarkingreturn" horiz-adv-x="682" 
 />
    <glyph glyph-name="CR" unicode="&#xd;" horiz-adv-x="327" 
 />
    <glyph glyph-name="space" unicode=" " horiz-adv-x="327" 
 />
    <glyph glyph-name="exclam" unicode="!" horiz-adv-x="327" 
d="M41 238h246v-238h-246v238zM262 451h-196l-25 421v664h246v-664z" />
    <glyph glyph-name="quotedbl" unicode="&#x22;" horiz-adv-x="575" 
d="M197 1073h-107l-57 270v193h221v-193zM485 1073h-106l-57 270v193h221v-193z" />
    <glyph glyph-name="numbersign" unicode="#" horiz-adv-x="1138" 
d="M322 0h-216l82 424h-168v205h207l56 278h-201v205h240l81 424h215l-81 -424h198l82 424h215l-82 -424h168v-205h-207l-55 -278h201v-205h-240l-82 -424h-215l82 424h-199zM442 629h199l55 278h-198z" />
    <glyph glyph-name="dollar" unicode="$" horiz-adv-x="890" 
d="M342 0q-53 0 -82 33l-174 176q-35 40 -35 80v223h246v-225q0 -20 14.5 -34.5t36.5 -14.5h195q22 0 36.5 14.5t14.5 34.5v241q0 37 -37 60l-434 280q-36 24 -54 50t-18 69v260q0 40 35 80l174 176q29 33 82 33h2v164h205v-164q53 0 82 -33l174 -176q35 -40 35 -80v-172
h-246v174q0 20 -14.5 34.5t-36.5 14.5h-195q-22 0 -36.5 -14.5t-14.5 -34.5v-157q0 -37 37 -60l434 -280q36 -24 54 -50t18 -69v-344q0 -40 -35 -80l-174 -176q-29 -33 -82 -33v-164h-205v164h-2z" />
    <glyph glyph-name="percent" unicode="%" horiz-adv-x="1419" 
d="M616 954q0 -41 -34 -80l-105 -114q-30 -33 -82 -33h-143q-56 0 -82 33l-104 114q-35 44 -35 80v355q0 36 35 80l104 114q26 33 82 33h143q52 0 82 -33l105 -114q34 -39 34 -80v-355zM506 0h-197l604 1536h197zM430 1323q0 20 -14.5 34.5t-36.5 14.5h-111
q-22 0 -36.5 -14.5t-14.5 -34.5v-383q0 -20 14.5 -34.5t36.5 -14.5h111q22 0 36.5 14.5t14.5 34.5v383zM1389 227q0 -40 -35 -80l-105 -114q-30 -33 -82 -33h-143q-56 0 -82 33l-104 114q-35 44 -35 80v355q0 36 35 80l104 114q26 33 82 33h143q52 0 82 -33l105 -114
q35 -40 35 -80v-355zM1202 596q0 20 -14.5 34.5t-36.5 14.5h-111q-22 0 -36.5 -14.5t-14.5 -34.5v-383q0 -20 14.5 -34.5t36.5 -14.5h111q22 0 36.5 14.5t14.5 34.5v383z" />
    <glyph glyph-name="ampersand" unicode="&#x26;" horiz-adv-x="1062" 
d="M352 0q-53 0 -82 33l-174 178q-35 35 -35 78v295q0 47 39 80l107 90l-107 90q-39 33 -39 80v323q0 43 35 78l174 178q29 33 82 33h256q53 0 82 -33l174 -176q35 -40 35 -80v-211h-246v213q0 20 -14.5 34.5t-36.5 14.5h-244q-22 0 -36.5 -14.5t-14.5 -34.5v-327
q0 -20 14.5 -35t36.5 -15h684v-237h-231l53 -53q35 -40 35 -80v-213q0 -40 -35 -80l-174 -176q-29 -33 -82 -33h-256zM307 287q0 -20 14.5 -34.5t36.5 -14.5h244q22 0 36.5 14.5t14.5 34.5v348h-295q-22 0 -36.5 -14.5t-14.5 -34.5v-299z" />
    <glyph glyph-name="quotesingle" unicode="'" horiz-adv-x="286" 
d="M197 1073h-107l-57 270v193h221v-193z" />
    <glyph glyph-name="parenleft" unicode="(" horiz-adv-x="481" 
d="M373 0q-53 0 -82 33l-174 176q-35 40 -35 80v958q0 40 35 80l174 176q29 33 82 33h67v-238h-82q-22 0 -36.5 -14.5t-14.5 -34.5v-962q0 -20 14.5 -34.5t36.5 -14.5h82v-238h-67z" />
    <glyph glyph-name="parenright" unicode=")" horiz-adv-x="481" 
d="M109 1536q52 0 81 -33l175 -176q34 -39 34 -80v-958q0 -41 -34 -80l-175 -176q-29 -33 -81 -33h-68v238h82q22 0 36.5 14.5t14.5 34.5v962q0 20 -14.5 34.5t-36.5 14.5h-82v238h68z" />
    <glyph glyph-name="asterisk" unicode="*" horiz-adv-x="729" 
d="M498 881l-97 131l-36 73l-37 -73l-95 -131l-131 94l95 131l61 59l-84 13l-154 49l50 153l155 -49l74 -41l-14 84v162h161v-162l-14 -84l74 41l153 49l50 -153l-154 -49l-84 -13l61 -59l97 -131z" />
    <glyph glyph-name="plus" unicode="+" horiz-adv-x="655" 
d="M614 659h-188v-229h-197v229h-188v189h188v229h197v-229h188v-189z" />
    <glyph glyph-name="comma" unicode="," horiz-adv-x="327" 
d="M41 238h246v-238l-88 -225h-152l92 225h-98v238z" />
    <glyph glyph-name="hyphen" unicode="-" horiz-adv-x="409" 
d="M389 635h-369v237h369v-237z" />
    <glyph glyph-name="period" unicode="." horiz-adv-x="327" 
d="M41 238h246v-238h-246v238z" />
    <glyph glyph-name="slash" unicode="/" horiz-adv-x="677" 
d="M227 0h-217l441 1536h217z" />
    <glyph glyph-name="zero" unicode="0" horiz-adv-x="931" 
d="M573 238q22 0 37 14.5t15 34.5v962q0 20 -15 34.5t-37 14.5h-215q-22 0 -36.5 -14.5t-14.5 -34.5v-962q0 -20 14.5 -34.5t36.5 -14.5h215zM352 0q-53 0 -82 33l-174 176q-35 40 -35 80v958q0 40 35 80l174 176q29 33 82 33h228q53 0 82 -33l174 -176q34 -39 34 -80v-958
q0 -41 -34 -80l-174 -176q-29 -33 -82 -33h-228z" />
    <glyph glyph-name="one" unicode="1" horiz-adv-x="501" 
d="M420 0h-246v1298h-143v238h389v-1536z" />
    <glyph glyph-name="two" unicode="2" horiz-adv-x="876" 
d="M807 0h-756v461q0 83 84 153l408 330q37 29 37 66v239q0 20 -15 34.5t-37 14.5h-180q-22 0 -36.5 -14.5t-14.5 -34.5v-252h-246v250q0 40 35 80l174 176q29 33 82 33h193q52 0 81 -33l175 -176q34 -39 34 -80v-315q0 -85 -86 -154l-405 -325q-37 -29 -37 -66v-149h510
v-238z" />
    <glyph glyph-name="three" unicode="3" horiz-adv-x="901" 
d="M840 954q0 -47 -39 -80l-107 -90l107 -90q39 -33 39 -80v-325q0 -43 -35 -78l-174 -178q-29 -33 -82 -33h-217q-53 0 -82 33l-174 176q-35 40 -35 80v223h246v-225q0 -20 14.5 -34.5t36.5 -14.5h205q22 0 36.5 14.5t14.5 34.5v329q0 20 -15 35t-36 15h-244v237h244
q22 0 36.5 14.5t14.5 34.5v297q0 20 -14.5 34.5t-36.5 14.5h-205q-22 0 -36.5 -14.5t-14.5 -34.5v-174h-246v172q0 40 35 80l174 176q29 33 82 33h217q53 0 82 -33l174 -176q35 -40 35 -80v-293z" />
    <glyph glyph-name="four" unicode="4" horiz-adv-x="925" 
d="M782 0h-245v635h-189q-53 0 -82 33l-174 176q-35 35 -35 80v612h246v-614q0 -20 14.5 -35t36.5 -15h183v664h245v-664h123v-237h-123v-635z" />
    <glyph glyph-name="five" unicode="5" horiz-adv-x="880" 
d="M342 0q-53 0 -82 33l-174 176q-35 40 -35 80v223h246v-225q0 -20 14.5 -34.5t36.5 -14.5h184q22 0 37 14.5t15 34.5v379q0 20 -15 34.5t-37 14.5h-231q-53 0 -82 33l-133 135q-35 40 -35 80v573h750v-238h-504v-297q0 -20 14.5 -34.5t36.5 -14.5h250q50 0 82 -32
l115 -115q34 -39 34 -80v-436q0 -41 -34 -80l-174 -176q-33 -33 -82 -33h-197z" />
    <glyph glyph-name="six" unicode="6" horiz-adv-x="913" 
d="M358 715q-22 0 -36.5 -14.5t-14.5 -34.5v-377q0 -22 14.5 -36.5t36.5 -14.5h217q22 0 37 14.5t15 34.5v379q0 20 -14.5 34.5t-34.5 14.5h-220zM627 1249q0 20 -15 34.5t-37 14.5h-217q-22 0 -36.5 -14.5t-14.5 -34.5v-297h275q54 0 82 -32l174 -177q34 -39 34 -79v-375
q0 -41 -34 -80l-174 -176q-29 -33 -82 -33h-230q-53 0 -82 33l-174 176q-35 40 -35 80v956q0 47 35 82l174 176q29 33 82 33h230q53 0 82 -33l174 -176q34 -39 34 -80v-172h-245v174z" />
    <glyph glyph-name="seven" unicode="7" horiz-adv-x="849" 
d="M788 1536v-258l-389 -1278h-270l401 1298h-489v238h747z" />
    <glyph glyph-name="eight" unicode="8" horiz-adv-x="948" 
d="M352 0q-53 0 -82 33l-174 178q-35 35 -35 78v325q0 47 39 80l107 90l-107 90q-39 33 -39 80v293q0 40 35 80l174 176q29 33 82 33h244q53 0 82 -33l174 -176q35 -40 35 -80v-293q0 -47 -39 -80l-107 -90l107 -90q39 -33 39 -80v-325q0 -43 -35 -78l-174 -178
q-29 -33 -82 -33h-244zM590 903q22 0 36.5 14.5t14.5 34.5v297q0 20 -14.5 34.5t-36.5 14.5h-232q-22 0 -36.5 -14.5t-14.5 -34.5v-297q0 -20 14.5 -34.5t36.5 -14.5h232zM590 238q22 0 36.5 14.5t14.5 34.5v329q0 20 -14.5 35t-36.5 15h-232q-22 0 -36.5 -15t-14.5 -35
v-329q0 -20 14.5 -34.5t36.5 -14.5h232z" />
    <glyph glyph-name="nine" unicode="9" horiz-adv-x="913" 
d="M555 872q21 0 36 15t15 35v325q0 22 -14.5 36.5t-36.5 14.5h-217q-22 0 -36.5 -14.5t-14.5 -34.5v-327q0 -20 14.5 -35t34.5 -15h219zM287 287q0 -20 14.5 -34.5t36.5 -14.5h217q22 0 36.5 14.5t14.5 34.5v348h-274q-53 0 -82 33l-174 176q-35 40 -35 80v323q0 40 35 80
l174 176q29 33 82 33h229q53 0 82 -33l174 -176q35 -40 35 -80v-956q0 -47 -35 -82l-174 -176q-29 -33 -82 -33h-229q-53 0 -82 33l-174 176q-35 40 -35 80v223h246v-225z" />
    <glyph glyph-name="colon" unicode=":" horiz-adv-x="327" 
d="M41 238h246v-238h-246v238zM41 872h246v-237h-246v237z" />
    <glyph glyph-name="semicolon" unicode=";" horiz-adv-x="327" 
d="M41 238h246v-238l-88 -225h-152l92 225h-98v238zM41 844h246v-238h-246v238z" />
    <glyph glyph-name="equal" unicode="=" horiz-adv-x="655" 
d="M614 803h-573v188h573v-188zM614 516h-573v189h573v-189z" />
    <glyph glyph-name="question" unicode="?" horiz-adv-x="788" 
d="M221 238h246v-238h-246v238zM242 659q0 71 63 142l195 227q22 28 22 64v157q0 20 -14.5 34.5t-36.5 14.5h-154q-22 0 -36.5 -14.5t-14.5 -34.5v-213h-246v211q0 40 35 80l174 176q29 33 82 33h166q53 0 82 -33l174 -176q35 -40 35 -80v-168q0 -69 -63 -141l-232 -270
q-22 -28 -22 -64v-153h-209v208z" />
    <glyph glyph-name="at" unicode="@" horiz-adv-x="1327" 
d="M752 322q-42 -33 -82 -33h-92q-31 0 -48.5 5t-35.5 23l-91 89q-34 34 -34 79v162q0 55 34 80l111 88q39 29 84 29h176v194q0 15 -11 26t-26 11h-157q-15 0 -26 -11t-11 -26v-110h-174v110q0 36 24 60l123 125q22 22 62 22h163q38 0 60 -22l123 -125q24 -24 24 -60v-536
q0 -21 11 -35t32 -14h37q21 0 32 14t11 35v798q0 20 -14.5 35t-36.5 15h-713q-21 0 -36 -15t-15 -35v-1064q0 -22 11 -36t32 -14h797v-186h-744q-53 0 -82 33l-174 176q-35 40 -35 80v958q0 40 35 80l174 176q29 33 82 33h623q53 0 82 -33l174 -176q2 -2 8 -9t7.5 -9l6 -8
t6 -9t4 -8.5t3 -11t0.5 -12.5v-730q0 -51 -35 -79l-158 -129q-41 -33 -82 -33h-18q-36 0 -82 33l-70 57zM774 664q0 15 -11 25.5t-26 10.5h-157q-15 0 -26 -10.5t-11 -25.5v-175q0 -15 11 -25.5t26 -10.5h157q15 0 26 10.5t11 25.5v175z" />
    <glyph glyph-name="A" unicode="A" horiz-adv-x="942" 
d="M614 1249q0 20 -14.5 34.5t-36.5 14.5h-184q-22 0 -36.5 -14.5t-14.5 -34.5v-377h286v377zM860 0h-246v635h-286v-635h-246v1247q0 50 35 80l194 176q38 33 82 33h156q44 0 82 -33l194 -176q35 -30 35 -80v-1247z" />
    <glyph glyph-name="A" unicode="a" horiz-adv-x="942" 
d="M614 1249q0 20 -14.5 34.5t-36.5 14.5h-184q-22 0 -36.5 -14.5t-14.5 -34.5v-377h286v377zM860 0h-246v635h-286v-635h-246v1247q0 50 35 80l194 176q38 33 82 33h156q44 0 82 -33l194 -176q35 -30 35 -80v-1247z" />
    <glyph glyph-name="B" unicode="B" horiz-adv-x="942" 
d="M584 238q22 0 36.5 14.5t14.5 34.5v299q0 20 -14.5 34.5t-36.5 14.5h-256v-397h256zM584 872q22 0 36.5 15t14.5 35v327q0 20 -14.5 34.5t-36.5 14.5h-256v-426h256zM590 0h-508v1536h508q53 0 82 -33l174 -178q35 -35 35 -78v-323q0 -47 -39 -80l-107 -90l107 -90
q39 -33 39 -80v-295q0 -43 -35 -78l-174 -178q-29 -33 -82 -33z" />
    <glyph glyph-name="B" unicode="b" horiz-adv-x="942" 
d="M584 238q22 0 36.5 14.5t14.5 34.5v299q0 20 -14.5 34.5t-36.5 14.5h-256v-397h256zM584 872q22 0 36.5 15t14.5 35v327q0 20 -14.5 34.5t-36.5 14.5h-256v-426h256zM590 0h-508v1536h508q53 0 82 -33l174 -178q35 -35 35 -78v-323q0 -47 -39 -80l-107 -90l107 -90
q39 -33 39 -80v-295q0 -43 -35 -78l-174 -178q-29 -33 -82 -33z" />
    <glyph glyph-name="C" unicode="C" horiz-adv-x="880" 
d="M840 289q0 -40 -35 -80l-174 -176q-29 -33 -82 -33h-197q-53 0 -82 33l-174 176q-35 40 -35 80v958q0 40 35 80l174 176q29 33 82 33h197q53 0 82 -33l174 -176q35 -40 35 -80v-211h-246v213q0 20 -14.5 34.5t-36.5 14.5h-185q-22 0 -36.5 -14.5t-14.5 -36.5v-958
q0 -22 14.5 -36.5t36.5 -14.5h185q22 0 36.5 14.5t14.5 34.5v286h246v-284z" />
    <glyph glyph-name="C" unicode="c" horiz-adv-x="880" 
d="M840 289q0 -40 -35 -80l-174 -176q-29 -33 -82 -33h-197q-53 0 -82 33l-174 176q-35 40 -35 80v958q0 40 35 80l174 176q29 33 82 33h197q53 0 82 -33l174 -176q35 -40 35 -80v-211h-246v213q0 20 -14.5 34.5t-36.5 14.5h-185q-22 0 -36.5 -14.5t-14.5 -36.5v-958
q0 -22 14.5 -36.5t36.5 -14.5h185q22 0 36.5 14.5t14.5 34.5v286h246v-284z" />
    <glyph glyph-name="D" unicode="D" horiz-adv-x="942" 
d="M584 238q22 0 36.5 14.5t14.5 34.5v962q0 20 -14.5 34.5t-36.5 14.5h-256v-1060h256zM82 0v1536h508q53 0 82 -33l174 -176q35 -40 35 -80v-958q0 -40 -35 -80l-174 -176q-29 -33 -82 -33h-508z" />
    <glyph glyph-name="D" unicode="d" horiz-adv-x="942" 
d="M584 238q22 0 36.5 14.5t14.5 34.5v962q0 20 -14.5 34.5t-36.5 14.5h-256v-1060h256zM82 0v1536h508q53 0 82 -33l174 -176q35 -40 35 -80v-958q0 -40 -35 -80l-174 -176q-29 -33 -82 -33h-508z" />
    <glyph glyph-name="E" unicode="E" horiz-adv-x="794" 
d="M754 0h-672v1536h672v-238h-426v-426h348v-237h-348v-397h426v-238z" />
    <glyph glyph-name="E" unicode="e" horiz-adv-x="794" 
d="M754 0h-672v1536h672v-238h-426v-426h348v-237h-348v-397h426v-238z" />
    <glyph glyph-name="F" unicode="F" horiz-adv-x="800" 
d="M328 0h-246v1536h678v-238h-432v-426h356v-237h-356v-635z" />
    <glyph glyph-name="F" unicode="f" horiz-adv-x="800" 
d="M328 0h-246v1536h678v-238h-432v-426h356v-237h-356v-635z" />
    <glyph glyph-name="G" unicode="G" horiz-adv-x="921" 
d="M860 289q0 -40 -35 -80l-174 -176q-29 -33 -82 -33h-217q-53 0 -82 33l-174 176q-35 40 -35 80v958q0 40 35 80l174 176q29 33 82 33h217q53 0 82 -33l174 -176q35 -40 35 -80v-211h-246v213q0 20 -14.5 34.5t-36.5 14.5h-205q-22 0 -36.5 -14.5t-14.5 -36.5v-958
q0 -22 14.5 -36.5t36.5 -14.5h205q22 0 36.5 14.5t14.5 34.5v348h-165v237h411v-583z" />
    <glyph glyph-name="G" unicode="g" horiz-adv-x="921" 
d="M860 289q0 -40 -35 -80l-174 -176q-29 -33 -82 -33h-217q-53 0 -82 33l-174 176q-35 40 -35 80v958q0 40 35 80l174 176q29 33 82 33h217q53 0 82 -33l174 -176q35 -40 35 -80v-211h-246v213q0 20 -14.5 34.5t-36.5 14.5h-205q-22 0 -36.5 -14.5t-14.5 -36.5v-958
q0 -22 14.5 -36.5t36.5 -14.5h205q22 0 36.5 14.5t14.5 34.5v348h-165v237h411v-583z" />
    <glyph glyph-name="H" unicode="H" horiz-adv-x="935" 
d="M854 0h-246v635h-280v-635h-246v1536h246v-664h280v664h246v-1536z" />
    <glyph glyph-name="H" unicode="h" horiz-adv-x="935" 
d="M854 0h-246v635h-280v-635h-246v1536h246v-664h280v664h246v-1536z" />
    <glyph glyph-name="I" unicode="I" horiz-adv-x="409" 
d="M328 0h-246v1536h246v-1536z" />
    <glyph glyph-name="J" unicode="J" horiz-adv-x="829" 
d="M322 0q-53 0 -82 33l-174 176q-35 40 -35 80v284h245v-286q0 -20 15 -34.5t37 -14.5h143q22 0 36.5 14.5t14.5 34.5v1249h246v-1247q0 -40 -35 -80l-174 -176q-29 -33 -82 -33h-155z" />
    <glyph glyph-name="J" unicode="j" horiz-adv-x="829" 
d="M322 0q-53 0 -82 33l-174 176q-35 40 -35 80v284h245v-286q0 -20 15 -34.5t37 -14.5h143q22 0 36.5 14.5t14.5 34.5v1249h246v-1247q0 -40 -35 -80l-174 -176q-29 -33 -82 -33h-155z" />
    <glyph glyph-name="K" unicode="K" horiz-adv-x="923" 
d="M903 0h-262l-188 635h-125v-635h-246v1536h246v-664h209q21 0 36 15t15 35v614h246v-590q0 -46 -31 -74l-133 -122z" />
    <glyph glyph-name="K" unicode="k" horiz-adv-x="923" 
d="M903 0h-262l-188 635h-125v-635h-246v1536h246v-664h209q21 0 36 15t15 35v614h246v-590q0 -46 -31 -74l-133 -122z" />
    <glyph glyph-name="L" unicode="L" horiz-adv-x="731" 
d="M700 0h-618v1536h246v-1298h372v-238z" />
    <glyph glyph-name="L" unicode="l" horiz-adv-x="731" 
d="M700 0h-618v1536h246v-1298h372v-238z" />
    <glyph glyph-name="M" unicode="M" horiz-adv-x="1380" 
d="M807 238h-234v1011q0 20 -14.5 34.5t-36.5 14.5h-143q-22 0 -36.5 -14.5t-14.5 -34.5v-1249h-246v1247q0 40 35 80l174 176q29 33 82 33h125q53 0 82 -33l110 -117l111 117q29 33 82 33h125q53 0 82 -33l174 -176q34 -39 34 -80v-1247h-245v1249q0 20 -15 34.5t-37 14.5
h-143q-22 0 -36.5 -14.5t-14.5 -34.5v-1011z" />
    <glyph glyph-name="M" unicode="m" horiz-adv-x="1380" 
d="M807 238h-234v1011q0 20 -14.5 34.5t-36.5 14.5h-143q-22 0 -36.5 -14.5t-14.5 -34.5v-1249h-246v1247q0 40 35 80l174 176q29 33 82 33h125q53 0 82 -33l110 -117l111 117q29 33 82 33h125q53 0 82 -33l174 -176q34 -39 34 -80v-1247h-245v1249q0 20 -15 34.5t-37 14.5
h-143q-22 0 -36.5 -14.5t-14.5 -34.5v-1011z" />
    <glyph glyph-name="N" unicode="N" horiz-adv-x="962" 
d="M881 1536v-1536h-234l-334 963v-963h-231v1536h233l334 -967v967h232z" />
    <glyph glyph-name="N" unicode="n" horiz-adv-x="962" 
d="M881 1536v-1536h-234l-334 963v-963h-231v1536h233l334 -967v967h232z" />
    <glyph glyph-name="O" unicode="O" horiz-adv-x="931" 
d="M573 238q22 0 37 14.5t15 34.5v962q0 20 -15 34.5t-37 14.5h-215q-22 0 -36.5 -14.5t-14.5 -34.5v-962q0 -20 14.5 -34.5t36.5 -14.5h215zM352 0q-53 0 -82 33l-174 176q-35 40 -35 80v958q0 40 35 80l174 176q29 33 82 33h228q53 0 82 -33l174 -176q34 -39 34 -80v-958
q0 -41 -34 -80l-174 -176q-29 -33 -82 -33h-228z" />
    <glyph glyph-name="O" unicode="o" horiz-adv-x="931" 
d="M573 238q22 0 37 14.5t15 34.5v962q0 20 -15 34.5t-37 14.5h-215q-22 0 -36.5 -14.5t-14.5 -34.5v-962q0 -20 14.5 -34.5t36.5 -14.5h215zM352 0q-53 0 -82 33l-174 176q-35 40 -35 80v958q0 40 35 80l174 176q29 33 82 33h228q53 0 82 -33l174 -176q34 -39 34 -80v-958
q0 -41 -34 -80l-174 -176q-29 -33 -82 -33h-228z" />
    <glyph glyph-name="P" unicode="P" horiz-adv-x="915" 
d="M629 1249q0 20 -14.5 34.5t-36.5 14.5h-250v-426h250q22 0 36.5 15t14.5 35v327zM328 0h-246v1536h502q53 0 82 -33l174 -176q34 -39 34 -80v-323q0 -41 -34 -80l-174 -176q-29 -33 -82 -33h-256v-635z" />
    <glyph glyph-name="P" unicode="p" horiz-adv-x="915" 
d="M629 1249q0 20 -14.5 34.5t-36.5 14.5h-250v-426h250q22 0 36.5 15t14.5 35v327zM328 0h-246v1536h502q53 0 82 -33l174 -176q34 -39 34 -80v-323q0 -41 -34 -80l-174 -176q-29 -33 -82 -33h-256v-635z" />
    <glyph glyph-name="Q" unicode="Q" horiz-adv-x="931" 
d="M573 238q22 0 37 14.5t15 34.5v962q0 20 -15 34.5t-37 14.5h-215q-22 0 -36.5 -14.5t-14.5 -34.5v-962q0 -20 14.5 -34.5t36.5 -14.5h215zM352 0q-53 0 -82 33l-174 176q-35 40 -35 80v958q0 40 35 80l174 176q29 33 82 33h228q53 0 82 -33l174 -176q34 -39 34 -80v-819
q0 -41 -34 -80l-109 -110h172v-238h-547z" />
    <glyph glyph-name="Q" unicode="q" horiz-adv-x="931" 
d="M573 238q22 0 37 14.5t15 34.5v962q0 20 -15 34.5t-37 14.5h-215q-22 0 -36.5 -14.5t-14.5 -34.5v-962q0 -20 14.5 -34.5t36.5 -14.5h215zM352 0q-53 0 -82 33l-174 176q-35 40 -35 80v958q0 40 35 80l174 176q29 33 82 33h228q53 0 82 -33l174 -176q34 -39 34 -80v-819
q0 -41 -34 -80l-109 -110h172v-238h-547z" />
    <glyph glyph-name="R" unicode="R" horiz-adv-x="962" 
d="M606 872q22 0 36.5 15t14.5 35v327q0 20 -14.5 34.5t-36.5 14.5h-278v-426h278zM932 0h-266l-181 635h-157v-635h-246v1536h530q53 0 82 -33l174 -176q35 -40 35 -80v-315q0 -45 -35 -80l-155 -150z" />
    <glyph glyph-name="R" unicode="r" horiz-adv-x="962" 
d="M606 872q22 0 36.5 15t14.5 35v327q0 20 -14.5 34.5t-36.5 14.5h-278v-426h278zM932 0h-266l-181 635h-157v-635h-246v1536h530q53 0 82 -33l174 -176q35 -40 35 -80v-315q0 -45 -35 -80l-155 -150z" />
    <glyph glyph-name="S" unicode="S" horiz-adv-x="890" 
d="M342 0q-53 0 -82 33l-174 176q-35 40 -35 80v303h246v-305q0 -20 14.5 -34.5t36.5 -14.5h195q22 0 36.5 14.5t14.5 34.5v241q0 37 -37 60l-434 280q-36 24 -54 50t-18 69v260q0 40 35 80l174 176q29 33 82 33h207q53 0 82 -33l174 -176q35 -40 35 -80v-211h-246v213
q0 20 -14.5 34.5t-36.5 14.5h-195q-22 0 -36.5 -14.5t-14.5 -34.5v-157q0 -37 37 -60l434 -280q36 -24 54 -50t18 -69v-344q0 -40 -35 -80l-174 -176q-29 -33 -82 -33h-207z" />
    <glyph glyph-name="S" unicode="s" horiz-adv-x="890" 
d="M342 0q-53 0 -82 33l-174 176q-35 40 -35 80v303h246v-305q0 -20 14.5 -34.5t36.5 -14.5h195q22 0 36.5 14.5t14.5 34.5v241q0 37 -37 60l-434 280q-36 24 -54 50t-18 69v260q0 40 35 80l174 176q29 33 82 33h207q53 0 82 -33l174 -176q35 -40 35 -80v-211h-246v213
q0 20 -14.5 34.5t-36.5 14.5h-195q-22 0 -36.5 -14.5t-14.5 -34.5v-157q0 -37 37 -60l434 -280q36 -24 54 -50t18 -69v-344q0 -40 -35 -80l-174 -176q-29 -33 -82 -33h-207z" />
    <glyph glyph-name="T" unicode="T" horiz-adv-x="819" 
d="M532 0h-245v1298h-267v238h779v-238h-267v-1298z" />
    <glyph glyph-name="T" unicode="t" horiz-adv-x="819" 
d="M532 0h-245v1298h-267v238h779v-238h-267v-1298z" />
    <glyph glyph-name="U" unicode="U" horiz-adv-x="884" 
d="M823 289q0 -40 -35 -80l-174 -176q-29 -33 -82 -33h-180q-53 0 -82 33l-174 176q-35 40 -35 80v1247h246v-1249q0 -20 14.5 -34.5t36.5 -14.5h168q22 0 37 14.5t15 34.5v1249h245v-1247z" />
    <glyph glyph-name="U" unicode="u" horiz-adv-x="884" 
d="M823 289q0 -40 -35 -80l-174 -176q-29 -33 -82 -33h-180q-53 0 -82 33l-174 176q-35 40 -35 80v1247h246v-1249q0 -20 14.5 -34.5t36.5 -14.5h168q22 0 37 14.5t15 34.5v1249h245v-1247z" />
    <glyph glyph-name="V" unicode="V" horiz-adv-x="921" 
d="M610 0h-297l-293 1536h254l187 -1169l188 1169h252z" />
    <glyph glyph-name="V" unicode="v" horiz-adv-x="921" 
d="M610 0h-297l-293 1536h254l187 -1169l188 1169h252z" />
    <glyph glyph-name="W" unicode="W" horiz-adv-x="1343" 
d="M874 0q-54 0 -83 33l-119 127l-119 -127q-29 -33 -84 -33h-115q-53 0 -82 33l-174 176q-35 40 -35 80l-2 1247h246l2 -1249q0 -20 14.5 -34.5t36.5 -14.5h142q23 0 38 14t15 35v1249h233v-1249q0 -20 15 -34.5t37 -14.5h143q22 0 36.5 14.5t14.5 34.5l2 1249h246
l-2 -1247q0 -40 -35 -80l-174 -176q-33 -33 -82 -33h-115z" />
    <glyph glyph-name="W" unicode="w" horiz-adv-x="1343" 
d="M874 0q-54 0 -83 33l-119 127l-119 -127q-29 -33 -84 -33h-115q-53 0 -82 33l-174 176q-35 40 -35 80l-2 1247h246l2 -1249q0 -20 14.5 -34.5t36.5 -14.5h142q23 0 38 14t15 35v1249h233v-1249q0 -20 15 -34.5t37 -14.5h143q22 0 36.5 14.5t14.5 34.5l2 1249h246
l-2 -1247q0 -40 -35 -80l-174 -176q-33 -33 -82 -33h-115z" />
    <glyph glyph-name="X" unicode="X" horiz-adv-x="866" 
d="M96 864q-35 30 -35 80v592h246v-614q0 -20 14.5 -35t36.5 -15h150q22 0 36.5 15t14.5 35v614h246v-592q0 -50 -35 -80l-125 -106q-3 -3 -3.5 -9.5t3.5 -11.5l125 -106q35 -30 35 -80v-551h-246v586q0 20 -14.5 34.5t-36.5 14.5h-150q-22 0 -36.5 -14.5t-14.5 -34.5v-586
h-246v551q0 50 35 80l125 106q11 11 0 21z" />
    <glyph glyph-name="X" unicode="x" horiz-adv-x="866" 
d="M96 864q-35 30 -35 80v592h246v-614q0 -20 14.5 -35t36.5 -15h150q22 0 36.5 15t14.5 35v614h246v-592q0 -50 -35 -80l-125 -106q-3 -3 -3.5 -9.5t3.5 -11.5l125 -106q35 -30 35 -80v-551h-246v586q0 20 -14.5 34.5t-36.5 14.5h-150q-22 0 -36.5 -14.5t-14.5 -34.5v-586
h-246v551q0 50 35 80l125 106q11 11 0 21z" />
    <glyph glyph-name="Y" unicode="Y" horiz-adv-x="860" 
d="M553 623q0 32 20 49l201 172q35 30 35 80v612h-246v-614q0 -20 -14.5 -35t-36.5 -15h-164q-22 0 -36.5 15t-14.5 35v614h-246v-612q0 -50 35 -80l201 -172q20 -17 20 -49v-623h246v623z" />
    <glyph glyph-name="Y" unicode="y" horiz-adv-x="860" 
d="M553 623q0 32 20 49l201 172q35 30 35 80v612h-246v-614q0 -20 -14.5 -35t-36.5 -15h-164q-22 0 -36.5 15t-14.5 35v614h-246v-612q0 -50 35 -80l201 -172q20 -17 20 -49v-623h246v623z" />
    <glyph glyph-name="Z" unicode="Z" horiz-adv-x="849" 
d="M788 0h-727v2v238l455 1058h-455v238h727v-240l-454 -1058h454v-238z" />
    <glyph glyph-name="Z" unicode="z" horiz-adv-x="849" 
d="M788 0h-727v2v238l455 1058h-455v238h727v-240l-454 -1058h454v-238z" />
    <glyph glyph-name="backslash" unicode="\" horiz-adv-x="677" 
d="M451 0l-441 1536h217l441 -1536h-217z" />
    <glyph glyph-name="asciicircum" unicode="^" horiz-adv-x="770" 
d="M41 1229l205 307h278l205 -307h-252l-92 176l-92 -176h-252z" />
    <glyph glyph-name="underscore" unicode="_" horiz-adv-x="819" 
d="M819 -279h-819v197h819v-197z" />
    <glyph glyph-name="grave" unicode="`" horiz-adv-x="614" 
d="M412 1761l55 -184h-219l-98 184h262z" />
    <glyph glyph-name="i" unicode="i" horiz-adv-x="409" 
d="M328 0h-246v1536h246v-1536z" />
    <glyph glyph-name="bar" unicode="|" horiz-adv-x="327" 
d="M61 1700h205v-1864h-205v1864z" />
    <glyph glyph-name="uni00A0" unicode="&#xa0;" horiz-adv-x="327" 
 />
    <glyph glyph-name="dieresis" unicode="&#xa8;" horiz-adv-x="614" 
d="M94 1761h193v-184h-193v184zM328 1761h192v-184h-192v184z" />
    <glyph glyph-name="copyright" unicode="&#xa9;" horiz-adv-x="1327" 
d="M1266 289q0 -40 -35 -80l-174 -176q-29 -33 -82 -33h-623q-53 0 -82 33l-174 176q-35 40 -35 80v958q0 40 35 80l174 176q29 33 82 33h623q53 0 82 -33l174 -176q2 -2 8 -9t7.5 -9l6 -8t6 -9t4 -8.5t3 -11t0.5 -12.5v-971zM1028 186q21 0 32 14t11 36v1064q0 20 -14.5 35
t-36.5 15h-713q-21 0 -36 -15t-15 -35v-1064q0 -22 11 -36t32 -14h729zM588 266q-39 0 -62 23l-123 125q-24 24 -24 59v590q0 35 24 59l123 125q23 23 62 23h162q38 0 61 -23l123 -125q24 -24 24 -59v-180h-174v180q0 15 -10.5 26t-25.5 11h-158q-15 0 -26 -11t-11 -26v-590
q0 -15 11 -26t26 -11h158q15 0 25.5 11t10.5 26v180h174v-180q0 -35 -24 -59l-123 -125q-23 -23 -61 -23h-162z" />
    <glyph glyph-name="guillemotleft" unicode="&#xab;" horiz-adv-x="675" 
d="M328 287l-308 327v279l308 328v-299l-162 -168l162 -168v-299zM655 287l-307 327v279l307 328v-299l-161 -168l161 -168v-299z" />
    <glyph glyph-name="registered" unicode="&#xae;" horiz-adv-x="1327" 
d="M1266 289q0 -40 -35 -80l-174 -176q-29 -33 -82 -33h-623q-53 0 -82 33l-174 176q-35 40 -35 80v958q0 40 35 80l174 176q29 33 82 33h623q53 0 82 -33l174 -176q2 -2 8 -9t7.5 -9l6 -8t6 -9t4 -8.5t3 -11t0.5 -12.5v-971zM1028 186q21 0 32 14t11 36v1064q0 20 -14.5 35
t-36.5 15h-713q-21 0 -36 -15t-15 -35v-1064q0 -22 11 -36t32 -14h729zM752 844q15 0 25.5 11t10.5 26v184q0 14 -10.5 24.5t-25.5 10.5h-195v-256h195zM981 266h-186l-125 408h-113v-408h-174v1004h371q38 0 61 -23l123 -125q25 -25 25 -59v-182q0 -31 -25 -60l-107 -108z
" />
    <glyph glyph-name="macron" unicode="&#xaf;" horiz-adv-x="614" 
d="M123 1741h369v-144h-369v144z" />
    <glyph glyph-name="degree" unicode="&#xb0;" horiz-adv-x="647" 
d="M252 977q-56 0 -82 33l-104 114q-35 44 -35 80v105q0 36 35 80l104 114q26 33 82 33h143q52 0 82 -33l105 -114q34 -39 34 -80v-105q0 -41 -34 -80l-105 -114q-30 -33 -82 -33h-143zM430 1323q0 20 -14.5 34.5t-36.5 14.5h-111q-22 0 -36.5 -14.5t-14.5 -34.5v-133
q0 -20 14.5 -34.5t36.5 -14.5h111q22 0 36.5 14.5t14.5 34.5v133z" />
    <glyph glyph-name="acute" unicode="&#xb4;" horiz-adv-x="614" 
d="M205 1761h262l-98 -184h-219z" />
    <glyph glyph-name="paragraph" unicode="&#xb6;" horiz-adv-x="1007" 
d="M332 717q-53 0 -82 33l-174 176q-35 40 -35 80v241q0 40 35 80l174 176q29 33 82 33h256v-1536h-205v717h-51zM926 0h-205v1536h205v-1536z" />
    <glyph glyph-name="periodcentered" unicode="&#xb7;" horiz-adv-x="327" 
d="M20 897h287v-287h-287v287z" />
    <glyph glyph-name="cedilla" unicode="&#xb8;" horiz-adv-x="614" 
d="M180 -283v123h80q33 0 33 23v8q0 20 -21 25l-45 12v112h127v-45l56 -32q36 -21 36 -60v-69q0 -31 -26 -52l-35 -28q-20 -17 -51 -17h-154z" />
    <glyph glyph-name="guillemotright" unicode="&#xbb;" horiz-adv-x="675" 
d="M348 287v299l162 168l-162 168v299l307 -328v-279zM20 287v299l162 168l-162 168v299l308 -328v-279z" />
    <glyph glyph-name="Agrave" unicode="&#xc0;" horiz-adv-x="942" 
d="M614 1249q0 20 -14.5 34.5t-36.5 14.5h-184q-22 0 -36.5 -14.5t-14.5 -34.5v-377h286v377zM860 0h-246v635h-286v-635h-246v1247q0 50 35 80l194 176q38 33 82 33h156q44 0 82 -33l194 -176q35 -30 35 -80v-1247zM528 1761l56 -184h-219l-99 184h262z" />
    <glyph glyph-name="Agrave" unicode="&#xe0;" horiz-adv-x="942" 
d="M614 1249q0 20 -14.5 34.5t-36.5 14.5h-184q-22 0 -36.5 -14.5t-14.5 -34.5v-377h286v377zM860 0h-246v635h-286v-635h-246v1247q0 50 35 80l194 176q38 33 82 33h156q44 0 82 -33l194 -176q35 -30 35 -80v-1247zM528 1761l56 -184h-219l-99 184h262z" />
    <glyph glyph-name="Aacute" unicode="&#xc1;" horiz-adv-x="942" 
d="M614 1249q0 20 -14.5 34.5t-36.5 14.5h-184q-22 0 -36.5 -14.5t-14.5 -34.5v-377h286v377zM860 0h-246v635h-286v-635h-246v1247q0 50 35 80l194 176q38 33 82 33h156q44 0 82 -33l194 -176q35 -30 35 -80v-1247zM414 1761h262l-98 -184h-220z" />
    <glyph glyph-name="Aacute" unicode="&#xe1;" horiz-adv-x="942" 
d="M614 1249q0 20 -14.5 34.5t-36.5 14.5h-184q-22 0 -36.5 -14.5t-14.5 -34.5v-377h286v377zM860 0h-246v635h-286v-635h-246v1247q0 50 35 80l194 176q38 33 82 33h156q44 0 82 -33l194 -176q35 -30 35 -80v-1247zM414 1761h262l-98 -184h-220z" />
    <glyph glyph-name="Acircumflex" unicode="&#xc2;" horiz-adv-x="942" 
d="M614 1249q0 20 -14.5 34.5t-36.5 14.5h-184q-22 0 -36.5 -14.5t-14.5 -34.5v-377h286v377zM860 0h-246v635h-286v-635h-246v1247q0 50 35 80l194 176q38 33 82 33h156q44 0 82 -33l194 -176q35 -30 35 -80v-1247zM344 1761h252l147 -184h-211l-47 61h-28l-49 -61h-211z
" />
    <glyph glyph-name="Acircumflex" unicode="&#xe2;" horiz-adv-x="942" 
d="M614 1249q0 20 -14.5 34.5t-36.5 14.5h-184q-22 0 -36.5 -14.5t-14.5 -34.5v-377h286v377zM860 0h-246v635h-286v-635h-246v1247q0 50 35 80l194 176q38 33 82 33h156q44 0 82 -33l194 -176q35 -30 35 -80v-1247zM344 1761h252l147 -184h-211l-47 61h-28l-49 -61h-211z
" />
    <glyph glyph-name="Atilde" unicode="&#xc3;" horiz-adv-x="942" 
d="M614 1249q0 20 -14.5 34.5t-36.5 14.5h-184q-22 0 -36.5 -14.5t-14.5 -34.5v-377h286v377zM860 0h-246v635h-286v-635h-246v1247q0 50 35 80l194 176q38 33 82 33h156q44 0 82 -33l194 -176q35 -30 35 -80v-1247zM743 1706q0 -35 -16 -51l-78 -78h-160l-59 37
q-18 12 -33 12h-20q-12 0 -20.5 -8.5t-8.5 -20.5v-20h-151v55q0 35 16 51l78 78h160l59 -37q18 -12 33 -12h20q12 0 20.5 8.5t8.5 20.5v20h151v-55z" />
    <glyph glyph-name="Atilde" unicode="&#xe3;" horiz-adv-x="942" 
d="M614 1249q0 20 -14.5 34.5t-36.5 14.5h-184q-22 0 -36.5 -14.5t-14.5 -34.5v-377h286v377zM860 0h-246v635h-286v-635h-246v1247q0 50 35 80l194 176q38 33 82 33h156q44 0 82 -33l194 -176q35 -30 35 -80v-1247zM743 1706q0 -35 -16 -51l-78 -78h-160l-59 37
q-18 12 -33 12h-20q-12 0 -20.5 -8.5t-8.5 -20.5v-20h-151v55q0 35 16 51l78 78h160l59 -37q18 -12 33 -12h20q12 0 20.5 8.5t8.5 20.5v20h151v-55z" />
    <glyph glyph-name="Adieresis" unicode="&#xc4;" horiz-adv-x="942" 
d="M614 1249q0 20 -14.5 34.5t-36.5 14.5h-184q-22 0 -36.5 -14.5t-14.5 -34.5v-377h286v377zM860 0h-246v635h-286v-635h-246v1247q0 50 35 80l194 176q38 33 82 33h156q44 0 82 -33l194 -176q35 -30 35 -80v-1247zM258 1761h193v-184h-193v184zM492 1761h192v-184h-192
v184z" />
    <glyph glyph-name="Adieresis" unicode="&#xe4;" horiz-adv-x="942" 
d="M614 1249q0 20 -14.5 34.5t-36.5 14.5h-184q-22 0 -36.5 -14.5t-14.5 -34.5v-377h286v377zM860 0h-246v635h-286v-635h-246v1247q0 50 35 80l194 176q38 33 82 33h156q44 0 82 -33l194 -176q35 -30 35 -80v-1247zM258 1761h193v-184h-193v184zM492 1761h192v-184h-192
v184z" />
    <glyph glyph-name="Aring" unicode="&#xc5;" horiz-adv-x="942" 
d="M614 1249q0 20 -14.5 34.5t-36.5 14.5h-184q-22 0 -36.5 -14.5t-14.5 -34.5v-377h286v377zM860 0h-246v635h-286v-635h-246v1247q0 50 35 80l194 176q38 33 82 33h156q44 0 82 -33l194 -176q35 -30 35 -80v-1247zM434 1563q-28 0 -61 26l-51 45q-17 17 -17 52v40
q0 35 17 52l51 45q33 26 61 26h74q28 0 61 -26l52 -45q16 -16 16 -52v-40q0 -36 -16 -52l-52 -45q-33 -26 -61 -26h-74zM485 1665q12 0 20.5 8.5t8.5 20.5v24q0 12 -8.5 20.5t-20.5 8.5h-28q-12 0 -20.5 -8.5t-8.5 -20.5v-24q0 -12 8.5 -20.5t20.5 -8.5h28z" />
    <glyph glyph-name="Aring" unicode="&#xe5;" horiz-adv-x="942" 
d="M614 1249q0 20 -14.5 34.5t-36.5 14.5h-184q-22 0 -36.5 -14.5t-14.5 -34.5v-377h286v377zM860 0h-246v635h-286v-635h-246v1247q0 50 35 80l194 176q38 33 82 33h156q44 0 82 -33l194 -176q35 -30 35 -80v-1247zM434 1563q-28 0 -61 26l-51 45q-17 17 -17 52v40
q0 35 17 52l51 45q33 26 61 26h74q28 0 61 -26l52 -45q16 -16 16 -52v-40q0 -36 -16 -52l-52 -45q-33 -26 -61 -26h-74zM485 1665q12 0 20.5 8.5t8.5 20.5v24q0 12 -8.5 20.5t-20.5 8.5h-28q-12 0 -20.5 -8.5t-8.5 -20.5v-24q0 -12 8.5 -20.5t20.5 -8.5h28z" />
    <glyph glyph-name="AE" unicode="&#xc6;" horiz-adv-x="1286" 
d="M614 1249q0 20 -14.5 34.5t-36.5 14.5h-184q-22 0 -36.5 -14.5t-14.5 -34.5v-377h286v377zM614 0v635h-286v-635h-246v1247q0 50 35 80l194 176q38 33 82 33h852v-238h-385v-426h307v-237h-307v-397h385v-238h-631z" />
    <glyph glyph-name="AE" unicode="&#xe6;" horiz-adv-x="1286" 
d="M614 1249q0 20 -14.5 34.5t-36.5 14.5h-184q-22 0 -36.5 -14.5t-14.5 -34.5v-377h286v377zM614 0v635h-286v-635h-246v1247q0 50 35 80l194 176q38 33 82 33h852v-238h-385v-426h307v-237h-307v-397h385v-238h-631z" />
    <glyph glyph-name="Ccedilla" unicode="&#xc7;" horiz-adv-x="880" 
d="M840 289q0 -40 -35 -80l-174 -176q-29 -33 -82 -33h-45v-25l55 -32q37 -22 37 -60v-69q0 -30 -27 -52l-34 -28q-20 -17 -52 -17h-153v123h80q32 0 32 23v8q0 20 -20 25l-45 12v92h-25q-53 0 -82 33l-174 176q-35 40 -35 80v958q0 40 35 80l174 176q29 33 82 33h197
q53 0 82 -33l174 -176q35 -40 35 -80v-211h-246v213q0 20 -14.5 34.5t-36.5 14.5h-185q-22 0 -36.5 -14.5t-14.5 -36.5v-958q0 -22 14.5 -36.5t36.5 -14.5h185q22 0 36.5 14.5t14.5 34.5v286h246v-284z" />
    <glyph glyph-name="Ccedilla" unicode="&#xe7;" horiz-adv-x="880" 
d="M840 289q0 -40 -35 -80l-174 -176q-29 -33 -82 -33h-45v-25l55 -32q37 -22 37 -60v-69q0 -30 -27 -52l-34 -28q-20 -17 -52 -17h-153v123h80q32 0 32 23v8q0 20 -20 25l-45 12v92h-25q-53 0 -82 33l-174 176q-35 40 -35 80v958q0 40 35 80l174 176q29 33 82 33h197
q53 0 82 -33l174 -176q35 -40 35 -80v-211h-246v213q0 20 -14.5 34.5t-36.5 14.5h-185q-22 0 -36.5 -14.5t-14.5 -36.5v-958q0 -22 14.5 -36.5t36.5 -14.5h185q22 0 36.5 14.5t14.5 34.5v286h246v-284z" />
    <glyph glyph-name="Egrave" unicode="&#xc8;" horiz-adv-x="794" 
d="M754 0h-672v1536h672v-238h-426v-426h348v-237h-348v-397h426v-238zM479 1761l56 -184h-220l-98 184h262z" />
    <glyph glyph-name="Egrave" unicode="&#xe8;" horiz-adv-x="794" 
d="M754 0h-672v1536h672v-238h-426v-426h348v-237h-348v-397h426v-238zM479 1761l56 -184h-220l-98 184h262z" />
    <glyph glyph-name="Eacute" unicode="&#xc9;" horiz-adv-x="794" 
d="M754 0h-672v1536h672v-238h-426v-426h348v-237h-348v-397h426v-238zM365 1761h262l-99 -184h-219z" />
    <glyph glyph-name="Eacute" unicode="&#xe9;" horiz-adv-x="794" 
d="M754 0h-672v1536h672v-238h-426v-426h348v-237h-348v-397h426v-238zM365 1761h262l-99 -184h-219z" />
    <glyph glyph-name="Ecircumflex" unicode="&#xca;" horiz-adv-x="794" 
d="M754 0h-672v1536h672v-238h-426v-426h348v-237h-348v-397h426v-238zM295 1761h252l147 -184h-211l-47 61h-28l-50 -61h-211z" />
    <glyph glyph-name="Ecircumflex" unicode="&#xea;" horiz-adv-x="794" 
d="M754 0h-672v1536h672v-238h-426v-426h348v-237h-348v-397h426v-238zM295 1761h252l147 -184h-211l-47 61h-28l-50 -61h-211z" />
    <glyph glyph-name="Edieresis" unicode="&#xcb;" horiz-adv-x="794" 
d="M754 0h-672v1536h672v-238h-426v-426h348v-237h-348v-397h426v-238zM209 1761h192v-184h-192v184zM442 1761h193v-184h-193v184z" />
    <glyph glyph-name="Edieresis" unicode="&#xeb;" horiz-adv-x="794" 
d="M754 0h-672v1536h672v-238h-426v-426h348v-237h-348v-397h426v-238zM209 1761h192v-184h-192v184zM442 1761h193v-184h-193v184z" />
    <glyph glyph-name="Igrave" unicode="&#xcc;" horiz-adv-x="409" 
d="M328 0h-246v1536h246v-1536zM262 1761l55 -184h-219l-98 184h262z" />
    <glyph glyph-name="Igrave" unicode="&#xec;" horiz-adv-x="409" 
d="M328 0h-246v1536h246v-1536zM262 1761l55 -184h-219l-98 184h262z" />
    <glyph glyph-name="Iacute" unicode="&#xcd;" horiz-adv-x="409" 
d="M328 0h-246v1536h246v-1536zM147 1761h263l-99 -184h-219z" />
    <glyph glyph-name="Iacute" unicode="&#xed;" horiz-adv-x="409" 
d="M328 0h-246v1536h246v-1536zM147 1761h263l-99 -184h-219z" />
    <glyph glyph-name="Icircumflex" unicode="&#xce;" horiz-adv-x="409" 
d="M328 0h-246v1536h246v-1536zM78 1761h252l147 -184h-211l-47 61h-29l-49 -61h-211z" />
    <glyph glyph-name="Icircumflex" unicode="&#xee;" horiz-adv-x="409" 
d="M328 0h-246v1536h246v-1536zM78 1761h252l147 -184h-211l-47 61h-29l-49 -61h-211z" />
    <glyph glyph-name="Idieresis" unicode="&#xcf;" horiz-adv-x="409" 
d="M328 0h-246v1536h246v-1536zM-8 1761h192v-184h-192v184zM225 1761h193v-184h-193v184z" />
    <glyph glyph-name="Idieresis" unicode="&#xef;" horiz-adv-x="409" 
d="M328 0h-246v1536h246v-1536zM-8 1761h192v-184h-192v184zM225 1761h193v-184h-193v184z" />
    <glyph glyph-name="Eth" unicode="&#xd0;" horiz-adv-x="942" 
d="M584 238q22 0 36.5 14.5t14.5 34.5v962q0 20 -14.5 34.5t-36.5 14.5h-256v-426h178v-237h-178v-397h256zM82 0v635h-62v237h62v664h508q53 0 82 -33l174 -176q35 -40 35 -80v-958q0 -40 -35 -80l-174 -176q-29 -33 -82 -33h-508z" />
    <glyph glyph-name="Eth" unicode="&#xf0;" horiz-adv-x="942" 
d="M584 238q22 0 36.5 14.5t14.5 34.5v962q0 20 -14.5 34.5t-36.5 14.5h-256v-426h178v-237h-178v-397h256zM82 0v635h-62v237h62v664h508q53 0 82 -33l174 -176q35 -40 35 -80v-958q0 -40 -35 -80l-174 -176q-29 -33 -82 -33h-508z" />
    <glyph glyph-name="Ntilde" unicode="&#xd1;" horiz-adv-x="962" 
d="M881 1536v-1536h-234l-334 963v-963h-231v1536h233l334 -967v967h232zM754 1706q0 -34 -17 -51l-78 -78h-159l-60 37q-18 12 -32 12h-21q-12 0 -20.5 -8.5t-8.5 -20.5v-20h-151v55q0 35 16 51l78 78h160l59 -37q18 -12 33 -12h20q12 0 20.5 8.5t8.5 20.5v20h152v-55z" />
    <glyph glyph-name="Ntilde" unicode="&#xf1;" horiz-adv-x="962" 
d="M881 1536v-1536h-234l-334 963v-963h-231v1536h233l334 -967v967h232zM754 1706q0 -34 -17 -51l-78 -78h-159l-60 37q-18 12 -32 12h-21q-12 0 -20.5 -8.5t-8.5 -20.5v-20h-151v55q0 35 16 51l78 78h160l59 -37q18 -12 33 -12h20q12 0 20.5 8.5t8.5 20.5v20h152v-55z" />
    <glyph glyph-name="Ograve" unicode="&#xd2;" horiz-adv-x="931" 
d="M573 238q22 0 37 14.5t15 34.5v962q0 20 -15 34.5t-37 14.5h-215q-22 0 -36.5 -14.5t-14.5 -34.5v-962q0 -20 14.5 -34.5t36.5 -14.5h215zM352 0q-53 0 -82 33l-174 176q-35 40 -35 80v958q0 40 35 80l174 176q29 33 82 33h228q53 0 82 -33l174 -176q34 -39 34 -80v-958
q0 -41 -34 -80l-174 -176q-29 -33 -82 -33h-228zM524 1761l56 -184h-220l-98 184h262z" />
    <glyph glyph-name="Ograve" unicode="&#xf2;" horiz-adv-x="931" 
d="M573 238q22 0 37 14.5t15 34.5v962q0 20 -15 34.5t-37 14.5h-215q-22 0 -36.5 -14.5t-14.5 -34.5v-962q0 -20 14.5 -34.5t36.5 -14.5h215zM352 0q-53 0 -82 33l-174 176q-35 40 -35 80v958q0 40 35 80l174 176q29 33 82 33h228q53 0 82 -33l174 -176q34 -39 34 -80v-958
q0 -41 -34 -80l-174 -176q-29 -33 -82 -33h-228zM524 1761l56 -184h-220l-98 184h262z" />
    <glyph glyph-name="Oacute" unicode="&#xd3;" horiz-adv-x="931" 
d="M573 238q22 0 37 14.5t15 34.5v962q0 20 -15 34.5t-37 14.5h-215q-22 0 -36.5 -14.5t-14.5 -34.5v-962q0 -20 14.5 -34.5t36.5 -14.5h215zM352 0q-53 0 -82 33l-174 176q-35 40 -35 80v958q0 40 35 80l174 176q29 33 82 33h228q53 0 82 -33l174 -176q34 -39 34 -80v-958
q0 -41 -34 -80l-174 -176q-29 -33 -82 -33h-228zM410 1761h262l-99 -184h-219z" />
    <glyph glyph-name="Oacute" unicode="&#xf3;" horiz-adv-x="931" 
d="M573 238q22 0 37 14.5t15 34.5v962q0 20 -15 34.5t-37 14.5h-215q-22 0 -36.5 -14.5t-14.5 -34.5v-962q0 -20 14.5 -34.5t36.5 -14.5h215zM352 0q-53 0 -82 33l-174 176q-35 40 -35 80v958q0 40 35 80l174 176q29 33 82 33h228q53 0 82 -33l174 -176q34 -39 34 -80v-958
q0 -41 -34 -80l-174 -176q-29 -33 -82 -33h-228zM410 1761h262l-99 -184h-219z" />
    <glyph glyph-name="Ocircumflex" unicode="&#xd4;" horiz-adv-x="931" 
d="M573 238q22 0 37 14.5t15 34.5v962q0 20 -15 34.5t-37 14.5h-215q-22 0 -36.5 -14.5t-14.5 -34.5v-962q0 -20 14.5 -34.5t36.5 -14.5h215zM352 0q-53 0 -82 33l-174 176q-35 40 -35 80v958q0 40 35 80l174 176q29 33 82 33h228q53 0 82 -33l174 -176q34 -39 34 -80v-958
q0 -41 -34 -80l-174 -176q-29 -33 -82 -33h-228zM340 1761h252l147 -184h-211l-47 61h-28l-50 -61h-210z" />
    <glyph glyph-name="Ocircumflex" unicode="&#xf4;" horiz-adv-x="931" 
d="M573 238q22 0 37 14.5t15 34.5v962q0 20 -15 34.5t-37 14.5h-215q-22 0 -36.5 -14.5t-14.5 -34.5v-962q0 -20 14.5 -34.5t36.5 -14.5h215zM352 0q-53 0 -82 33l-174 176q-35 40 -35 80v958q0 40 35 80l174 176q29 33 82 33h228q53 0 82 -33l174 -176q34 -39 34 -80v-958
q0 -41 -34 -80l-174 -176q-29 -33 -82 -33h-228zM340 1761h252l147 -184h-211l-47 61h-28l-50 -61h-210z" />
    <glyph glyph-name="Otilde" unicode="&#xd5;" horiz-adv-x="931" 
d="M573 238q22 0 37 14.5t15 34.5v962q0 20 -15 34.5t-37 14.5h-215q-22 0 -36.5 -14.5t-14.5 -34.5v-962q0 -20 14.5 -34.5t36.5 -14.5h215zM352 0q-53 0 -82 33l-174 176q-35 40 -35 80v958q0 40 35 80l174 176q29 33 82 33h228q53 0 82 -33l174 -176q34 -39 34 -80v-958
q0 -41 -34 -80l-174 -176q-29 -33 -82 -33h-228zM739 1706q0 -35 -16 -51l-78 -78h-160l-59 37q-18 12 -33 12h-20q-12 0 -20.5 -8.5t-8.5 -20.5v-20h-151v55q0 35 16 51l78 78h159l60 -37q18 -12 33 -12h20q12 0 20.5 8.5t8.5 20.5v20h151v-55z" />
    <glyph glyph-name="Otilde" unicode="&#xf5;" horiz-adv-x="931" 
d="M573 238q22 0 37 14.5t15 34.5v962q0 20 -15 34.5t-37 14.5h-215q-22 0 -36.5 -14.5t-14.5 -34.5v-962q0 -20 14.5 -34.5t36.5 -14.5h215zM352 0q-53 0 -82 33l-174 176q-35 40 -35 80v958q0 40 35 80l174 176q29 33 82 33h228q53 0 82 -33l174 -176q34 -39 34 -80v-958
q0 -41 -34 -80l-174 -176q-29 -33 -82 -33h-228zM739 1706q0 -35 -16 -51l-78 -78h-160l-59 37q-18 12 -33 12h-20q-12 0 -20.5 -8.5t-8.5 -20.5v-20h-151v55q0 35 16 51l78 78h159l60 -37q18 -12 33 -12h20q12 0 20.5 8.5t8.5 20.5v20h151v-55z" />
    <glyph glyph-name="Odieresis" unicode="&#xd6;" horiz-adv-x="931" 
d="M573 238q22 0 37 14.5t15 34.5v962q0 20 -15 34.5t-37 14.5h-215q-22 0 -36.5 -14.5t-14.5 -34.5v-962q0 -20 14.5 -34.5t36.5 -14.5h215zM352 0q-53 0 -82 33l-174 176q-35 40 -35 80v958q0 40 35 80l174 176q29 33 82 33h228q53 0 82 -33l174 -176q34 -39 34 -80v-958
q0 -41 -34 -80l-174 -176q-29 -33 -82 -33h-228zM254 1761h192v-184h-192v184zM487 1761h193v-184h-193v184z" />
    <glyph glyph-name="Odieresis" unicode="&#xf6;" horiz-adv-x="931" 
d="M573 238q22 0 37 14.5t15 34.5v962q0 20 -15 34.5t-37 14.5h-215q-22 0 -36.5 -14.5t-14.5 -34.5v-962q0 -20 14.5 -34.5t36.5 -14.5h215zM352 0q-53 0 -82 33l-174 176q-35 40 -35 80v958q0 40 35 80l174 176q29 33 82 33h228q53 0 82 -33l174 -176q34 -39 34 -80v-958
q0 -41 -34 -80l-174 -176q-29 -33 -82 -33h-228zM254 1761h192v-184h-192v184zM487 1761h193v-184h-193v184z" />
    <glyph glyph-name="multiply" unicode="&#xd7;" horiz-adv-x="655" 
d="M29 913l139 140l160 -160l159 160l140 -140l-160 -159l160 -160l-140 -139l-159 159l-160 -159l-139 139l159 160z" />
    <glyph glyph-name="Oslash" unicode="&#xd8;" horiz-adv-x="931" 
d="M586 238q22 0 36.5 14.5t14.5 34.5v776l-330 -809q16 -16 39 -16h240zM352 0q-53 0 -82 33l-45 47l-39 -80h-178l101 197l-13 12q-35 40 -35 80v958q0 40 35 80l174 176q29 33 82 33h228q53 0 82 -33l26 -28l27 61h178l-90 -176l33 -33q34 -39 34 -80v-958q0 -41 -34 -80
l-174 -176q-29 -33 -82 -33h-228zM295 549l303 747q-4 2 -12 2h-240q-22 0 -36.5 -14.5t-14.5 -34.5v-700z" />
    <glyph glyph-name="Oslash" unicode="&#xf8;" horiz-adv-x="931" 
d="M586 238q22 0 36.5 14.5t14.5 34.5v776l-330 -809q16 -16 39 -16h240zM352 0q-53 0 -82 33l-45 47l-39 -80h-178l101 197l-13 12q-35 40 -35 80v958q0 40 35 80l174 176q29 33 82 33h228q53 0 82 -33l26 -28l27 61h178l-90 -176l33 -33q34 -39 34 -80v-958q0 -41 -34 -80
l-174 -176q-29 -33 -82 -33h-228zM295 549l303 747q-4 2 -12 2h-240q-22 0 -36.5 -14.5t-14.5 -34.5v-700z" />
    <glyph glyph-name="Ugrave" unicode="&#xd9;" horiz-adv-x="884" 
d="M823 289q0 -40 -35 -80l-174 -176q-29 -33 -82 -33h-180q-53 0 -82 33l-174 176q-35 40 -35 80v1247h246v-1249q0 -20 14.5 -34.5t36.5 -14.5h168q22 0 37 14.5t15 34.5v1249h245v-1247zM500 1761l55 -184h-219l-98 184h262z" />
    <glyph glyph-name="Ugrave" unicode="&#xf9;" horiz-adv-x="884" 
d="M823 289q0 -40 -35 -80l-174 -176q-29 -33 -82 -33h-180q-53 0 -82 33l-174 176q-35 40 -35 80v1247h246v-1249q0 -20 14.5 -34.5t36.5 -14.5h168q22 0 37 14.5t15 34.5v1249h245v-1247zM500 1761l55 -184h-219l-98 184h262z" />
    <glyph glyph-name="Uacute" unicode="&#xda;" horiz-adv-x="884" 
d="M823 289q0 -40 -35 -80l-174 -176q-29 -33 -82 -33h-180q-53 0 -82 33l-174 176q-35 40 -35 80v1247h246v-1249q0 -20 14.5 -34.5t36.5 -14.5h168q22 0 37 14.5t15 34.5v1249h245v-1247zM385 1761h262l-98 -184h-219z" />
    <glyph glyph-name="Uacute" unicode="&#xfa;" horiz-adv-x="884" 
d="M823 289q0 -40 -35 -80l-174 -176q-29 -33 -82 -33h-180q-53 0 -82 33l-174 176q-35 40 -35 80v1247h246v-1249q0 -20 14.5 -34.5t36.5 -14.5h168q22 0 37 14.5t15 34.5v1249h245v-1247zM385 1761h262l-98 -184h-219z" />
    <glyph glyph-name="Ucircumflex" unicode="&#xdb;" horiz-adv-x="884" 
d="M823 289q0 -40 -35 -80l-174 -176q-29 -33 -82 -33h-180q-53 0 -82 33l-174 176q-35 40 -35 80v1247h246v-1249q0 -20 14.5 -34.5t36.5 -14.5h168q22 0 37 14.5t15 34.5v1249h245v-1247zM315 1761h252l148 -184h-211l-47 61h-29l-49 -61h-211z" />
    <glyph glyph-name="Ucircumflex" unicode="&#xfb;" horiz-adv-x="884" 
d="M823 289q0 -40 -35 -80l-174 -176q-29 -33 -82 -33h-180q-53 0 -82 33l-174 176q-35 40 -35 80v1247h246v-1249q0 -20 14.5 -34.5t36.5 -14.5h168q22 0 37 14.5t15 34.5v1249h245v-1247zM315 1761h252l148 -184h-211l-47 61h-29l-49 -61h-211z" />
    <glyph glyph-name="Udieresis" unicode="&#xdc;" horiz-adv-x="884" 
d="M823 289q0 -40 -35 -80l-174 -176q-29 -33 -82 -33h-180q-53 0 -82 33l-174 176q-35 40 -35 80v1247h246v-1249q0 -20 14.5 -34.5t36.5 -14.5h168q22 0 37 14.5t15 34.5v1249h245v-1247zM229 1761h193v-184h-193v184zM463 1761h192v-184h-192v184z" />
    <glyph glyph-name="Udieresis" unicode="&#xfc;" horiz-adv-x="884" 
d="M823 289q0 -40 -35 -80l-174 -176q-29 -33 -82 -33h-180q-53 0 -82 33l-174 176q-35 40 -35 80v1247h246v-1249q0 -20 14.5 -34.5t36.5 -14.5h168q22 0 37 14.5t15 34.5v1249h245v-1247zM229 1761h193v-184h-193v184zM463 1761h192v-184h-192v184z" />
    <glyph glyph-name="Yacute" unicode="&#xdd;" horiz-adv-x="860" 
d="M553 623q0 32 20 49l201 172q35 30 35 80v612h-246v-614q0 -20 -14.5 -35t-36.5 -15h-164q-22 0 -36.5 15t-14.5 35v614h-246v-612q0 -50 35 -80l201 -172q20 -17 20 -49v-623h246v623zM373 1761h262l-98 -184h-220z" />
    <glyph glyph-name="Yacute" unicode="&#xfd;" horiz-adv-x="860" 
d="M553 623q0 32 20 49l201 172q35 30 35 80v612h-246v-614q0 -20 -14.5 -35t-36.5 -15h-164q-22 0 -36.5 15t-14.5 35v614h-246v-612q0 -50 35 -80l201 -172q20 -17 20 -49v-623h246v623zM373 1761h262l-98 -184h-220z" />
    <glyph glyph-name="Thorn" unicode="&#xde;" horiz-adv-x="915" 
d="M328 0h-246v1536h246v-238h256q54 0 82 -32l174 -176q34 -39 34 -80v-324q0 -41 -34 -80l-174 -176q-29 -33 -82 -33h-256v-397zM328 635h250q22 0 36.5 14.5t14.5 34.5v328q0 20 -14.5 34.5t-36.5 14.5h-250v-426z" />
    <glyph glyph-name="Thorn" unicode="&#xfe;" horiz-adv-x="915" 
d="M328 0h-246v1536h246v-238h256q54 0 82 -32l174 -176q34 -39 34 -80v-324q0 -41 -34 -80l-174 -176q-29 -33 -82 -33h-256v-397zM328 635h250q22 0 36.5 14.5t14.5 34.5v328q0 20 -14.5 34.5t-36.5 14.5h-250v-426z" />
    <glyph glyph-name="uni1E9E" unicode="&#xdf;" horiz-adv-x="1071" 
d="M719 0h-268v238h262q22 0 36.5 14.5t14.5 34.5v299q0 20 -14.5 34.5t-36.5 14.5h-262v196l270 467h-393v-1298h-246v1536h907v-252l-266 -412q50 0 78 -32l174 -178q35 -35 35 -78v-295q0 -43 -35 -78l-174 -178q-29 -33 -82 -33z" />
    <glyph glyph-name="uni1E9E" unicode="&#x1e9e;" horiz-adv-x="1071" 
d="M719 0h-268v238h262q22 0 36.5 14.5t14.5 34.5v299q0 20 -14.5 34.5t-36.5 14.5h-262v196l270 467h-393v-1298h-246v1536h907v-252l-266 -412q50 0 78 -32l174 -178q35 -35 35 -78v-295q0 -43 -35 -78l-174 -178q-29 -33 -82 -33z" />
    <glyph glyph-name="Ydieresis" unicode="&#xff;" horiz-adv-x="860" 
d="M553 623q0 32 20 49l201 172q35 30 35 80v612h-246v-614q0 -20 -14.5 -35t-36.5 -15h-164q-22 0 -36.5 15t-14.5 35v614h-246v-612q0 -50 35 -80l201 -172q20 -17 20 -49v-623h246v623zM217 1761h193v-184h-193v184zM451 1761h192v-184h-192v184z" />
    <glyph glyph-name="Ydieresis" unicode="&#x178;" horiz-adv-x="860" 
d="M553 623q0 32 20 49l201 172q35 30 35 80v612h-246v-614q0 -20 -14.5 -35t-36.5 -15h-164q-22 0 -36.5 15t-14.5 35v614h-246v-612q0 -50 35 -80l201 -172q20 -17 20 -49v-623h246v623zM217 1761h193v-184h-193v184zM451 1761h192v-184h-192v184z" />
    <glyph glyph-name="Amacron" unicode="&#x100;" horiz-adv-x="942" 
d="M614 1249q0 20 -14.5 34.5t-36.5 14.5h-184q-22 0 -36.5 -14.5t-14.5 -34.5v-377h286v377zM860 0h-246v635h-286v-635h-246v1247q0 50 35 80l194 176q38 33 82 33h156q44 0 82 -33l194 -176q35 -30 35 -80v-1247zM287 1741h368v-144h-368v144z" />
    <glyph glyph-name="Amacron" unicode="&#x101;" horiz-adv-x="942" 
d="M614 1249q0 20 -14.5 34.5t-36.5 14.5h-184q-22 0 -36.5 -14.5t-14.5 -34.5v-377h286v377zM860 0h-246v635h-286v-635h-246v1247q0 50 35 80l194 176q38 33 82 33h156q44 0 82 -33l194 -176q35 -30 35 -80v-1247zM287 1741h368v-144h-368v144z" />
    <glyph glyph-name="Abreve" unicode="&#x102;" horiz-adv-x="942" 
d="M614 1249q0 20 -14.5 34.5t-36.5 14.5h-184q-22 0 -36.5 -14.5t-14.5 -34.5v-377h286v377zM860 0h-246v635h-286v-635h-246v1247q0 50 35 80l194 176q38 33 82 33h156q44 0 82 -33l194 -176q35 -30 35 -80v-1247zM358 1577q-36 0 -63 27l-51 51q-17 17 -17 51v55h179v-26
q0 -12 8 -20.5t20 -8.5h74q12 0 20.5 8.5t8.5 20.5v26h178v-55q0 -34 -17 -51l-51 -51q-27 -27 -63 -27h-226z" />
    <glyph glyph-name="Abreve" unicode="&#x103;" horiz-adv-x="942" 
d="M614 1249q0 20 -14.5 34.5t-36.5 14.5h-184q-22 0 -36.5 -14.5t-14.5 -34.5v-377h286v377zM860 0h-246v635h-286v-635h-246v1247q0 50 35 80l194 176q38 33 82 33h156q44 0 82 -33l194 -176q35 -30 35 -80v-1247zM358 1577q-36 0 -63 27l-51 51q-17 17 -17 51v55h179v-26
q0 -12 8 -20.5t20 -8.5h74q12 0 20.5 8.5t8.5 20.5v26h178v-55q0 -34 -17 -51l-51 -51q-27 -27 -63 -27h-226z" />
    <glyph glyph-name="Aogonek" unicode="&#x104;" horiz-adv-x="942" 
d="M614 1249q0 20 -14.5 34.5t-36.5 14.5h-184q-22 0 -36.5 -14.5t-14.5 -34.5v-377h286v377zM860 0l-78 -76q-14 -14 -14 -35v-14q0 -12 8.5 -21.5t20.5 -9.5h63v-127h-137q-31 0 -51 17l-62 49q-26 21 -26 57v35q0 42 22 64l66 61h-58v635h-286v-635h-246v1247q0 50 35 80
l194 176q38 33 82 33h156q44 0 82 -33l194 -176q35 -30 35 -80v-1247z" />
    <glyph glyph-name="Aogonek" unicode="&#x105;" horiz-adv-x="942" 
d="M614 1249q0 20 -14.5 34.5t-36.5 14.5h-184q-22 0 -36.5 -14.5t-14.5 -34.5v-377h286v377zM860 0l-78 -76q-14 -14 -14 -35v-14q0 -12 8.5 -21.5t20.5 -9.5h63v-127h-137q-31 0 -51 17l-62 49q-26 21 -26 57v35q0 42 22 64l66 61h-58v635h-286v-635h-246v1247q0 50 35 80
l194 176q38 33 82 33h156q44 0 82 -33l194 -176q35 -30 35 -80v-1247z" />
    <glyph glyph-name="Cacute" unicode="&#x106;" horiz-adv-x="880" 
d="M840 289q0 -40 -35 -80l-174 -176q-29 -33 -82 -33h-197q-53 0 -82 33l-174 176q-35 40 -35 80v958q0 40 35 80l174 176q29 33 82 33h197q53 0 82 -33l174 -176q35 -40 35 -80v-211h-246v213q0 20 -14.5 34.5t-36.5 14.5h-185q-22 0 -36.5 -14.5t-14.5 -36.5v-958
q0 -22 14.5 -36.5t36.5 -14.5h185q22 0 36.5 14.5t14.5 34.5v286h246v-284zM395 1761h262l-98 -184h-219z" />
    <glyph glyph-name="Cacute" unicode="&#x107;" horiz-adv-x="880" 
d="M840 289q0 -40 -35 -80l-174 -176q-29 -33 -82 -33h-197q-53 0 -82 33l-174 176q-35 40 -35 80v958q0 40 35 80l174 176q29 33 82 33h197q53 0 82 -33l174 -176q35 -40 35 -80v-211h-246v213q0 20 -14.5 34.5t-36.5 14.5h-185q-22 0 -36.5 -14.5t-14.5 -36.5v-958
q0 -22 14.5 -36.5t36.5 -14.5h185q22 0 36.5 14.5t14.5 34.5v286h246v-284zM395 1761h262l-98 -184h-219z" />
    <glyph glyph-name="Ccircumflex" unicode="&#x108;" horiz-adv-x="880" 
d="M840 289q0 -40 -35 -80l-174 -176q-29 -33 -82 -33h-197q-53 0 -82 33l-174 176q-35 40 -35 80v958q0 40 35 80l174 176q29 33 82 33h197q53 0 82 -33l174 -176q35 -40 35 -80v-211h-246v213q0 20 -14.5 34.5t-36.5 14.5h-185q-22 0 -36.5 -14.5t-14.5 -36.5v-958
q0 -22 14.5 -36.5t36.5 -14.5h185q22 0 36.5 14.5t14.5 34.5v286h246v-284zM326 1761h252l147 -184h-211l-47 61h-29l-49 -61h-211z" />
    <glyph glyph-name="Ccircumflex" unicode="&#x109;" horiz-adv-x="880" 
d="M840 289q0 -40 -35 -80l-174 -176q-29 -33 -82 -33h-197q-53 0 -82 33l-174 176q-35 40 -35 80v958q0 40 35 80l174 176q29 33 82 33h197q53 0 82 -33l174 -176q35 -40 35 -80v-211h-246v213q0 20 -14.5 34.5t-36.5 14.5h-185q-22 0 -36.5 -14.5t-14.5 -36.5v-958
q0 -22 14.5 -36.5t36.5 -14.5h185q22 0 36.5 14.5t14.5 34.5v286h246v-284zM326 1761h252l147 -184h-211l-47 61h-29l-49 -61h-211z" />
    <glyph glyph-name="Cdotaccent" unicode="&#x10a;" horiz-adv-x="880" 
d="M840 289q0 -40 -35 -80l-174 -176q-29 -33 -82 -33h-197q-53 0 -82 33l-174 176q-35 40 -35 80v958q0 40 35 80l174 176q29 33 82 33h197q53 0 82 -33l174 -176q35 -40 35 -80v-211h-246v213q0 20 -14.5 34.5t-36.5 14.5h-185q-22 0 -36.5 -14.5t-14.5 -36.5v-958
q0 -22 14.5 -36.5t36.5 -14.5h185q22 0 36.5 14.5t14.5 34.5v286h246v-284zM330 1761h245v-184h-245v184z" />
    <glyph glyph-name="Cdotaccent" unicode="&#x10b;" horiz-adv-x="880" 
d="M840 289q0 -40 -35 -80l-174 -176q-29 -33 -82 -33h-197q-53 0 -82 33l-174 176q-35 40 -35 80v958q0 40 35 80l174 176q29 33 82 33h197q53 0 82 -33l174 -176q35 -40 35 -80v-211h-246v213q0 20 -14.5 34.5t-36.5 14.5h-185q-22 0 -36.5 -14.5t-14.5 -36.5v-958
q0 -22 14.5 -36.5t36.5 -14.5h185q22 0 36.5 14.5t14.5 34.5v286h246v-284zM330 1761h245v-184h-245v184z" />
    <glyph glyph-name="Ccaron" unicode="&#x10c;" horiz-adv-x="880" 
d="M840 289q0 -40 -35 -80l-174 -176q-29 -33 -82 -33h-197q-53 0 -82 33l-174 176q-35 40 -35 80v958q0 40 35 80l174 176q29 33 82 33h197q53 0 82 -33l174 -176q35 -40 35 -80v-211h-246v213q0 20 -14.5 34.5t-36.5 14.5h-185q-22 0 -36.5 -14.5t-14.5 -36.5v-958
q0 -22 14.5 -36.5t36.5 -14.5h185q22 0 36.5 14.5t14.5 34.5v286h246v-284zM326 1577l-148 184h211l49 -61h29l47 61h211l-147 -184h-252z" />
    <glyph glyph-name="Ccaron" unicode="&#x10d;" horiz-adv-x="880" 
d="M840 289q0 -40 -35 -80l-174 -176q-29 -33 -82 -33h-197q-53 0 -82 33l-174 176q-35 40 -35 80v958q0 40 35 80l174 176q29 33 82 33h197q53 0 82 -33l174 -176q35 -40 35 -80v-211h-246v213q0 20 -14.5 34.5t-36.5 14.5h-185q-22 0 -36.5 -14.5t-14.5 -36.5v-958
q0 -22 14.5 -36.5t36.5 -14.5h185q22 0 36.5 14.5t14.5 34.5v286h246v-284zM326 1577l-148 184h211l49 -61h29l47 61h211l-147 -184h-252z" />
    <glyph glyph-name="Dcaron" unicode="&#x10e;" horiz-adv-x="942" 
d="M584 238q22 0 36.5 14.5t14.5 34.5v962q0 20 -14.5 34.5t-36.5 14.5h-256v-1060h256zM82 0v1536h508q53 0 82 -33l174 -176q35 -40 35 -80v-958q0 -40 -35 -80l-174 -176q-29 -33 -82 -33h-508zM344 1577l-147 184h211l49 -61h28l47 61h211l-147 -184h-252z" />
    <glyph glyph-name="Dcaron" unicode="&#x10f;" horiz-adv-x="942" 
d="M584 238q22 0 36.5 14.5t14.5 34.5v962q0 20 -14.5 34.5t-36.5 14.5h-256v-1060h256zM82 0v1536h508q53 0 82 -33l174 -176q35 -40 35 -80v-958q0 -40 -35 -80l-174 -176q-29 -33 -82 -33h-508zM344 1577l-147 184h211l49 -61h28l47 61h211l-147 -184h-252z" />
    <glyph glyph-name="Dcroat" unicode="&#x110;" horiz-adv-x="942" 
d="M584 238q22 0 36.5 14.5t14.5 34.5v962q0 20 -14.5 34.5t-36.5 14.5h-256v-426h178v-237h-178v-397h256zM82 0v635h-62v237h62v664h508q53 0 82 -33l174 -176q35 -40 35 -80v-958q0 -40 -35 -80l-174 -176q-29 -33 -82 -33h-508z" />
    <glyph glyph-name="Dcroat" unicode="&#x111;" horiz-adv-x="942" 
d="M584 238q22 0 36.5 14.5t14.5 34.5v962q0 20 -14.5 34.5t-36.5 14.5h-256v-426h178v-237h-178v-397h256zM82 0v635h-62v237h62v664h508q53 0 82 -33l174 -176q35 -40 35 -80v-958q0 -40 -35 -80l-174 -176q-29 -33 -82 -33h-508z" />
    <glyph glyph-name="Emacron" unicode="&#x112;" horiz-adv-x="794" 
d="M754 0h-672v1536h672v-238h-426v-426h348v-237h-348v-397h426v-238zM238 1741h368v-144h-368v144z" />
    <glyph glyph-name="Emacron" unicode="&#x113;" horiz-adv-x="794" 
d="M754 0h-672v1536h672v-238h-426v-426h348v-237h-348v-397h426v-238zM238 1741h368v-144h-368v144z" />
    <glyph glyph-name="Edotaccent" unicode="&#x116;" horiz-adv-x="794" 
d="M754 0h-672v1536h672v-238h-426v-426h348v-237h-348v-397h426v-238zM299 1761h246v-184h-246v184z" />
    <glyph glyph-name="Edotaccent" unicode="&#x117;" horiz-adv-x="794" 
d="M754 0h-672v1536h672v-238h-426v-426h348v-237h-348v-397h426v-238zM299 1761h246v-184h-246v184z" />
    <glyph glyph-name="Eogonek" unicode="&#x118;" horiz-adv-x="794" 
d="M754 0l-78 -76q-14 -14 -14 -35v-14q0 -12 8 -21.5t20 -9.5h64v-127h-138q-31 0 -51 17l-61 49q-27 22 -27 57v35q0 41 23 64l65 61h-483v1536h672v-238h-426v-426h348v-237h-348v-397h426v-238z" />
    <glyph glyph-name="Eogonek" unicode="&#x119;" horiz-adv-x="794" 
d="M754 0l-78 -76q-14 -14 -14 -35v-14q0 -12 8 -21.5t20 -9.5h64v-127h-138q-31 0 -51 17l-61 49q-27 22 -27 57v35q0 41 23 64l65 61h-483v1536h672v-238h-426v-426h348v-237h-348v-397h426v-238z" />
    <glyph glyph-name="Ecaron" unicode="&#x11a;" horiz-adv-x="794" 
d="M754 0h-672v1536h672v-238h-426v-426h348v-237h-348v-397h426v-238zM295 1577l-148 184h211l50 -61h28l47 61h211l-147 -184h-252z" />
    <glyph glyph-name="Ecaron" unicode="&#x11b;" horiz-adv-x="794" 
d="M754 0h-672v1536h672v-238h-426v-426h348v-237h-348v-397h426v-238zM295 1577l-148 184h211l50 -61h28l47 61h211l-147 -184h-252z" />
    <glyph glyph-name="Gbreve" unicode="&#x11e;" horiz-adv-x="921" 
d="M860 289q0 -40 -35 -80l-174 -176q-29 -33 -82 -33h-217q-53 0 -82 33l-174 176q-35 40 -35 80v958q0 40 35 80l174 176q29 33 82 33h217q53 0 82 -33l174 -176q35 -40 35 -80v-211h-246v213q0 20 -14.5 34.5t-36.5 14.5h-205q-22 0 -36.5 -14.5t-14.5 -36.5v-958
q0 -22 14.5 -36.5t36.5 -14.5h205q22 0 36.5 14.5t14.5 34.5v348h-165v237h411v-583zM348 1577q-36 0 -63 27l-52 51q-16 16 -16 51v55h178v-26q0 -12 8.5 -20.5t20.5 -8.5h74q12 0 20 8.5t8 20.5v26h179v-55q0 -34 -17 -51l-51 -51q-27 -27 -64 -27h-225z" />
    <glyph glyph-name="Gbreve" unicode="&#x11f;" horiz-adv-x="921" 
d="M860 289q0 -40 -35 -80l-174 -176q-29 -33 -82 -33h-217q-53 0 -82 33l-174 176q-35 40 -35 80v958q0 40 35 80l174 176q29 33 82 33h217q53 0 82 -33l174 -176q35 -40 35 -80v-211h-246v213q0 20 -14.5 34.5t-36.5 14.5h-205q-22 0 -36.5 -14.5t-14.5 -36.5v-958
q0 -22 14.5 -36.5t36.5 -14.5h205q22 0 36.5 14.5t14.5 34.5v348h-165v237h411v-583zM348 1577q-36 0 -63 27l-52 51q-16 16 -16 51v55h178v-26q0 -12 8.5 -20.5t20.5 -8.5h74q12 0 20 8.5t8 20.5v26h179v-55q0 -34 -17 -51l-51 -51q-27 -27 -64 -27h-225z" />
    <glyph glyph-name="Gdotaccent" unicode="&#x120;" horiz-adv-x="921" 
d="M860 289q0 -40 -35 -80l-174 -176q-29 -33 -82 -33h-217q-53 0 -82 33l-174 176q-35 40 -35 80v958q0 40 35 80l174 176q29 33 82 33h217q53 0 82 -33l174 -176q35 -40 35 -80v-211h-246v213q0 20 -14.5 34.5t-36.5 14.5h-205q-22 0 -36.5 -14.5t-14.5 -36.5v-958
q0 -22 14.5 -36.5t36.5 -14.5h205q22 0 36.5 14.5t14.5 34.5v348h-165v237h411v-583zM338 1761h246v-184h-246v184z" />
    <glyph glyph-name="Gdotaccent" unicode="&#x121;" horiz-adv-x="921" 
d="M860 289q0 -40 -35 -80l-174 -176q-29 -33 -82 -33h-217q-53 0 -82 33l-174 176q-35 40 -35 80v958q0 40 35 80l174 176q29 33 82 33h217q53 0 82 -33l174 -176q35 -40 35 -80v-211h-246v213q0 20 -14.5 34.5t-36.5 14.5h-205q-22 0 -36.5 -14.5t-14.5 -36.5v-958
q0 -22 14.5 -36.5t36.5 -14.5h205q22 0 36.5 14.5t14.5 34.5v348h-165v237h411v-583zM338 1761h246v-184h-246v184z" />
    <glyph glyph-name="uni0122" unicode="&#x122;" horiz-adv-x="921" 
d="M860 289q0 -40 -35 -80l-174 -176q-29 -33 -82 -33h-217q-53 0 -82 33l-174 176q-35 40 -35 80v958q0 40 35 80l174 176q29 33 82 33h217q53 0 82 -33l174 -176q35 -40 35 -80v-211h-246v213q0 20 -14.5 34.5t-36.5 14.5h-205q-22 0 -36.5 -14.5t-14.5 -36.5v-958
q0 -22 14.5 -36.5t36.5 -14.5h205q22 0 36.5 14.5t14.5 34.5v348h-165v237h411v-583zM342 -51h238v-185l-62 -104h-158l74 94h-92v195z" />
    <glyph glyph-name="uni0122" unicode="&#x123;" horiz-adv-x="921" 
d="M860 289q0 -40 -35 -80l-174 -176q-29 -33 -82 -33h-217q-53 0 -82 33l-174 176q-35 40 -35 80v958q0 40 35 80l174 176q29 33 82 33h217q53 0 82 -33l174 -176q35 -40 35 -80v-211h-246v213q0 20 -14.5 34.5t-36.5 14.5h-205q-22 0 -36.5 -14.5t-14.5 -36.5v-958
q0 -22 14.5 -36.5t36.5 -14.5h205q22 0 36.5 14.5t14.5 34.5v348h-165v237h411v-583zM342 -51h238v-185l-62 -104h-158l74 94h-92v195z" />
    <glyph glyph-name="Hcircumflex" unicode="&#x124;" horiz-adv-x="935" 
d="M854 0h-246v635h-280v-635h-246v1536h246v-664h280v664h246v-1536zM342 1761h252l147 -184h-211l-47 61h-28l-49 -61h-211z" />
    <glyph glyph-name="Hcircumflex" unicode="&#x125;" horiz-adv-x="935" 
d="M854 0h-246v635h-280v-635h-246v1536h246v-664h280v664h246v-1536zM342 1761h252l147 -184h-211l-47 61h-28l-49 -61h-211z" />
    <glyph glyph-name="Hbar" unicode="&#x126;" horiz-adv-x="935" 
d="M854 0h-246v635h-280v-635h-246v1024h-62v217h62v295h246v-295h280v295h246v-295h61v-217h-61v-1024zM328 872h280v152h-280v-152z" />
    <glyph glyph-name="Hbar" unicode="&#x127;" horiz-adv-x="935" 
d="M854 0h-246v635h-280v-635h-246v1024h-62v217h62v295h246v-295h280v295h246v-295h61v-217h-61v-1024zM328 872h280v152h-280v-152z" />
    <glyph glyph-name="Itilde" unicode="&#x128;" horiz-adv-x="409" 
d="M328 0h-246v1536h246v-1536zM477 1706q0 -35 -16 -51l-78 -78h-160l-59 37q-18 12 -33 12h-20q-12 0 -20.5 -8.5t-8.5 -20.5v-20h-152v55q0 34 17 51l78 78h159l60 -37q18 -12 32 -12h21q12 0 20.5 8.5t8.5 20.5v20h151v-55z" />
    <glyph glyph-name="Itilde" unicode="&#x129;" horiz-adv-x="409" 
d="M328 0h-246v1536h246v-1536zM477 1706q0 -35 -16 -51l-78 -78h-160l-59 37q-18 12 -33 12h-20q-12 0 -20.5 -8.5t-8.5 -20.5v-20h-152v55q0 34 17 51l78 78h159l60 -37q18 -12 32 -12h21q12 0 20.5 8.5t8.5 20.5v20h151v-55z" />
    <glyph glyph-name="Imacron" unicode="&#x12a;" horiz-adv-x="409" 
d="M328 0h-246v1536h246v-1536zM20 1741h369v-144h-369v144z" />
    <glyph glyph-name="Imacron" unicode="&#x12b;" horiz-adv-x="409" 
d="M328 0h-246v1536h246v-1536zM20 1741h369v-144h-369v144z" />
    <glyph glyph-name="Ibreve" unicode="&#x12c;" horiz-adv-x="409" 
d="M328 0h-246v1536h246v-1536zM92 1577q-36 0 -63 27l-52 51q-16 16 -16 51v55h178v-26q0 -12 8.5 -20.5t20.5 -8.5h74q12 0 20 8.5t8 20.5v26h179v-55q0 -34 -17 -51l-51 -51q-27 -27 -64 -27h-225z" />
    <glyph glyph-name="Ibreve" unicode="&#x12d;" horiz-adv-x="409" 
d="M328 0h-246v1536h246v-1536zM92 1577q-36 0 -63 27l-52 51q-16 16 -16 51v55h178v-26q0 -12 8.5 -20.5t20.5 -8.5h74q12 0 20 8.5t8 20.5v26h179v-55q0 -34 -17 -51l-51 -51q-27 -27 -64 -27h-225z" />
    <glyph glyph-name="Iogonek" unicode="&#x12e;" horiz-adv-x="409" 
d="M328 0l-78 -76q-14 -14 -14 -35v-14q0 -12 8 -21.5t20 -9.5h64v-127h-138q-31 0 -51 17l-61 49q-27 22 -27 57v35q0 41 23 64l65 61h-57v1536h246v-1536z" />
    <glyph glyph-name="Iogonek" unicode="&#x12f;" horiz-adv-x="409" 
d="M328 0l-78 -76q-14 -14 -14 -35v-14q0 -12 8 -21.5t20 -9.5h64v-127h-138q-31 0 -51 17l-61 49q-27 22 -27 57v35q0 41 23 64l65 61h-57v1536h246v-1536z" />
    <glyph glyph-name="Idotaccent" unicode="&#x130;" horiz-adv-x="409" 
d="M328 0h-246v1536h246v-1536zM82 1761h246v-184h-246v184z" />
    <glyph glyph-name="dotlessi" unicode="&#x131;" horiz-adv-x="409" 
d="M328 0h-246v1536h246v-1536z" />
    <glyph glyph-name="IJ" unicode="&#x132;" horiz-adv-x="1239" 
d="M328 0h-246v1536h246v-1536zM731 0q-53 0 -82 33l-174 176q-35 40 -35 80v284h246v-286q0 -20 14.5 -34.5t36.5 -14.5h144q22 0 36.5 14.5t14.5 34.5v1249h246v-1247q0 -40 -35 -80l-174 -176q-29 -33 -82 -33h-156z" />
    <glyph glyph-name="IJ" unicode="&#x133;" horiz-adv-x="1239" 
d="M328 0h-246v1536h246v-1536zM731 0q-53 0 -82 33l-174 176q-35 40 -35 80v284h246v-286q0 -20 14.5 -34.5t36.5 -14.5h144q22 0 36.5 14.5t14.5 34.5v1249h246v-1247q0 -40 -35 -80l-174 -176q-29 -33 -82 -33h-156z" />
    <glyph glyph-name="Jcircumflex" unicode="&#x134;" horiz-adv-x="829" 
d="M322 0q-53 0 -82 33l-174 176q-35 40 -35 80v284h245v-286q0 -20 15 -34.5t37 -14.5h143q22 0 36.5 14.5t14.5 34.5v1249h246v-1247q0 -40 -35 -80l-174 -176q-29 -33 -82 -33h-155zM518 1761h252l148 -184h-211l-48 61h-28l-49 -61h-211z" />
    <glyph glyph-name="Jcircumflex" unicode="&#x135;" horiz-adv-x="829" 
d="M322 0q-53 0 -82 33l-174 176q-35 40 -35 80v284h245v-286q0 -20 15 -34.5t37 -14.5h143q22 0 36.5 14.5t14.5 34.5v1249h246v-1247q0 -40 -35 -80l-174 -176q-29 -33 -82 -33h-155zM518 1761h252l148 -184h-211l-48 61h-28l-49 -61h-211z" />
    <glyph glyph-name="uni0136" unicode="&#x136;" horiz-adv-x="923" 
d="M903 0h-262l-188 635h-125v-635h-246v1536h246v-664h209q21 0 36 15t15 35v614h246v-590q0 -46 -31 -74l-133 -122zM344 -51h238v-185l-62 -104h-158l74 94h-92v195z" />
    <glyph glyph-name="uni0136" unicode="&#x137;" horiz-adv-x="923" 
d="M903 0h-262l-188 635h-125v-635h-246v1536h246v-664h209q21 0 36 15t15 35v614h246v-590q0 -46 -31 -74l-133 -122zM344 -51h238v-185l-62 -104h-158l74 94h-92v195z" />
    <glyph glyph-name="Lacute" unicode="&#x139;" horiz-adv-x="731" 
d="M700 0h-618v1536h246v-1298h372v-238zM156 1761h262l-99 -184h-219z" />
    <glyph glyph-name="Lacute" unicode="&#x13a;" horiz-adv-x="731" 
d="M700 0h-618v1536h246v-1298h372v-238zM156 1761h262l-99 -184h-219z" />
    <glyph glyph-name="uni013B" unicode="&#x13b;" horiz-adv-x="731" 
d="M700 0h-618v1536h246v-1298h372v-238zM262 -51h238v-185l-62 -104h-157l73 94h-92v195z" />
    <glyph glyph-name="uni013B" unicode="&#x13c;" horiz-adv-x="731" 
d="M700 0h-618v1536h246v-1298h372v-238zM262 -51h238v-185l-62 -104h-157l73 94h-92v195z" />
    <glyph glyph-name="Lcaron" unicode="&#x13d;" horiz-adv-x="731" 
d="M700 0h-618v1536h246v-1298h372v-238zM424 1536h262l-55 -238h-219z" />
    <glyph glyph-name="Lcaron" unicode="&#x13e;" horiz-adv-x="731" 
d="M700 0h-618v1536h246v-1298h372v-238zM424 1536h262l-55 -238h-219z" />
    <glyph glyph-name="Ldot" unicode="&#x13f;" horiz-adv-x="731" 
d="M700 0h-618v1536h246v-1298h372v-238zM428 897h287v-287h-287v287z" />
    <glyph glyph-name="Ldot" unicode="&#x140;" horiz-adv-x="731" 
d="M700 0h-618v1536h246v-1298h372v-238zM428 897h287v-287h-287v287z" />
    <glyph glyph-name="Lslash" unicode="&#x141;" horiz-adv-x="720" 
d="M700 0h-618v467l-62 -37v238l62 37v831h246v-682l256 154v-238l-256 -154v-378h372v-238z" />
    <glyph glyph-name="Lslash" unicode="&#x142;" horiz-adv-x="720" 
d="M700 0h-618v467l-62 -37v238l62 37v831h246v-682l256 154v-238l-256 -154v-378h372v-238z" />
    <glyph glyph-name="Nacute" unicode="&#x143;" horiz-adv-x="962" 
d="M881 1536v-1536h-234l-334 963v-963h-231v1536h233l334 -967v967h232zM424 1761h262l-98 -184h-219z" />
    <glyph glyph-name="Nacute" unicode="&#x144;" horiz-adv-x="962" 
d="M881 1536v-1536h-234l-334 963v-963h-231v1536h233l334 -967v967h232zM424 1761h262l-98 -184h-219z" />
    <glyph glyph-name="uni0145" unicode="&#x145;" horiz-adv-x="962" 
d="M881 1536v-1536h-234l-334 963v-963h-231v1536h233l334 -967v967h232zM387 -51h238v-185l-62 -104h-157l73 94h-92v195z" />
    <glyph glyph-name="uni0145" unicode="&#x146;" horiz-adv-x="962" 
d="M881 1536v-1536h-234l-334 963v-963h-231v1536h233l334 -967v967h232zM387 -51h238v-185l-62 -104h-157l73 94h-92v195z" />
    <glyph glyph-name="Ncaron" unicode="&#x147;" horiz-adv-x="962" 
d="M881 1536v-1536h-234l-334 963v-963h-231v1536h233l334 -967v967h232zM354 1577l-147 184h211l49 -61h29l47 61h211l-148 -184h-252z" />
    <glyph glyph-name="Ncaron" unicode="&#x148;" horiz-adv-x="962" 
d="M881 1536v-1536h-234l-334 963v-963h-231v1536h233l334 -967v967h232zM354 1577l-147 184h211l49 -61h29l47 61h211l-148 -184h-252z" />
    <glyph glyph-name="Omacron" unicode="&#x14c;" horiz-adv-x="931" 
d="M573 238q22 0 37 14.5t15 34.5v962q0 20 -15 34.5t-37 14.5h-215q-22 0 -36.5 -14.5t-14.5 -34.5v-962q0 -20 14.5 -34.5t36.5 -14.5h215zM352 0q-53 0 -82 33l-174 176q-35 40 -35 80v958q0 40 35 80l174 176q29 33 82 33h228q53 0 82 -33l174 -176q34 -39 34 -80v-958
q0 -41 -34 -80l-174 -176q-29 -33 -82 -33h-228zM283 1741h368v-144h-368v144z" />
    <glyph glyph-name="Omacron" unicode="&#x14d;" horiz-adv-x="931" 
d="M573 238q22 0 37 14.5t15 34.5v962q0 20 -15 34.5t-37 14.5h-215q-22 0 -36.5 -14.5t-14.5 -34.5v-962q0 -20 14.5 -34.5t36.5 -14.5h215zM352 0q-53 0 -82 33l-174 176q-35 40 -35 80v958q0 40 35 80l174 176q29 33 82 33h228q53 0 82 -33l174 -176q34 -39 34 -80v-958
q0 -41 -34 -80l-174 -176q-29 -33 -82 -33h-228zM283 1741h368v-144h-368v144z" />
    <glyph glyph-name="Obreve" unicode="&#x14e;" horiz-adv-x="931" 
d="M573 238q22 0 37 14.5t15 34.5v962q0 20 -15 34.5t-37 14.5h-215q-22 0 -36.5 -14.5t-14.5 -34.5v-962q0 -20 14.5 -34.5t36.5 -14.5h215zM352 0q-53 0 -82 33l-174 176q-35 40 -35 80v958q0 40 35 80l174 176q29 33 82 33h228q53 0 82 -33l174 -176q34 -39 34 -80v-958
q0 -41 -34 -80l-174 -176q-29 -33 -82 -33h-228zM354 1577q-36 0 -63 27l-51 51q-17 17 -17 51v55h178v-26q0 -12 8.5 -20.5t20.5 -8.5h74q12 0 20 8.5t8 20.5v26h179v-55q0 -34 -17 -51l-51 -51q-27 -27 -63 -27h-226z" />
    <glyph glyph-name="Obreve" unicode="&#x14f;" horiz-adv-x="931" 
d="M573 238q22 0 37 14.5t15 34.5v962q0 20 -15 34.5t-37 14.5h-215q-22 0 -36.5 -14.5t-14.5 -34.5v-962q0 -20 14.5 -34.5t36.5 -14.5h215zM352 0q-53 0 -82 33l-174 176q-35 40 -35 80v958q0 40 35 80l174 176q29 33 82 33h228q53 0 82 -33l174 -176q34 -39 34 -80v-958
q0 -41 -34 -80l-174 -176q-29 -33 -82 -33h-228zM354 1577q-36 0 -63 27l-51 51q-17 17 -17 51v55h178v-26q0 -12 8.5 -20.5t20.5 -8.5h74q12 0 20 8.5t8 20.5v26h179v-55q0 -34 -17 -51l-51 -51q-27 -27 -63 -27h-226z" />
    <glyph glyph-name="Ohungarumlaut" unicode="&#x150;" horiz-adv-x="931" 
d="M573 238q22 0 37 14.5t15 34.5v962q0 20 -15 34.5t-37 14.5h-215q-22 0 -36.5 -14.5t-14.5 -34.5v-962q0 -20 14.5 -34.5t36.5 -14.5h215zM352 0q-53 0 -82 33l-174 176q-35 40 -35 80v958q0 40 35 80l174 176q29 33 82 33h228q53 0 82 -33l174 -176q34 -39 34 -80v-958
q0 -41 -34 -80l-174 -176q-29 -33 -82 -33h-228zM274 1761h224l-70 -184h-201zM528 1761h224l-70 -184h-201z" />
    <glyph glyph-name="Ohungarumlaut" unicode="&#x151;" horiz-adv-x="931" 
d="M573 238q22 0 37 14.5t15 34.5v962q0 20 -15 34.5t-37 14.5h-215q-22 0 -36.5 -14.5t-14.5 -34.5v-962q0 -20 14.5 -34.5t36.5 -14.5h215zM352 0q-53 0 -82 33l-174 176q-35 40 -35 80v958q0 40 35 80l174 176q29 33 82 33h228q53 0 82 -33l174 -176q34 -39 34 -80v-958
q0 -41 -34 -80l-174 -176q-29 -33 -82 -33h-228zM274 1761h224l-70 -184h-201zM528 1761h224l-70 -184h-201z" />
    <glyph glyph-name="OE" unicode="&#x152;" horiz-adv-x="1255" 
d="M532 238q22 0 37 14.5t15 34.5v962q0 20 -15 34.5t-37 14.5h-174q-22 0 -36.5 -14.5t-14.5 -34.5v-962q0 -20 14.5 -34.5t36.5 -14.5h174zM352 0q-53 0 -82 33l-174 176q-35 40 -35 80v958q0 40 35 80l174 176q29 33 82 33h862v-238h-385v-426h308v-237h-308v-397h385
v-238h-862z" />
    <glyph glyph-name="OE" unicode="&#x153;" horiz-adv-x="1255" 
d="M532 238q22 0 37 14.5t15 34.5v962q0 20 -15 34.5t-37 14.5h-174q-22 0 -36.5 -14.5t-14.5 -34.5v-962q0 -20 14.5 -34.5t36.5 -14.5h174zM352 0q-53 0 -82 33l-174 176q-35 40 -35 80v958q0 40 35 80l174 176q29 33 82 33h862v-238h-385v-426h308v-237h-308v-397h385
v-238h-862z" />
    <glyph glyph-name="Racute" unicode="&#x154;" horiz-adv-x="962" 
d="M606 872q22 0 36.5 15t14.5 35v327q0 20 -14.5 34.5t-36.5 14.5h-278v-426h278zM932 0h-266l-181 635h-157v-635h-246v1536h530q53 0 82 -33l174 -176q35 -40 35 -80v-315q0 -45 -35 -80l-155 -150zM424 1761h262l-98 -184h-219z" />
    <glyph glyph-name="Racute" unicode="&#x155;" horiz-adv-x="962" 
d="M606 872q22 0 36.5 15t14.5 35v327q0 20 -14.5 34.5t-36.5 14.5h-278v-426h278zM932 0h-266l-181 635h-157v-635h-246v1536h530q53 0 82 -33l174 -176q35 -40 35 -80v-315q0 -45 -35 -80l-155 -150zM424 1761h262l-98 -184h-219z" />
    <glyph glyph-name="uni0156" unicode="&#x156;" horiz-adv-x="962" 
d="M606 872q22 0 36.5 15t14.5 35v327q0 20 -14.5 34.5t-36.5 14.5h-278v-426h278zM932 0h-266l-181 635h-157v-635h-246v1536h530q53 0 82 -33l174 -176q35 -40 35 -80v-315q0 -45 -35 -80l-155 -150zM362 -51h238v-185l-61 -104h-158l74 94h-93v195z" />
    <glyph glyph-name="uni0156" unicode="&#x157;" horiz-adv-x="962" 
d="M606 872q22 0 36.5 15t14.5 35v327q0 20 -14.5 34.5t-36.5 14.5h-278v-426h278zM932 0h-266l-181 635h-157v-635h-246v1536h530q53 0 82 -33l174 -176q35 -40 35 -80v-315q0 -45 -35 -80l-155 -150zM362 -51h238v-185l-61 -104h-158l74 94h-93v195z" />
    <glyph glyph-name="Rcaron" unicode="&#x158;" horiz-adv-x="962" 
d="M606 872q22 0 36.5 15t14.5 35v327q0 20 -14.5 34.5t-36.5 14.5h-278v-426h278zM932 0h-266l-181 635h-157v-635h-246v1536h530q53 0 82 -33l174 -176q35 -40 35 -80v-315q0 -45 -35 -80l-155 -150zM354 1577l-147 184h211l49 -61h29l47 61h211l-148 -184h-252z" />
    <glyph glyph-name="Rcaron" unicode="&#x159;" horiz-adv-x="962" 
d="M606 872q22 0 36.5 15t14.5 35v327q0 20 -14.5 34.5t-36.5 14.5h-278v-426h278zM932 0h-266l-181 635h-157v-635h-246v1536h530q53 0 82 -33l174 -176q35 -40 35 -80v-315q0 -45 -35 -80l-155 -150zM354 1577l-147 184h211l49 -61h29l47 61h211l-148 -184h-252z" />
    <glyph glyph-name="Sacute" unicode="&#x15a;" horiz-adv-x="890" 
d="M342 0q-53 0 -82 33l-174 176q-35 40 -35 80v303h246v-305q0 -20 14.5 -34.5t36.5 -14.5h195q22 0 36.5 14.5t14.5 34.5v241q0 37 -37 60l-434 280q-36 24 -54 50t-18 69v260q0 40 35 80l174 176q29 33 82 33h207q53 0 82 -33l174 -176q35 -40 35 -80v-211h-246v213
q0 20 -14.5 34.5t-36.5 14.5h-195q-22 0 -36.5 -14.5t-14.5 -34.5v-157q0 -37 37 -60l434 -280q36 -24 54 -50t18 -69v-344q0 -40 -35 -80l-174 -176q-29 -33 -82 -33h-207zM389 1761h262l-98 -184h-219z" />
    <glyph glyph-name="Sacute" unicode="&#x15b;" horiz-adv-x="890" 
d="M342 0q-53 0 -82 33l-174 176q-35 40 -35 80v303h246v-305q0 -20 14.5 -34.5t36.5 -14.5h195q22 0 36.5 14.5t14.5 34.5v241q0 37 -37 60l-434 280q-36 24 -54 50t-18 69v260q0 40 35 80l174 176q29 33 82 33h207q53 0 82 -33l174 -176q35 -40 35 -80v-211h-246v213
q0 20 -14.5 34.5t-36.5 14.5h-195q-22 0 -36.5 -14.5t-14.5 -34.5v-157q0 -37 37 -60l434 -280q36 -24 54 -50t18 -69v-344q0 -40 -35 -80l-174 -176q-29 -33 -82 -33h-207zM389 1761h262l-98 -184h-219z" />
    <glyph glyph-name="Scircumflex" unicode="&#x15c;" horiz-adv-x="890" 
d="M342 0q-53 0 -82 33l-174 176q-35 40 -35 80v303h246v-305q0 -20 14.5 -34.5t36.5 -14.5h195q22 0 36.5 14.5t14.5 34.5v241q0 37 -37 60l-434 280q-36 24 -54 50t-18 69v260q0 40 35 80l174 176q29 33 82 33h207q53 0 82 -33l174 -176q35 -40 35 -80v-211h-246v213
q0 20 -14.5 34.5t-36.5 14.5h-195q-22 0 -36.5 -14.5t-14.5 -34.5v-157q0 -37 37 -60l434 -280q36 -24 54 -50t18 -69v-344q0 -40 -35 -80l-174 -176q-29 -33 -82 -33h-207zM319 1761h252l148 -184h-211l-47 61h-29l-49 -61h-211z" />
    <glyph glyph-name="Scircumflex" unicode="&#x15d;" horiz-adv-x="890" 
d="M342 0q-53 0 -82 33l-174 176q-35 40 -35 80v303h246v-305q0 -20 14.5 -34.5t36.5 -14.5h195q22 0 36.5 14.5t14.5 34.5v241q0 37 -37 60l-434 280q-36 24 -54 50t-18 69v260q0 40 35 80l174 176q29 33 82 33h207q53 0 82 -33l174 -176q35 -40 35 -80v-211h-246v213
q0 20 -14.5 34.5t-36.5 14.5h-195q-22 0 -36.5 -14.5t-14.5 -34.5v-157q0 -37 37 -60l434 -280q36 -24 54 -50t18 -69v-344q0 -40 -35 -80l-174 -176q-29 -33 -82 -33h-207zM319 1761h252l148 -184h-211l-47 61h-29l-49 -61h-211z" />
    <glyph glyph-name="Scedilla" unicode="&#x15e;" horiz-adv-x="890" 
d="M342 0q-53 0 -82 33l-174 176q-35 40 -35 80v303h246v-305q0 -20 14.5 -34.5t36.5 -14.5h195q22 0 36.5 14.5t14.5 34.5v241q0 37 -37 60l-434 280q-36 24 -54 50t-18 69v260q0 40 35 80l174 176q29 33 82 33h207q53 0 82 -33l174 -176q35 -40 35 -80v-211h-246v213
q0 20 -14.5 34.5t-36.5 14.5h-195q-22 0 -36.5 -14.5t-14.5 -34.5v-157q0 -37 37 -60l434 -280q36 -24 54 -50t18 -69v-344q0 -40 -35 -80l-174 -176q-29 -33 -82 -33h-39v-25l55 -32q37 -22 37 -60v-69q0 -30 -27 -52l-34 -28q-20 -17 -52 -17h-153v123h80q33 0 33 23v8
q0 20 -21 25l-45 12v92h-41z" />
    <glyph glyph-name="Scedilla" unicode="&#x15f;" horiz-adv-x="890" 
d="M342 0q-53 0 -82 33l-174 176q-35 40 -35 80v303h246v-305q0 -20 14.5 -34.5t36.5 -14.5h195q22 0 36.5 14.5t14.5 34.5v241q0 37 -37 60l-434 280q-36 24 -54 50t-18 69v260q0 40 35 80l174 176q29 33 82 33h207q53 0 82 -33l174 -176q35 -40 35 -80v-211h-246v213
q0 20 -14.5 34.5t-36.5 14.5h-195q-22 0 -36.5 -14.5t-14.5 -34.5v-157q0 -37 37 -60l434 -280q36 -24 54 -50t18 -69v-344q0 -40 -35 -80l-174 -176q-29 -33 -82 -33h-39v-25l55 -32q37 -22 37 -60v-69q0 -30 -27 -52l-34 -28q-20 -17 -52 -17h-153v123h80q33 0 33 23v8
q0 20 -21 25l-45 12v92h-41z" />
    <glyph glyph-name="Scaron" unicode="&#x160;" horiz-adv-x="890" 
d="M342 0q-53 0 -82 33l-174 176q-35 40 -35 80v303h246v-305q0 -20 14.5 -34.5t36.5 -14.5h195q22 0 36.5 14.5t14.5 34.5v241q0 37 -37 60l-434 280q-36 24 -54 50t-18 69v260q0 40 35 80l174 176q29 33 82 33h207q53 0 82 -33l174 -176q35 -40 35 -80v-211h-246v213
q0 20 -14.5 34.5t-36.5 14.5h-195q-22 0 -36.5 -14.5t-14.5 -34.5v-157q0 -37 37 -60l434 -280q36 -24 54 -50t18 -69v-344q0 -40 -35 -80l-174 -176q-29 -33 -82 -33h-207zM319 1577l-147 184h211l49 -61h29l47 61h211l-148 -184h-252z" />
    <glyph glyph-name="Scaron" unicode="&#x161;" horiz-adv-x="890" 
d="M342 0q-53 0 -82 33l-174 176q-35 40 -35 80v303h246v-305q0 -20 14.5 -34.5t36.5 -14.5h195q22 0 36.5 14.5t14.5 34.5v241q0 37 -37 60l-434 280q-36 24 -54 50t-18 69v260q0 40 35 80l174 176q29 33 82 33h207q53 0 82 -33l174 -176q35 -40 35 -80v-211h-246v213
q0 20 -14.5 34.5t-36.5 14.5h-195q-22 0 -36.5 -14.5t-14.5 -34.5v-157q0 -37 37 -60l434 -280q36 -24 54 -50t18 -69v-344q0 -40 -35 -80l-174 -176q-29 -33 -82 -33h-207zM319 1577l-147 184h211l49 -61h29l47 61h211l-148 -184h-252z" />
    <glyph glyph-name="uni0162" unicode="&#x162;" horiz-adv-x="819" 
d="M532 0h-59v-25l55 -32q37 -22 37 -60v-69q0 -31 -26 -52l-35 -28q-20 -17 -51 -17h-154v123h80q33 0 33 23v8q0 20 -21 25l-45 12v92h-59v1298h-267v238h779v-238h-267v-1298z" />
    <glyph glyph-name="uni0162" unicode="&#x163;" horiz-adv-x="819" 
d="M532 0h-59v-25l55 -32q37 -22 37 -60v-69q0 -31 -26 -52l-35 -28q-20 -17 -51 -17h-154v123h80q33 0 33 23v8q0 20 -21 25l-45 12v92h-59v1298h-267v238h779v-238h-267v-1298z" />
    <glyph glyph-name="Tcaron" unicode="&#x164;" horiz-adv-x="819" 
d="M532 0h-245v1298h-267v238h779v-238h-267v-1298zM283 1577l-148 184h211l49 -61h29l47 61h211l-147 -184h-252z" />
    <glyph glyph-name="Tcaron" unicode="&#x165;" horiz-adv-x="819" 
d="M532 0h-245v1298h-267v238h779v-238h-267v-1298zM283 1577l-148 184h211l49 -61h29l47 61h211l-147 -184h-252z" />
    <glyph glyph-name="Tbar" unicode="&#x166;" horiz-adv-x="819" 
d="M532 0h-245v635h-226v237h226v426h-267v238h779v-238h-267v-426h226v-237h-226v-635z" />
    <glyph glyph-name="Tbar" unicode="&#x167;" horiz-adv-x="819" 
d="M532 0h-245v635h-226v237h226v426h-267v238h779v-238h-267v-426h226v-237h-226v-635z" />
    <glyph glyph-name="Utilde" unicode="&#x168;" horiz-adv-x="884" 
d="M823 289q0 -40 -35 -80l-174 -176q-29 -33 -82 -33h-180q-53 0 -82 33l-174 176q-35 40 -35 80v1247h246v-1249q0 -20 14.5 -34.5t36.5 -14.5h168q22 0 37 14.5t15 34.5v1249h245v-1247zM715 1706q0 -34 -17 -51l-77 -78h-160l-60 37q-18 12 -32 12h-21q-12 0 -20.5 -8.5
t-8.5 -20.5v-20h-151v55q0 35 16 51l78 78h160l59 -37q18 -12 33 -12h21q12 0 20 8.5t8 20.5v20h152v-55z" />
    <glyph glyph-name="Utilde" unicode="&#x169;" horiz-adv-x="884" 
d="M823 289q0 -40 -35 -80l-174 -176q-29 -33 -82 -33h-180q-53 0 -82 33l-174 176q-35 40 -35 80v1247h246v-1249q0 -20 14.5 -34.5t36.5 -14.5h168q22 0 37 14.5t15 34.5v1249h245v-1247zM715 1706q0 -34 -17 -51l-77 -78h-160l-60 37q-18 12 -32 12h-21q-12 0 -20.5 -8.5
t-8.5 -20.5v-20h-151v55q0 35 16 51l78 78h160l59 -37q18 -12 33 -12h21q12 0 20 8.5t8 20.5v20h152v-55z" />
    <glyph glyph-name="Umacron" unicode="&#x16a;" horiz-adv-x="884" 
d="M823 289q0 -40 -35 -80l-174 -176q-29 -33 -82 -33h-180q-53 0 -82 33l-174 176q-35 40 -35 80v1247h246v-1249q0 -20 14.5 -34.5t36.5 -14.5h168q22 0 37 14.5t15 34.5v1249h245v-1247zM258 1741h369v-144h-369v144z" />
    <glyph glyph-name="Umacron" unicode="&#x16b;" horiz-adv-x="884" 
d="M823 289q0 -40 -35 -80l-174 -176q-29 -33 -82 -33h-180q-53 0 -82 33l-174 176q-35 40 -35 80v1247h246v-1249q0 -20 14.5 -34.5t36.5 -14.5h168q22 0 37 14.5t15 34.5v1249h245v-1247zM258 1741h369v-144h-369v144z" />
    <glyph glyph-name="Ubreve" unicode="&#x16c;" horiz-adv-x="884" 
d="M823 289q0 -40 -35 -80l-174 -176q-29 -33 -82 -33h-180q-53 0 -82 33l-174 176q-35 40 -35 80v1247h246v-1249q0 -20 14.5 -34.5t36.5 -14.5h168q22 0 37 14.5t15 34.5v1249h245v-1247zM330 1577q-37 0 -64 27l-51 51q-16 16 -16 51v55h178v-26q0 -12 8.5 -20.5
t20.5 -8.5h73q12 0 20.5 8.5t8.5 20.5v26h178v-55q0 -35 -16 -51l-52 -51q-27 -27 -63 -27h-225z" />
    <glyph glyph-name="Ubreve" unicode="&#x16d;" horiz-adv-x="884" 
d="M823 289q0 -40 -35 -80l-174 -176q-29 -33 -82 -33h-180q-53 0 -82 33l-174 176q-35 40 -35 80v1247h246v-1249q0 -20 14.5 -34.5t36.5 -14.5h168q22 0 37 14.5t15 34.5v1249h245v-1247zM330 1577q-37 0 -64 27l-51 51q-16 16 -16 51v55h178v-26q0 -12 8.5 -20.5
t20.5 -8.5h73q12 0 20.5 8.5t8.5 20.5v26h178v-55q0 -35 -16 -51l-52 -51q-27 -27 -63 -27h-225z" />
    <glyph glyph-name="Uring" unicode="&#x16e;" horiz-adv-x="884" 
d="M823 289q0 -40 -35 -80l-174 -176q-29 -33 -82 -33h-180q-53 0 -82 33l-174 176q-35 40 -35 80v1247h246v-1249q0 -20 14.5 -34.5t36.5 -14.5h168q22 0 37 14.5t15 34.5v1249h245v-1247zM406 1563q-29 0 -62 26l-51 45q-17 17 -17 52v40q0 35 17 52l51 45q33 26 62 26h73
q29 0 62 -26l51 -45q16 -16 16 -52v-40q0 -36 -16 -52l-51 -45q-33 -26 -62 -26h-73zM457 1665q12 0 20 8.5t8 20.5v24q0 12 -8 20.5t-20 8.5h-29q-12 0 -20.5 -8.5t-8.5 -20.5v-24q0 -12 8.5 -20.5t20.5 -8.5h29z" />
    <glyph glyph-name="Uring" unicode="&#x16f;" horiz-adv-x="884" 
d="M823 289q0 -40 -35 -80l-174 -176q-29 -33 -82 -33h-180q-53 0 -82 33l-174 176q-35 40 -35 80v1247h246v-1249q0 -20 14.5 -34.5t36.5 -14.5h168q22 0 37 14.5t15 34.5v1249h245v-1247zM406 1563q-29 0 -62 26l-51 45q-17 17 -17 52v40q0 35 17 52l51 45q33 26 62 26h73
q29 0 62 -26l51 -45q16 -16 16 -52v-40q0 -36 -16 -52l-51 -45q-33 -26 -62 -26h-73zM457 1665q12 0 20 8.5t8 20.5v24q0 12 -8 20.5t-20 8.5h-29q-12 0 -20.5 -8.5t-8.5 -20.5v-24q0 -12 8.5 -20.5t20.5 -8.5h29z" />
    <glyph glyph-name="Uhungarumlaut" unicode="&#x170;" horiz-adv-x="884" 
d="M823 289q0 -40 -35 -80l-174 -176q-29 -33 -82 -33h-180q-53 0 -82 33l-174 176q-35 40 -35 80v1247h246v-1249q0 -20 14.5 -34.5t36.5 -14.5h168q22 0 37 14.5t15 34.5v1249h245v-1247zM250 1761h223l-70 -184h-200zM504 1761h223l-70 -184h-200z" />
    <glyph glyph-name="Uhungarumlaut" unicode="&#x171;" horiz-adv-x="884" 
d="M823 289q0 -40 -35 -80l-174 -176q-29 -33 -82 -33h-180q-53 0 -82 33l-174 176q-35 40 -35 80v1247h246v-1249q0 -20 14.5 -34.5t36.5 -14.5h168q22 0 37 14.5t15 34.5v1249h245v-1247zM250 1761h223l-70 -184h-200zM504 1761h223l-70 -184h-200z" />
    <glyph glyph-name="Uogonek" unicode="&#x172;" horiz-adv-x="884" 
d="M823 289q0 -40 -35 -80l-174 -176q-29 -33 -82 -33l-77 -76q-15 -15 -15 -35v-14q0 -12 8.5 -21.5t20.5 -9.5h63v-127h-137q-31 0 -51 17l-61 49q-27 22 -27 57v35q0 41 23 64l65 61q-47 3 -74 33l-174 176q-35 40 -35 80v1247h246v-1249q0 -20 14.5 -34.5t36.5 -14.5
h168q22 0 37 14.5t15 34.5v1249h245v-1247z" />
    <glyph glyph-name="Uogonek" unicode="&#x173;" horiz-adv-x="884" 
d="M823 289q0 -40 -35 -80l-174 -176q-29 -33 -82 -33l-77 -76q-15 -15 -15 -35v-14q0 -12 8.5 -21.5t20.5 -9.5h63v-127h-137q-31 0 -51 17l-61 49q-27 22 -27 57v35q0 41 23 64l65 61q-47 3 -74 33l-174 176q-35 40 -35 80v1247h246v-1249q0 -20 14.5 -34.5t36.5 -14.5
h168q22 0 37 14.5t15 34.5v1249h245v-1247z" />
    <glyph glyph-name="Wcircumflex" unicode="&#x174;" horiz-adv-x="1343" 
d="M874 0q-54 0 -83 33l-119 127l-119 -127q-29 -33 -84 -33h-115q-53 0 -82 33l-174 176q-35 40 -35 80l-2 1247h246l2 -1249q0 -20 14.5 -34.5t36.5 -14.5h142q23 0 38 14t15 35v1249h233v-1249q0 -20 15 -34.5t37 -14.5h143q22 0 36.5 14.5t14.5 34.5l2 1249h246
l-2 -1247q0 -40 -35 -80l-174 -176q-33 -33 -82 -33h-115zM545 1761h252l147 -184h-211l-47 61h-29l-49 -61h-211z" />
    <glyph glyph-name="Wcircumflex" unicode="&#x175;" horiz-adv-x="1343" 
d="M874 0q-54 0 -83 33l-119 127l-119 -127q-29 -33 -84 -33h-115q-53 0 -82 33l-174 176q-35 40 -35 80l-2 1247h246l2 -1249q0 -20 14.5 -34.5t36.5 -14.5h142q23 0 38 14t15 35v1249h233v-1249q0 -20 15 -34.5t37 -14.5h143q22 0 36.5 14.5t14.5 34.5l2 1249h246
l-2 -1247q0 -40 -35 -80l-174 -176q-33 -33 -82 -33h-115zM545 1761h252l147 -184h-211l-47 61h-29l-49 -61h-211z" />
    <glyph glyph-name="Ycircumflex" unicode="&#x176;" horiz-adv-x="860" 
d="M553 623q0 32 20 49l201 172q35 30 35 80v612h-246v-614q0 -20 -14.5 -35t-36.5 -15h-164q-22 0 -36.5 15t-14.5 35v614h-246v-612q0 -50 35 -80l201 -172q20 -17 20 -49v-623h246v623zM303 1761h252l147 -184h-210l-48 61h-28l-49 -61h-211z" />
    <glyph glyph-name="Ycircumflex" unicode="&#x177;" horiz-adv-x="860" 
d="M553 623q0 32 20 49l201 172q35 30 35 80v612h-246v-614q0 -20 -14.5 -35t-36.5 -15h-164q-22 0 -36.5 15t-14.5 35v614h-246v-612q0 -50 35 -80l201 -172q20 -17 20 -49v-623h246v623zM303 1761h252l147 -184h-210l-48 61h-28l-49 -61h-211z" />
    <glyph glyph-name="Zacute" unicode="&#x179;" horiz-adv-x="849" 
d="M788 0h-727v2v238l455 1058h-455v238h727v-240l-454 -1058h454v-238zM369 1761h262l-99 -184h-219z" />
    <glyph glyph-name="Zacute" unicode="&#x17a;" horiz-adv-x="849" 
d="M788 0h-727v2v238l455 1058h-455v238h727v-240l-454 -1058h454v-238zM369 1761h262l-99 -184h-219z" />
    <glyph glyph-name="Zdotaccent" unicode="&#x17b;" horiz-adv-x="849" 
d="M788 0h-727v2v238l455 1058h-455v238h727v-240l-454 -1058h454v-238zM303 1761h246v-184h-246v184z" />
    <glyph glyph-name="Zdotaccent" unicode="&#x17c;" horiz-adv-x="849" 
d="M788 0h-727v2v238l455 1058h-455v238h727v-240l-454 -1058h454v-238zM303 1761h246v-184h-246v184z" />
    <glyph glyph-name="Zcaron" unicode="&#x17d;" horiz-adv-x="849" 
d="M788 0h-727v2v238l455 1058h-455v238h727v-240l-454 -1058h454v-238zM299 1577l-147 184h210l50 -61h28l47 61h211l-147 -184h-252z" />
    <glyph glyph-name="Zcaron" unicode="&#x17e;" horiz-adv-x="849" 
d="M788 0h-727v2v238l455 1058h-455v238h727v-240l-454 -1058h454v-238zM299 1577l-147 184h210l50 -61h28l47 61h211l-147 -184h-252z" />
    <glyph glyph-name="uni0218" unicode="&#x218;" horiz-adv-x="890" 
d="M342 0q-53 0 -82 33l-174 176q-35 40 -35 80v303h246v-305q0 -20 14.5 -34.5t36.5 -14.5h195q22 0 36.5 14.5t14.5 34.5v241q0 37 -37 60l-434 280q-36 24 -54 50t-18 69v260q0 40 35 80l174 176q29 33 82 33h207q53 0 82 -33l174 -176q35 -40 35 -80v-211h-246v213
q0 20 -14.5 34.5t-36.5 14.5h-195q-22 0 -36.5 -14.5t-14.5 -34.5v-157q0 -37 37 -60l434 -280q36 -24 54 -50t18 -69v-344q0 -40 -35 -80l-174 -176q-29 -33 -82 -33h-207zM328 -51h237v-185l-61 -104h-158l74 94h-92v195z" />
    <glyph glyph-name="uni0218" unicode="&#x219;" horiz-adv-x="890" 
d="M342 0q-53 0 -82 33l-174 176q-35 40 -35 80v303h246v-305q0 -20 14.5 -34.5t36.5 -14.5h195q22 0 36.5 14.5t14.5 34.5v241q0 37 -37 60l-434 280q-36 24 -54 50t-18 69v260q0 40 35 80l174 176q29 33 82 33h207q53 0 82 -33l174 -176q35 -40 35 -80v-211h-246v213
q0 20 -14.5 34.5t-36.5 14.5h-195q-22 0 -36.5 -14.5t-14.5 -34.5v-157q0 -37 37 -60l434 -280q36 -24 54 -50t18 -69v-344q0 -40 -35 -80l-174 -176q-29 -33 -82 -33h-207zM328 -51h237v-185l-61 -104h-158l74 94h-92v195z" />
    <glyph glyph-name="uni021A" unicode="&#x21a;" horiz-adv-x="819" 
d="M532 0h-245v1298h-267v238h779v-238h-267v-1298zM291 -51h237v-185l-61 -104h-158l74 94h-92v195z" />
    <glyph glyph-name="uni021A" unicode="&#x21b;" horiz-adv-x="819" 
d="M532 0h-245v1298h-267v238h779v-238h-267v-1298zM291 -51h237v-185l-61 -104h-158l74 94h-92v195z" />
    <glyph glyph-name="circumflex" unicode="&#x2c6;" horiz-adv-x="614" 
d="M182 1761h252l148 -184h-211l-47 61h-29l-49 -61h-211z" />
    <glyph glyph-name="caron" unicode="&#x2c7;" horiz-adv-x="614" 
d="M182 1577l-147 184h211l49 -61h29l47 61h211l-148 -184h-252z" />
    <glyph glyph-name="breve" unicode="&#x2d8;" horiz-adv-x="614" 
d="M195 1577q-37 0 -64 27l-51 51q-17 17 -17 51v55h179v-26q0 -12 8 -20.5t20 -8.5h74q12 0 20.5 8.5t8.5 20.5v26h178v-55q0 -35 -16 -51l-52 -51q-27 -27 -63 -27h-225z" />
    <glyph glyph-name="dotaccent" unicode="&#x2d9;" horiz-adv-x="614" 
d="M184 1761h246v-184h-246v184z" />
    <glyph glyph-name="ring" unicode="&#x2da;" horiz-adv-x="614" 
d="M270 1563q-28 0 -61 26l-51 45q-17 17 -17 52v40q0 35 17 52l51 45q33 26 61 26h74q29 0 62 -26l51 -45q16 -16 16 -52v-40q0 -36 -16 -52l-51 -45q-33 -26 -62 -26h-74zM322 1665q12 0 20 8.5t8 20.5v24q0 12 -8 20.5t-20 8.5h-29q-12 0 -20.5 -8.5t-8.5 -20.5v-24
q0 -12 8.5 -20.5t20.5 -8.5h29z" />
    <glyph glyph-name="ogonek" unicode="&#x2db;" horiz-adv-x="614" 
d="M328 -283q-32 0 -52 17l-61 49q-27 22 -27 57v35q0 41 23 64l74 69h180v-8l-78 -76q-14 -14 -14 -35v-14q0 -12 8 -21.5t20 -9.5h64v-127h-137z" />
    <glyph glyph-name="tilde" unicode="&#x2dc;" horiz-adv-x="614" 
d="M582 1706q0 -34 -17 -51l-78 -78h-159l-60 37q-18 12 -32 12h-21q-12 0 -20.5 -8.5t-8.5 -20.5v-20h-151v55q0 35 16 51l78 78h160l59 -37q18 -12 33 -12h20q12 0 20.5 8.5t8.5 20.5v20h152v-55z" />
    <glyph glyph-name="hungarumlaut" unicode="&#x2dd;" horiz-adv-x="614" 
d="M92 1761h223l-69 -184h-201zM346 1761h223l-69 -184h-201z" />
    <glyph glyph-name="gravecomb" unicode="&#x300;" 
d="M412 1761l55 -184h-219l-98 184h262z" />
    <glyph glyph-name="acutecomb" unicode="&#x301;" 
d="M205 1761h262l-98 -184h-219z" />
    <glyph glyph-name="uni0302" unicode="&#x302;" 
d="M182 1761h252l148 -184h-211l-47 61h-29l-49 -61h-211z" />
    <glyph glyph-name="tildecomb" unicode="&#x303;" 
d="M582 1706q0 -34 -17 -51l-78 -78h-159l-60 37q-18 12 -32 12h-21q-12 0 -20.5 -8.5t-8.5 -20.5v-20h-151v55q0 35 16 51l78 78h160l59 -37q18 -12 33 -12h20q12 0 20.5 8.5t8.5 20.5v20h152v-55z" />
    <glyph glyph-name="uni0304" unicode="&#x304;" 
d="M123 1741h369v-144h-369v144z" />
    <glyph glyph-name="uni0306" unicode="&#x306;" 
d="M195 1577q-37 0 -64 27l-51 51q-17 17 -17 51v55h179v-26q0 -12 8 -20.5t20 -8.5h74q12 0 20.5 8.5t8.5 20.5v26h178v-55q0 -35 -16 -51l-52 -51q-27 -27 -63 -27h-225z" />
    <glyph glyph-name="uni0307" unicode="&#x307;" 
d="M184 1761h246v-184h-246v184z" />
    <glyph glyph-name="uni0308" unicode="&#x308;" 
d="M94 1761h193v-184h-193v184zM328 1761h192v-184h-192v184z" />
    <glyph glyph-name="uni030A" unicode="&#x30a;" 
d="M270 1563q-28 0 -61 26l-51 45q-17 17 -17 52v40q0 35 17 52l51 45q33 26 61 26h74q29 0 62 -26l51 -45q16 -16 16 -52v-40q0 -36 -16 -52l-51 -45q-33 -26 -62 -26h-74zM322 1665q12 0 20 8.5t8 20.5v24q0 12 -8 20.5t-20 8.5h-29q-12 0 -20.5 -8.5t-8.5 -20.5v-24
q0 -12 8.5 -20.5t20.5 -8.5h29z" />
    <glyph glyph-name="uni030B" unicode="&#x30b;" 
d="M92 1761h223l-69 -184h-201zM346 1761h223l-69 -184h-201z" />
    <glyph glyph-name="uni030C" unicode="&#x30c;" 
d="M182 1577l-147 184h211l49 -61h29l47 61h211l-148 -184h-252z" />
    <glyph glyph-name="uni0312" unicode="&#x312;" 
d="M426 1577h-238v184l62 105h158l-74 -94h92v-195z" />
    <glyph glyph-name="uni0326" unicode="&#x326;" 
d="M188 -51h238v-185l-61 -104h-158l74 94h-93v195z" />
    <glyph glyph-name="uni0327" unicode="&#x327;" 
d="M180 -283v123h80q33 0 33 23v8q0 20 -21 25l-45 12v112h127v-45l56 -32q36 -21 36 -60v-69q0 -31 -26 -52l-35 -28q-20 -17 -51 -17h-154z" />
    <glyph glyph-name="uni0328" unicode="&#x328;" 
d="M328 -283q-32 0 -52 17l-61 49q-27 22 -27 57v35q0 41 23 64l74 69h180v-8l-78 -76q-14 -14 -14 -35v-14q0 -12 8 -21.5t20 -9.5h64v-127h-137z" />
    <glyph glyph-name="uni1E20" unicode="&#x1e20;" horiz-adv-x="921" 
d="M860 289q0 -40 -35 -80l-174 -176q-29 -33 -82 -33h-217q-53 0 -82 33l-174 176q-35 40 -35 80v958q0 40 35 80l174 176q29 33 82 33h217q53 0 82 -33l174 -176q35 -40 35 -80v-211h-246v213q0 20 -14.5 34.5t-36.5 14.5h-205q-22 0 -36.5 -14.5t-14.5 -36.5v-958
q0 -22 14.5 -36.5t36.5 -14.5h205q22 0 36.5 14.5t14.5 34.5v348h-165v237h411v-583zM276 1741h369v-144h-369v144z" />
    <glyph glyph-name="uni1E20" unicode="&#x1e21;" horiz-adv-x="921" 
d="M860 289q0 -40 -35 -80l-174 -176q-29 -33 -82 -33h-217q-53 0 -82 33l-174 176q-35 40 -35 80v958q0 40 35 80l174 176q29 33 82 33h217q53 0 82 -33l174 -176q35 -40 35 -80v-211h-246v213q0 20 -14.5 34.5t-36.5 14.5h-205q-22 0 -36.5 -14.5t-14.5 -36.5v-958
q0 -22 14.5 -36.5t36.5 -14.5h205q22 0 36.5 14.5t14.5 34.5v348h-165v237h411v-583zM276 1741h369v-144h-369v144z" />
    <glyph glyph-name="Wgrave" unicode="&#x1e80;" horiz-adv-x="1343" 
d="M874 0q-54 0 -83 33l-119 127l-119 -127q-29 -33 -84 -33h-115q-53 0 -82 33l-174 176q-35 40 -35 80l-2 1247h246l2 -1249q0 -20 14.5 -34.5t36.5 -14.5h142q23 0 38 14t15 35v1249h233v-1249q0 -20 15 -34.5t37 -14.5h143q22 0 36.5 14.5t14.5 34.5l2 1249h246
l-2 -1247q0 -40 -35 -80l-174 -176q-33 -33 -82 -33h-115zM729 1761l55 -184h-219l-98 184h262z" />
    <glyph glyph-name="Wgrave" unicode="&#x1e81;" horiz-adv-x="1343" 
d="M874 0q-54 0 -83 33l-119 127l-119 -127q-29 -33 -84 -33h-115q-53 0 -82 33l-174 176q-35 40 -35 80l-2 1247h246l2 -1249q0 -20 14.5 -34.5t36.5 -14.5h142q23 0 38 14t15 35v1249h233v-1249q0 -20 15 -34.5t37 -14.5h143q22 0 36.5 14.5t14.5 34.5l2 1249h246
l-2 -1247q0 -40 -35 -80l-174 -176q-33 -33 -82 -33h-115zM729 1761l55 -184h-219l-98 184h262z" />
    <glyph glyph-name="Wacute" unicode="&#x1e82;" horiz-adv-x="1343" 
d="M874 0q-54 0 -83 33l-119 127l-119 -127q-29 -33 -84 -33h-115q-53 0 -82 33l-174 176q-35 40 -35 80l-2 1247h246l2 -1249q0 -20 14.5 -34.5t36.5 -14.5h142q23 0 38 14t15 35v1249h233v-1249q0 -20 15 -34.5t37 -14.5h143q22 0 36.5 14.5t14.5 34.5l2 1249h246
l-2 -1247q0 -40 -35 -80l-174 -176q-33 -33 -82 -33h-115zM614 1761h263l-99 -184h-219z" />
    <glyph glyph-name="Wacute" unicode="&#x1e83;" horiz-adv-x="1343" 
d="M874 0q-54 0 -83 33l-119 127l-119 -127q-29 -33 -84 -33h-115q-53 0 -82 33l-174 176q-35 40 -35 80l-2 1247h246l2 -1249q0 -20 14.5 -34.5t36.5 -14.5h142q23 0 38 14t15 35v1249h233v-1249q0 -20 15 -34.5t37 -14.5h143q22 0 36.5 14.5t14.5 34.5l2 1249h246
l-2 -1247q0 -40 -35 -80l-174 -176q-33 -33 -82 -33h-115zM614 1761h263l-99 -184h-219z" />
    <glyph glyph-name="Wdieresis" unicode="&#x1e84;" horiz-adv-x="1343" 
d="M874 0q-54 0 -83 33l-119 127l-119 -127q-29 -33 -84 -33h-115q-53 0 -82 33l-174 176q-35 40 -35 80l-2 1247h246l2 -1249q0 -20 14.5 -34.5t36.5 -14.5h142q23 0 38 14t15 35v1249h233v-1249q0 -20 15 -34.5t37 -14.5h143q22 0 36.5 14.5t14.5 34.5l2 1249h246
l-2 -1247q0 -40 -35 -80l-174 -176q-33 -33 -82 -33h-115zM459 1761h192v-184h-192v184zM692 1761h193v-184h-193v184z" />
    <glyph glyph-name="Wdieresis" unicode="&#x1e85;" horiz-adv-x="1343" 
d="M874 0q-54 0 -83 33l-119 127l-119 -127q-29 -33 -84 -33h-115q-53 0 -82 33l-174 176q-35 40 -35 80l-2 1247h246l2 -1249q0 -20 14.5 -34.5t36.5 -14.5h142q23 0 38 14t15 35v1249h233v-1249q0 -20 15 -34.5t37 -14.5h143q22 0 36.5 14.5t14.5 34.5l2 1249h246
l-2 -1247q0 -40 -35 -80l-174 -176q-33 -33 -82 -33h-115zM459 1761h192v-184h-192v184zM692 1761h193v-184h-193v184z" />
    <glyph glyph-name="uni1EBC" unicode="&#x1ebc;" horiz-adv-x="794" 
d="M754 0h-672v1536h672v-238h-426v-426h348v-237h-348v-397h426v-238zM694 1706q0 -35 -16 -51l-78 -78h-160l-59 37q-18 12 -33 12h-20q-12 0 -20.5 -8.5t-8.5 -20.5v-20h-152v55q0 34 17 51l78 78h159l60 -37q18 -12 33 -12h20q12 0 20.5 8.5t8.5 20.5v20h151v-55z" />
    <glyph glyph-name="uni1EBC" unicode="&#x1ebd;" horiz-adv-x="794" 
d="M754 0h-672v1536h672v-238h-426v-426h348v-237h-348v-397h426v-238zM694 1706q0 -35 -16 -51l-78 -78h-160l-59 37q-18 12 -33 12h-20q-12 0 -20.5 -8.5t-8.5 -20.5v-20h-152v55q0 34 17 51l78 78h159l60 -37q18 -12 33 -12h20q12 0 20.5 8.5t8.5 20.5v20h151v-55z" />
    <glyph glyph-name="Ygrave" unicode="&#x1ef2;" horiz-adv-x="860" 
d="M553 623q0 32 20 49l201 172q35 30 35 80v612h-246v-614q0 -20 -14.5 -35t-36.5 -15h-164q-22 0 -36.5 15t-14.5 35v614h-246v-612q0 -50 35 -80l201 -172q20 -17 20 -49v-623h246v623zM487 1761l56 -184h-219l-99 184h262z" />
    <glyph glyph-name="Ygrave" unicode="&#x1ef3;" horiz-adv-x="860" 
d="M553 623q0 32 20 49l201 172q35 30 35 80v612h-246v-614q0 -20 -14.5 -35t-36.5 -15h-164q-22 0 -36.5 15t-14.5 35v614h-246v-612q0 -50 35 -80l201 -172q20 -17 20 -49v-623h246v623zM487 1761l56 -184h-219l-99 184h262z" />
    <glyph glyph-name="uni1EF8" unicode="&#x1ef8;" horiz-adv-x="860" 
d="M553 623q0 32 20 49l201 172q35 30 35 80v612h-246v-614q0 -20 -14.5 -35t-36.5 -15h-164q-22 0 -36.5 15t-14.5 35v614h-246v-612q0 -50 35 -80l201 -172q20 -17 20 -49v-623h246v623zM702 1706q0 -35 -16 -51l-78 -78h-159l-60 37q-18 12 -33 12h-20q-12 0 -20.5 -8.5
t-8.5 -20.5v-20h-151v55q0 35 16 51l78 78h160l59 -37q18 -12 33 -12h20q12 0 20.5 8.5t8.5 20.5v20h151v-55z" />
    <glyph glyph-name="uni1EF8" unicode="&#x1ef9;" horiz-adv-x="860" 
d="M553 623q0 32 20 49l201 172q35 30 35 80v612h-246v-614q0 -20 -14.5 -35t-36.5 -15h-164q-22 0 -36.5 15t-14.5 35v614h-246v-612q0 -50 35 -80l201 -172q20 -17 20 -49v-623h246v623zM702 1706q0 -35 -16 -51l-78 -78h-159l-60 37q-18 12 -33 12h-20q-12 0 -20.5 -8.5
t-8.5 -20.5v-20h-151v55q0 35 16 51l78 78h160l59 -37q18 -12 33 -12h20q12 0 20.5 8.5t8.5 20.5v20h151v-55z" />
    <glyph glyph-name="endash" unicode="&#x2013;" horiz-adv-x="819" 
d="M799 635h-779v237h779v-237z" />
    <glyph glyph-name="emdash" unicode="&#x2014;" horiz-adv-x="1228" 
d="M1208 635h-1188v237h1188v-237z" />
    <glyph glyph-name="quoteleft" unicode="&#x2018;" horiz-adv-x="327" 
d="M287 1073h-246v238l88 225h152l-93 -225h99v-238z" />
    <glyph glyph-name="quoteright" unicode="&#x2019;" horiz-adv-x="327" 
d="M41 1536h246v-238l-88 -225h-152l92 225h-98v238z" />
    <glyph glyph-name="quotesinglbase" unicode="&#x201a;" horiz-adv-x="327" 
d="M41 512h246v-238l-88 -225h-152l92 225h-98v238z" />
    <glyph glyph-name="quotedblleft" unicode="&#x201c;" horiz-adv-x="655" 
d="M614 1073h-245v238l88 225h151l-92 -225h98v-238zM287 1073h-246v238l88 225h152l-93 -225h99v-238z" />
    <glyph glyph-name="quotedblright" unicode="&#x201d;" horiz-adv-x="655" 
d="M41 1536h246v-238l-88 -225h-152l92 225h-98v238zM369 1536h245v-238l-88 -225h-151l92 225h-98v238z" />
    <glyph glyph-name="quotedblbase" unicode="&#x201e;" horiz-adv-x="655" 
d="M41 512h246v-238l-88 -225h-152l92 225h-98v238zM369 512h245v-238l-88 -225h-151l92 225h-98v238z" />
    <glyph glyph-name="bullet" unicode="&#x2022;" horiz-adv-x="569" 
d="M221 502q-52 0 -74 28l-94 103q-33 42 -33 74v92q0 31 33 73l94 103q23 29 74 29h129q49 0 74 -29l92 -103q33 -37 33 -73v-92q0 -37 -33 -74l-92 -103q-24 -28 -74 -28h-129z" />
    <glyph glyph-name="ellipsis" unicode="&#x2026;" horiz-adv-x="983" 
d="M41 238h246v-238h-246v238zM369 238h245v-238h-245v238zM696 238h246v-238h-246v238z" />
    <glyph glyph-name="guilsinglleft" unicode="&#x2039;" horiz-adv-x="348" 
d="M328 287l-308 327v279l308 328v-299l-162 -168l162 -168v-299z" />
    <glyph glyph-name="guilsinglright" unicode="&#x203a;" horiz-adv-x="348" 
d="M20 287v299l162 168l-162 168v299l308 -328v-279z" />
    <glyph glyph-name="Euro" unicode="&#x20ac;" horiz-adv-x="942" 
d="M901 289q0 -40 -35 -80l-174 -176q-29 -33 -82 -33h-217q-53 0 -82 33l-174 176q-35 40 -35 80v311h-82v164h82v61h-82v164h82v258q0 40 35 80l174 176q29 33 82 33h217q53 0 82 -33l174 -176q35 -40 35 -80v-172h-246v174q0 20 -14.5 34.5t-36.5 14.5h-205
q-22 0 -36.5 -14.5t-14.5 -36.5v-258h414v-164h-414v-61h414v-164h-414v-311q0 -22 14.5 -36.5t36.5 -14.5h205q22 0 36.5 14.5t14.5 34.5v225h246v-223z" />
    <glyph glyph-name="trademark" unicode="&#x2122;" horiz-adv-x="1196" 
d="M891 997h-148v365q0 8 -5.5 14t-14.5 6h-61q-9 0 -16 -6t-7 -14v-490h-160v498q0 20 15 35l116 117q14 14 35 14h84q26 0 37 -14l51 -64l51 64q11 14 37 14h84q21 0 35 -14l117 -117q14 -14 14 -35v-498h-160v490q0 8 -5.5 14t-14.5 6h-64q-9 0 -14.5 -6t-5.5 -14v-365z
M307 872h-160v510h-127v154h414v-154h-127v-510z" />
    <glyph glyph-name="minus" unicode="&#x2212;" horiz-adv-x="655" 
d="M614 659h-573v189h573v-189z" />
    <glyph glyph-name="i.loclTRK" horiz-adv-x="409" 
d="M328 0h-246v1536h246v-1536zM82 1761h246v-184h-246v184z" />
    <glyph glyph-name="uni004A0301" horiz-adv-x="829" 
d="M322 0q-53 0 -82 33l-174 176q-35 40 -35 80v284h245v-286q0 -20 15 -34.5t37 -14.5h143q22 0 36.5 14.5t14.5 34.5v1249h246v-1247q0 -40 -35 -80l-174 -176q-29 -33 -82 -33h-155zM588 1761h262l-98 -184h-220z" />
    <glyph glyph-name="IJacute" horiz-adv-x="1239" 
d="M328 0h-246v1536h246v-1536zM147 1761h263l-99 -184h-219zM731 0q-53 0 -82 33l-174 176q-35 40 -35 80v284h246v-286q0 -20 14.5 -34.5t36.5 -14.5h144q22 0 36.5 14.5t14.5 34.5v1249h246v-1247q0 -40 -35 -80l-174 -176q-29 -33 -82 -33h-156zM997 1761h263l-99 -184
h-219z" />
    <glyph glyph-name="uni030C.alt" 
d="M182 1536h262l-55 -238h-219z" />
    <glyph glyph-name="circledotted" horiz-adv-x="1224" 
d="M612 205q-143 0 -265 71t-193.5 193.5t-71.5 267.5q0 144 71.5 267t193.5 194.5t265 71.5q108 0 206.5 -42.5t169.5 -114t113 -170t42 -206.5q0 -145 -71 -267.5t-193.5 -193.5t-266.5 -71zM612 231q138 0 254 67t183 183.5t67 255.5q0 138 -67 254.5t-183 184t-254 67.5
q-137 0 -253 -67.5t-183 -184t-67 -254.5q0 -139 67 -255.5t183 -183.5t253 -67z" />
    <glyph glyph-name="caron.alt" horiz-adv-x="614" 
d="M182 1536h262l-55 -238h-219z" />
    <glyph glyph-name="commaturnedabove" horiz-adv-x="614" 
d="M426 1577h-238v184l62 105h158l-74 -94h92v-195z" />
    </font>
</defs>
</svg>
