<?xml version="1.0" standalone="no"?>
<!DOCTYPE svg PUBLIC "-//W3C//DTD SVG 1.1//EN" "http://www.w3.org/Graphics/SVG/1.1/DTD/svg11.dtd" >
<svg xmlns="http://www.w3.org/2000/svg" xmlns:xlink="http://www.w3.org/1999/xlink" version="1.1">
<metadata>
Created by FontForge 20201107 at Wed Jul 30 10:59:07 2025
 By 
Copyright (C) 2017 Hoefler &#38; Co. http://www.typography.com
</metadata>
<defs>
<font id="RingsideNarrow-Bold" horiz-adv-x="753" >
  <font-face 
    font-family="Ringside Narrow Bold"
    font-weight="400"
    font-stretch="semi-condensed"
    units-per-em="2048"
    panose-1="2 0 8 0 0 0 0 0 0 0"
    ascent="1638"
    descent="-410"
    x-height="987"
    cap-height="1364"
    bbox="-348 -678 2288 2177"
    underline-thickness="0"
    underline-position="0"
    unicode-range="U+0020-FB04"
  />
<missing-glyph horiz-adv-x="1024" 
d="M0 -410v2048h1024v-2048h-1024zM145 1536l367 -799l367 799h-734zM102 -156l353 770l-353 770v-1540zM922 1384l-353 -770l353 -770v1540zM512 492l-367 -799h734z" />
    <glyph glyph-name="f_f" unicode="ff" horiz-adv-x="1388" 
d="M580 1417h135v-207h-88q-78 0 -112 -31t-34 -96v-96h381v113q0 317 373 317h135v-207h-88q-77 0 -110 -31t-33 -96v-96h217v-213h-217v-774h-277v774h-381v-774h-274v774h-162v213h162v113q0 317 373 317z" />
    <glyph glyph-name="f_f_i" unicode="ffi" horiz-adv-x="1921" 
d="M1370 1417v-207h-88q-77 0 -110 -31t-33 -96v-96h217v-213h-217v-774h-277v774h-381v-774h-274v774h-162v213h162v113q0 317 373 317h135v-207h-88q-78 0 -112 -31t-34 -96v-96h381v113q0 317 373 317h135zM1513 1376h287v-233h-287v233zM1518 987h278v-987h-278v987z
" />
    <glyph glyph-name="f_f_l" unicode="ffl" horiz-adv-x="1921" 
d="M715 1417v-207h-88q-78 0 -112 -31t-34 -96v-96h381v113q0 317 373 317h135v-207h-88q-77 0 -110 -31t-33 -96v-96h217v-213h-217v-774h-277v774h-381v-774h-274v774h-162v213h162v113q0 317 373 317h135zM1518 1417h278v-1417h-278v1417z" />
    <glyph glyph-name=".notdef" horiz-adv-x="1024" 
d="M0 -410v2048h1024v-2048h-1024zM145 1536l367 -799l367 799h-734zM102 -156l353 770l-353 770v-1540zM922 1384l-353 -770l353 -770v1540zM512 492l-367 -799h734z" />
    <glyph glyph-name=".null" horiz-adv-x="0" 
 />
    <glyph glyph-name="nonmarkingreturn" horiz-adv-x="682" 
 />
    <glyph glyph-name="space" unicode=" " horiz-adv-x="387" 
 />
    <glyph glyph-name="exclam" unicode="!" horiz-adv-x="518" 
d="M123 1364h272v-399l-96 -545h-80l-96 545v399zM127 276h262v-276h-262v276z" />
    <glyph glyph-name="quotedbl" unicode="&#x22;" horiz-adv-x="905" 
d="M158 1364h291l-207 -621h-179zM588 1364h291l-236 -621h-178z" />
    <glyph glyph-name="numbersign" unicode="#" horiz-adv-x="1497" 
d="M764 0l61 334h-284l-62 -334h-207l62 334h-250v192h287l57 312h-287v192h324l61 334h209l-61 -334h282l62 334h209l-62 -334h248v-192h-285l-59 -312h287v-192h-324l-61 -334h-207zM578 526h284l58 312h-283z" />
    <glyph glyph-name="dollar" unicode="$" horiz-adv-x="1218" 
d="M1118 391q0 -162 -103.5 -266t-283.5 -131v-207h-221v203q-202 23 -305 130.5t-103 276.5v58h275v-31q0 -97 60.5 -152t176.5 -55q106 0 165 41t59 113q0 68 -57 107t-232 100q-233 68 -330.5 158.5t-97.5 246.5q0 154 106 260t289 131v201h221v-205q181 -28 274 -133
t93 -262v-43h-273v33q0 81 -55.5 131.5t-167.5 50.5q-96 0 -150.5 -39.5t-54.5 -103.5q0 -66 57 -104t226 -99q123 -36 202.5 -72.5t132.5 -85t75 -108.5t22 -144z" />
    <glyph glyph-name="percent" unicode="%" horiz-adv-x="1699" 
d="M410 1389q149 0 233 -82.5t84 -225.5v-102q0 -143 -84 -225t-233 -82q-150 0 -235 82t-85 225v102q0 143 85 225.5t235 82.5zM1499 1370l-1091 -1376h-207l1091 1376h207zM410 1227q-66 0 -100 -40t-34 -106v-102q0 -66 34 -105.5t100 -39.5t99.5 39.5t33.5 105.5v102
q0 66 -33.5 106t-99.5 40zM1290 -25q-149 0 -233 82.5t-84 225.5v102q0 143 84 225t233 82q150 0 235 -82t85 -225v-102q0 -143 -85 -225.5t-235 -82.5zM1290 137q66 0 100.5 40t34.5 106v102q0 66 -34 105.5t-101 39.5q-66 0 -99.5 -39.5t-33.5 -105.5v-102
q0 -66 33.5 -106t99.5 -40z" />
    <glyph glyph-name="ampersand" unicode="&#x26;" horiz-adv-x="1458" 
d="M1444 281q0 -67 -12 -120.5t-39 -98t-75.5 -69t-115.5 -24.5q-78 0 -150 29.5t-157 97.5q-192 -127 -389 -127q-202 0 -320 104.5t-118 264.5q0 129 73.5 227.5t243.5 182.5q-96 160 -96 301q0 152 108 249t283 97q181 0 283 -90t102 -222q0 -243 -342 -401
q90 -135 197 -260q90 118 129 330h221q-23 -152 -70.5 -267.5t-130.5 -222.5q87 -84 143 -84q84 0 84 150v57h148v-104zM545 1042q0 -49 19 -94.5t65 -107.5q184 89 184 223q0 48 -33.5 86.5t-93.5 38.5q-71 0 -106 -43.5t-35 -102.5zM336 371q0 -88 52 -136.5t138 -48.5
q101 0 209 68q-128 138 -252 317q-147 -86 -147 -200z" />
    <glyph glyph-name="quotesingle" unicode="'" horiz-adv-x="489" 
d="M172 1364h293l-221 -621h-181z" />
    <glyph glyph-name="parenleft" unicode="(" horiz-adv-x="782" 
d="M651 1612l127 -107q-188 -191 -279 -417.5t-91 -466.5q0 -512 370 -885l-127 -109q-504 431 -504 994t504 991z" />
    <glyph glyph-name="parenright" unicode=")" horiz-adv-x="782" 
d="M131 -373l-127 109q189 191 280 418t91 467q0 510 -371 884l127 107q506 -429 506 -991t-506 -994z" />
    <glyph glyph-name="asterisk" unicode="*" horiz-adv-x="888" 
d="M522 606q0 -35 -35 -35h-86q-34 0 -34 35q0 143 36 291q-110 -107 -233 -178q-31 -15 -47 14l-43 74q-17 28 12 49q132 72 270 113q-147 41 -268 112q-33 16 -14 47l43 76q18 30 47 13q121 -69 233 -179q-36 148 -36 291q0 35 34 35h86q35 0 35 -35q0 -147 -37 -289
q112 107 234 177q29 17 47 -13l43 -76q19 -31 -14 -47q-121 -71 -269 -112q140 -41 271 -113q29 -21 12 -49l-43 -74q-16 -29 -47 -14q-125 72 -234 178q37 -144 37 -291z" />
    <glyph glyph-name="plus" unicode="+" horiz-adv-x="1050" 
d="M414 1112h223v-326h326v-208h-326v-324h-223v324h-326v208h326v326z" />
    <glyph glyph-name="comma" unicode="," horiz-adv-x="458" 
d="M90 303h279v-229q0 -94 -20.5 -163t-62.5 -115.5t-94.5 -76t-128.5 -53.5v82q91 59 118.5 106t27.5 146h-119v303z" />
    <glyph glyph-name="hyphen" unicode="-" horiz-adv-x="772" 
d="M104 725h562v-219h-562v219z" />
    <glyph glyph-name="period" unicode="." horiz-adv-x="458" 
d="M90 303h279v-303h-279v303z" />
    <glyph glyph-name="slash" unicode="/" horiz-adv-x="808" 
d="M555 1563h223l-565 -1887h-223z" />
    <glyph glyph-name="zero" unicode="0" horiz-adv-x="1267" 
d="M633 1395q252 0 395 -147t143 -404v-322q0 -258 -143 -405.5t-395 -147.5q-251 0 -394 147.5t-143 405.5v322q0 257 143.5 404t393.5 147zM633 1149q-124 0 -187 -81.5t-63 -231.5v-308q0 -150 63 -231.5t187 -81.5q125 0 188.5 81.5t63.5 231.5v308q0 150 -63.5 231.5
t-188.5 81.5z" />
    <glyph glyph-name="one" unicode="1" horiz-adv-x="759" 
d="M51 997v201h68q124 0 182.5 40.5t73.5 131.5h200v-1370h-288v997h-236z" />
    <glyph glyph-name="two" unicode="2" horiz-adv-x="1171" 
d="M621 1393q125 0 219 -31t149 -87t82 -127.5t27 -158.5q0 -79 -19 -137t-70.5 -112t-123.5 -101.5t-195 -112.5q-168 -86 -224 -137.5t-56 -132.5h675v-256h-993v78q0 127 21 215.5t76 163.5t136.5 135t215.5 131q62 36 90.5 52.5t66.5 41.5t52.5 40t31 37.5t21 44
t4.5 50.5q0 75 -52 115.5t-147 40.5q-107 0 -165 -49t-58 -138v-75h-272v84q0 195 128.5 310.5t379.5 115.5z" />
    <glyph glyph-name="three" unicode="3" horiz-adv-x="1193" 
d="M606 1393q240 0 365 -103t125 -266v-31q0 -109 -74 -189.5t-203 -109.5q139 -25 213 -102t74 -199v-37q0 -78 -33 -147.5t-94.5 -122.5t-158 -84t-216.5 -31q-136 0 -238 32t-161.5 89t-88 128t-28.5 157v74h272v-60q0 -77 57.5 -126.5t174.5 -49.5q107 0 165 46.5
t58 121.5v35q0 82 -60.5 124t-193.5 42h-123v207h123q250 0 250 163v27q0 77 -57.5 122.5t-163.5 45.5q-115 0 -172.5 -49.5t-57.5 -126.5v-60h-272v74q0 85 30 157t90 128.5t162 88.5t236 32z" />
    <glyph glyph-name="four" unicode="4" horiz-adv-x="1234" 
d="M645 1364h363v-842h176v-235h-176v-287h-269v287h-678v211zM739 522v582l-395 -582h395z" />
    <glyph glyph-name="five" unicode="5" horiz-adv-x="1191" 
d="M715 883q198 0 298.5 -99t100.5 -274v-96q0 -204 -132.5 -323.5t-379.5 -119.5q-132 0 -231 30.5t-157.5 86t-87 126.5t-28.5 157v41h273v-23q0 -79 58.5 -125.5t168.5 -46.5q105 0 167 51.5t62 145.5v69q0 181 -204 181q-80 0 -143.5 -28t-125.5 -81l-231 41l53 768h909
q-5 -64 -11 -102.5t-17 -70.5t-31 -47.5t-48.5 -23.5t-72.5 -8h-489l-27 -352q67 57 142 90t184 33z" />
    <glyph glyph-name="six" unicode="6" horiz-adv-x="1212" 
d="M612 -29q-256 0 -386 129.5t-130 380.5v348q0 271 139.5 417.5t399.5 146.5q128 0 224.5 -33t150.5 -88.5t80 -120t26 -135.5v-62h-272v29q0 85 -56 127.5t-151 42.5q-264 0 -264 -281v-155q129 139 329 139q205 0 316.5 -97.5t111.5 -266.5v-82q0 -200 -137 -319.5
t-381 -119.5zM614 213q104 0 169 51.5t65 147.5v45q0 94 -61.5 143t-168.5 49q-106 0 -172.5 -51t-66.5 -141v-45q0 -97 64 -148t171 -51z" />
    <glyph glyph-name="seven" unicode="7" horiz-adv-x="1099" 
d="M580 0h-322q25 317 148 572t362 528h-702v264h1007v-154q-228 -298 -346.5 -576t-146.5 -634z" />
    <glyph glyph-name="eight" unicode="8" horiz-adv-x="1236" 
d="M618 1395q124 0 223 -31t160 -85.5t93 -124.5t32 -150v-17q0 -209 -231 -299q254 -86 254 -313v-27q0 -169 -137 -274t-394 -105t-393.5 104.5t-136.5 274.5v27q0 228 252 313q-229 89 -229 299v17q0 81 31.5 151t92.5 124t159.5 85t223.5 31zM618 1165
q-106 0 -166.5 -49.5t-60.5 -130.5v-24q0 -83 62 -129t165 -46q101 0 164.5 46t63.5 129v24q0 80 -61.5 130t-166.5 50zM618 199q116 0 180 50.5t64 131.5v27q0 83 -66 132.5t-178 49.5q-115 0 -180 -48t-65 -134v-25q0 -82 63.5 -133t181.5 -51z" />
    <glyph glyph-name="nine" unicode="9" horiz-adv-x="1212" 
d="M600 1393q256 0 386 -129.5t130 -380.5v-348q0 -270 -139 -417t-397 -147q-106 0 -191.5 22t-140.5 58t-92 84.5t-52.5 97.5t-15.5 101v61h272v-28q0 -73 57.5 -113.5t166.5 -40.5q127 0 192.5 69.5t65.5 202.5v142q-130 -140 -332 -140q-203 0 -314.5 98t-111.5 269v98
q0 201 136 321t380 120zM598 1151q-104 0 -167.5 -51t-63.5 -150v-61q0 -97 60 -146t167 -49t174.5 52t67.5 143v61q0 98 -65 149.5t-173 51.5z" />
    <glyph glyph-name="colon" unicode=":" horiz-adv-x="483" 
d="M102 973h279v-303h-279v303zM102 303h279v-303h-279v303z" />
    <glyph glyph-name="semicolon" unicode=";" horiz-adv-x="483" 
d="M102 973h279v-303h-279v303zM102 303h279v-229q0 -94 -20 -163t-62 -115.5t-94.5 -76t-128.5 -53.5v82q91 59 118 105.5t27 146.5h-119v303z" />
    <glyph glyph-name="less" unicode="&#x3c;" horiz-adv-x="991" 
d="M854 1163v-250l-487 -231l487 -233v-250l-766 387v192z" />
    <glyph glyph-name="equal" unicode="=" horiz-adv-x="1073" 
d="M113 999h850v-211h-850v211zM113 575h850v-210h-850v210z" />
    <glyph glyph-name="greater" unicode="&#x3e;" horiz-adv-x="991" 
d="M139 201v250l486 231l-486 233v250l764 -387v-192z" />
    <glyph glyph-name="question" unicode="?" horiz-adv-x="1091" 
d="M1038 1022q0 -117 -55.5 -198t-212.5 -169q-57 -32 -86.5 -53.5t-47 -50.5t-21.5 -56t-7 -83h-233q0 160 43 239.5t180 169.5q88 52 120 89t32 98q0 139 -201 139q-134 0 -186 -50t-52 -149v-59h-262v78q0 68 14 127t49.5 115.5t91.5 96.5t145.5 64.5t205.5 24.5
q131 0 227 -29t150.5 -82t80 -117.5t25.5 -144.5zM362 0v276h263v-276h-263z" />
    <glyph glyph-name="at" unicode="@" horiz-adv-x="1591" 
d="M854 1386q135 0 249 -36t192 -96.5t132.5 -141t79.5 -168t25 -178.5q0 -105 -29.5 -202.5t-82.5 -173.5t-134 -121.5t-176 -45.5q-110 0 -169.5 50t-59.5 130q-45 -79 -101 -122t-133 -43q-106 0 -164.5 70.5t-58.5 197.5q0 75 23 158.5t66 161t115.5 128t159.5 50.5
q72 0 120.5 -34.5t66.5 -88.5l35 106h198l-123 -405q-40 -136 -26 -191t86 -55q101 0 179.5 122t78.5 302q0 235 -152.5 373.5t-398.5 138.5q-193 0 -342 -92.5t-230 -257t-81 -373.5q0 -174 71.5 -309.5t213 -214t333.5 -78.5q133 0 252.5 42t206.5 105l63 -96
q-95 -72 -234 -119t-292 -47q-169 0 -308.5 53.5t-234.5 148t-147.5 226.5t-52.5 287q0 182 58.5 338t161 266t248.5 172.5t316 62.5zM838 864q-54 0 -97 -42t-66 -102.5t-34.5 -116t-11.5 -95.5q0 -64 26.5 -93.5t71.5 -29.5q48 0 88.5 47.5t61.5 124.5l61 221
q-2 34 -30.5 60t-69.5 26z" />
    <glyph glyph-name="A" unicode="A" horiz-adv-x="1333" 
d="M983 0l-80 258h-487l-80 -258h-289l453 1372h334l452 -1372h-303zM657 1040l-172 -557h349l-172 557h-5z" />
    <glyph glyph-name="B" unicode="B" horiz-adv-x="1261" 
d="M147 1364h607q189 0 293 -87t104 -241v-61q0 -117 -57 -183.5t-166 -97.5v-6q235 -61 235 -282v-72q0 -158 -104 -246t-289 -88h-623v1364zM432 1133v-345h268q79 0 122.5 38t43.5 108v65q0 63 -41.5 98.5t-117.5 35.5h-275zM432 586v-355h281q77 0 118 37t41 105v67
q0 70 -43 108t-127 38h-270z" />
    <glyph glyph-name="C" unicode="C" horiz-adv-x="1282" 
d="M674 1393q253 0 384.5 -123t131.5 -336v-68h-289v56q0 102 -61 161.5t-168 59.5q-130 0 -201.5 -84.5t-71.5 -224.5v-302q0 -138 71.5 -224.5t201.5 -86.5q107 0 168 59.5t61 161.5v56h289v-68q0 -209 -134.5 -334t-387.5 -125q-264 0 -415 154.5t-151 413.5v286
q0 258 154 413t418 155z" />
    <glyph glyph-name="D" unicode="D" horiz-adv-x="1333" 
d="M147 1364h521q272 0 416.5 -144t144.5 -395v-295q0 -250 -145 -390t-418 -140h-519v1364zM442 1118v-872h205q142 0 213.5 81t71.5 222v266q0 142 -72 222.5t-215 80.5h-203z" />
    <glyph glyph-name="E" unicode="E" horiz-adv-x="1167" 
d="M147 1364h932v-252h-645v-301h500v-238h-500v-321h647v-252h-934v1364z" />
    <glyph glyph-name="F" unicode="F" horiz-adv-x="1107" 
d="M147 1364h910v-252h-623v-336h475v-246h-475v-530h-287v1364z" />
    <glyph glyph-name="G" unicode="G" horiz-adv-x="1323" 
d="M670 1393q248 0 383 -120t135 -327v-55h-289v29q0 107 -57.5 167t-171.5 60q-129 0 -200 -84.5t-71 -231.5v-305q0 -145 71.5 -230t193.5 -85q114 0 184 68t70 180v57h-246v203h530v-719h-135l-45 207q-130 -236 -408 -236q-230 0 -371 149.5t-141 403.5v307
q0 254 153.5 408t414.5 154z" />
    <glyph glyph-name="H" unicode="H" horiz-adv-x="1368" 
d="M147 1364h295v-543h484v543h295v-1364h-295v563h-484v-563h-295v1364z" />
    <glyph glyph-name="I" unicode="I" horiz-adv-x="604" 
d="M156 1364h295v-1364h-295v1364z" />
    <glyph glyph-name="J" unicode="J" horiz-adv-x="1128" 
d="M700 1364h295v-901q0 -242 -121 -368t-358 -126q-228 0 -341.5 115t-113.5 334v125h275v-117q0 -203 182 -203q91 0 136.5 56t45.5 157v928z" />
    <glyph glyph-name="K" unicode="K" horiz-adv-x="1259" 
d="M895 0l-297 561l-156 -217v-344h-295v1364h295v-666l441 666h334l-410 -582l422 -782h-334z" />
    <glyph glyph-name="L" unicode="L" horiz-adv-x="1060" 
d="M147 1364h295v-1102h568v-262h-863v1364z" />
    <glyph glyph-name="M" unicode="M" horiz-adv-x="1744" 
d="M147 1364h416l311 -942h5l303 942h417v-1364h-276v1028h-4l-340 -1028h-225l-342 1028h-4v-1028h-261v1364z" />
    <glyph glyph-name="N" unicode="N" horiz-adv-x="1376" 
d="M147 1364h293l525 -875h4l-2 875h264v-1364h-289l-530 885h-4l4 -885h-265v1364z" />
    <glyph glyph-name="O" unicode="O" horiz-adv-x="1353" 
d="M678 1395q267 0 420 -149.5t153 -430.5v-266q0 -281 -153 -430.5t-420 -149.5q-269 0 -422.5 149.5t-153.5 430.5v266q0 281 153.5 430.5t422.5 149.5zM678 1143q-279 0 -279 -320v-282q0 -320 279 -320q276 0 276 320v282q0 320 -276 320z" />
    <glyph glyph-name="P" unicode="P" horiz-adv-x="1204" 
d="M147 1364h560q207 0 322.5 -104t115.5 -287v-115q0 -186 -115.5 -290.5t-322.5 -104.5h-267v-463h-293v1364zM440 1126v-426h205q205 0 205 172v82q0 172 -203 172h-207z" />
    <glyph glyph-name="Q" unicode="Q" horiz-adv-x="1368" 
d="M1343 -12q-64 -33 -149 -33q-127 0 -221 88q-132 -74 -295 -74q-267 0 -421.5 151t-154.5 425v274q0 274 154.5 425t421.5 151q268 0 420.5 -151t152.5 -425v-289q0 -187 -96 -327q52 -39 131 -39q20 0 57 6v-182zM399 532q0 -152 74 -232.5t205 -80.5q76 0 135 27
l-141 166l139 118l129 -137q16 59 16 125v316q0 151 -73 231t-205 80q-131 0 -205 -80.5t-74 -230.5v-302z" />
    <glyph glyph-name="R" unicode="R" horiz-adv-x="1275" 
d="M440 498v-498h-293v1364h594q212 0 325.5 -101.5t113.5 -279.5v-104q0 -127 -65 -218t-181 -133l291 -528h-318l-268 498h-199zM440 1130v-405h238q209 0 209 164v78q0 163 -205 163h-242z" />
    <glyph glyph-name="S" unicode="S" horiz-adv-x="1234" 
d="M627 1389q254 0 384 -111t130 -301v-45h-291v39q0 80 -57.5 130t-174.5 50q-99 0 -152.5 -39.5t-53.5 -105.5q0 -74 57 -111t242 -98q174 -49 269 -103.5t136 -128t41 -186.5q0 -190 -143.5 -297t-382.5 -107q-266 0 -399.5 111t-133.5 307v62h291v-41q0 -96 63.5 -148.5
t186.5 -52.5q107 0 165 39t58 110q0 34 -8.5 57t-25 42.5t-56.5 38.5t-86.5 36t-130.5 44q-244 65 -341 155t-97 258q0 177 137 286.5t373 109.5z" />
    <glyph glyph-name="T" unicode="T" horiz-adv-x="1191" 
d="M59 1364h1074v-258h-390v-1106h-292v1106h-392v258z" />
    <glyph glyph-name="U" unicode="U" horiz-adv-x="1320" 
d="M131 1364h295v-877q0 -127 62.5 -194.5t179.5 -67.5t179 67.5t62 194.5v877h281v-864q0 -255 -134.5 -393t-396.5 -138q-265 0 -396.5 136t-131.5 395v864z" />
    <glyph glyph-name="V" unicode="V" horiz-adv-x="1306" 
d="M47 1364h320l292 -971h5l292 971h304l-459 -1374h-293z" />
    <glyph glyph-name="W" unicode="W" horiz-adv-x="1869" 
d="M57 1364h305l197 -969h4l248 975h266l248 -975h4l193 969h290l-333 -1374h-297l-244 913h-4l-248 -913h-295z" />
    <glyph glyph-name="X" unicode="X" horiz-adv-x="1271" 
d="M903 0l-278 494l-273 -494h-317l422 688l-408 676h334l266 -469l256 469h320l-408 -666l420 -698h-334z" />
    <glyph glyph-name="Y" unicode="Y" horiz-adv-x="1245" 
d="M25 1364h323l281 -582l280 582h312l-453 -844v-520h-295v520z" />
    <glyph glyph-name="Z" unicode="Z" horiz-adv-x="1175" 
d="M111 1364h991v-164l-627 -936h610v-264h-1011v166l635 946h-598v252z" />
    <glyph glyph-name="bracketleft" unicode="[" horiz-adv-x="749" 
d="M156 1563h575v-189h-342v-1509h342v-189h-575v1887z" />
    <glyph glyph-name="backslash" unicode="\" horiz-adv-x="808" 
d="M29 1563h223l565 -1887h-223z" />
    <glyph glyph-name="bracketright" unicode="]" horiz-adv-x="749" 
d="M596 -324h-578v187h342v1511h-342v189h578v-1887z" />
    <glyph glyph-name="asciicircum" unicode="^" horiz-adv-x="1116" 
d="M1036 602h-245l-232 490l-231 -490h-248l373 760h215z" />
    <glyph glyph-name="underscore" unicode="_" horiz-adv-x="899" 
d="M-2 -147h903v-177h-903v177z" />
    <glyph glyph-name="grave" unicode="`" horiz-adv-x="1021" 
d="M274 1546h314l178 -403h-172z" />
    <glyph glyph-name="a" unicode="a" horiz-adv-x="1036" 
d="M659 168q-56 -92 -132 -138t-185 -46q-128 0 -200 67.5t-72 196.5q0 85 34 145.5t117 102.5q129 63 422 92v69q0 142 -141 142q-70 0 -107 -34t-37 -97v-21h-243v25q0 72 23 132.5t69.5 108.5t124 75.5t178.5 27.5q203 0 303 -99.5t100 -275.5v-393q0 -45 19.5 -62
t73.5 -22v-168h-95q-117 0 -173.5 35.5t-78.5 136.5zM336 279q0 -52 28.5 -80.5t84.5 -28.5q83 0 138.5 56t55.5 141v86q-148 -15 -227 -52q-44 -22 -62 -51t-18 -71z" />
    <glyph glyph-name="b" unicode="b" horiz-adv-x="1114" 
d="M121 1417h276v-555q57 71 126.5 110.5t166.5 39.5q155 0 246.5 -104t91.5 -287v-252q0 -184 -93 -289t-249 -105q-57 0 -106 14t-87 40t-64.5 52.5t-53.5 61.5l-19 -143h-235v1417zM582 805q-77 0 -132 -57t-55 -146v-215q0 -90 55 -147.5t132 -57.5q81 0 127.5 53
t46.5 146v225q0 93 -46.5 146t-127.5 53z" />
    <glyph glyph-name="c" unicode="c" horiz-adv-x="999" 
d="M522 193q158 0 158 176v8h254v-35q0 -165 -106 -268t-304 -103q-213 0 -331.5 123.5t-118.5 339.5v117q0 215 120.5 340t329.5 125q199 0 304.5 -102t105.5 -271v-37h-254v10q0 85 -39.5 132t-118.5 47q-85 0 -130.5 -60t-45.5 -162v-161q0 -102 45.5 -160.5t130.5 -58.5
z" />
    <glyph glyph-name="d" unicode="d" horiz-adv-x="1114" 
d="M717 1417h276v-1417h-237l-17 154q-57 -84 -132.5 -131.5t-184.5 -47.5q-154 0 -246 104.5t-92 287.5v251q0 184 93 289t249 105q170 0 291 -142v547zM532 805q-81 0 -127.5 -53t-46.5 -146v-225q0 -93 46.5 -146t127.5 -53q78 0 131.5 57t53.5 146v215q0 91 -53.5 148
t-131.5 57z" />
    <glyph glyph-name="e" unicode="e" horiz-adv-x="1024" 
d="M954 305q0 -146 -112 -240t-314 -94q-223 0 -338.5 120.5t-115.5 338.5v123q0 209 118 336t326 127q214 0 326 -123.5t112 -329.5v-135h-622v-37q0 -203 198 -203q89 0 133 36.5t44 86.5v8h245v-14zM334 596v-16h358v16q0 103 -42 154t-132 51q-184 0 -184 -205z" />
    <glyph glyph-name="f" unicode="f" horiz-adv-x="733" 
d="M715 1417v-207h-88q-78 0 -112 -31t-34 -96v-96h219v-213h-219v-774h-274v774h-162v213h162v113q0 317 373 317h135z" />
    <glyph glyph-name="g" unicode="g" horiz-adv-x="1038" 
d="M1020 -63q0 -132 -128.5 -202.5t-367.5 -70.5q-485 0 -485 201q0 61 51 102t152 56v4q-158 55 -158 159q0 99 174 170q-160 83 -160 277v41q0 159 113 244.5t305 85.5q87 0 164 -25q74 28 100 67.5t29 114.5h195q22 -55 22 -96q0 -72 -52.5 -108t-164.5 -56
q66 -46 96.5 -102t30.5 -144v-28q0 -160 -111 -242t-309 -82q-84 0 -147 14q-66 -30 -66 -63q0 -55 207 -55h80q232 0 331 -68t99 -194zM518 479q150 0 150 142v63q0 69 -37.5 106t-112.5 37q-151 0 -151 -141v-63q0 -144 151 -144zM526 -186q131 0 194.5 19t63.5 63
q0 39 -56 56t-181 17h-35q-240 0 -240 -80q0 -40 61 -57.5t193 -17.5z" />
    <glyph glyph-name="h" unicode="h" horiz-adv-x="1112" 
d="M121 1417h276v-567q128 162 308 162q137 0 216.5 -86.5t79.5 -235.5v-690h-278v635q0 70 -35 109.5t-104 39.5q-79 0 -133 -56.5t-54 -129.5v-598h-276v1417z" />
    <glyph glyph-name="i" unicode="i" horiz-adv-x="526" 
d="M121 1376h287v-233h-287v233zM125 987h276v-987h-276v987z" />
    <glyph glyph-name="j" unicode="j" horiz-adv-x="530" 
d="M125 1376h287v-233h-287v233zM129 987h279v-977q0 -338 -388 -338h-71v199h20q94 0 127 36.5t33 110.5v969z" />
    <glyph glyph-name="k" unicode="k" horiz-adv-x="1040" 
d="M121 1417h276v-911l301 481h297l-270 -403l289 -584h-299l-187 395l-131 -205v-190h-276v1417z" />
    <glyph glyph-name="l" unicode="l" horiz-adv-x="526" 
d="M125 1417h276v-1417h-276v1417z" />
    <glyph glyph-name="m" unicode="m" horiz-adv-x="1683" 
d="M397 602v-602h-276v987h235l21 -162q42 59 82.5 97t101.5 64t135 26q97 0 165.5 -45.5t99.5 -128.5q62 83 137.5 128.5t181.5 45.5q136 0 214.5 -85t78.5 -231v-696h-279v641q0 66 -33 104.5t-98 38.5q-79 0 -128.5 -54t-49.5 -128v-602h-278v641q0 66 -32 104.5
t-97 38.5q-79 0 -130 -54.5t-51 -127.5z" />
    <glyph glyph-name="n" unicode="n" horiz-adv-x="1112" 
d="M121 987h235l21 -166q63 91 141 141t187 50q137 0 216.5 -86.5t79.5 -235.5v-690h-278v635q0 70 -35 109.5t-104 39.5q-79 0 -133 -56.5t-54 -129.5v-598h-276v987z" />
    <glyph glyph-name="o" unicode="o" horiz-adv-x="1054" 
d="M528 1018q210 0 332.5 -119t122.5 -338v-139q0 -217 -123 -335t-332 -118q-210 0 -333 118t-123 335v139q0 219 123 338t333 119zM528 801q-86 0 -135 -54t-49 -145v-217q0 -92 49.5 -145.5t134.5 -53.5q83 0 132 53.5t49 145.5v217q0 91 -48.5 145t-132.5 54z" />
    <glyph glyph-name="p" unicode="p" horiz-adv-x="1114" 
d="M121 987h237l17 -153q60 84 133.5 131t181.5 47q155 0 246.5 -104t91.5 -287v-252q0 -184 -93 -289t-249 -105q-168 0 -289 142v-441h-276v1311zM582 805q-77 0 -132 -57t-55 -146v-215q0 -90 55 -147.5t132 -57.5q81 0 127.5 53t46.5 146v225q0 93 -46.5 146t-127.5 53z
" />
    <glyph glyph-name="q" unicode="q" horiz-adv-x="1110" 
d="M424 1012q108 0 179.5 -45.5t133.5 -122.5l15 143h239v-1311h-278v449q-57 -71 -126.5 -110.5t-166.5 -39.5q-154 0 -246 104.5t-92 287.5v251q0 184 93 289t249 105zM530 805q-81 0 -127.5 -54t-46.5 -145v-225q0 -94 45.5 -146.5t128.5 -52.5q77 0 131 57t54 146v215
q0 90 -54 147.5t-131 57.5z" />
    <glyph glyph-name="r" unicode="r" horiz-adv-x="768" 
d="M121 987h235l21 -209q88 223 278 223q48 0 84 -8v-274q-52 10 -104 10q-105 0 -171.5 -59t-66.5 -154v-516h-276v987z" />
    <glyph glyph-name="s" unicode="s" horiz-adv-x="946" 
d="M473 -29q-212 0 -312 88t-100 244v37h234v-25q0 -68 44.5 -106.5t137.5 -38.5q75 0 113.5 27t38.5 69q0 45 -40.5 69.5t-168.5 63.5q-176 42 -259 111.5t-83 198.5q0 132 105.5 218.5t291.5 86.5t288.5 -84t102.5 -232v-32h-229v14q0 65 -43.5 100t-122.5 35
q-66 0 -103.5 -25.5t-37.5 -66.5q0 -45 42 -69t167 -60q87 -21 148 -46t107.5 -61t68.5 -86.5t22 -117.5q0 -138 -107 -225t-305 -87z" />
    <glyph glyph-name="t" unicode="t" horiz-adv-x="755" 
d="M35 987h155v197l277 67v-264h244v-213h-244v-414q0 -86 29.5 -118.5t113.5 -32.5h47v-209h-122q-180 0 -262.5 79.5t-82.5 237.5v457h-155v213z" />
    <glyph glyph-name="u" unicode="u" horiz-adv-x="1112" 
d="M113 987h276v-637q0 -69 35 -108t104 -39q80 0 133.5 56.5t53.5 129.5v598h278v-987h-235l-23 166q-64 -92 -140 -142.5t-185 -50.5q-138 0 -217.5 87t-79.5 235v692z" />
    <glyph glyph-name="v" unicode="v" horiz-adv-x="1013" 
d="M25 987h288l199 -678h4l199 678h274l-336 -989h-293z" />
    <glyph glyph-name="w" unicode="w" horiz-adv-x="1513" 
d="M27 987h280l158 -665h4l170 665h248l172 -665h4l158 665h266l-293 -989h-258l-178 639h-4l-176 -639h-261z" />
    <glyph glyph-name="x" unicode="x" horiz-adv-x="983" 
d="M666 0l-187 332l-182 -332h-285l314 504l-306 483h306l178 -317l174 317h285l-306 -489l314 -498h-305z" />
    <glyph glyph-name="y" unicode="y" horiz-adv-x="1013" 
d="M27 987h284l207 -686h4l195 686h274l-315 -932q-27 -73 -47.5 -120.5t-49.5 -95.5t-60.5 -76t-75.5 -51t-100.5 -32.5t-129.5 -9.5h-98v199h30q93 0 142 23.5t67 84.5l11 35z" />
    <glyph glyph-name="z" unicode="z" horiz-adv-x="925" 
d="M84 987h778v-143l-446 -621h434v-223h-782v143l450 627h-434v217z" />
    <glyph glyph-name="braceleft" unicode="{" horiz-adv-x="851" 
d="M662 1563h165v-183h-84q-76 0 -128.5 -11t-80.5 -32.5t-39.5 -46.5t-11.5 -59q0 -42 19 -94.5t42.5 -93.5t42.5 -92.5t19 -92.5q0 -90 -68.5 -148.5t-228.5 -86.5v-7q160 -28 228.5 -86.5t68.5 -148.5q0 -41 -19 -92.5t-42.5 -92.5t-42.5 -93.5t-19 -94.5q0 -71 57 -111
t203 -40h84v-181h-165q-120 0 -207.5 24.5t-135 67.5t-69 92.5t-21.5 106.5q0 50 15.5 102t38 95.5t45 84.5t38 83.5t15.5 77.5q0 60 -61.5 94.5t-184.5 34.5h-61v161h61q123 0 184.5 34.5t61.5 94.5q0 35 -15.5 77.5t-38 83.5t-45 84.5t-38 95.5t-15.5 102q0 57 21.5 106.5
t69 92.5t135 67.5t207.5 24.5z" />
    <glyph glyph-name="bar" unicode="|" horiz-adv-x="684" 
d="M233 1561h218v-1885h-218v1885z" />
    <glyph glyph-name="braceright" unicode="}" horiz-adv-x="851" 
d="M25 1563h168q96 0 171.5 -16.5t123.5 -44.5t79 -66t43.5 -78.5t12.5 -85.5q0 -50 -15.5 -102t-38 -95.5t-45 -84.5t-38 -83.5t-15.5 -77.5q0 -60 62.5 -94.5t183.5 -34.5h61v-161h-61q-121 0 -183.5 -34.5t-62.5 -94.5q0 -35 15.5 -77.5t38 -83.5t45 -84.5t38 -95.5
t15.5 -102q0 -45 -12.5 -85.5t-43.5 -78.5t-79 -66t-123.5 -44.5t-171.5 -16.5h-168v181h84q146 0 203 40t57 111q0 42 -19 94.5t-42.5 93.5t-42.5 92.5t-19 92.5q0 90 69 148.5t230 86.5v7q-161 28 -230 86.5t-69 148.5q0 41 19 92.5t42.5 92.5t42.5 93.5t19 94.5
q0 34 -11.5 59t-39.5 46.5t-80.5 32.5t-128.5 11h-84v183z" />
    <glyph glyph-name="asciitilde" unicode="~" horiz-adv-x="1191" 
d="M362 940q79 0 144 -38.5t131 -104.5q9 -9 28 -27.5t28 -27t25 -23.5t26 -21.5t23.5 -15t25.5 -11.5t24 -3q39 0 59.5 30t20.5 84q0 59 -25 150h177q43 -88 43 -211q0 -58 -14.5 -109t-44.5 -95t-83 -69.5t-123 -25.5q-74 0 -136 35t-126 96q-10 10 -34 34.5t-35 35
t-30.5 28t-32 25t-28.5 14t-30 6.5q-39 0 -59.5 -30.5t-20.5 -85.5q0 -65 22 -150h-176q-41 93 -41 213q0 57 14.5 108t44 94.5t82 69t121.5 25.5z" />
    <glyph glyph-name="asciitilde" unicode="&#x223c;" horiz-adv-x="1191" 
d="M362 940q79 0 144 -38.5t131 -104.5q9 -9 28 -27.5t28 -27t25 -23.5t26 -21.5t23.5 -15t25.5 -11.5t24 -3q39 0 59.5 30t20.5 84q0 59 -25 150h177q43 -88 43 -211q0 -58 -14.5 -109t-44.5 -95t-83 -69.5t-123 -25.5q-74 0 -136 35t-126 96q-10 10 -34 34.5t-35 35
t-30.5 28t-32 25t-28.5 14t-30 6.5q-39 0 -59.5 -30.5t-20.5 -85.5q0 -65 22 -150h-176q-41 93 -41 213q0 57 14.5 108t44 94.5t82 69t121.5 25.5z" />
    <glyph glyph-name="uni00A0" unicode="&#xa0;" horiz-adv-x="387" 
 />
    <glyph glyph-name="exclamdown" unicode="&#xa1;" horiz-adv-x="518" 
d="M391 1087h-262v277h262v-277zM395 0h-272v399l96 545h80l96 -545v-399z" />
    <glyph glyph-name="cent" unicode="&#xa2;" horiz-adv-x="1054" 
d="M969 535q0 -141 -80.5 -238.5t-231.5 -124.5v-182h-225v184q-162 32 -250 151t-88 304v108q0 182 89.5 301.5t248.5 153.5v182h225v-180q152 -26 232 -123t80 -242v-32h-262v8q0 78 -41.5 125t-118.5 47q-85 0 -130.5 -60.5t-45.5 -156.5v-154q0 -96 45.5 -156.5
t130.5 -60.5q77 0 118.5 46.5t41.5 123.5v10h262v-34z" />
    <glyph glyph-name="sterling" unicode="&#xa3;" horiz-adv-x="1421" 
d="M1346 344q0 -188 -82.5 -281.5t-270.5 -93.5q-65 0 -124.5 12.5t-114.5 39t-91.5 48.5t-89.5 58q-115 -158 -299 -158q-115 0 -176 58.5t-61 150.5q0 95 67 162.5t189 67.5q99 0 207 -41q10 31 10 71q0 57 -37 144h-305v163h213q-72 137 -72 261q0 169 131 279t375 110
q249 0 366 -108t117 -296v-65h-264v37q0 86 -53 134t-162 48q-100 0 -160.5 -42t-60.5 -124q0 -41 12.5 -87t22 -68t35.5 -79h391v-163h-338q8 -41 8 -97q0 -108 -57 -196q167 -80 270 -80q87 0 124.5 39t37.5 129v59h242v-92zM188 182q0 -33 25.5 -56.5t67.5 -23.5
q99 0 168 109q-87 51 -164 51q-43 0 -70 -23t-27 -57z" />
    <glyph glyph-name="yen" unicode="&#xa5;" horiz-adv-x="1236" 
d="M1116 236h-362v-236h-273v236h-362v151h362v139l-2 6h-360v150h282l-352 682h299l279 -592l278 592h285l-354 -682h280v-150h-358l-4 -6v-139h362v-151z" />
    <glyph glyph-name="section" unicode="&#xa7;" horiz-adv-x="1245" 
d="M1128 -12q0 -73 -27 -132.5t-84.5 -107.5t-157 -75t-234.5 -27q-258 0 -385 104.5t-127 278.5v37h266v-23q0 -164 264 -164q104 0 158.5 29t54.5 74t-43.5 70t-214.5 86q-42 16 -66 24q-240 75 -330.5 145.5t-90.5 190.5q0 170 213 276q-100 53 -141.5 121t-41.5 158
q0 151 119.5 246.5t368.5 95.5q247 0 371 -103.5t124 -275.5v-19h-266v4q0 73 -58.5 117.5t-187.5 44.5q-95 0 -146.5 -29t-51.5 -75q0 -50 52.5 -78.5t254.5 -101.5q240 -73 331 -144.5t91 -191.5q0 -170 -209 -275q109 -54 151.5 -120.5t42.5 -159.5zM770 334q59 27 94 66
t35 81q0 64 -80 106t-336 122q-58 -26 -92.5 -66.5t-34.5 -83.5q0 -64 79 -106t335 -119z" />
    <glyph glyph-name="dieresis" unicode="&#xa8;" horiz-adv-x="1024" 
d="M201 1393h233v-250h-233v250zM590 1393h233v-250h-233v250z" />
    <glyph glyph-name="copyright" unicode="&#xa9;" horiz-adv-x="1724" 
d="M113 682q0 154 56 291t154.5 236t238 156.5t300.5 57.5q160 0 300 -57.5t239 -156.5t156 -236t57 -291t-57 -291t-156 -236t-239 -156.5t-300 -57.5q-161 0 -300.5 57.5t-238 156.5t-154.5 236t-56 291zM1497 682q0 177 -79 322t-225 230t-331 85q-184 0 -330 -85
t-224.5 -230t-78.5 -322t78.5 -322t224.5 -230t330 -85q185 0 331 85t225 230t79 322zM874 1049q139 0 212 -67t73 -179v-25h-162v15q0 47 -31.5 76.5t-91.5 29.5q-73 0 -109 -44.5t-36 -119.5v-106q0 -72 36 -117t109 -45q61 0 92 29t31 77v15h162v-27q0 -111 -74 -178.5
t-211 -67.5q-148 0 -230.5 84t-82.5 226v116q0 141 83 224.5t230 83.5z" />
    <glyph glyph-name="ordfeminine" unicode="&#xaa;" horiz-adv-x="890" 
d="M561 698q-88 -149 -274 -149q-107 0 -168.5 56.5t-61.5 160.5q0 69 27.5 117.5t95.5 81.5q104 52 369 73v43q0 54 -29 80.5t-92 26.5q-59 0 -90 -26.5t-31 -69.5v-19h-213v19q0 126 87 206t261 80q175 0 259.5 -82t84.5 -229v-289q0 -36 14.5 -50t55.5 -15v-152h-86
q-108 0 -148.5 26.5t-60.5 110.5zM293 805q0 -41 27 -63.5t75 -22.5q67 0 110.5 34.5t43.5 94.5v78q-175 -13 -217 -52q-39 -22 -39 -69z" />
    <glyph glyph-name="guillemotleft" unicode="&#xab;" horiz-adv-x="1286" 
d="M483 985h144q-34 -280 -244 -493q210 -207 244 -490h-144q-45 132 -146.5 241.5t-248.5 180.5v137q148 73 249 182.5t146 241.5zM1018 985h143q-37 -284 -243 -493q205 -202 243 -490h-143q-45 132 -146.5 241.5t-248.5 180.5v137q148 73 249 182.5t146 241.5z" />
    <glyph glyph-name="registered" unicode="&#xae;" horiz-adv-x="1060" 
d="M530 1395q194 0 321.5 -127.5t127.5 -313.5q0 -188 -127 -314t-322 -126t-321.5 126t-126.5 314q0 187 127 314t321 127zM530 1323q-166 0 -268 -104t-102 -265q0 -160 102 -265t268 -105t268.5 105t102.5 265q0 161 -102.5 265t-268.5 104zM461 887v-152h-109v447h223
q160 0 160 -148q0 -101 -82 -133l86 -166h-116l-78 152h-84zM461 1094v-123h90q72 0 72 61q0 34 -17 48t-55 14h-90z" />
    <glyph glyph-name="macron" unicode="&#xaf;" horiz-adv-x="1024" 
d="M184 1341h656v-163h-656v163z" />
    <glyph glyph-name="degree" unicode="&#xb0;" horiz-adv-x="903" 
d="M449 1397q178 0 280 -102.5t102 -274.5q0 -170 -102.5 -272.5t-279.5 -102.5q-179 0 -281 101.5t-102 273.5t102 274.5t281 102.5zM449 1214q-87 0 -133 -50.5t-46 -143.5q0 -92 46.5 -142.5t132.5 -50.5t131 50t45 143t-44.5 143.5t-131.5 50.5z" />
    <glyph glyph-name="plusminus" unicode="&#xb1;" horiz-adv-x="1044" 
d="M416 1243h213v-289h295v-202h-295v-291h-213v291h-295v202h295v289zM121 319h803v-202h-803v202z" />
    <glyph glyph-name="two.sup" unicode="&#xb2;" 
d="M684 598h-627v47q0 146 57.5 227.5t223.5 167.5q102 55 130 80t28 72q0 86 -113 86q-64 0 -98.5 -29.5t-34.5 -83.5v-39h-193v50q0 121 84.5 193.5t249.5 72.5q159 0 234 -67t75 -177q0 -91 -53 -150t-207 -141q-93 -49 -124.5 -75t-32.5 -60h401v-174z" />
    <glyph glyph-name="three.sup" unicode="&#xb3;" 
d="M383 1442q150 0 233.5 -64.5t83.5 -165.5v-16q0 -69 -46 -114.5t-126 -63.5q179 -29 179 -189v-14q0 -103 -86 -169t-240 -66q-167 0 -250.5 67t-83.5 184v48h191v-37q0 -48 34.5 -74.5t102.5 -26.5q61 0 94 25t33 68v22q0 44 -35 65t-111 21h-73v141h73q142 0 142 86v19
q0 44 -32.5 69t-92.5 25q-66 0 -100.5 -28.5t-34.5 -73.5v-39h-189v49q0 113 85 182.5t249 69.5z" />
    <glyph glyph-name="acute" unicode="&#xb4;" horiz-adv-x="1021" 
d="M758 1546l-322 -403h-170l178 403h314z" />
    <glyph glyph-name="paragraph" unicode="&#xb6;" horiz-adv-x="1460" 
d="M1321 1364v-1688h-191v1454h-169v-1454h-189v646h-104q-285 0 -439.5 139t-154.5 366v31q0 225 156 365.5t438 140.5h653zM772 1130h-72q-233 0 -233 -256v-90q0 -120 58 -186t175 -66h72v598z" />
    <glyph glyph-name="periodcentered" unicode="&#xb7;" horiz-adv-x="458" 
d="M90 836h279v-306h-279v306z" />
    <glyph glyph-name="cedilla" unicode="&#xb8;" horiz-adv-x="1021" 
d="M788 -336q0 -103 -74 -158t-206 -55q-148 0 -270 51l30 86q99 -30 181 -30q133 0 133 100q0 92 -107 92q-43 0 -104 -22l-41 71l172 219h116l-147 -180q53 17 94 17q101 0 162 -52.5t61 -138.5z" />
    <glyph glyph-name="one.sup" unicode="&#xb9;" horiz-adv-x="632" 
d="M307 1430h150v-832h-213v567h-172v158h75q76 0 112 25.5t48 81.5z" />
    <glyph glyph-name="ordmasculine" unicode="&#xba;" horiz-adv-x="915" 
d="M457 1380q180 0 283.5 -99t103.5 -277v-91q0 -180 -103 -278t-284 -98q-179 0 -282 98.5t-103 277.5v91q0 178 103 277t282 99zM457 1180q-63 0 -98 -38t-35 -100v-168q0 -61 35 -98t98 -37q62 0 98.5 37t36.5 98v168q0 61 -36 99.5t-99 38.5z" />
    <glyph glyph-name="guillemotright" unicode="&#xbb;" horiz-adv-x="1282" 
d="M797 2h-144q37 282 244 492q-207 210 -244 491h144q46 -133 147 -242t248 -182v-135q-146 -73 -247.5 -182.5t-147.5 -241.5zM266 2h-143q37 282 244 492q-207 210 -244 491h143q46 -133 147.5 -242t248.5 -182v-135q-146 -73 -248 -182.5t-148 -241.5z" />
    <glyph glyph-name="onequarter" unicode="&#xbc;" horiz-adv-x="1587" 
d="M307 1376h150v-831h-213v567h-172v158h75q76 0 112 25t48 81zM1251 1364l-821 -1364h-156l822 1364h155zM1196 825h254v-506h106v-153h-106v-166h-188v166h-414v147zM1262 319v353l-228 -353h228z" />
    <glyph glyph-name="onehalf" unicode="&#xbd;" horiz-adv-x="1675" 
d="M307 1376h150v-831h-213v567h-172v158h75q76 0 112 25t48 81zM1251 1364l-821 -1364h-156l822 1364h155zM1604 0h-625v47q0 146 57.5 227.5t223.5 167.5q100 54 127.5 79.5t27.5 72.5q0 86 -110 86q-66 0 -101 -29.5t-35 -83.5v-39h-190v50q0 121 84 193.5t248 72.5
q159 0 234 -67t75 -177q0 -92 -52.5 -150.5t-205.5 -140.5q-94 -49 -125.5 -75t-34.5 -62h402v-172z" />
    <glyph glyph-name="threequarters" unicode="&#xbe;" horiz-adv-x="1728" 
d="M383 1389q150 0 233.5 -64.5t83.5 -165.5v-16q0 -69 -46 -114.5t-126 -63.5q179 -29 179 -189v-14q0 -103 -86 -169.5t-240 -66.5q-166 0 -250 67.5t-84 184.5v47h191v-37q0 -100 137 -100q61 0 94 24.5t33 67.5v23q0 44 -35 65t-111 21h-73v141h73q142 0 142 86v19
q0 44 -32.5 69t-92.5 25q-66 0 -100.5 -29t-34.5 -74v-39h-189v50q0 113 85 182.5t249 69.5zM1393 1364l-824 -1364h-153l821 1364h156zM1335 825h256v-506h105v-153h-105v-166h-188v166h-416v147zM1403 319v353l-227 -353h227z" />
    <glyph glyph-name="questiondown" unicode="&#xbf;" horiz-adv-x="1091" 
d="M729 1364v-277h-262v277h262zM53 342q0 117 55.5 198t213.5 169q56 32 85.5 53.5t46.5 51t21.5 57t7.5 81.5h232q0 -160 -43 -239.5t-180 -169.5q-88 -52 -120 -89.5t-32 -97.5q0 -139 201 -139q136 0 187.5 50t51.5 149v59h260v-78q0 -68 -13.5 -126.5t-49 -115.5
t-91 -97t-145.5 -64.5t-206 -24.5q-131 0 -226.5 29t-150 82t-80 117.5t-25.5 144.5z" />
    <glyph glyph-name="Agrave" unicode="&#xc0;" horiz-adv-x="1333" 
d="M250 1907h315l193 -357h-185zM983 0l-80 258h-487l-80 -258h-289l453 1372h334l452 -1372h-303zM657 1040l-172 -557h349l-172 557h-5z" />
    <glyph glyph-name="Aacute" unicode="&#xc1;" horiz-adv-x="1333" 
d="M1083 1907l-323 -357h-185l193 357h315zM983 0l-80 258h-487l-80 -258h-289l453 1372h334l452 -1372h-303zM657 1040l-172 -557h349l-172 557h-5z" />
    <glyph glyph-name="Acircumflex" unicode="&#xc2;" horiz-adv-x="1333" 
d="M526 1882h283q49 -184 219 -268v-98q-109 19 -207.5 73.5t-152.5 118.5q-54 -63 -153 -118t-208 -74v98q171 86 219 268zM983 0l-80 258h-487l-80 -258h-289l453 1372h334l452 -1372h-303zM657 1040l-172 -557h349l-172 557h-5z" />
    <glyph glyph-name="Atilde" unicode="&#xc3;" horiz-adv-x="1333" 
d="M500 1878q95 0 188 -78q6 -5 25.5 -21t26.5 -21.5t23.5 -17t26 -16t23.5 -8.5t27 -4q34 0 52.5 23.5t18.5 64.5q0 26 -10 68h105q18 -81 18 -135q0 -97 -50 -157t-140 -60q-96 0 -195 83q-5 4 -28.5 23.5t-31 25t-25.5 17t-31.5 15t-28.5 3.5q-33 0 -52.5 -24t-19.5 -64
q0 -27 10 -69h-104q-19 86 -19 135q0 96 50.5 156.5t140.5 60.5zM983 0l-80 258h-487l-80 -258h-289l453 1372h334l452 -1372h-303zM657 1040l-172 -557h349l-172 557h-5z" />
    <glyph glyph-name="Adieresis" unicode="&#xc4;" horiz-adv-x="1333" 
d="M348 1798h236v-248h-236v248zM752 1798h233v-248h-233v248zM983 0l-80 258h-487l-80 -258h-289l453 1372h334l452 -1372h-303zM657 1040l-172 -557h349l-172 557h-5z" />
    <glyph glyph-name="Aring" unicode="&#xc5;" horiz-adv-x="1333" 
d="M981 0l-80 258h-485l-80 -258h-289l440 1335q-77 64 -77 168q0 95 70.5 161.5t185.5 66.5q117 0 186.5 -65.5t69.5 -162.5q0 -101 -76 -168l440 -1335h-305zM666 1630q-65 0 -103.5 -37t-38.5 -90q0 -55 38.5 -92t103.5 -37q67 0 105 37t38 92q0 54 -38.5 90.5
t-104.5 36.5zM659 1038l-172 -555h344z" />
    <glyph glyph-name="AE" unicode="&#xc6;" horiz-adv-x="1894" 
d="M-20 0l727 1364h1101v-252h-645v-301h498v-238h-498v-321h645v-252h-934v270h-450l-137 -270h-307zM870 1135l-338 -656h342v656h-4z" />
    <glyph glyph-name="Ccedilla" unicode="&#xc7;" horiz-adv-x="1282" 
d="M915 -336q0 -103 -74 -158t-206 -55q-151 0 -273 51l31 86q102 -30 180 -30q134 0 134 100q0 92 -107 92q-44 0 -102 -22l-41 71l135 174q-230 23 -360 175t-130 391v286q0 258 154 413t418 155q253 0 384.5 -123t131.5 -336v-68h-289v56q0 102 -61 161.5t-168 59.5
q-130 0 -201.5 -84.5t-71.5 -224.5v-302q0 -138 71.5 -224.5t201.5 -86.5q107 0 168 59.5t61 161.5v56h289v-68q0 -201 -125 -325.5t-360 -133.5l-109 -133q53 17 96 17q101 0 162 -52.5t61 -138.5z" />
    <glyph glyph-name="Egrave" unicode="&#xc8;" horiz-adv-x="1167" 
d="M231 1898h316l192 -356h-184zM147 1364h932v-252h-645v-301h500v-238h-500v-321h647v-252h-934v1364z" />
    <glyph glyph-name="Eacute" unicode="&#xc9;" horiz-adv-x="1167" 
d="M1004 1898l-322 -356h-186l192 356h316zM147 1364h932v-252h-645v-301h500v-238h-500v-321h647v-252h-934v1364z" />
    <glyph glyph-name="Ecircumflex" unicode="&#xca;" horiz-adv-x="1167" 
d="M469 1874h283q49 -184 219 -268v-99q-109 19 -208 74t-153 119q-54 -64 -152.5 -119t-207.5 -74v99q170 84 219 268zM147 1364h932v-252h-645v-301h500v-238h-500v-321h647v-252h-934v1364z" />
    <glyph glyph-name="Edieresis" unicode="&#xcb;" horiz-adv-x="1167" 
d="M293 1790h233v-248h-233v248zM694 1790h234v-248h-234v248zM147 1364h932v-252h-645v-301h500v-238h-500v-321h647v-252h-934v1364z" />
    <glyph glyph-name="Igrave" unicode="&#xcc;" horiz-adv-x="604" 
d="M-113 1898h316l190 -356h-184zM156 1364h295v-1364h-295v1364z" />
    <glyph glyph-name="Iacute" unicode="&#xcd;" horiz-adv-x="604" 
d="M719 1898l-324 -356h-184l192 356h316zM156 1364h295v-1364h-295v1364z" />
    <glyph glyph-name="Icircumflex" unicode="&#xce;" horiz-adv-x="604" 
d="M164 1874h280q48 -182 222 -268v-99q-110 19 -209.5 74t-153.5 119q-52 -63 -151.5 -118.5t-208.5 -74.5v99q173 86 221 268zM156 1364h295v-1364h-295v1364z" />
    <glyph glyph-name="Idieresis" unicode="&#xcf;" horiz-adv-x="604" 
d="M-14 1790h233v-248h-233v248zM389 1790h234v-248h-234v248zM156 1364h295v-1364h-295v1364z" />
    <glyph glyph-name="Eth" unicode="&#xd0;" horiz-adv-x="1331" 
d="M1227 530q0 -250 -143 -390t-416 -140h-521v608h-161v152h161v604h521q273 0 416 -143.5t143 -395.5v-295zM442 244h201q144 0 216.5 80t72.5 221v274q0 142 -72.5 221.5t-216.5 79.5h-201v-360h263v-152h-263v-364z" />
    <glyph glyph-name="Ntilde" unicode="&#xd1;" horiz-adv-x="1376" 
d="M522 1870q96 0 189 -78q7 -6 25.5 -21t26 -21.5t23 -17.5t26 -15.5t24 -8.5t26.5 -4q34 0 53 23.5t19 64.5q0 26 -10 68h102q21 -71 21 -136q0 -97 -51 -157t-142 -60q-56 0 -101 22.5t-94 61.5q-7 6 -28.5 23.5t-30.5 24.5t-25.5 17.5t-31 14.5t-29.5 4q-33 0 -52.5 -24
t-19.5 -64q0 -23 11 -69h-103q-20 68 -20 135q0 97 50.5 157t141.5 60zM147 1364h293l525 -875h4l-2 875h264v-1364h-289l-530 885h-4l4 -885h-265v1364z" />
    <glyph glyph-name="Ograve" unicode="&#xd2;" horiz-adv-x="1353" 
d="M301 1909h315l191 -359h-184zM678 1395q267 0 420 -149.5t153 -430.5v-266q0 -281 -153 -430.5t-420 -149.5q-269 0 -422.5 149.5t-153.5 430.5v266q0 281 153.5 430.5t422.5 149.5zM678 1143q-279 0 -279 -320v-282q0 -320 279 -320q276 0 276 320v282q0 320 -276 320z
" />
    <glyph glyph-name="Oacute" unicode="&#xd3;" horiz-adv-x="1353" 
d="M1073 1909l-323 -359h-185l193 359h315zM678 1395q267 0 420 -149.5t153 -430.5v-266q0 -281 -153 -430.5t-420 -149.5q-269 0 -422.5 149.5t-153.5 430.5v266q0 281 153.5 430.5t422.5 149.5zM678 1143q-279 0 -279 -320v-282q0 -320 279 -320q276 0 276 320v282
q0 320 -276 320z" />
    <glyph glyph-name="Ocircumflex" unicode="&#xd4;" horiz-adv-x="1353" 
d="M539 1884h280q49 -186 221 -268v-98q-111 18 -209.5 72.5t-152.5 119.5q-52 -64 -151.5 -119t-209.5 -73v98q169 81 222 268zM678 1395q267 0 420 -149.5t153 -430.5v-266q0 -281 -153 -430.5t-420 -149.5q-269 0 -422.5 149.5t-153.5 430.5v266q0 281 153.5 430.5
t422.5 149.5zM678 1143q-279 0 -279 -320v-282q0 -320 279 -320q276 0 276 320v282q0 320 -276 320z" />
    <glyph glyph-name="Otilde" unicode="&#xd5;" horiz-adv-x="1353" 
d="M512 1880q90 0 188 -78q7 -5 30 -24.5t32.5 -26.5t27.5 -18.5t32.5 -16t29.5 -4.5q33 0 52.5 24t19.5 64q0 24 -11 70h103q20 -68 20 -135q0 -97 -50.5 -157t-141.5 -60q-95 0 -195 84q-4 4 -23.5 20t-25.5 20t-22 15t-25 14.5t-22.5 7.5t-26.5 4q-34 0 -53 -23.5
t-19 -64.5q0 -25 10 -67h-102q-21 71 -21 135q0 97 51 157t142 60zM678 1395q267 0 420 -149.5t153 -430.5v-266q0 -281 -153 -430.5t-420 -149.5q-269 0 -422.5 149.5t-153.5 430.5v266q0 281 153.5 430.5t422.5 149.5zM678 1143q-279 0 -279 -320v-282q0 -320 279 -320
q276 0 276 320v282q0 320 -276 320z" />
    <glyph glyph-name="Odieresis" unicode="&#xd6;" horiz-adv-x="1353" 
d="M360 1800h234v-250h-234v250zM762 1800h235v-250h-235v250zM678 1395q267 0 420 -149.5t153 -430.5v-266q0 -281 -153 -430.5t-420 -149.5q-269 0 -422.5 149.5t-153.5 430.5v266q0 281 153.5 430.5t422.5 149.5zM678 1143q-279 0 -279 -320v-282q0 -320 279 -320
q276 0 276 320v282q0 320 -276 320z" />
    <glyph glyph-name="multiply" unicode="&#xd7;" horiz-adv-x="1056" 
d="M958 414l-157 -152l-273 268l-272 -268l-156 152l273 270l-273 268l156 154l272 -268l273 268l157 -154l-274 -268z" />
    <glyph glyph-name="Oslash" unicode="&#xd8;" horiz-adv-x="1353" 
d="M678 -31q-211 0 -350 92l-117 -161l-121 84l125 180q-113 151 -113 385v266q0 281 153.5 430.5t422.5 149.5q205 0 348 -90l115 159l121 -84l-123 -180q112 -142 112 -385v-266q0 -281 -153 -430.5t-420 -149.5zM391 541q0 -65 17 -131l458 680q-66 55 -188 55
q-287 0 -287 -322v-282zM963 823q0 70 -17 133l-459 -680q69 -57 191 -57q285 0 285 322v282z" />
    <glyph glyph-name="Ugrave" unicode="&#xd9;" horiz-adv-x="1320" 
d="M283 1894h317l191 -356h-185zM131 1364h295v-877q0 -127 62.5 -194.5t179.5 -67.5t179 67.5t62 194.5v877h281v-864q0 -255 -134.5 -393t-396.5 -138q-265 0 -396.5 136t-131.5 395v864z" />
    <glyph glyph-name="Uacute" unicode="&#xda;" horiz-adv-x="1320" 
d="M1057 1894l-324 -356h-184l192 356h316zM131 1364h295v-877q0 -127 62.5 -194.5t179.5 -67.5t179 67.5t62 194.5v877h281v-864q0 -255 -134.5 -393t-396.5 -138q-265 0 -396.5 136t-131.5 395v864z" />
    <glyph glyph-name="Ucircumflex" unicode="&#xdb;" horiz-adv-x="1320" 
d="M520 1872h283q48 -185 221 -268v-101q-110 19 -209 74t-153 119q-52 -63 -152 -118.5t-209 -74.5v101q170 82 219 268zM131 1364h295v-877q0 -127 62.5 -194.5t179.5 -67.5t179 67.5t62 194.5v877h281v-864q0 -255 -134.5 -393t-396.5 -138q-265 0 -396.5 136t-131.5 395
v864z" />
    <glyph glyph-name="Udieresis" unicode="&#xdc;" horiz-adv-x="1320" 
d="M344 1788h234v-250h-234v250zM745 1788h236v-250h-236v250zM131 1364h295v-877q0 -127 62.5 -194.5t179.5 -67.5t179 67.5t62 194.5v877h281v-864q0 -255 -134.5 -393t-396.5 -138q-265 0 -396.5 136t-131.5 395v864z" />
    <glyph glyph-name="Yacute" unicode="&#xdd;" horiz-adv-x="1245" 
d="M1028 1894l-323 -356h-185l193 356h315zM25 1364h323l281 -582l280 582h312l-453 -844v-520h-295v520z" />
    <glyph glyph-name="Thorn" unicode="&#xde;" horiz-adv-x="1222" 
d="M147 1364h295v-238h271q219 0 335.5 -103.5t116.5 -285.5v-106q0 -183 -116.5 -286t-335.5 -103h-273v-242h-293v1364zM440 899v-430h217q111 0 162 44.5t51 135.5v70q0 180 -215 180h-215z" />
    <glyph glyph-name="germandbls" unicode="&#xdf;" horiz-adv-x="1128" 
d="M567 1427q200 0 311 -94t111 -258v-41q0 -198 -178 -262v-4q236 -68 236 -322v-104q0 -172 -97 -263t-278 -91q-84 0 -170 16v162q18 -2 57 -2q197 0 197 186v103q0 105 -56.5 157.5t-181.5 53.5v157q115 4 163 48t48 141v49q0 81 -41 125.5t-121 44.5q-82 0 -127 -53
t-45 -154v-1022h-274v991q0 211 115.5 323.5t330.5 112.5z" />
    <glyph glyph-name="agrave" unicode="&#xe0;" horiz-adv-x="1036" 
d="M172 1554h313l181 -401h-174zM659 168q-56 -92 -132 -138t-185 -46q-128 0 -200 67.5t-72 196.5q0 85 34 145.5t117 102.5q129 63 422 92v69q0 142 -141 142q-70 0 -107 -34t-37 -97v-21h-243v25q0 72 23 132.5t69.5 108.5t124 75.5t178.5 27.5q203 0 303 -99.5
t100 -275.5v-393q0 -45 19.5 -62t73.5 -22v-168h-95q-117 0 -173.5 35.5t-78.5 136.5zM336 279q0 -52 28.5 -80.5t84.5 -28.5q83 0 138.5 56t55.5 141v86q-148 -15 -227 -52q-44 -22 -62 -51t-18 -71z" />
    <glyph glyph-name="aacute" unicode="&#xe1;" horiz-adv-x="1036" 
d="M879 1554l-320 -401h-172l180 401h312zM659 168q-56 -92 -132 -138t-185 -46q-128 0 -200 67.5t-72 196.5q0 85 34 145.5t117 102.5q129 63 422 92v69q0 142 -141 142q-70 0 -107 -34t-37 -97v-21h-243v25q0 72 23 132.5t69.5 108.5t124 75.5t178.5 27.5q203 0 303 -99.5
t100 -275.5v-393q0 -45 19.5 -62t73.5 -22v-168h-95q-117 0 -173.5 35.5t-78.5 136.5zM336 279q0 -52 28.5 -80.5t84.5 -28.5q83 0 138.5 56t55.5 141v86q-148 -15 -227 -52q-44 -22 -62 -51t-18 -71z" />
    <glyph glyph-name="acircumflex" unicode="&#xe2;" horiz-adv-x="1036" 
d="M397 1532h238q34 -130 84.5 -206t136.5 -114v-94q-103 7 -195.5 68t-144.5 151q-52 -90 -144 -151t-194 -68v94q85 39 135.5 115t83.5 205zM659 168q-56 -92 -132 -138t-185 -46q-128 0 -200 67.5t-72 196.5q0 85 34 145.5t117 102.5q129 63 422 92v69q0 142 -141 142
q-70 0 -107 -34t-37 -97v-21h-243v25q0 72 23 132.5t69.5 108.5t124 75.5t178.5 27.5q203 0 303 -99.5t100 -275.5v-393q0 -45 19.5 -62t73.5 -22v-168h-95q-117 0 -173.5 35.5t-78.5 136.5zM336 279q0 -52 28.5 -80.5t84.5 -28.5q83 0 138.5 56t55.5 141v86
q-148 -15 -227 -52q-44 -22 -62 -51t-18 -71z" />
    <glyph glyph-name="atilde" unicode="&#xe3;" horiz-adv-x="1036" 
d="M360 1503q15 0 29.5 -2t29 -7.5t24.5 -9t25 -14t21.5 -14.5t22 -17.5t18.5 -16.5t19.5 -19t17.5 -17q65 -65 111 -65q29 0 49.5 21.5t20.5 64.5q0 17 -3.5 50t-3.5 34h105q20 -93 20 -148q0 -98 -52 -160.5t-140 -62.5q-86 0 -168 78q-9 8 -29.5 28.5t-31 29.5
t-27.5 21.5t-32.5 17.5t-31.5 5q-28 0 -47.5 -20.5t-19.5 -62.5q0 -9 6 -84h-105q-22 81 -22 147q0 98 53 160.5t141 62.5zM659 168q-56 -92 -132 -138t-185 -46q-128 0 -200 67.5t-72 196.5q0 85 34 145.5t117 102.5q129 63 422 92v69q0 142 -141 142q-70 0 -107 -34
t-37 -97v-21h-243v25q0 72 23 132.5t69.5 108.5t124 75.5t178.5 27.5q203 0 303 -99.5t100 -275.5v-393q0 -45 19.5 -62t73.5 -22v-168h-95q-117 0 -173.5 35.5t-78.5 136.5zM336 279q0 -52 28.5 -80.5t84.5 -28.5q83 0 138.5 56t55.5 141v86q-148 -15 -227 -52
q-44 -22 -62 -51t-18 -71z" />
    <glyph glyph-name="adieresis" unicode="&#xe4;" horiz-adv-x="1036" 
d="M205 1403h233v-250h-233v250zM594 1403h235v-250h-235v250zM659 168q-56 -92 -132 -138t-185 -46q-128 0 -200 67.5t-72 196.5q0 85 34 145.5t117 102.5q129 63 422 92v69q0 142 -141 142q-70 0 -107 -34t-37 -97v-21h-243v25q0 72 23 132.5t69.5 108.5t124 75.5
t178.5 27.5q203 0 303 -99.5t100 -275.5v-393q0 -45 19.5 -62t73.5 -22v-168h-95q-117 0 -173.5 35.5t-78.5 136.5zM336 279q0 -52 28.5 -80.5t84.5 -28.5q83 0 138.5 56t55.5 141v86q-148 -15 -227 -52q-44 -22 -62 -51t-18 -71z" />
    <glyph glyph-name="aring" unicode="&#xe5;" horiz-adv-x="1036" 
d="M516 1565q113 0 183.5 -66t70.5 -162q0 -97 -70.5 -163t-183.5 -66t-183.5 66t-70.5 163q0 96 70.5 162t183.5 66zM516 1464q-64 0 -102.5 -36.5t-38.5 -90.5t38.5 -91.5t102.5 -37.5t102.5 37.5t38.5 91.5t-38.5 90.5t-102.5 36.5zM659 168q-56 -92 -132 -138t-185 -46
q-128 0 -200 67.5t-72 196.5q0 85 34 145.5t117 102.5q129 63 422 92v69q0 142 -141 142q-70 0 -107 -34t-37 -97v-21h-243v25q0 72 23 132.5t69.5 108.5t124 75.5t178.5 27.5q203 0 303 -99.5t100 -275.5v-393q0 -45 19.5 -62t73.5 -22v-168h-95q-117 0 -173.5 35.5
t-78.5 136.5zM336 279q0 -52 28.5 -80.5t84.5 -28.5q83 0 138.5 56t55.5 141v86q-148 -15 -227 -52q-44 -22 -62 -51t-18 -71z" />
    <glyph glyph-name="ae" unicode="&#xe6;" horiz-adv-x="1613" 
d="M1544 305q0 -146 -112 -240t-314 -94q-282 0 -381 199q-122 -197 -364 -197q-150 0 -227.5 69t-77.5 198q0 87 32.5 147.5t118.5 101.5q133 66 428 95v69q0 71 -33 106.5t-112 35.5q-70 0 -107 -33.5t-37 -95.5v-23h-245v25q0 152 96 248t287 96q220 0 309 -140
q57 71 140 107.5t177 36.5q209 0 316.5 -123.5t107.5 -329.5v-135h-622v-37q0 -203 198 -203q87 0 131.5 36.5t44.5 86.5v8h246v-14zM924 596v-16h360l-2 16q0 103 -42 154t-132 51q-184 0 -184 -205zM336 270q0 -52 31 -82t88 -30q86 0 139 54.5t53 139.5v97
q-152 -15 -231 -52q-46 -23 -63 -53t-17 -74z" />
    <glyph glyph-name="ccedilla" unicode="&#xe7;" horiz-adv-x="999" 
d="M772 -336q0 -103 -74.5 -158t-205.5 -55q-151 0 -273 51l31 86q99 -30 180 -30q133 0 133 100q0 92 -106 92q-44 0 -105 -22l-39 71l138 176q-181 22 -279 142.5t-98 316.5v117q0 215 120.5 340t329.5 125q199 0 304.5 -102t105.5 -271v-37h-254v10q0 85 -39.5 132
t-118.5 47q-85 0 -130.5 -60t-45.5 -162v-161q0 -102 45.5 -160.5t130.5 -58.5q158 0 158 176v8h254v-35q0 -157 -95.5 -258t-275.5 -111l-110 -135q53 17 94 17q101 0 163 -52.5t62 -138.5z" />
    <glyph glyph-name="egrave" unicode="&#xe8;" horiz-adv-x="1024" 
d="M176 1554h313l181 -403h-174zM954 305q0 -146 -112 -240t-314 -94q-223 0 -338.5 120.5t-115.5 338.5v123q0 209 118 336t326 127q214 0 326 -123.5t112 -329.5v-135h-622v-37q0 -203 198 -203q89 0 133 36.5t44 86.5v8h245v-14zM334 596v-16h358v16q0 103 -42 154
t-132 51q-184 0 -184 -205z" />
    <glyph glyph-name="eacute" unicode="&#xe9;" horiz-adv-x="1024" 
d="M883 1554l-320 -403h-172l180 403h312zM954 305q0 -146 -112 -240t-314 -94q-223 0 -338.5 120.5t-115.5 338.5v123q0 209 118 336t326 127q214 0 326 -123.5t112 -329.5v-135h-622v-37q0 -203 198 -203q89 0 133 36.5t44 86.5v8h245v-14zM334 596v-16h358v16
q0 103 -42 154t-132 51q-184 0 -184 -205z" />
    <glyph glyph-name="ecircumflex" unicode="&#xea;" horiz-adv-x="1024" 
d="M401 1530h238q34 -129 84.5 -205t136.5 -113v-94q-103 6 -195 67t-145 152q-53 -90 -144.5 -151.5t-193.5 -67.5v94q85 37 135 113t84 205zM954 305q0 -146 -112 -240t-314 -94q-223 0 -338.5 120.5t-115.5 338.5v123q0 209 118 336t326 127q214 0 326 -123.5t112 -329.5
v-135h-622v-37q0 -203 198 -203q89 0 133 36.5t44 86.5v8h245v-14zM334 596v-16h358v16q0 103 -42 154t-132 51q-184 0 -184 -205z" />
    <glyph glyph-name="edieresis" unicode="&#xeb;" horiz-adv-x="1024" 
d="M209 1401h233v-250h-233v250zM598 1401h236v-250h-236v250zM954 305q0 -146 -112 -240t-314 -94q-223 0 -338.5 120.5t-115.5 338.5v123q0 209 118 336t326 127q214 0 326 -123.5t112 -329.5v-135h-622v-37q0 -203 198 -203q89 0 133 36.5t44 86.5v8h245v-14zM334 596
v-16h358v16q0 103 -42 154t-132 51q-184 0 -184 -205z" />
    <glyph glyph-name="igrave" unicode="&#xec;" horiz-adv-x="526" 
d="M-141 1546h311l180 -403h-172zM125 987h276v-987h-276v987z" />
    <glyph glyph-name="iacute" unicode="&#xed;" horiz-adv-x="526" 
d="M672 1546l-322 -403h-172l180 403h314zM125 987h276v-987h-276v987z" />
    <glyph glyph-name="icircumflex" unicode="&#xee;" horiz-adv-x="526" 
d="M145 1522h236q34 -129 84.5 -205t136.5 -113v-94q-102 6 -195 67.5t-145 151.5q-53 -90 -144.5 -151.5t-193.5 -67.5v94q85 37 136 113.5t85 204.5zM125 987h276v-987h-276v987z" />
    <glyph glyph-name="idieresis" unicode="&#xef;" horiz-adv-x="526" 
d="M-49 1393h233v-250h-233v250zM342 1393h233v-250h-233v250zM125 987h276v-987h-276v987z" />
    <glyph glyph-name="eth" unicode="&#xf0;" horiz-adv-x="1052" 
d="M971 449q0 -222 -116 -351t-335 -129q-208 0 -326 113t-118 330v153q0 213 98.5 324.5t269.5 111.5q167 0 269 -127q-34 149 -125 277l-211 -78l-41 105l176 65q-80 89 -195 162v12h287q62 -43 115 -96l221 82l39 -107l-182 -67q174 -235 174 -563v-217zM524 819
q-82 0 -128 -53t-46 -145v-242q0 -92 45.5 -144.5t128.5 -52.5q81 0 128.5 53.5t47.5 141.5v246q0 90 -47.5 143t-128.5 53z" />
    <glyph glyph-name="ntilde" unicode="&#xf1;" horiz-adv-x="1112" 
d="M397 1518q41 0 82 -19.5t59 -34.5t56 -52q7 -6 10 -9q33 -33 58.5 -49.5t54.5 -16.5q28 0 47.5 21.5t19.5 64.5q0 3 -6 84h107q20 -92 20 -149q0 -98 -53 -159.5t-141 -61.5q-87 0 -168 77q-7 7 -36 35t-40 37t-33 20t-41 11q-29 0 -49 -21.5t-20 -64.5q0 -3 6 -84h-105
q-20 93 -20 149q0 98 52 160t140 62zM121 987h235l21 -166q63 91 141 141t187 50q137 0 216.5 -86.5t79.5 -235.5v-690h-278v635q0 70 -35 109.5t-104 39.5q-79 0 -133 -56.5t-54 -129.5v-598h-276v987z" />
    <glyph glyph-name="ograve" unicode="&#xf2;" horiz-adv-x="1054" 
d="M184 1556h312l180 -401h-172zM528 1018q210 0 332.5 -119t122.5 -338v-139q0 -217 -123 -335t-332 -118q-210 0 -333 118t-123 335v139q0 219 123 338t333 119zM528 801q-86 0 -135 -54t-49 -145v-217q0 -92 49.5 -145.5t134.5 -53.5q83 0 132 53.5t49 145.5v217
q0 91 -48.5 145t-132.5 54z" />
    <glyph glyph-name="oacute" unicode="&#xf3;" horiz-adv-x="1054" 
d="M891 1556l-322 -401h-172l181 401h313zM528 1018q210 0 332.5 -119t122.5 -338v-139q0 -217 -123 -335t-332 -118q-210 0 -333 118t-123 335v139q0 219 123 338t333 119zM528 801q-86 0 -135 -54t-49 -145v-217q0 -92 49.5 -145.5t134.5 -53.5q83 0 132 53.5t49 145.5
v217q0 91 -48.5 145t-132.5 54z" />
    <glyph glyph-name="ocircumflex" unicode="&#xf4;" horiz-adv-x="1054" 
d="M410 1534h235q33 -129 84.5 -205t136.5 -115v-94q-102 7 -194 68t-144 151q-54 -90 -146 -151t-194 -68v94q87 39 138 115t84 205zM528 1018q210 0 332.5 -119t122.5 -338v-139q0 -217 -123 -335t-332 -118q-210 0 -333 118t-123 335v139q0 219 123 338t333 119zM528 801
q-86 0 -135 -54t-49 -145v-217q0 -92 49.5 -145.5t134.5 -53.5q83 0 132 53.5t49 145.5v217q0 91 -48.5 145t-132.5 54z" />
    <glyph glyph-name="otilde" unicode="&#xf5;" horiz-adv-x="1054" 
d="M371 1505q34 0 63.5 -9t59 -31.5t42 -34t42.5 -41.5q64 -64 112 -64q29 0 49.5 20.5t20.5 63.5q0 34 -8 84h106q21 -97 21 -147q0 -99 -53 -161.5t-142 -62.5q-86 0 -168 78l-28.5 28.5t-31 30t-26.5 21.5t-32 18t-31 5q-29 0 -49.5 -20.5t-20.5 -63.5q0 -34 8 -84h-106
q-21 97 -21 147q0 98 52.5 160.5t140.5 62.5zM528 1018q210 0 332.5 -119t122.5 -338v-139q0 -217 -123 -335t-332 -118q-210 0 -333 118t-123 335v139q0 219 123 338t333 119zM528 801q-86 0 -135 -54t-49 -145v-217q0 -92 49.5 -145.5t134.5 -53.5q83 0 132 53.5t49 145.5
v217q0 91 -48.5 145t-132.5 54z" />
    <glyph glyph-name="odieresis" unicode="&#xf6;" horiz-adv-x="1054" 
d="M215 1405h234v-250h-234v250zM606 1405h234v-250h-234v250zM528 1018q210 0 332.5 -119t122.5 -338v-139q0 -217 -123 -335t-332 -118q-210 0 -333 118t-123 335v139q0 219 123 338t333 119zM528 801q-86 0 -135 -54t-49 -145v-217q0 -92 49.5 -145.5t134.5 -53.5
q83 0 132 53.5t49 145.5v217q0 91 -48.5 145t-132.5 54z" />
    <glyph glyph-name="divide" unicode="&#xf7;" horiz-adv-x="1071" 
d="M406 1151h258v-223h-258v223zM88 784h893v-204h-893v204zM406 436h258v-221h-258v221z" />
    <glyph glyph-name="oslash" unicode="&#xf8;" horiz-adv-x="1054" 
d="M528 -31q-164 0 -274 70l-104 -135l-103 76l113 147q-88 114 -88 295v139q0 219 123 338t333 119q159 0 271 -70l108 135l101 -75l-113 -148q88 -118 88 -299v-139q0 -217 -123 -335t-332 -118zM330 385q0 -34 6 -61l323 442q-51 45 -131 45q-91 0 -144.5 -55.5
t-53.5 -153.5v-217zM723 602q0 35 -6 62l-324 -441q51 -45 135 -45q90 0 142.5 55t52.5 152v217z" />
    <glyph glyph-name="ugrave" unicode="&#xf9;" horiz-adv-x="1112" 
d="M209 1542h311l180 -401h-172zM113 987h276v-637q0 -69 35 -108t104 -39q80 0 133.5 56.5t53.5 129.5v598h278v-987h-235l-23 166q-64 -92 -140 -142.5t-185 -50.5q-138 0 -217.5 87t-79.5 235v692z" />
    <glyph glyph-name="uacute" unicode="&#xfa;" horiz-adv-x="1112" 
d="M915 1542l-321 -401h-172l180 401h313zM113 987h276v-637q0 -69 35 -108t104 -39q80 0 133.5 56.5t53.5 129.5v598h278v-987h-235l-23 166q-64 -92 -140 -142.5t-185 -50.5q-138 0 -217.5 87t-79.5 235v692z" />
    <glyph glyph-name="ucircumflex" unicode="&#xfb;" horiz-adv-x="1112" 
d="M434 1520h236q33 -129 84.5 -206t136.5 -114v-94q-102 7 -194 68t-144 151q-52 -90 -145 -151t-195 -68v94q86 37 136.5 113.5t84.5 206.5zM113 987h276v-637q0 -69 35 -108t104 -39q80 0 133.5 56.5t53.5 129.5v598h278v-987h-235l-23 166q-64 -92 -140 -142.5
t-185 -50.5q-138 0 -217.5 87t-79.5 235v692z" />
    <glyph glyph-name="udieresis" unicode="&#xfc;" horiz-adv-x="1112" 
d="M240 1389h233v-248h-233v248zM631 1389h233v-248h-233v248zM113 987h276v-637q0 -69 35 -108t104 -39q80 0 133.5 56.5t53.5 129.5v598h278v-987h-235l-23 166q-64 -92 -140 -142.5t-185 -50.5q-138 0 -217.5 87t-79.5 235v692z" />
    <glyph glyph-name="yacute" unicode="&#xfd;" horiz-adv-x="1013" 
d="M874 1542l-319 -401h-172l180 401h311zM27 987h284l207 -686h4l195 686h274l-315 -932q-27 -73 -47.5 -120.5t-49.5 -95.5t-60.5 -76t-75.5 -51t-100.5 -32.5t-129.5 -9.5h-98v199h30q93 0 142 23.5t67 84.5l11 35z" />
    <glyph glyph-name="thorn" unicode="&#xfe;" horiz-adv-x="1114" 
d="M121 1417h274v-557q56 72 125 112t168 40q154 0 247 -104.5t93 -286.5v-252q0 -184 -94 -289t-250 -105q-97 0 -164 38t-123 104v-441h-276v1741zM582 805q-77 0 -132 -57t-55 -146v-215q0 -90 55 -147.5t132 -57.5q81 0 127.5 53t46.5 146v225q0 93 -46.5 146t-127.5 53
z" />
    <glyph glyph-name="ydieresis" unicode="&#xff;" horiz-adv-x="1013" 
d="M201 1389h233v-248h-233v248zM590 1389h235v-248h-235v248zM27 987h284l207 -686h4l195 686h274l-315 -932q-27 -73 -47.5 -120.5t-49.5 -95.5t-60.5 -76t-75.5 -51t-100.5 -32.5t-129.5 -9.5h-98v199h30q93 0 142 23.5t67 84.5l11 35z" />
    <glyph glyph-name="Amacron" unicode="&#x100;" horiz-adv-x="1333" 
d="M334 1747h667v-164h-667v164zM983 0l-80 258h-487l-80 -258h-289l453 1372h334l452 -1372h-303zM657 1040l-172 -557h349l-172 557h-5z" />
    <glyph glyph-name="amacron" unicode="&#x101;" horiz-adv-x="1036" 
d="M188 1352h656v-166h-656v166zM659 168q-56 -92 -132 -138t-185 -46q-128 0 -200 67.5t-72 196.5q0 85 34 145.5t117 102.5q129 63 422 92v69q0 142 -141 142q-70 0 -107 -34t-37 -97v-21h-243v25q0 72 23 132.5t69.5 108.5t124 75.5t178.5 27.5q203 0 303 -99.5
t100 -275.5v-393q0 -45 19.5 -62t73.5 -22v-168h-95q-117 0 -173.5 35.5t-78.5 136.5zM336 279q0 -52 28.5 -80.5t84.5 -28.5q83 0 138.5 56t55.5 141v86q-148 -15 -227 -52q-44 -22 -62 -51t-18 -71z" />
    <glyph glyph-name="Abreve" unicode="&#x102;" horiz-adv-x="1333" 
d="M666 1733q206 0 206 114q0 12 -4 62h99q24 -66 24 -133q0 -118 -88 -183t-237 -65q-148 0 -236 65t-88 183q0 64 25 133h98q-4 -50 -4 -62q0 -114 205 -114zM983 0l-80 258h-487l-80 -258h-289l453 1372h334l452 -1372h-303zM657 1040l-172 -557h349l-172 557h-5z" />
    <glyph glyph-name="abreve" unicode="&#x103;" horiz-adv-x="1036" 
d="M516 1343q95 0 142 32.5t47 101.5q0 17 -7 82h101q22 -90 22 -150q0 -132 -81 -205.5t-224 -73.5t-224 73.5t-81 205.5q0 60 22 150h101q-6 -55 -6 -82q0 -134 188 -134zM659 168q-56 -92 -132 -138t-185 -46q-128 0 -200 67.5t-72 196.5q0 85 34 145.5t117 102.5
q129 63 422 92v69q0 142 -141 142q-70 0 -107 -34t-37 -97v-21h-243v25q0 72 23 132.5t69.5 108.5t124 75.5t178.5 27.5q203 0 303 -99.5t100 -275.5v-393q0 -45 19.5 -62t73.5 -22v-168h-95q-117 0 -173.5 35.5t-78.5 136.5zM336 279q0 -52 28.5 -80.5t84.5 -28.5
q83 0 138.5 56t55.5 141v86q-148 -15 -227 -52q-44 -22 -62 -51t-18 -71z" />
    <glyph glyph-name="Aogonek" unicode="&#x104;" horiz-adv-x="1333" 
d="M1376 -481q-91 -68 -221 -68q-107 0 -173.5 52t-66.5 141q0 51 27 106q22 44 71 95.5t163 154.5h-193l-80 258h-487l-80 -258h-289l453 1372h334l452 -1372q-107 -145 -133 -197q-27 -58 -27 -114q0 -54 28.5 -82.5t82.5 -28.5q47 0 100 27zM657 1040l-172 -557h349
l-172 557h-5z" />
    <glyph glyph-name="aogonek" unicode="&#x105;" horiz-adv-x="1036" 
d="M1096 -481q-91 -68 -222 -68q-107 0 -173 52t-66 141q0 51 27 106q21 42 71 96t158 150q-106 3 -158.5 39.5t-73.5 132.5q-56 -92 -132 -138t-185 -46q-128 0 -200 67.5t-72 196.5q0 85 34 145.5t117 102.5q129 63 422 92v69q0 142 -141 142q-70 0 -107 -34t-37 -97v-21
h-243v25q0 72 23 132.5t69.5 108.5t124 75.5t178.5 27.5q203 0 303 -99.5t100 -275.5v-393q0 -45 19.5 -62t73.5 -22v-168q-110 -145 -134 -193q-26 -56 -26 -114q0 -111 112 -111q46 0 99 27zM336 279q0 -52 28.5 -80.5t84.5 -28.5q83 0 138.5 56t55.5 141v86
q-148 -15 -227 -52q-44 -22 -62 -51t-18 -71z" />
    <glyph glyph-name="Cacute" unicode="&#x106;" horiz-adv-x="1282" 
d="M1044 1907l-321 -357h-186l192 357h315zM674 1393q253 0 384.5 -123t131.5 -336v-68h-289v56q0 102 -61 161.5t-168 59.5q-130 0 -201.5 -84.5t-71.5 -224.5v-302q0 -138 71.5 -224.5t201.5 -86.5q107 0 168 59.5t61 161.5v56h289v-68q0 -209 -134.5 -334t-387.5 -125
q-264 0 -415 154.5t-151 413.5v286q0 258 154 413t418 155z" />
    <glyph glyph-name="cacute" unicode="&#x107;" horiz-adv-x="999" 
d="M870 1554l-321 -403h-170l178 403h313zM522 193q158 0 158 176v8h254v-35q0 -165 -106 -268t-304 -103q-213 0 -331.5 123.5t-118.5 339.5v117q0 215 120.5 340t329.5 125q199 0 304.5 -102t105.5 -271v-37h-254v10q0 85 -39.5 132t-118.5 47q-85 0 -130.5 -60
t-45.5 -162v-161q0 -102 45.5 -160.5t130.5 -58.5z" />
    <glyph glyph-name="Cdotaccent" unicode="&#x10a;" horiz-adv-x="1282" 
d="M506 1780h291v-230h-291v230zM674 1393q253 0 384.5 -123t131.5 -336v-68h-289v56q0 102 -61 161.5t-168 59.5q-130 0 -201.5 -84.5t-71.5 -224.5v-302q0 -138 71.5 -224.5t201.5 -86.5q107 0 168 59.5t61 161.5v56h289v-68q0 -209 -134.5 -334t-387.5 -125
q-264 0 -415 154.5t-151 413.5v286q0 258 154 413t418 155z" />
    <glyph glyph-name="cdotaccent" unicode="&#x10b;" horiz-adv-x="999" 
d="M362 1382h291v-231h-291v231zM522 193q158 0 158 176v8h254v-35q0 -165 -106 -268t-304 -103q-213 0 -331.5 123.5t-118.5 339.5v117q0 215 120.5 340t329.5 125q199 0 304.5 -102t105.5 -271v-37h-254v10q0 85 -39.5 132t-118.5 47q-85 0 -130.5 -60t-45.5 -162v-161
q0 -102 45.5 -160.5t130.5 -58.5z" />
    <glyph glyph-name="Ccaron" unicode="&#x10c;" horiz-adv-x="1282" 
d="M291 1917q109 -18 207.5 -73t152.5 -120q54 65 153 120t208 73v-98q-169 -81 -219 -269h-283q-50 188 -219 269v98zM674 1393q253 0 384.5 -123t131.5 -336v-68h-289v56q0 102 -61 161.5t-168 59.5q-130 0 -201.5 -84.5t-71.5 -224.5v-302q0 -138 71.5 -224.5
t201.5 -86.5q107 0 168 59.5t61 161.5v56h289v-68q0 -209 -134.5 -334t-387.5 -125q-264 0 -415 154.5t-151 413.5v286q0 258 154 413t418 155z" />
    <glyph glyph-name="ccaron" unicode="&#x10d;" horiz-adv-x="999" 
d="M168 1565q102 -7 195 -68t145 -151q52 90 144 151t194 68v-95q-85 -37 -135 -113t-84 -206h-238q-34 130 -84.5 206t-136.5 113v95zM522 193q158 0 158 176v8h254v-35q0 -165 -106 -268t-304 -103q-213 0 -331.5 123.5t-118.5 339.5v117q0 215 120.5 340t329.5 125
q199 0 304.5 -102t105.5 -271v-37h-254v10q0 85 -39.5 132t-118.5 47q-85 0 -130.5 -60t-45.5 -162v-161q0 -102 45.5 -160.5t130.5 -58.5z" />
    <glyph glyph-name="Dcaron" unicode="&#x10e;" horiz-adv-x="1333" 
d="M272 1909q109 -19 208 -74t153 -119q54 64 152.5 119t207.5 74v-99q-170 -84 -219 -268h-282q-48 181 -220 268v99zM147 1364h521q272 0 416.5 -144t144.5 -395v-295q0 -250 -145 -390t-418 -140h-519v1364zM442 1118v-872h205q142 0 213.5 81t71.5 222v266
q0 142 -72 222.5t-215 80.5h-203z" />
    <glyph glyph-name="dcaron" unicode="&#x10f;" horiz-adv-x="1114" 
d="M1135 1417h241l-121 -346h-137zM717 1417h276v-1417h-237l-17 154q-57 -84 -132.5 -131.5t-184.5 -47.5q-154 0 -246 104.5t-92 287.5v251q0 184 93 289t249 105q170 0 291 -142v547zM532 805q-81 0 -127.5 -53t-46.5 -146v-225q0 -93 46.5 -146t127.5 -53q78 0 131.5 57
t53.5 146v215q0 91 -53.5 148t-131.5 57z" />
    <glyph glyph-name="Dcroat" unicode="&#x110;" horiz-adv-x="1331" 
d="M1227 530q0 -250 -143 -390t-416 -140h-521v608h-161v152h161v604h521q273 0 416 -143.5t143 -395.5v-295zM442 244h201q144 0 216.5 80t72.5 221v274q0 142 -72.5 221.5t-216.5 79.5h-201v-360h263v-152h-263v-364z" />
    <glyph glyph-name="dcroat" unicode="&#x111;" horiz-adv-x="1114" 
d="M739 154q-57 -84 -132.5 -131.5t-184.5 -47.5q-154 0 -246 103t-92 284v252q0 182 93 286t249 104q170 0 291 -142v266h-271v119h271v170h276v-170h148v-119h-148v-1128h-237zM532 795q-82 0 -128 -52.5t-46 -144.5v-219q0 -91 46 -143t128 -52q78 0 131.5 55.5
t53.5 143.5v209q0 89 -53.5 146t-131.5 57z" />
    <glyph glyph-name="Emacron" unicode="&#x112;" horiz-adv-x="1167" 
d="M276 1739h668v-164h-668v164zM147 1364h932v-252h-645v-301h500v-238h-500v-321h647v-252h-934v1364z" />
    <glyph glyph-name="emacron" unicode="&#x113;" horiz-adv-x="1024" 
d="M193 1350h655v-164h-655v164zM954 305q0 -146 -112 -240t-314 -94q-223 0 -338.5 120.5t-115.5 338.5v123q0 209 118 336t326 127q214 0 326 -123.5t112 -329.5v-135h-622v-37q0 -203 198 -203q89 0 133 36.5t44 86.5v8h245v-14zM334 596v-16h358v16q0 103 -42 154
t-132 51q-184 0 -184 -205z" />
    <glyph glyph-name="Ebreve" unicode="&#x114;" horiz-adv-x="1167" 
d="M610 1724q205 0 205 115q0 12 -4 62h98q25 -69 25 -134q0 -118 -88 -182.5t-236 -64.5q-149 0 -237 64.5t-88 182.5q0 63 26 134h97q-1 -9 -2 -21t-2 -21.5t-1 -19.5q0 -115 207 -115zM147 1364h932v-252h-645v-301h500v-238h-500v-321h647v-252h-934v1364z" />
    <glyph glyph-name="ebreve" unicode="&#x115;" horiz-adv-x="1024" 
d="M520 1341q189 0 189 136q0 18 -7 79h101q22 -75 22 -147q0 -133 -81 -207t-224 -74t-224 74t-81 207q0 53 23 147h100q-6 -52 -6 -79q0 -136 188 -136zM954 305q0 -146 -112 -240t-314 -94q-223 0 -338.5 120.5t-115.5 338.5v123q0 209 118 336t326 127q214 0 326 -123.5
t112 -329.5v-135h-622v-37q0 -203 198 -203q89 0 133 36.5t44 86.5v8h245v-14zM334 596v-16h358v16q0 103 -42 154t-132 51q-184 0 -184 -205z" />
    <glyph glyph-name="Edotaccent" unicode="&#x116;" horiz-adv-x="1167" 
d="M465 1772h291v-230h-291v230zM147 1364h932v-252h-645v-301h500v-238h-500v-321h647v-252h-934v1364z" />
    <glyph glyph-name="edotaccent" unicode="&#x117;" horiz-adv-x="1024" 
d="M375 1382h291v-231h-291v231zM954 305q0 -146 -112 -240t-314 -94q-223 0 -338.5 120.5t-115.5 338.5v123q0 209 118 336t326 127q214 0 326 -123.5t112 -329.5v-135h-622v-37q0 -203 198 -203q89 0 133 36.5t44 86.5v8h245v-14zM334 596v-16h358v16q0 103 -42 154
t-132 51q-184 0 -184 -205z" />
    <glyph glyph-name="Eogonek" unicode="&#x118;" horiz-adv-x="1167" 
d="M1171 -481q-95 -68 -221 -68q-107 0 -173 52t-66 141q0 53 26 106q23 45 72.5 97.5t161.5 152.5h-824v1364h932v-252h-645v-301h500v-238h-500v-321h647v-252q-107 -145 -133 -197q-28 -60 -28 -114t29 -82.5t83 -28.5q48 0 101 27z" />
    <glyph glyph-name="eogonek" unicode="&#x119;" horiz-adv-x="1024" 
d="M973 -481q-91 -68 -221 -68q-108 0 -174 54t-66 149q0 59 31 119q24 45 59 90t119 139q-98 -31 -193 -31q-223 0 -338.5 120.5t-115.5 338.5v123q0 209 118 336t326 127q214 0 326 -123.5t112 -329.5v-135h-622v-37q0 -203 198 -203q89 0 133 36.5t44 86.5v8h245v-8
q0 -80 -43 -161q-63 -108 -98 -177q-53 -103 -72.5 -161.5t-19.5 -112.5q0 -121 115 -121q48 0 98 23zM334 596v-16h358v16q0 103 -42 154t-132 51q-184 0 -184 -205z" />
    <glyph glyph-name="Ecaron" unicode="&#x11a;" horiz-adv-x="1167" 
d="M250 1909q109 -19 207.5 -74t152.5 -119q54 64 153 119t208 74v-99q-170 -84 -219 -268h-283q-49 184 -219 268v99zM147 1364h932v-252h-645v-301h500v-238h-500v-321h647v-252h-934v1364z" />
    <glyph glyph-name="ecaron" unicode="&#x11b;" horiz-adv-x="1024" 
d="M182 1565q102 -7 194 -68t144 -151q52 90 144.5 151t195.5 68v-95q-86 -37 -136.5 -113t-84.5 -206h-238q-34 130 -84 206t-135 113v95zM954 305q0 -146 -112 -240t-314 -94q-223 0 -338.5 120.5t-115.5 338.5v123q0 209 118 336t326 127q214 0 326 -123.5t112 -329.5
v-135h-622v-37q0 -203 198 -203q89 0 133 36.5t44 86.5v8h245v-14zM334 596v-16h358v16q0 103 -42 154t-132 51q-184 0 -184 -205z" />
    <glyph glyph-name="Gbreve" unicode="&#x11e;" horiz-adv-x="1323" 
d="M666 1735q206 0 206 112q0 12 -4 62h97q24 -62 24 -131q0 -118 -87.5 -184t-235.5 -66q-147 0 -235.5 66t-88.5 184q0 66 25 131h98q-4 -50 -4 -62q0 -112 205 -112zM670 1393q248 0 383 -120t135 -327v-55h-289v29q0 107 -57.5 167t-171.5 60q-129 0 -200 -84.5
t-71 -231.5v-305q0 -145 71.5 -230t193.5 -85q114 0 184 68t70 180v57h-246v203h530v-719h-135l-45 207q-130 -236 -408 -236q-230 0 -371 149.5t-141 403.5v307q0 254 153.5 408t414.5 154z" />
    <glyph glyph-name="gbreve" unicode="&#x11f;" horiz-adv-x="1038" 
d="M512 1350q95 0 141.5 32.5t46.5 102.5q0 25 -6 80h101q22 -75 22 -148q0 -133 -81 -206.5t-224 -73.5t-224 73.5t-81 206.5q0 58 22 148h101q-6 -55 -6 -80q0 -135 188 -135zM1020 -63q0 -132 -128.5 -202.5t-367.5 -70.5q-485 0 -485 201q0 61 51 102t152 56v4
q-158 55 -158 159q0 99 174 170q-160 83 -160 277v41q0 159 113 244.5t305 85.5q87 0 164 -25q74 28 100 67.5t29 114.5h195q22 -55 22 -96q0 -72 -52.5 -108t-164.5 -56q66 -46 96.5 -102t30.5 -144v-28q0 -160 -111 -242t-309 -82q-84 0 -147 14q-66 -30 -66 -63
q0 -55 207 -55h80q232 0 331 -68t99 -194zM518 479q150 0 150 142v63q0 69 -37.5 106t-112.5 37q-151 0 -151 -141v-63q0 -144 151 -144zM526 -186q131 0 194.5 19t63.5 63q0 39 -56 56t-181 17h-35q-240 0 -240 -80q0 -40 61 -57.5t193 -17.5z" />
    <glyph glyph-name="Gdotaccent" unicode="&#x120;" horiz-adv-x="1323" 
d="M522 1780h289v-230h-289v230zM670 1393q248 0 383 -120t135 -327v-55h-289v29q0 107 -57.5 167t-171.5 60q-129 0 -200 -84.5t-71 -231.5v-305q0 -145 71.5 -230t193.5 -85q114 0 184 68t70 180v57h-246v203h530v-719h-135l-45 207q-130 -236 -408 -236
q-230 0 -371 149.5t-141 403.5v307q0 254 153.5 408t414.5 154z" />
    <glyph glyph-name="gdotaccent" unicode="&#x121;" horiz-adv-x="1038" 
d="M367 1389h290v-230h-290v230zM1020 -63q0 -132 -128.5 -202.5t-367.5 -70.5q-485 0 -485 201q0 61 51 102t152 56v4q-158 55 -158 159q0 99 174 170q-160 83 -160 277v41q0 159 113 244.5t305 85.5q87 0 164 -25q74 28 100 67.5t29 114.5h195q22 -55 22 -96
q0 -72 -52.5 -108t-164.5 -56q66 -46 96.5 -102t30.5 -144v-28q0 -160 -111 -242t-309 -82q-84 0 -147 14q-66 -30 -66 -63q0 -55 207 -55h80q232 0 331 -68t99 -194zM518 479q150 0 150 142v63q0 69 -37.5 106t-112.5 37q-151 0 -151 -141v-63q0 -144 151 -144zM526 -186
q131 0 194.5 19t63.5 63q0 39 -56 56t-181 17h-35q-240 0 -240 -80q0 -40 61 -57.5t193 -17.5z" />
    <glyph glyph-name="Gcommaaccent" unicode="&#x122;" horiz-adv-x="1323" 
d="M670 1393q248 0 383 -120t135 -327v-55h-289v29q0 107 -57.5 167t-171.5 60q-129 0 -200 -84.5t-71 -231.5v-305q0 -145 71.5 -230t193.5 -85q114 0 184 68t70 180v57h-246v203h530v-719h-135l-45 207q-130 -236 -408 -236q-230 0 -371 149.5t-141 403.5v307
q0 254 153.5 408t414.5 154zM543 -172h250v-223q0 -112 -72 -185.5t-199 -97.5v70q69 22 111 74t39 126h-129v236z" />
    <glyph glyph-name="gcommaaccent" unicode="&#x123;" horiz-adv-x="1038" 
d="M385 1159v221q0 114 71.5 187.5t198.5 97.5v-70q-68 -21 -109 -73t-40 -127h129v-236h-250zM1020 -63q0 -132 -128.5 -202.5t-367.5 -70.5q-485 0 -485 201q0 61 51 102t152 56v4q-158 55 -158 159q0 99 174 170q-160 83 -160 277v41q0 159 113 244.5t305 85.5
q87 0 164 -25q74 28 100 67.5t29 114.5h195q22 -55 22 -96q0 -72 -52.5 -108t-164.5 -56q66 -46 96.5 -102t30.5 -144v-28q0 -160 -111 -242t-309 -82q-84 0 -147 14q-66 -30 -66 -63q0 -55 207 -55h80q232 0 331 -68t99 -194zM518 479q150 0 150 142v63q0 69 -37.5 106
t-112.5 37q-151 0 -151 -141v-63q0 -144 151 -144zM526 -186q131 0 194.5 19t63.5 63q0 39 -56 56t-181 17h-35q-240 0 -240 -80q0 -40 61 -57.5t193 -17.5z" />
    <glyph glyph-name="Hbar" unicode="&#x126;" horiz-adv-x="1368" 
d="M442 555v-555h-295v1012h-161v151h161v201h295v-209h484v209h295v-201h161v-151h-161v-1012h-295v555h-484zM442 811h484v207h-484v-207z" />
    <glyph glyph-name="hbar" unicode="&#x127;" horiz-adv-x="1105" 
d="M397 592v-592h-276v1128h-150v119h150v170h276v-170h269v-119h-269v-288q123 164 303 164q135 0 214 -86.5t79 -235.5v-682h-276v631q0 70 -34.5 109.5t-102.5 39.5q-77 0 -130 -57.5t-53 -130.5z" />
    <glyph glyph-name="Imacron" unicode="&#x12a;" horiz-adv-x="604" 
d="M-31 1739h670v-164h-670v164zM156 1364h295v-1364h-295v1364z" />
    <glyph glyph-name="imacron" unicode="&#x12b;" horiz-adv-x="526" 
d="M-63 1341h653v-163h-653v163zM125 987h276v-987h-276v987z" />
    <glyph glyph-name="Ibreve" unicode="&#x12c;" horiz-adv-x="604" 
d="M303 1724q207 0 207 115q0 25 -6 62h98q25 -69 25 -134q0 -118 -87.5 -182.5t-236.5 -64.5t-236 64.5t-87 182.5q0 68 24 134h98q-6 -37 -6 -62q0 -115 207 -115zM156 1364h295v-1364h-295v1364z" />
    <glyph glyph-name="ibreve" unicode="&#x12d;" horiz-adv-x="526" 
d="M262 1333q189 0 189 135q0 13 -1 24.5t-2 27t-2 28.5h99q22 -75 22 -147q0 -133 -81 -207t-224 -74q-142 0 -223.5 74t-81.5 207q0 53 23 147h100q-6 -52 -6 -80q0 -135 188 -135zM125 987h276v-987h-276v987z" />
    <glyph glyph-name="Iogonek" unicode="&#x12e;" horiz-adv-x="604" 
d="M106 -250q25 46 72.5 96.5t161.5 153.5h-184v1364h295v-1364q-12 -16 -31 -42t-27 -36.5t-21 -28.5t-18.5 -26.5t-13.5 -21t-13 -22.5l-10 -20q-28 -57 -28 -114q0 -54 29 -82.5t83 -28.5q48 0 101 27l39 -86q-95 -68 -222 -68q-107 0 -173 52t-66 141q0 53 26 106z" />
    <glyph glyph-name="iogonek" unicode="&#x12f;" horiz-adv-x="526" 
d="M121 1376h287v-233h-287v233zM59 -250q23 45 70 95.5t162 154.5h-166v987h276v-987q-11 -15 -30 -42t-26.5 -37t-20 -28.5t-18 -26.5t-13.5 -21t-13 -22.5t-10 -19.5q-28 -57 -28 -114q0 -54 29 -82.5t83 -28.5q46 0 101 27l39 -86q-95 -68 -224 -68q-107 0 -172 51.5
t-65 141.5q0 53 26 106z" />
    <glyph glyph-name="Idotaccent" unicode="&#x130;" horiz-adv-x="604" 
d="M160 1772h289v-230h-289v230zM156 1364h295v-1364h-295v1364z" />
    <glyph glyph-name="dotlessi" unicode="&#x131;" horiz-adv-x="526" 
d="M125 987h276v-987h-276v987z" />
    <glyph glyph-name="Kcommaaccent" unicode="&#x136;" horiz-adv-x="1259" 
d="M895 0l-297 561l-156 -217v-344h-295v1364h295v-666l441 666h334l-410 -582l422 -782h-334zM524 -162h250v-221q0 -114 -71 -187.5t-197 -95.5v68q66 21 108 74.5t41 128.5h-131v233z" />
    <glyph glyph-name="kcommaaccent" unicode="&#x137;" horiz-adv-x="1040" 
d="M121 1417h276v-911l301 481h297l-270 -403l289 -584h-299l-187 395l-131 -205v-190h-276v1417zM424 -162h250v-221q0 -114 -71.5 -187.5t-196.5 -95.5v68q66 21 108 74.5t41 128.5h-131v233z" />
    <glyph glyph-name="Lacute" unicode="&#x139;" horiz-adv-x="1060" 
d="M711 1898l-324 -356h-184l192 356h316zM147 1364h295v-1102h568v-262h-863v1364z" />
    <glyph glyph-name="lacute" unicode="&#x13a;" horiz-adv-x="526" 
d="M672 1913l-322 -404h-172l180 404h314zM125 1417h276v-1417h-276v1417z" />
    <glyph glyph-name="Lcommaaccent" unicode="&#x13b;" horiz-adv-x="1060" 
d="M147 1364h295v-1102h568v-262h-863v1364zM444 -164h250v-223q0 -114 -71.5 -186.5t-198.5 -96.5v68q68 23 110 76t39 127h-129v235z" />
    <glyph glyph-name="lcommaaccent" unicode="&#x13c;" horiz-adv-x="526" 
d="M125 1417h276v-1417h-276v1417zM139 -164h250v-223q0 -114 -71.5 -186.5t-198.5 -96.5v68q68 23 109 75.5t40 127.5h-129v235z" />
    <glyph glyph-name="Lcaron" unicode="&#x13d;" horiz-adv-x="1060" 
d="M610 1364h240l-121 -346h-135zM147 1364h295v-1102h568v-262h-863v1364z" />
    <glyph glyph-name="lcaron" unicode="&#x13e;" horiz-adv-x="526" 
d="M551 1417h242l-121 -346h-137zM125 1417h276v-1417h-276v1417z" />
    <glyph glyph-name="Ldot" unicode="&#x13f;" horiz-adv-x="1060" 
d="M147 1364h295v-1102h568v-262h-863v1364zM717 891h231v-250h-231v250z" />
    <glyph glyph-name="ldot" unicode="&#x140;" horiz-adv-x="741" 
d="M125 1417h276v-1417h-276v1417zM518 825h234v-250h-234v250z" />
    <glyph glyph-name="Lslash" unicode="&#x141;" horiz-adv-x="1079" 
d="M1030 262v-262h-862v487l-123 -71l-76 123l199 114v711h295v-539l280 162l78 -121l-358 -209v-395h567z" />
    <glyph glyph-name="lslash" unicode="&#x142;" horiz-adv-x="565" 
d="M629 856l-207 -133v-723h-279v547l-137 -86q-67 104 -69 104l206 133v719h279v-543l137 89z" />
    <glyph glyph-name="Nacute" unicode="&#x143;" horiz-adv-x="1376" 
d="M1083 1894l-323 -356h-185l193 356h315zM147 1364h293l525 -875h4l-2 875h264v-1364h-289l-530 885h-4l4 -885h-265v1364z" />
    <glyph glyph-name="nacute" unicode="&#x144;" horiz-adv-x="1112" 
d="M915 1571l-319 -404h-172l180 404h311zM121 987h235l21 -166q63 91 141 141t187 50q137 0 216.5 -86.5t79.5 -235.5v-690h-278v635q0 70 -35 109.5t-104 39.5q-79 0 -133 -56.5t-54 -129.5v-598h-276v987z" />
    <glyph glyph-name="Ncommaaccent" unicode="&#x145;" horiz-adv-x="1376" 
d="M147 1364h293l525 -875h4l-2 875h264v-1364h-289l-530 885h-4l4 -885h-265v1364zM559 -162h250v-221q0 -114 -72 -187.5t-198 -95.5v68q68 21 110 74.5t39 128.5h-129v233z" />
    <glyph glyph-name="ncommaaccent" unicode="&#x146;" horiz-adv-x="1112" 
d="M121 987h235l21 -166q63 91 141 141t187 50q137 0 216.5 -86.5t79.5 -235.5v-690h-278v635q0 70 -35 109.5t-104 39.5q-79 0 -133 -56.5t-54 -129.5v-598h-276v987zM428 -162h252v-221q0 -114 -72 -187.5t-198 -95.5v68q67 21 108.5 74.5t40.5 128.5h-131v233z" />
    <glyph glyph-name="Ncaron" unicode="&#x147;" horiz-adv-x="1376" 
d="M328 1905q109 -18 208.5 -73t151.5 -120q54 65 153.5 120t209.5 73v-99q-173 -83 -222 -268h-280q-53 187 -221 268v99zM147 1364h293l525 -875h4l-2 875h264v-1364h-289l-530 885h-4l4 -885h-265v1364z" />
    <glyph glyph-name="ncaron" unicode="&#x148;" horiz-adv-x="1112" 
d="M215 1581q102 -7 194 -68t144 -151q52 90 145 151t195 68v-94q-86 -37 -136.5 -113.5t-84.5 -206.5h-238q-34 130 -84 206.5t-135 113.5v94zM121 987h235l21 -166q63 91 141 141t187 50q137 0 216.5 -86.5t79.5 -235.5v-690h-278v635q0 70 -35 109.5t-104 39.5
q-79 0 -133 -56.5t-54 -129.5v-598h-276v987z" />
    <glyph glyph-name="Omacron" unicode="&#x14c;" horiz-adv-x="1353" 
d="M344 1749h668v-164h-668v164zM678 1395q267 0 420 -149.5t153 -430.5v-266q0 -281 -153 -430.5t-420 -149.5q-269 0 -422.5 149.5t-153.5 430.5v266q0 281 153.5 430.5t422.5 149.5zM678 1143q-279 0 -279 -320v-282q0 -320 279 -320q276 0 276 320v282q0 320 -276 320z
" />
    <glyph glyph-name="omacron" unicode="&#x14d;" horiz-adv-x="1054" 
d="M201 1354h653v-166h-653v166zM528 1018q210 0 332.5 -119t122.5 -338v-139q0 -217 -123 -335t-332 -118q-210 0 -333 118t-123 335v139q0 219 123 338t333 119zM528 801q-86 0 -135 -54t-49 -145v-217q0 -92 49.5 -145.5t134.5 -53.5q83 0 132 53.5t49 145.5v217
q0 91 -48.5 145t-132.5 54z" />
    <glyph glyph-name="Obreve" unicode="&#x14e;" horiz-adv-x="1353" 
d="M678 1735q207 0 207 112q0 27 -6 62h98q24 -62 24 -131q0 -118 -87.5 -184t-235.5 -66q-149 0 -236.5 66t-87.5 184q0 66 25 131h98q-6 -35 -6 -62q0 -112 207 -112zM678 1395q267 0 420 -149.5t153 -430.5v-266q0 -281 -153 -430.5t-420 -149.5q-269 0 -422.5 149.5
t-153.5 430.5v266q0 281 153.5 430.5t422.5 149.5zM678 1143q-279 0 -279 -320v-282q0 -320 279 -320q276 0 276 320v282q0 320 -276 320z" />
    <glyph glyph-name="obreve" unicode="&#x14f;" horiz-adv-x="1054" 
d="M528 1346q94 0 140.5 32t46.5 101q0 8 -4 82h100q23 -94 23 -150q0 -131 -82 -204.5t-224 -73.5q-143 0 -224 73.5t-81 204.5q0 71 23 150h98q-4 -74 -4 -82q0 -69 46.5 -101t141.5 -32zM528 1018q210 0 332.5 -119t122.5 -338v-139q0 -217 -123 -335t-332 -118
q-210 0 -333 118t-123 335v139q0 219 123 338t333 119zM528 801q-86 0 -135 -54t-49 -145v-217q0 -92 49.5 -145.5t134.5 -53.5q83 0 132 53.5t49 145.5v217q0 91 -48.5 145t-132.5 54z" />
    <glyph glyph-name="Ohungarumlaut" unicode="&#x150;" horiz-adv-x="1353" 
d="M850 1909l-283 -359h-166l189 359h260zM1212 1909l-282 -359h-166l188 359h260zM678 1395q267 0 420 -149.5t153 -430.5v-266q0 -281 -153 -430.5t-420 -149.5q-269 0 -422.5 149.5t-153.5 430.5v266q0 281 153.5 430.5t422.5 149.5zM678 1143q-279 0 -279 -320v-282
q0 -320 279 -320q276 0 276 320v282q0 320 -276 320z" />
    <glyph glyph-name="ohungarumlaut" unicode="&#x151;" horiz-adv-x="1054" 
d="M700 1556l-284 -401h-156l176 401h264zM1053 1556l-285 -401h-154l177 401h262zM528 1018q210 0 332.5 -119t122.5 -338v-139q0 -217 -123 -335t-332 -118q-210 0 -333 118t-123 335v139q0 219 123 338t333 119zM528 801q-86 0 -135 -54t-49 -145v-217q0 -92 49.5 -145.5
t134.5 -53.5q83 0 132 53.5t49 145.5v217q0 91 -48.5 145t-132.5 54z" />
    <glyph glyph-name="OE" unicode="&#x152;" horiz-adv-x="1910" 
d="M1825 0h-1161q-273 0 -416.5 144t-143.5 395v295q0 250 143.5 390t416.5 140h1159v-252h-645v-301h499v-238h-499v-321h647v-252zM688 1120q-142 0 -214.5 -80t-72.5 -221v-274q0 -141 72.5 -221t214.5 -80h203v876h-203z" />
    <glyph glyph-name="oe" unicode="&#x153;" horiz-adv-x="1660" 
d="M1165 -29q-227 0 -323 146q-111 -148 -318 -148q-208 0 -330 118.5t-122 334.5v139q0 217 122 336t330 119q216 0 322 -152q52 72 135 112t190 40q209 0 314.5 -123t105.5 -330v-135h-622v-37q0 -99 50.5 -151t149.5 -52q88 0 132.5 36.5t44.5 86.5v8h243v-14
q0 -146 -111 -240t-313 -94zM969 596v-16h360v16q0 103 -42 154t-132 51t-138 -51.5t-48 -153.5zM524 799q-84 0 -132 -53.5t-48 -143.5v-217q0 -91 48.5 -144t131.5 -53t130.5 53t47.5 144v217q0 90 -47 143.5t-131 53.5z" />
    <glyph glyph-name="Racute" unicode="&#x154;" horiz-adv-x="1275" 
d="M1020 1898l-322 -356h-186l193 356h315zM440 498v-498h-293v1364h594q212 0 325.5 -101.5t113.5 -279.5v-104q0 -127 -65 -218t-181 -133l291 -528h-318l-268 498h-199zM440 1130v-405h238q209 0 209 164v78q0 163 -205 163h-242z" />
    <glyph glyph-name="racute" unicode="&#x155;" horiz-adv-x="768" 
d="M786 1559l-319 -404h-172l180 404h311zM121 987h235l21 -209q88 223 278 223q48 0 84 -8v-274q-52 10 -104 10q-105 0 -171.5 -59t-66.5 -154v-516h-276v987z" />
    <glyph glyph-name="Rcommaaccent" unicode="&#x156;" horiz-adv-x="1275" 
d="M440 498v-498h-293v1364h594q212 0 325.5 -101.5t113.5 -279.5v-104q0 -127 -65 -218t-181 -133l291 -528h-318l-268 498h-199zM440 1130v-405h238q209 0 209 164v78q0 163 -205 163h-242zM530 -162h250v-221q0 -114 -71.5 -187.5t-196.5 -95.5v68q67 21 108.5 74.5
t38.5 128.5h-129v233z" />
    <glyph glyph-name="rcommaaccent" unicode="&#x157;" horiz-adv-x="768" 
d="M121 987h235l21 -209q88 223 278 223q48 0 84 -8v-274q-52 10 -104 10q-105 0 -171.5 -59t-66.5 -154v-516h-276v987zM135 -164h250v-223q0 -114 -71.5 -186.5t-198.5 -96.5v68q68 23 109 75.5t40 127.5h-129v235z" />
    <glyph glyph-name="Rcaron" unicode="&#x158;" horiz-adv-x="1275" 
d="M266 1909q109 -19 208 -74t153 -119q54 64 152.5 119t207.5 74v-99q-170 -84 -219 -268h-283q-49 184 -219 268v99zM440 498v-498h-293v1364h594q212 0 325.5 -101.5t113.5 -279.5v-104q0 -127 -65 -218t-181 -133l291 -528h-318l-268 498h-199zM440 1130v-405h238
q209 0 209 164v78q0 163 -205 163h-242z" />
    <glyph glyph-name="rcaron" unicode="&#x159;" horiz-adv-x="768" 
d="M86 1569q102 -7 194 -68t144 -151q52 90 145 151t195 68v-96q-86 -37 -136.5 -112.5t-84.5 -205.5h-236q-33 129 -84.5 205t-136.5 113v96zM121 987h235l21 -209q88 223 278 223q48 0 84 -8v-274q-52 10 -104 10q-105 0 -171.5 -59t-66.5 -154v-516h-276v987z" />
    <glyph glyph-name="Sacute" unicode="&#x15a;" horiz-adv-x="1234" 
d="M1014 1903l-322 -357h-186l192 357h316zM627 1389q254 0 384 -111t130 -301v-45h-291v39q0 80 -57.5 130t-174.5 50q-99 0 -152.5 -39.5t-53.5 -105.5q0 -74 57 -111t242 -98q174 -49 269 -103.5t136 -128t41 -186.5q0 -190 -143.5 -297t-382.5 -107q-266 0 -399.5 111
t-133.5 307v62h291v-41q0 -96 63.5 -148.5t186.5 -52.5q107 0 165 39t58 110q0 34 -8.5 57t-25 42.5t-56.5 38.5t-86.5 36t-130.5 44q-244 65 -341 155t-97 258q0 177 137 286.5t373 109.5z" />
    <glyph glyph-name="sacute" unicode="&#x15b;" horiz-adv-x="946" 
d="M829 1554l-319 -403h-172l180 403h311zM473 -29q-212 0 -312 88t-100 244v37h234v-25q0 -68 44.5 -106.5t137.5 -38.5q75 0 113.5 27t38.5 69q0 45 -40.5 69.5t-168.5 63.5q-176 42 -259 111.5t-83 198.5q0 132 105.5 218.5t291.5 86.5t288.5 -84t102.5 -232v-32h-229v14
q0 65 -43.5 100t-122.5 35q-66 0 -103.5 -25.5t-37.5 -66.5q0 -45 42 -69t167 -60q87 -21 148 -46t107.5 -61t68.5 -86.5t22 -117.5q0 -138 -107 -225t-305 -87z" />
    <glyph glyph-name="Scedilla" unicode="&#x15e;" horiz-adv-x="1234" 
d="M885 -336q0 -103 -74.5 -158t-206.5 -55q-150 0 -272 51l30 86q102 -30 181 -30q133 0 133 100q0 92 -107 92q-44 0 -102 -22l-41 71l137 178q-231 13 -348 123t-117 293v62h291v-41q0 -96 63.5 -148.5t186.5 -52.5q107 0 165 39t58 110q0 34 -8.5 57t-25 42.5
t-56.5 38.5t-86.5 36t-130.5 44q-244 65 -341 155t-97 258q0 177 137 286.5t373 109.5q254 0 384 -111t130 -301v-45h-291v39q0 80 -57.5 130t-174.5 50q-99 0 -152.5 -39.5t-53.5 -105.5q0 -74 57 -111t242 -98q174 -49 269 -103.5t136 -128t41 -186.5q0 -180 -130 -286.5
t-349 -117.5l-113 -137q53 17 97 17q101 0 162 -52.5t61 -138.5z" />
    <glyph glyph-name="scedilla" unicode="&#x15f;" horiz-adv-x="946" 
d="M731 -336q0 -103 -74 -158t-206 -55q-149 0 -271 51l31 86q99 -30 180 -30q133 0 133 100q0 92 -106 92q-47 0 -105 -22l-41 71l138 174q-179 13 -264 100t-85 230v37h234v-25q0 -68 44.5 -106.5t137.5 -38.5q75 0 113.5 27t38.5 69q0 45 -40.5 69.5t-168.5 63.5
q-176 42 -259 111.5t-83 198.5q0 132 105.5 218.5t291.5 86.5t288.5 -84t102.5 -232v-32h-229v14q0 65 -43.5 100t-122.5 35q-66 0 -103.5 -25.5t-37.5 -66.5q0 -45 42 -69t167 -60q87 -21 148 -46t107.5 -61t68.5 -86.5t22 -117.5q0 -129 -93.5 -214.5t-269.5 -97.5
l-110 -133q57 17 96 17q101 0 162 -52.5t61 -138.5z" />
    <glyph glyph-name="Scaron" unicode="&#x160;" horiz-adv-x="1234" 
d="M260 1913q109 -18 208 -73t153 -120q54 65 152.5 120t207.5 73v-98q-169 -81 -219 -269h-283q-50 188 -219 269v98zM627 1389q254 0 384 -111t130 -301v-45h-291v39q0 80 -57.5 130t-174.5 50q-99 0 -152.5 -39.5t-53.5 -105.5q0 -74 57 -111t242 -98q174 -49 269 -103.5
t136 -128t41 -186.5q0 -190 -143.5 -297t-382.5 -107q-266 0 -399.5 111t-133.5 307v62h291v-41q0 -96 63.5 -148.5t186.5 -52.5q107 0 165 39t58 110q0 34 -8.5 57t-25 42.5t-56.5 38.5t-86.5 36t-130.5 44q-244 65 -341 155t-97 258q0 177 137 286.5t373 109.5z" />
    <glyph glyph-name="scaron" unicode="&#x161;" horiz-adv-x="946" 
d="M129 1565q102 -7 194 -68t144 -151q52 90 145 151t195 68v-97q-86 -37 -136.5 -112.5t-84.5 -204.5h-236q-33 128 -84.5 204t-136.5 113v97zM473 -29q-212 0 -312 88t-100 244v37h234v-25q0 -68 44.5 -106.5t137.5 -38.5q75 0 113.5 27t38.5 69q0 45 -40.5 69.5
t-168.5 63.5q-176 42 -259 111.5t-83 198.5q0 132 105.5 218.5t291.5 86.5t288.5 -84t102.5 -232v-32h-229v14q0 65 -43.5 100t-122.5 35q-66 0 -103.5 -25.5t-37.5 -66.5q0 -45 42 -69t167 -60q87 -21 148 -46t107.5 -61t68.5 -86.5t22 -117.5q0 -138 -107 -225t-305 -87z
" />
    <glyph glyph-name="Tcommaaccent" unicode="&#x162;" horiz-adv-x="1191" 
d="M59 1364h1074v-258h-390v-1106h-292v1106h-392v258zM471 -164h252v-223q0 -114 -71.5 -186.5t-198.5 -96.5v68q68 23 109 75.5t40 127.5h-131v235z" />
    <glyph glyph-name="Tcommaaccent" unicode="&#x21a;" horiz-adv-x="1191" 
d="M59 1364h1074v-258h-390v-1106h-292v1106h-392v258zM471 -164h252v-223q0 -114 -71.5 -186.5t-198.5 -96.5v68q68 23 109 75.5t40 127.5h-131v235z" />
    <glyph glyph-name="tcommaaccent" unicode="&#x163;" horiz-adv-x="755" 
d="M35 987h155v197l277 67v-264h244v-213h-244v-414q0 -86 29.5 -118.5t113.5 -32.5h47v-209h-122q-180 0 -262.5 79.5t-82.5 237.5v457h-155v213zM285 -164h250v-223q0 -113 -72 -186t-199 -97v68q68 23 109.5 75.5t40.5 127.5h-129v235z" />
    <glyph glyph-name="tcommaaccent" unicode="&#x21b;" horiz-adv-x="755" 
d="M35 987h155v197l277 67v-264h244v-213h-244v-414q0 -86 29.5 -118.5t113.5 -32.5h47v-209h-122q-180 0 -262.5 79.5t-82.5 237.5v457h-155v213zM285 -164h250v-223q0 -113 -72 -186t-199 -97v68q68 23 109.5 75.5t40.5 127.5h-129v235z" />
    <glyph glyph-name="Tcaron" unicode="&#x164;" horiz-adv-x="1191" 
d="M236 1909q109 -19 208.5 -74.5t151.5 -118.5q54 64 153 119t209 74v-99q-173 -86 -221 -268h-282q-49 184 -219 268v99zM59 1364h1074v-258h-390v-1106h-292v1106h-392v258z" />
    <glyph glyph-name="tcaron" unicode="&#x165;" horiz-adv-x="755" 
d="M600 1456h242l-121 -346h-137zM35 987h155v197l277 67v-264h244v-213h-244v-414q0 -86 29.5 -118.5t113.5 -32.5h47v-209h-122q-180 0 -262.5 79.5t-82.5 237.5v457h-155v213z" />
    <glyph glyph-name="Umacron" unicode="&#x16a;" horiz-adv-x="1320" 
d="M328 1737h667v-164h-667v164zM131 1364h295v-877q0 -127 62.5 -194.5t179.5 -67.5t179 67.5t62 194.5v877h281v-864q0 -255 -134.5 -393t-396.5 -138q-265 0 -396.5 136t-131.5 395v864z" />
    <glyph glyph-name="umacron" unicode="&#x16b;" horiz-adv-x="1112" 
d="M225 1337h654v-163h-654v163zM113 987h276v-637q0 -69 35 -108t104 -39q80 0 133.5 56.5t53.5 129.5v598h278v-987h-235l-23 166q-64 -92 -140 -142.5t-185 -50.5q-138 0 -217.5 87t-79.5 235v692z" />
    <glyph glyph-name="Ubreve" unicode="&#x16c;" horiz-adv-x="1320" 
d="M662 1722q206 0 206 113q0 23 -6 61h99q24 -62 24 -133q0 -117 -87.5 -182t-235.5 -65q-149 0 -236.5 65t-87.5 182q0 71 24 133h99q-6 -38 -6 -61q0 -113 207 -113zM131 1364h295v-877q0 -127 62.5 -194.5t179.5 -67.5t179 67.5t62 194.5v877h281v-864
q0 -255 -134.5 -393t-396.5 -138q-265 0 -396.5 136t-131.5 395v864z" />
    <glyph glyph-name="ubreve" unicode="&#x16d;" horiz-adv-x="1112" 
d="M553 1331q94 0 141 32t47 101q0 27 -6 82h101q22 -90 22 -149q0 -131 -81.5 -205t-223.5 -74q-143 0 -224 73.5t-81 205.5q0 74 22 149h99q-4 -74 -4 -82q0 -69 46.5 -101t141.5 -32zM113 987h276v-637q0 -69 35 -108t104 -39q80 0 133.5 56.5t53.5 129.5v598h278v-987
h-235l-23 166q-64 -92 -140 -142.5t-185 -50.5q-138 0 -217.5 87t-79.5 235v692z" />
    <glyph glyph-name="Uring" unicode="&#x16e;" horiz-adv-x="1320" 
d="M662 1952q116 0 186 -66t70 -162q0 -97 -69.5 -163t-186.5 -66q-116 0 -186 65.5t-70 163.5q0 95 70.5 161.5t185.5 66.5zM662 1851q-65 0 -104.5 -37t-39.5 -90q0 -56 39 -93.5t105 -37.5t104.5 37.5t38.5 93.5q0 53 -39 90t-104 37zM131 1364h295v-877
q0 -127 62.5 -194.5t179.5 -67.5t179 67.5t62 194.5v877h281v-864q0 -255 -134.5 -393t-396.5 -138q-265 0 -396.5 136t-131.5 395v864z" />
    <glyph glyph-name="uring" unicode="&#x16f;" horiz-adv-x="1112" 
d="M553 1552q112 0 182 -65.5t70 -161.5q0 -97 -70 -163t-182 -66q-113 0 -183.5 66t-70.5 163q0 96 70.5 161.5t183.5 65.5zM553 1452q-65 0 -103 -36t-38 -91t38 -92t103 -37q64 0 101.5 37t37.5 92q0 54 -37.5 90.5t-101.5 36.5zM113 987h276v-637q0 -69 35 -108t104 -39
q80 0 133.5 56.5t53.5 129.5v598h278v-987h-235l-23 166q-64 -92 -140 -142.5t-185 -50.5q-138 0 -217.5 87t-79.5 235v692z" />
    <glyph glyph-name="Uhungarumlaut" unicode="&#x170;" horiz-adv-x="1320" 
d="M834 1894l-283 -356h-166l188 356h261zM1196 1894l-283 -356h-165l188 356h260zM131 1364h295v-877q0 -127 62.5 -194.5t179.5 -67.5t179 67.5t62 194.5v877h281v-864q0 -255 -134.5 -393t-396.5 -138q-265 0 -396.5 136t-131.5 395v864z" />
    <glyph glyph-name="uhungarumlaut" unicode="&#x171;" horiz-adv-x="1112" 
d="M725 1542l-285 -401h-155l176 401h264zM1077 1542l-284 -401h-154l176 401h262zM113 987h276v-637q0 -69 35 -108t104 -39q80 0 133.5 56.5t53.5 129.5v598h278v-987h-235l-23 166q-64 -92 -140 -142.5t-185 -50.5q-138 0 -217.5 87t-79.5 235v692z" />
    <glyph glyph-name="Uogonek" unicode="&#x172;" horiz-adv-x="1320" 
d="M932 -481q-95 -68 -223 -68q-107 0 -172.5 51.5t-65.5 141.5q0 59 27 114q21 40 60.5 84.5t125.5 126.5h-25q-265 0 -396.5 136t-131.5 395v864h295v-877q0 -127 62.5 -194.5t179.5 -67.5t179 67.5t62 194.5v877h281v-864q0 -217 -96 -349t-285 -167q-68 -103 -96 -160
q-33 -65 -33 -133q0 -54 29.5 -83.5t83.5 -29.5q45 0 100 27z" />
    <glyph glyph-name="uogonek" unicode="&#x173;" horiz-adv-x="1112" 
d="M649 -250q23 45 70 95.5t162 154.5h-123l-23 166q-64 -92 -140 -142.5t-185 -50.5q-138 0 -217.5 87t-79.5 235v692h276v-637q0 -69 35 -108t104 -39q80 0 133.5 56.5t53.5 129.5v598h278v-987h-2q-107 -146 -131 -197q-29 -59 -29 -114q0 -54 29.5 -82.5t83.5 -28.5
q44 0 100 27l39 -86q-95 -68 -223 -68q-107 0 -172 51.5t-65 141.5q0 53 26 106z" />
    <glyph glyph-name="Wcircumflex" unicode="&#x174;" horiz-adv-x="1869" 
d="M807 1880h283q49 -186 221 -268v-99q-110 18 -209.5 72.5t-153.5 118.5q-52 -64 -151.5 -118.5t-208.5 -72.5v99q170 81 219 268zM57 1364h305l197 -969h4l248 975h266l248 -975h4l193 969h290l-333 -1374h-297l-244 913h-4l-248 -913h-295z" />
    <glyph glyph-name="wcircumflex" unicode="&#x175;" horiz-adv-x="1513" 
d="M651 1524h236q34 -130 84.5 -205.5t136.5 -112.5v-96q-102 7 -195 68.5t-145 150.5q-53 -89 -145 -150.5t-193 -68.5v96q85 37 136.5 113t84.5 205zM27 987h280l158 -665h4l170 665h248l172 -665h4l158 665h266l-293 -989h-258l-178 639h-4l-176 -639h-261z" />
    <glyph glyph-name="Ycircumflex" unicode="&#x176;" horiz-adv-x="1245" 
d="M494 1872h280q52 -187 221 -268v-101q-109 19 -208.5 74.5t-151.5 118.5q-54 -64 -153.5 -119t-209.5 -74v101q174 83 222 268zM25 1364h323l281 -582l280 582h312l-453 -844v-520h-295v520z" />
    <glyph glyph-name="ycircumflex" unicode="&#x177;" horiz-adv-x="1013" 
d="M395 1520h236q34 -130 84.5 -206.5t136.5 -113.5v-94q-102 7 -195 68t-145 151q-52 -90 -144 -151t-194 -68v94q85 37 135.5 113.5t85.5 206.5zM27 987h284l207 -686h4l195 686h274l-315 -932q-27 -73 -47.5 -120.5t-49.5 -95.5t-60.5 -76t-75.5 -51t-100.5 -32.5
t-129.5 -9.5h-98v199h30q93 0 142 23.5t67 84.5l11 35z" />
    <glyph glyph-name="Ydieresis" unicode="&#x178;" horiz-adv-x="1245" 
d="M315 1788h236v-250h-236v250zM719 1788h233v-250h-233v250zM25 1364h323l281 -582l280 582h312l-453 -844v-520h-295v520z" />
    <glyph glyph-name="Zacute" unicode="&#x179;" horiz-adv-x="1175" 
d="M989 1898l-323 -356h-185l193 356h315zM111 1364h991v-164l-627 -936h610v-264h-1011v166l635 946h-598v252z" />
    <glyph glyph-name="zacute" unicode="&#x17a;" horiz-adv-x="925" 
d="M834 1546l-322 -403h-172l180 403h314zM84 987h778v-143l-446 -621h434v-223h-782v143l450 627h-434v217z" />
    <glyph glyph-name="Zdotaccent" unicode="&#x17b;" horiz-adv-x="1175" 
d="M449 1772h290v-230h-290v230zM111 1364h991v-164l-627 -936h610v-264h-1011v166l635 946h-598v252z" />
    <glyph glyph-name="zdotaccent" unicode="&#x17c;" horiz-adv-x="925" 
d="M326 1374h288v-231h-288v231zM84 987h778v-143l-446 -621h434v-223h-782v143l450 627h-434v217z" />
    <glyph glyph-name="Zcaron" unicode="&#x17d;" horiz-adv-x="1175" 
d="M233 1909q109 -19 209 -74.5t152 -118.5q54 64 152.5 119t207.5 74v-99q-171 -86 -219 -268h-282q-48 183 -220 268v99zM111 1364h991v-164l-627 -936h610v-264h-1011v166l635 946h-598v252z" />
    <glyph glyph-name="zcaron" unicode="&#x17e;" horiz-adv-x="925" 
d="M131 1556q102 -7 195 -68t145 -151q52 90 144 151t194 68v-94q-85 -37 -136.5 -113.5t-84.5 -205.5h-236q-34 130 -84.5 206t-136.5 113v94zM84 987h778v-143l-446 -621h434v-223h-782v143l450 627h-434v217z" />
    <glyph glyph-name="Aringacute" unicode="&#x1fa;" horiz-adv-x="1333" 
d="M1081 2177l-321 -356h-187l193 356h315zM981 0l-80 258h-485l-80 -258h-289l440 1335q-77 64 -77 168q0 95 70.5 161.5t185.5 66.5q117 0 186.5 -65.5t69.5 -162.5q0 -101 -76 -168l440 -1335h-305zM666 1630q-65 0 -103.5 -37t-38.5 -90q0 -55 38.5 -92t103.5 -37
q67 0 105 37t38 92q0 54 -38.5 90.5t-104.5 36.5zM659 1038l-172 -555h344z" />
    <glyph glyph-name="aringacute" unicode="&#x1fb;" horiz-adv-x="1036" 
d="M922 2064l-320 -403h-172l180 403h312zM516 1565q113 0 183.5 -66t70.5 -162q0 -97 -70.5 -163t-183.5 -66t-183.5 66t-70.5 163q0 96 70.5 162t183.5 66zM516 1464q-64 0 -102.5 -36.5t-38.5 -90.5t38.5 -91.5t102.5 -37.5t102.5 37.5t38.5 91.5t-38.5 90.5t-102.5 36.5
zM659 168q-56 -92 -132 -138t-185 -46q-128 0 -200 67.5t-72 196.5q0 85 34 145.5t117 102.5q129 63 422 92v69q0 142 -141 142q-70 0 -107 -34t-37 -97v-21h-243v25q0 72 23 132.5t69.5 108.5t124 75.5t178.5 27.5q203 0 303 -99.5t100 -275.5v-393q0 -45 19.5 -62
t73.5 -22v-168h-95q-117 0 -173.5 35.5t-78.5 136.5zM336 279q0 -52 28.5 -80.5t84.5 -28.5q83 0 138.5 56t55.5 141v86q-148 -15 -227 -52q-44 -22 -62 -51t-18 -71z" />
    <glyph glyph-name="AEacute" unicode="&#x1fc;" horiz-adv-x="1894" 
d="M1438 1898l-322 -356h-184l190 356h316zM-20 0l727 1364h1101v-252h-645v-301h498v-238h-498v-321h645v-252h-934v270h-450l-137 -270h-307zM870 1135l-338 -656h342v656h-4z" />
    <glyph glyph-name="aeacute" unicode="&#x1fd;" horiz-adv-x="1613" 
d="M1169 1546l-321 -403h-170l178 403h313zM1544 305q0 -146 -112 -240t-314 -94q-282 0 -381 199q-122 -197 -364 -197q-150 0 -227.5 69t-77.5 198q0 87 32.5 147.5t118.5 101.5q133 66 428 95v69q0 71 -33 106.5t-112 35.5q-70 0 -107 -33.5t-37 -95.5v-23h-245v25
q0 152 96 248t287 96q220 0 309 -140q57 71 140 107.5t177 36.5q209 0 316.5 -123.5t107.5 -329.5v-135h-622v-37q0 -203 198 -203q87 0 131.5 36.5t44.5 86.5v8h246v-14zM924 596v-16h360l-2 16q0 103 -42 154t-132 51q-184 0 -184 -205zM336 270q0 -52 31 -82t88 -30
q86 0 139 54.5t53 139.5v97q-152 -15 -231 -52q-46 -23 -63 -53t-17 -74z" />
    <glyph glyph-name="Oslashacute" unicode="&#x1fe;" horiz-adv-x="1353" 
d="M1069 1909l-321 -359h-185l191 359h315zM678 -31q-211 0 -350 92l-117 -161l-121 84l125 180q-113 151 -113 385v266q0 281 153.5 430.5t422.5 149.5q205 0 348 -90l115 159l121 -84l-123 -180q112 -142 112 -385v-266q0 -281 -153 -430.5t-420 -149.5zM391 541
q0 -65 17 -131l458 680q-66 55 -188 55q-287 0 -287 -322v-282zM963 823q0 70 -17 133l-459 -680q69 -57 191 -57q285 0 285 322v282z" />
    <glyph glyph-name="oslashacute" unicode="&#x1ff;" horiz-adv-x="1054" 
d="M889 1556l-320 -403h-172l181 403h311zM528 -31q-164 0 -274 70l-104 -135l-103 76l113 147q-88 114 -88 295v139q0 219 123 338t333 119q159 0 271 -70l108 135l101 -75l-113 -148q88 -118 88 -299v-139q0 -217 -123 -335t-332 -118zM330 385q0 -34 6 -61l323 442
q-51 45 -131 45q-91 0 -144.5 -55.5t-53.5 -153.5v-217zM723 602q0 35 -6 62l-324 -441q51 -45 135 -45q90 0 142.5 55t52.5 152v217z" />
    <glyph glyph-name="Scommaaccent" unicode="&#x218;" horiz-adv-x="1234" 
d="M627 1389q254 0 384 -111t130 -301v-45h-291v39q0 80 -57.5 130t-174.5 50q-99 0 -152.5 -39.5t-53.5 -105.5q0 -74 57 -111t242 -98q174 -49 269 -103.5t136 -128t41 -186.5q0 -190 -143.5 -297t-382.5 -107q-266 0 -399.5 111t-133.5 307v62h291v-41q0 -96 63.5 -148.5
t186.5 -52.5q107 0 165 39t58 110q0 34 -8.5 57t-25 42.5t-56.5 38.5t-86.5 36t-130.5 44q-244 65 -341 155t-97 258q0 177 137 286.5t373 109.5zM496 -170h249v-221q0 -114 -71.5 -187.5t-196.5 -95.5v68q67 21 109 74t41 126h-131v236z" />
    <glyph glyph-name="scommaaccent" unicode="&#x219;" horiz-adv-x="946" 
d="M473 -29q-212 0 -312 88t-100 244v37h234v-25q0 -68 44.5 -106.5t137.5 -38.5q75 0 113.5 27t38.5 69q0 45 -40.5 69.5t-168.5 63.5q-176 42 -259 111.5t-83 198.5q0 132 105.5 218.5t291.5 86.5t288.5 -84t102.5 -232v-32h-229v14q0 65 -43.5 100t-122.5 35
q-66 0 -103.5 -25.5t-37.5 -66.5q0 -45 42 -69t167 -60q87 -21 148 -46t107.5 -61t68.5 -86.5t22 -117.5q0 -138 -107 -225t-305 -87zM344 -174h250v-221q0 -114 -72 -187.5t-198 -95.5v68q67 21 108.5 73.5t40.5 126.5h-129v236z" />
    <glyph glyph-name="schwa" unicode="&#x259;" horiz-adv-x="1024" 
d="M952 436q0 -209 -118.5 -336t-327.5 -127q-213 0 -324.5 123.5t-111.5 327.5v135h622v39q0 99 -50 150t-148 51q-91 0 -135 -36.5t-44 -86.5v-6h-243v12q0 147 111 240.5t313 93.5q225 0 340.5 -120t115.5 -337v-123zM506 188q186 0 186 203v19h-360v-19q0 -203 174 -203
z" />
    <glyph glyph-name="circumflex" unicode="&#x2c6;" horiz-adv-x="1024" 
d="M393 1522h238q34 -129 84 -205t135 -113v-94q-102 6 -193.5 67.5t-144.5 151.5q-53 -90 -144.5 -151.5t-193.5 -67.5v94q85 37 135 113t84 205z" />
    <glyph glyph-name="caron" unicode="&#x2c7;" horiz-adv-x="1024" 
d="M174 1556q102 -7 194 -68t144 -151q52 90 144 151t194 68v-94q-85 -37 -135 -113t-84 -206h-238q-34 130 -84 206t-135 113v94z" />
    <glyph glyph-name="breve" unicode="&#x2d8;" horiz-adv-x="1024" 
d="M512 1333q94 0 141 32t47 101q0 26 -6 82h101q22 -90 22 -149q0 -132 -81 -205.5t-224 -73.5t-224 73.5t-81 205.5q0 59 22 149h101q-6 -56 -6 -82q0 -69 47 -101t141 -32z" />
    <glyph glyph-name="dotaccent" unicode="&#x2d9;" horiz-adv-x="1021" 
d="M367 1374h290v-231h-290v231z" />
    <glyph glyph-name="ring" unicode="&#x2da;" horiz-adv-x="1024" 
d="M512 1556q113 0 183.5 -65.5t70.5 -161.5q0 -97 -70.5 -163t-183.5 -66t-183.5 66t-70.5 163q0 96 70.5 161.5t183.5 65.5zM512 1456q-64 0 -102.5 -37t-38.5 -90q0 -56 38.5 -92.5t102.5 -36.5t102.5 36.5t38.5 92.5q0 53 -38.5 90t-102.5 37z" />
    <glyph glyph-name="ogonek" unicode="&#x2db;" horiz-adv-x="1024" 
d="M713 -395l39 -86q-95 -68 -224 -68q-107 0 -173 52t-66 141q0 53 26 106q25 45 75 99t165 157l104 -6q-100 -136 -131 -197q-28 -52 -28 -114q0 -54 29 -82.5t83 -28.5q46 0 101 27z" />
    <glyph glyph-name="tilde" unicode="&#x2dc;" horiz-adv-x="1024" 
d="M354 1491q34 0 63.5 -9t58.5 -31t42.5 -34t42.5 -41q65 -65 113 -65q29 0 49 21.5t20 64.5q0 30 -8 84h107q20 -93 20 -150q0 -98 -52.5 -159.5t-141.5 -61.5q-86 0 -168 78q-7 7 -24.5 24t-25.5 24.5t-23 20t-25.5 18.5t-24.5 10.5t-27 4.5q-29 0 -49 -21.5t-20 -64.5
q0 -30 8 -84h-107q-20 92 -20 150q0 98 52 159.5t140 61.5z" />
    <glyph glyph-name="hungarumlaut" unicode="&#x2dd;" horiz-adv-x="1024" 
d="M555 1546l-285 -403h-155l178 403h262zM909 1546l-286 -403h-154l176 403h264z" />
    <glyph glyph-name="commaaccent" unicode="&#x326;" horiz-adv-x="1024" 
d="M399 -164h250v-223q0 -114 -71.5 -186.5t-198.5 -96.5v68q68 23 110 76t39 127h-129v235z" />
    <glyph glyph-name="baht" unicode="&#xe3f;" horiz-adv-x="1310" 
d="M1200 336q0 -159 -107.5 -247.5t-328.5 -88.5v-219h-219v219h-365v1364h371v219h219v-219q211 -3 314.5 -91.5t103.5 -240.5v-61q0 -115 -59.5 -181t-176.5 -96v-6q125 -30 186.5 -98.5t61.5 -183.5v-70zM457 1147v-369h262q95 0 144.5 41.5t49.5 118.5v61
q0 71 -48 109.5t-140 38.5h-268zM457 598v-381h274q94 0 141.5 40.5t47.5 115.5v63q0 78 -50.5 120t-150.5 42h-262z" />
    <glyph glyph-name="Wgrave" unicode="&#x1e80;" horiz-adv-x="1869" 
d="M530 1905h316l192 -359h-186zM57 1364h305l197 -969h4l248 975h266l248 -975h4l193 969h290l-333 -1374h-297l-244 913h-4l-248 -913h-295z" />
    <glyph glyph-name="wgrave" unicode="&#x1e81;" horiz-adv-x="1513" 
d="M356 1548h312l180 -403h-172zM27 987h280l158 -665h4l170 665h248l172 -665h4l158 665h266l-293 -989h-258l-178 639h-4l-176 -639h-261z" />
    <glyph glyph-name="Wacute" unicode="&#x1e82;" horiz-adv-x="1869" 
d="M1362 1905l-322 -359h-186l193 359h315zM57 1364h305l197 -969h4l248 975h266l248 -975h4l193 969h290l-333 -1374h-297l-244 913h-4l-248 -913h-295z" />
    <glyph glyph-name="wacute" unicode="&#x1e83;" horiz-adv-x="1513" 
d="M1169 1548l-321 -403h-172l180 403h313zM27 987h280l158 -665h4l170 665h248l172 -665h4l158 665h266l-293 -989h-258l-178 639h-4l-176 -639h-261z" />
    <glyph glyph-name="Wdieresis" unicode="&#x1e84;" horiz-adv-x="1869" 
d="M631 1796h233v-250h-233v250zM1032 1796h236v-250h-236v250zM57 1364h305l197 -969h4l248 975h266l248 -975h4l193 969h290l-333 -1374h-297l-244 913h-4l-248 -913h-295z" />
    <glyph glyph-name="wdieresis" unicode="&#x1e85;" horiz-adv-x="1513" 
d="M457 1395h233v-250h-233v250zM848 1395h233v-250h-233v250zM27 987h280l158 -665h4l170 665h248l172 -665h4l158 665h266l-293 -989h-258l-178 639h-4l-176 -639h-261z" />
    <glyph glyph-name="Ygrave" unicode="&#x1ef2;" horiz-adv-x="1245" 
d="M256 1894h315l193 -356h-186zM25 1364h323l281 -582l280 582h312l-453 -844v-520h-295v520z" />
    <glyph glyph-name="ygrave" unicode="&#x1ef3;" horiz-adv-x="1013" 
d="M170 1542h311l181 -401h-173zM27 987h284l207 -686h4l195 686h274l-315 -932q-27 -73 -47.5 -120.5t-49.5 -95.5t-60.5 -76t-75.5 -51t-100.5 -32.5t-129.5 -9.5h-98v199h30q93 0 142 23.5t67 84.5l11 35z" />
    <glyph glyph-name="enspace" unicode="&#x2002;" horiz-adv-x="1024" 
 />
    <glyph glyph-name="emspace" unicode="&#x2003;" horiz-adv-x="2048" 
 />
    <glyph glyph-name="threeperemspace" unicode="&#x2004;" horiz-adv-x="681" 
 />
    <glyph glyph-name="fourperemspace" unicode="&#x2005;" horiz-adv-x="512" 
 />
    <glyph glyph-name="thinspace" unicode="&#x2009;" horiz-adv-x="272" 
 />
    <glyph glyph-name="hairspace" unicode="&#x200a;" horiz-adv-x="153" 
 />
    <glyph glyph-name="endash" unicode="&#x2013;" horiz-adv-x="1171" 
d="M133 725h903v-219h-903v219z" />
    <glyph glyph-name="emdash" unicode="&#x2014;" horiz-adv-x="1705" 
d="M133 725h1440v-219h-1440v219z" />
    <glyph glyph-name="quoteleft" unicode="&#x2018;" horiz-adv-x="464" 
d="M369 735h-279v230q0 76 14 135t38.5 101.5t63.5 75.5t84.5 54.5t106.5 40.5v-82q-92 -59 -119.5 -105.5t-27.5 -146.5h119v-303z" />
    <glyph glyph-name="quoteright" unicode="&#x2019;" horiz-adv-x="464" 
d="M94 1364h281v-229q0 -95 -20 -164t-62 -115.5t-95 -75.5t-130 -53v82q91 59 119 106t28 146h-121v303z" />
    <glyph glyph-name="quotesinglbase" unicode="&#x201a;" horiz-adv-x="458" 
d="M94 303h281v-229q0 -94 -20 -163t-62 -115.5t-95 -76t-130 -53.5v84q91 57 119 104t28 146h-121v303z" />
    <glyph glyph-name="quotedblleft" unicode="&#x201c;" horiz-adv-x="876" 
d="M780 735h-280v230q0 94 20.5 162.5t62.5 115t95.5 76t130.5 53.5v-82q-93 -59 -121.5 -106t-28.5 -146h121v-303zM369 735h-279v230q0 76 14 135t38.5 101.5t63.5 75.5t84.5 54.5t106.5 40.5v-82q-92 -59 -119.5 -105.5t-27.5 -146.5h119v-303z" />
    <glyph glyph-name="quotedblright" unicode="&#x201d;" horiz-adv-x="876" 
d="M96 1364h281v-229q0 -95 -20.5 -164t-62.5 -115.5t-95.5 -75.5t-130.5 -53v82q93 59 121 106t28 146h-121v303zM508 1364h278v-229q0 -95 -20 -164t-62 -115.5t-95 -75.5t-130 -53v82q93 59 120.5 106t27.5 146h-119v303z" />
    <glyph glyph-name="quotedblbase" unicode="&#x201e;" horiz-adv-x="870" 
d="M96 303h281v-229q0 -94 -20.5 -163t-62.5 -115.5t-95.5 -76t-130.5 -53.5v84q93 57 121 104t28 146h-121v303zM508 303h278v-229q0 -94 -20 -163t-62 -115.5t-95 -76t-130 -53.5v84q92 57 120 104t28 146h-119v303z" />
    <glyph glyph-name="dagger" unicode="&#x2020;" horiz-adv-x="950" 
d="M381 659q0 133 45 281q-108 -43 -301 -43q-35 0 -35 31v116q0 31 35 31q188 0 303 -43q-47 165 -47 299q0 33 35 33h121q32 0 32 -33q0 -134 -47 -299q115 43 303 43q35 0 35 -31v-116q0 -31 -35 -31q-193 0 -301 43q45 -148 45 -281q0 -43 -1.5 -84t-6 -91.5t-7 -75.5
t-10 -89.5t-9.5 -80.5q-3 -11 -5 -17t-8.5 -11t-17.5 -5h-60q-14 0 -19 8t-9 25q-3 25 -9.5 81.5t-10 87.5t-7.5 78t-6 89t-2 85z" />
    <glyph glyph-name="daggerdbl" unicode="&#x2021;" horiz-adv-x="950" 
d="M397 784q0 49 29 156q-108 -43 -301 -43q-35 0 -35 31v116q0 31 35 31q188 0 303 -43q-47 165 -47 299q0 33 35 33h121q32 0 32 -33q0 -134 -47 -299q115 43 303 43q35 0 35 -31v-116q0 -31 -35 -31q-193 0 -301 43q29 -107 29 -156q0 -48 -29 -155q108 43 301 43
q35 0 35 -31v-117q0 -30 -35 -30q-188 0 -303 43q47 -165 47 -299q0 -33 -32 -33h-121q-35 0 -35 33q0 134 47 299q-115 -43 -303 -43q-35 0 -35 30v117q0 31 35 31q193 0 301 -43q-29 107 -29 155z" />
    <glyph glyph-name="bullet" unicode="&#x2022;" horiz-adv-x="714" 
d="M631 682q0 -123 -76.5 -199.5t-196.5 -76.5q-121 0 -197.5 76t-76.5 200t76.5 200t197.5 76q120 0 196.5 -76.5t76.5 -199.5z" />
    <glyph glyph-name="ellipsis" unicode="&#x2026;" horiz-adv-x="1380" 
d="M92 303h275v-303h-275v303zM1016 303h272v-303h-272v303zM555 303h270v-303h-270v303z" />
    <glyph glyph-name="guilsinglleft" unicode="&#x2039;" horiz-adv-x="751" 
d="M483 985h144q-34 -280 -244 -493q210 -207 244 -490h-144q-45 132 -146.5 241.5t-248.5 180.5v137q148 73 249 182.5t146 241.5z" />
    <glyph glyph-name="guilsinglright" unicode="&#x203a;" horiz-adv-x="751" 
d="M266 2h-143q37 282 244 492q-207 210 -244 491h143q46 -133 147.5 -242t248.5 -182v-135q-146 -73 -248 -182.5t-148 -241.5z" />
    <glyph glyph-name="fraction" unicode="&#x2044;" horiz-adv-x="284" 
d="M629 1364l-822 -1364h-155l821 1364h156z" />
    <glyph glyph-name="zero.sup" unicode="&#x2070;" 
d="M377 1446q158 0 248 -93t90 -259v-164q0 -168 -90.5 -260t-249.5 -92q-158 0 -248 92.5t-90 259.5v164q0 166 90.5 259t249.5 93zM377 1270q-133 0 -133 -178v-160q0 -178 131 -178q133 0 133 178v160q0 178 -131 178z" />
    <glyph glyph-name="four.sup" unicode="&#x2074;" 
d="M360 1423h256v-505h105v-154h-105v-166h-188v166h-416v147zM428 918v352l-227 -352h227z" />
    <glyph glyph-name="five.sup" unicode="&#x2075;" 
d="M109 1423h575q-8 -103 -31.5 -138.5t-95.5 -35.5h-278l-15 -186q88 65 201 65q114 0 174.5 -57.5t60.5 -163.5v-57q0 -124 -82 -197t-239 -73q-168 0 -243 66.5t-75 178.5v31h195v-14q0 -44 31 -72.5t88 -28.5q59 0 90 31.5t31 81.5v37q0 45 -27 72.5t-84 27.5
q-80 0 -143 -59l-166 24z" />
    <glyph glyph-name="six.sup" unicode="&#x2076;" 
d="M379 580q-161 0 -244.5 83.5t-83.5 249.5v177q0 168 86.5 259t249.5 91q83 0 145 -21t96 -56t50 -75.5t16 -85.5v-26h-192v14q0 41 -29 65.5t-86 24.5q-75 0 -109 -43.5t-34 -114.5v-84q75 70 198 70q124 0 192 -59t68 -160v-39q0 -125 -84.5 -197.5t-238.5 -72.5z
M377 745q59 0 92 27t33 78v18q0 48 -32.5 76.5t-90.5 28.5t-93.5 -27.5t-35.5 -73.5v-20q0 -51 34 -79t93 -28z" />
    <glyph glyph-name="seven.sup" unicode="&#x2077;" 
d="M63 1423h652v-108q-152 -167 -221 -330t-84 -387h-236q15 197 93 346t237 295h-441v184z" />
    <glyph glyph-name="eight.sup" unicode="&#x2078;" 
d="M377 1444q156 0 238.5 -68t82.5 -172v-12q0 -119 -139 -176q150 -56 150 -193v-12q0 -105 -85 -169t-247 -64t-247 64t-85 169v12q0 137 150 193q-140 58 -140 176v12q0 104 83 172t239 68zM377 1284q-57 0 -90 -26.5t-33 -67.5v-21q0 -42 34 -67t89 -25t89 25t34 67v21
q0 41 -33 67.5t-90 26.5zM377 737q62 0 95.5 27.5t33.5 69.5v22q0 43 -35 69.5t-94 26.5t-94 -26.5t-35 -69.5v-22q0 -42 33.5 -69.5t95.5 -27.5z" />
    <glyph glyph-name="nine.sup" unicode="&#x2079;" 
d="M375 1442q162 0 246 -83.5t84 -248.5v-176q0 -170 -88.5 -262t-254.5 -92q-85 0 -148 20.5t-97.5 56t-51 76t-16.5 86.5v19h193v-7q0 -90 120 -90q79 0 114.5 43.5t35.5 116.5v74q-68 -68 -203 -68q-124 0 -193 58.5t-69 158.5v45q0 126 86 199.5t242 73.5zM375 1276
q-57 0 -92 -29.5t-35 -75.5v-28q0 -46 34 -74.5t93 -28.5t95 27.5t36 73.5v28q0 51 -35 79t-96 28z" />
    <glyph glyph-name="zero.inf" unicode="&#x2080;" 
d="M377 524q158 0 248 -93t90 -259v-164q0 -168 -90.5 -260t-249.5 -92q-158 0 -248 92.5t-90 259.5v164q0 166 90.5 259t249.5 93zM377 348q-133 0 -133 -178v-160q0 -178 131 -178q133 0 133 178v160q0 178 -131 178z" />
    <glyph glyph-name="one.inf" unicode="&#x2081;" horiz-adv-x="632" 
d="M307 508h150v-832h-213v568h-172v157h75q76 0 112 25.5t48 81.5z" />
    <glyph glyph-name="two.inf" unicode="&#x2082;" 
d="M684 -324h-627v48q0 146 57.5 227.5t223.5 167.5q103 56 130.5 80.5t27.5 70.5q0 86 -113 86q-65 0 -99 -28t-34 -82v-41h-193v49q0 121 84.5 193.5t249.5 72.5q159 0 234 -67t75 -177q0 -90 -53 -149t-207 -141q-93 -48 -124.5 -74.5t-32.5 -61.5h401v-174z" />
    <glyph glyph-name="three.inf" unicode="&#x2083;" 
d="M383 520q150 0 233.5 -64t83.5 -165v-15q0 -69 -46 -115.5t-126 -64.5q179 -29 179 -186v-16q0 -103 -86 -168.5t-240 -65.5q-167 0 -250.5 66.5t-83.5 183.5v47h191v-37q0 -100 137 -100q61 0 94 24.5t33 67.5v22q0 44 -35 65t-111 21h-73v142h73q142 0 142 86v18
q0 44 -32.5 69t-92.5 25q-66 0 -100.5 -28t-34.5 -72v-41h-189v51q0 111 85 180.5t249 69.5z" />
    <glyph glyph-name="four.inf" unicode="&#x2084;" 
d="M360 502h256v-506h105v-154h-105v-166h-188v166h-416v148zM428 -4v352l-227 -352h227z" />
    <glyph glyph-name="five.inf" unicode="&#x2085;" 
d="M109 502h575q-8 -103 -31.5 -138.5t-95.5 -35.5h-278l-15 -187q90 66 201 66q114 0 174.5 -57.5t60.5 -163.5v-56q0 -125 -82 -197.5t-239 -72.5q-168 0 -243 66.5t-75 179.5v28h195v-14q0 -44 31 -72t88 -28q59 0 90 31t31 83v35q0 45 -27 73t-84 28q-79 0 -143 -60
l-166 25z" />
    <glyph glyph-name="six.inf" unicode="&#x2086;" 
d="M379 -342q-161 0 -244.5 84t-83.5 250v176q0 168 86.5 260t249.5 92q83 0 145 -21t96 -56.5t50 -76t16 -85.5v-27h-192v14q0 41 -29 65.5t-86 24.5q-75 0 -109 -43t-34 -114v-84q74 69 198 69t192 -59t68 -160v-37q0 -126 -84 -199t-239 -73zM377 -176q59 0 92 27t33 79
v19q0 46 -32.5 74t-90.5 28q-59 0 -94 -27t-35 -73v-21q0 -50 34 -78t93 -28z" />
    <glyph glyph-name="seven.inf" unicode="&#x2087;" 
d="M63 502h652v-109q-152 -167 -221 -330t-84 -387h-236q15 197 93 346t237 295h-441v185z" />
    <glyph glyph-name="eight.inf" unicode="&#x2088;" 
d="M377 522q156 0 238.5 -67.5t82.5 -171.5v-11q0 -121 -139 -178q150 -56 150 -190v-15q0 -105 -85 -169t-247 -64t-247 64t-85 169v15q0 134 150 190q-140 58 -140 178v11q0 104 83 171.5t239 67.5zM377 362q-57 0 -90 -26.5t-33 -67.5v-20q0 -42 34 -67t89 -25t89 25
t34 67v20q0 41 -33 67.5t-90 26.5zM377 -184q62 0 95.5 27.5t33.5 70.5v23q0 42 -35 68t-94 26t-94 -26t-35 -68v-23q0 -43 33.5 -70.5t95.5 -27.5z" />
    <glyph glyph-name="nine.inf" unicode="&#x2089;" 
d="M375 522q162 0 246 -84t84 -250v-176q0 -169 -88 -260.5t-255 -91.5q-85 0 -148 20.5t-97.5 55.5t-51 75.5t-16.5 86.5v18h193v-6q0 -90 120 -90q79 0 114.5 43.5t35.5 116.5v73q-67 -67 -203 -67q-124 0 -193 58.5t-69 158.5v47q0 125 86 198.5t242 73.5zM375 354
q-57 0 -92 -29t-35 -75v-29q0 -46 34 -74t93 -28t95 27.5t36 72.5v29q0 50 -35 78t-96 28z" />
    <glyph glyph-name="colonmonetary" unicode="&#x20a1;" horiz-adv-x="1275" 
d="M625 -225l41 196q-84 0 -162 19l-43 -215h-137l53 264q-128 68 -198 197.5t-70 302.5v286q0 251 145.5 406t390.5 162l37 182h137l-37 -189q75 -11 156 -45l45 234h137l-63 -315q123 -120 123 -330v-64h-275v62q0 99 -63 161t-170 62q-132 0 -204.5 -87t-72.5 -230v-302
q0 -141 73.5 -230t203.5 -89q107 0 170 62t63 161v62h275v-64q0 -177 -97 -297t-278 -155l-43 -207h-137z" />
    <glyph glyph-name="naira" unicode="&#x20a6;" horiz-adv-x="1624" 
d="M535 940l6 -940h-254v434h-236v144h236v176h-236v143h236v467h299l497 -940h4l-6 940h254v-467h238v-143h-238v-176h238v-144h-238v-434h-299l-497 940h-4z" />
    <glyph glyph-name="rupee" unicode="&#x20a8;" horiz-adv-x="2224" 
d="M457 498v-498h-277v1364h584q215 0 328.5 -99t113.5 -282v-102q0 -129 -68.5 -222t-189.5 -133l287 -526h-297l-264 498h-217zM457 721h256q215 0 215 172v72q0 87 -50 128.5t-161 41.5h-260v-414zM1720 -29q-211 0 -311 87.5t-100 244.5v37h233v-25q0 -68 44.5 -106.5
t137.5 -38.5q76 0 114 27t38 69q0 45 -40.5 69.5t-168.5 63.5q-176 42 -259 111.5t-83 198.5q0 132 105.5 218.5t291.5 86.5t290 -84.5t104 -231.5v-32h-232v14q0 65 -43.5 100t-122.5 35q-66 0 -103.5 -25.5t-37.5 -66.5q0 -45 42 -69t167 -60q87 -21 148 -46t107.5 -61
t68.5 -86.5t22 -117.5q0 -138 -107 -225t-305 -87z" />
    <glyph glyph-name="won" unicode="&#x20a9;" horiz-adv-x="1888" 
d="M942 973l-194 -979h-299l-84 436h-297v143h270l-33 172h-237v144h211l-91 475h267l168 -1008h4l188 1010h283l186 -1010h4l170 1008h242l-92 -475h215v-144h-242l-33 -172h275v-143h-303l-84 -436h-299l-191 979h-4z" />
    <glyph glyph-name="sheqel" unicode="&#x20aa;" horiz-adv-x="1480" 
d="M127 1073h489q195 0 280 -66t85 -235v-393h-150v299q0 85 -37 122.5t-132 37.5h-304v-838h-231v1073zM1368 1073v-760q0 -172 -86.5 -242.5t-263.5 -70.5h-494v694h148v-458h295q96 0 133 35.5t37 125.5v676h231z" />
    <glyph glyph-name="Euro" unicode="&#x20ac;" horiz-adv-x="1363" 
d="M1262 422q0 -201 -133 -326t-377 -125q-251 0 -394.5 133.5t-158.5 382.5h-140v129h138v132h-138v126h140q13 248 158 383.5t395 135.5t380 -123.5t130 -327.5v-10h-267v10q0 92 -61.5 151.5t-177.5 59.5q-260 0 -281 -279h443v-126h-443v-132h443v-129h-443
q22 -274 281 -274q116 0 177.5 59t61.5 152v6h267v-8z" />
    <glyph glyph-name="peso" unicode="&#x20b1;" horiz-adv-x="1468" 
d="M537 465v-465h-283v825h-225v176h225v363h541q209 0 325 -96.5t127 -266.5h211v-176h-211q-9 -169 -125.5 -264.5t-326.5 -95.5h-258zM537 1145v-463h213q213 0 213 188v86q0 91 -53 140t-160 49h-213z" />
    <glyph glyph-name="rupeeindia" unicode="&#x20b9;" horiz-adv-x="1292" 
d="M504 494h-23l621 -494h-389l-582 483v181h275q135 0 198.5 41t77.5 131h-551v161h553q-14 91 -74 131.5t-194 40.5h-285v195h1096v-195h-373q90 -71 113 -159h262v-195h-258q-18 -148 -136 -234.5t-331 -86.5z" />
    <glyph glyph-name="ruble" unicode="&#x20bd;" horiz-adv-x="1357" 
d="M1126 254h-557v-254h-282v254h-236v147h236v160h-236v148h236v655h555q206 0 318 -97t112 -270v-77q0 -177 -108.5 -268t-323.5 -91h-271v-160h557v-147zM569 1143v-434h215q108 0 157.5 46t49.5 138v78q0 172 -198 172h-224z" />
    <glyph glyph-name="published" unicode="&#x2117;" horiz-adv-x="1724" 
d="M113 682q0 154 56 291t154.5 236t238 156.5t300.5 57.5q160 0 300 -57.5t239 -156.5t156 -236t57 -291t-57 -291t-156 -236t-239 -156.5t-300 -57.5q-161 0 -300.5 57.5t-238 156.5t-154.5 236t-56 291zM1497 682q0 177 -79 322t-225 230t-331 85q-184 0 -330 -85
t-224.5 -230t-78.5 -322t78.5 -322t224.5 -230t330 -85q185 0 331 85t225 230t79 322zM608 1036h314q134 0 197 -59.5t63 -185.5q0 -125 -64.5 -185.5t-197.5 -60.5h-142v-217h-170v708zM778 895v-211h109q73 0 100 24.5t27 82.5q0 57 -26.5 80.5t-98.5 23.5h-111z" />
    <glyph glyph-name="servicemark" unicode="&#x2120;" horiz-adv-x="1492" 
d="M330 1380q254 0 254 -221h-146q-2 49 -27 72.5t-83 23.5q-48 0 -75.5 -18t-27.5 -43q0 -26 26.5 -41t117.5 -45q128 -37 174.5 -78t46.5 -121q0 -94 -67.5 -145t-190.5 -51q-136 0 -200 57.5t-64 173.5h147q1 -55 30 -80.5t89 -25.5q52 0 79 17t27 44q0 32 -28 49.5
t-113 42.5q-125 34 -174 77.5t-49 119.5q0 85 68 138.5t186 53.5zM705 1364h229l121 -412h2l119 412h223v-635h-142v465h-12l-139 -465h-121l-139 465h-10v-465h-131v635z" />
    <glyph glyph-name="trademark" unicode="&#x2122;" horiz-adv-x="1470" 
d="M51 1364h531v-139h-191v-496h-147v496h-193v139zM682 1364h227l123 -412h2l121 412h219v-635h-141v465h-10l-140 -465h-120l-140 465h-10v-465h-131v635z" />
    <glyph glyph-name="onethird" unicode="&#x2153;" horiz-adv-x="1683" 
d="M307 1376h150v-831h-213v567h-172v158h75q76 0 112 25t48 81zM1251 1364l-821 -1364h-156l822 1364h155zM1313 844q150 0 233.5 -65t83.5 -167v-14q0 -69 -46 -114.5t-126 -63.5q180 -31 180 -189v-14q0 -104 -86.5 -169.5t-240.5 -65.5q-166 0 -249 67t-83 184v48h188
v-37q0 -48 36 -75.5t102 -27.5q61 0 94 25t33 70v22q0 86 -144 86h-76v139h76q139 0 139 88v19q0 44 -32 68t-92 24q-66 0 -100 -27.5t-34 -72.5v-39h-190v49q0 111 85.5 181.5t248.5 70.5z" />
    <glyph glyph-name="twothirds" unicode="&#x2154;" horiz-adv-x="1869" 
d="M684 545h-627v47q0 146 57.5 227.5t223.5 167.5q102 55 130 80t28 72q0 86 -113 86q-64 0 -98.5 -29.5t-34.5 -83.5v-39h-193v49q0 121 84.5 194t249.5 73q159 0 234 -67t75 -177q0 -91 -53 -150t-207 -141q-93 -49 -124.5 -75t-32.5 -60h401v-174zM1438 1364l-822 -1364
h-155l821 1364h156zM1499 844q150 0 234 -65t84 -167v-14q0 -69 -46 -114.5t-126 -63.5q180 -31 180 -189v-14q0 -104 -87 -169.5t-241 -65.5q-166 0 -249 67t-83 184v48h189v-37q0 -48 35.5 -75.5t101.5 -27.5q61 0 94 25t33 70v22q0 86 -143 86h-76v139h76q139 0 139 88
v19q0 44 -32.5 68t-92.5 24q-66 0 -99.5 -27.5t-33.5 -72.5v-39h-191v49q0 111 85.5 181.5t248.5 70.5z" />
    <glyph glyph-name="onefifth" unicode="&#x2155;" horiz-adv-x="1695" 
d="M307 1376h150v-831h-213v567h-172v158h75q76 0 112 25t48 81zM1251 1364l-821 -1364h-156l822 1364h155zM1051 825h575q-8 -103 -31.5 -138.5t-95.5 -35.5h-280l-15 -186q92 65 203 65q114 0 174.5 -57.5t60.5 -163.5v-57q0 -125 -83 -197.5t-240 -72.5
q-167 0 -242.5 66.5t-75.5 178.5v31h195v-14q0 -43 31.5 -72t89.5 -29q59 0 90 31.5t31 81.5v37q0 45 -27 72.5t-84 27.5q-82 0 -143 -61l-166 26z" />
    <glyph glyph-name="twofifths" unicode="&#x2156;" horiz-adv-x="1882" 
d="M684 545h-627v47q0 146 57.5 227.5t223.5 167.5q102 55 130 80t28 72q0 86 -113 86q-64 0 -98.5 -29.5t-34.5 -83.5v-39h-193v49q0 121 84.5 194t249.5 73q159 0 234 -67t75 -177q0 -91 -53 -150t-207 -141q-93 -49 -124.5 -75t-32.5 -60h401v-174zM1438 1364l-822 -1364
h-155l821 1364h156zM1237 825h575q-8 -103 -31 -138.5t-95 -35.5h-281l-14 -186q46 33 92 49t110 16q114 0 175 -57.5t61 -163.5v-57q0 -125 -83 -197.5t-241 -72.5q-167 0 -242 66.5t-75 178.5v31h194v-14q0 -43 31.5 -72t89.5 -29q59 0 90 31.5t31 81.5v37q0 45 -27 72.5
t-84 27.5q-82 0 -143 -61l-166 26z" />
    <glyph glyph-name="threefifths" unicode="&#x2157;" horiz-adv-x="1835" 
d="M383 1389q150 0 233.5 -64.5t83.5 -165.5v-16q0 -69 -46 -114.5t-126 -63.5q179 -29 179 -189v-14q0 -103 -86 -169.5t-240 -66.5q-166 0 -250 67.5t-84 184.5v47h191v-37q0 -100 137 -100q61 0 94 24.5t33 67.5v23q0 44 -35 65t-111 21h-73v141h73q142 0 142 86v19
q0 44 -32.5 69t-92.5 25q-66 0 -100.5 -29t-34.5 -74v-39h-189v50q0 113 85 182.5t249 69.5zM1393 1364l-824 -1364h-153l821 1364h156zM1190 825h575q-8 -103 -31 -138.5t-94 -35.5h-280l-14 -186q46 33 92 49t110 16q113 0 174.5 -57.5t61.5 -163.5v-57q0 -125 -83 -197.5
t-241 -72.5q-168 0 -242.5 66.5t-74.5 178.5v31h194v-14q0 -44 31 -72.5t90 -28.5q58 0 89.5 32t31.5 81v37q0 45 -27.5 72.5t-85.5 27.5q-80 0 -141 -61l-166 26z" />
    <glyph glyph-name="fourfifths" unicode="&#x2158;" horiz-adv-x="1857" 
d="M360 1370h256v-506h105v-153h-105v-166h-188v166h-416v147zM1415 1364l-823 -1364h-156l821 1364h158zM428 864v353l-227 -353h227zM1212 825h576q-8 -103 -31.5 -138.5t-95.5 -35.5h-279l-14 -186q88 65 201 65q114 0 174.5 -57.5t60.5 -163.5v-57q0 -125 -82 -197.5
t-239 -72.5q-168 0 -243 66.5t-75 178.5v31h195v-14q0 -44 31 -72.5t88 -28.5q59 0 89.5 31.5t30.5 81.5v37q0 45 -26.5 72.5t-83.5 27.5q-82 0 -143 -61l-166 26z" />
    <glyph glyph-name="onesixth" unicode="&#x2159;" horiz-adv-x="1656" 
d="M307 1376h150v-831h-213v567h-172v158h75q76 0 112 25t48 81zM1251 1364l-821 -1364h-156l822 1364h155zM1282 -18q-161 0 -244.5 83t-83.5 248v179q0 168 86.5 259t249.5 91q83 0 145 -21t96 -56.5t50 -76t16 -84.5v-26h-192v14q0 41 -29 65.5t-86 24.5
q-75 0 -109 -43.5t-34 -114.5v-84q81 70 199 70q124 0 192 -59.5t68 -159.5v-39q0 -125 -84.5 -197.5t-239.5 -72.5zM1280 145q59 0 92 28t33 79v18q0 48 -32.5 76.5t-90.5 28.5t-93.5 -27.5t-35.5 -73.5v-20q0 -51 34.5 -80t92.5 -29z" />
    <glyph glyph-name="fivesixths" unicode="&#x215a;" horiz-adv-x="1802" 
d="M109 1370h575q-8 -103 -31.5 -138.5t-95.5 -35.5h-278l-15 -186q88 65 201 65q114 0 174.5 -57.5t60.5 -163.5v-57q0 -124 -82 -197.5t-239 -73.5q-168 0 -243 67t-75 179v31h195v-15q0 -44 31 -72t88 -28q59 0 90 31.5t31 81.5v37q0 45 -27 72.5t-84 27.5
q-80 0 -143 -59l-166 24zM1397 1364l-824 -1364h-153l821 1364h156zM1425 -18q-325 0 -325 331v179q0 169 86 259.5t250 90.5q83 0 145 -21t96 -56.5t50 -76t16 -84.5v-26h-193v14q0 41 -28.5 65.5t-85.5 24.5q-75 0 -109.5 -44t-34.5 -114v-84q76 70 197 70
q124 0 193 -59.5t69 -159.5v-39q0 -125 -85 -197.5t-241 -72.5zM1425 145q59 0 92 28t33 79v18q0 48 -32.5 76.5t-90.5 28.5t-93.5 -27.5t-35.5 -73.5v-20q0 -51 34 -80t93 -29z" />
    <glyph glyph-name="oneeighth" unicode="&#x215b;" horiz-adv-x="1681" 
d="M307 1376h150v-831h-213v567h-172v158h75q76 0 112 25t48 81zM1251 1364l-821 -1364h-156l822 1364h155zM1305 846q156 0 238.5 -68t82.5 -174v-10q0 -122 -139 -176q149 -56 149 -193v-12q0 -107 -84.5 -170t-246.5 -63t-247 63.5t-85 169.5v12q0 137 149 193
q-139 54 -139 176v10q0 105 83 173.5t239 68.5zM1305 686q-57 0 -90 -26.5t-33 -67.5v-21q0 -42 34 -67t89 -25t88.5 25t33.5 67v21q0 41 -32.5 67.5t-89.5 26.5zM1305 139q62 0 95.5 27.5t33.5 69.5v22q0 43 -34.5 68.5t-94.5 25.5t-94.5 -25.5t-34.5 -68.5v-22
q0 -42 33.5 -69.5t95.5 -27.5z" />
    <glyph glyph-name="threeeighths" unicode="&#x215c;" horiz-adv-x="1822" 
d="M383 1389q150 0 233.5 -64.5t83.5 -165.5v-16q0 -69 -46 -114.5t-126 -63.5q179 -29 179 -189v-14q0 -103 -86 -169.5t-240 -66.5q-166 0 -250 67.5t-84 184.5v47h191v-37q0 -100 137 -100q61 0 94 24.5t33 67.5v23q0 44 -35 65t-111 21h-73v141h73q142 0 142 86v19
q0 44 -32.5 69t-92.5 25q-66 0 -100.5 -29t-34.5 -74v-39h-189v50q0 113 85 182.5t249 69.5zM1393 1364l-824 -1364h-153l821 1364h156zM1446 846q155 0 238 -68.5t83 -173.5v-10q0 -121 -141 -176q152 -57 152 -193v-12q0 -106 -85.5 -169.5t-246.5 -63.5q-164 0 -249 63
t-85 170v12q0 136 152 193q-142 54 -142 176v10q0 105 84 173.5t240 68.5zM1446 686q-57 0 -90 -26.5t-33 -67.5v-21q0 -42 34 -67t89 -25q53 0 87 25t34 67v21q0 41 -32 67.5t-89 26.5zM1446 139q62 0 94.5 27.5t32.5 69.5v22q0 43 -34 68.5t-93 25.5q-61 0 -96 -25.5
t-35 -68.5v-22q0 -42 34 -69.5t97 -27.5z" />
    <glyph glyph-name="fiveeighths" unicode="&#x215d;" horiz-adv-x="1826" 
d="M109 1370h575q-8 -103 -31.5 -138.5t-95.5 -35.5h-278l-15 -186q88 65 201 65q114 0 174.5 -57.5t60.5 -163.5v-57q0 -124 -82 -197.5t-239 -73.5q-168 0 -243 67t-75 179v31h195v-15q0 -44 31 -72t88 -28q59 0 90 31.5t31 81.5v37q0 45 -27 72.5t-84 27.5
q-80 0 -143 -59l-166 24zM1397 1364l-824 -1364h-153l821 1364h156zM1450 846q155 0 238.5 -68.5t83.5 -173.5v-10q0 -121 -142 -176q152 -57 152 -193v-12q0 -106 -85.5 -169.5t-246.5 -63.5q-164 0 -249 63t-85 170v12q0 136 152 193q-142 54 -142 176v10q0 105 84 173.5
t240 68.5zM1450 686q-57 0 -90 -26.5t-33 -67.5v-21q0 -42 34 -67t89 -25q53 0 87 25t34 67v21q0 41 -32.5 67.5t-88.5 26.5zM1450 139q62 0 94.5 27.5t32.5 69.5v22q0 43 -34 68.5t-93 25.5q-61 0 -96 -25.5t-35 -68.5v-22q0 -42 34 -69.5t97 -27.5z" />
    <glyph glyph-name="seveneighths" unicode="&#x215e;" horiz-adv-x="1671" 
d="M63 1370h652v-108q-152 -167 -221 -330t-84 -387h-236q15 197 93 346t237 295h-441v184zM1241 1364l-823 -1364h-154l821 1364h156zM1294 846q156 0 239 -68.5t83 -173.5v-10q0 -122 -141 -176q151 -56 151 -193v-12q0 -106 -85 -169.5t-247 -63.5t-247.5 63.5
t-85.5 169.5v12q0 136 151 193q-139 54 -139 176v10q0 106 82.5 174t238.5 68zM1294 686q-57 0 -90 -26.5t-33 -67.5v-21q0 -42 34 -67t89 -25q53 0 87 25t34 67v21q0 41 -32 67.5t-89 26.5zM1294 139q62 0 95.5 27.5t33.5 69.5v22q0 43 -34.5 68.5t-94.5 25.5t-94.5 -25.5
t-34.5 -68.5v-22q0 -42 33 -69.5t96 -27.5z" />
    <glyph glyph-name="minus" unicode="&#x2212;" horiz-adv-x="1005" 
d="M90 795h830v-226h-830v226z" />
    <glyph glyph-name="hcoslug" unicode="&#xe10b;" horiz-adv-x="1421" 
d="M1319 1434v-1639h-1217v1639h1217zM782 541q42 55 95 86q30 -52 88 -52q43 0 72.5 32t29.5 79t-29.5 77t-72.5 30q-70 0 -123 -78q-3 40 -30.5 59t-70.5 17q19 32 19 69q0 59 -52.5 105.5t-142.5 46.5q-99 0 -161 -52.5t-62 -121.5q0 -43 15 -75t49 -67
q-168 -57 -168 -186q0 -81 65 -136t158 -55q129 0 213 93q51 -52 89.5 -72.5t84.5 -20.5q68 0 114.5 53t49.5 140l-15 4q-34 -59 -88 -59q-30 0 -59 19.5t-68 64.5zM506 877q0 26 15 42.5t40 16.5q26 0 43 -21.5t17 -56.5q0 -46 -37 -102q-30 29 -42.5 42.5t-24 35
t-11.5 43.5zM639 700q61 42 86 70q23 -23 29 -49t-2 -52.5t-29 -62.5q-68 78 -84 94zM535 449q-46 0 -76.5 31.5t-30.5 78.5q0 49 33 82q72 -68 151 -168q-31 -24 -77 -24zM721 256v-106h12l8 16q10 -16 29 -16q17 0 25 13.5t8 29.5q0 18 -8.5 29t-22.5 11q-21 0 -27 -18v55
h-36v-14h12zM256 166v-14h61v14h-20v33h8q7 0 8.5 -3t3.5 -14h15v47h-15q-1 -8 -2 -10.5t-3 -4t-7 -1.5h-8v37h25q11 0 15 -5t7 -22h16v41h-104v-14h14v-84h-14zM586 254l-25 -4v-19h-14v-14h14v-41q0 -26 25 -26q22 0 28 26l-10 4q-3 -14 -10 -14q-8 0 -8 10v41h26v14h-26
v23zM356 193q0 -20 12 -31.5t31 -11.5t31 12t12 31q0 18 -12 29t-31 11t-31 -11t-12 -29zM618 180v-28h15l2 8q15 -10 27 -10q13 0 20.5 7.5t7.5 18.5q0 19 -24.5 25t-24.5 12q0 8 10 8q11 0 21 -14h14v26h-12l-4 -10q-7 10 -23 10q-13 0 -21 -7t-8 -17q0 -19 25 -26t25 -13
q0 -8 -11 -8q-12 0 -24 18h-15zM449 166v-14h45v14h-9v31q0 20 15 20q12 0 12 -14v-37h-8v-14h45v14h-12v39q0 28 -25 28q-20 0 -29 -22v20h-34v-14h12v-51h-12zM829 133q5 5 2.5 13t-12.5 8q-14 0 -14 -15q0 -18 22 -18q24 0 37 33l27 63h10v14h-35v-14h11l-17 -41l-18 41
h12v14h-51v-14h10q25 -47 33 -67q-3 -17 -17 -17zM416 193q0 -33 -17 -33q-16 0 -16 33q0 30 16 30q17 0 17 -30zM776 190q0 -26 -14 -26q-17 0 -17 26q0 27 17 27q14 0 14 -27zM565 14v-14h47v14h-10v52h29v-52h-10v-14h47v14h-13v107l-20 -4q-8 4 -19 4q-16 0 -27 -10
t-11 -29v-2h-15v-14h15v-52h-13zM961 55q0 -26 15.5 -41.5t43.5 -15.5q46 0 49 47h-16q-4 -33 -29 -33q-33 0 -33 45t29 45q12 0 18.5 -6.5t12.5 -25.5h16v45h-16l-2 -13q-15 15 -33 15q-22 0 -38.5 -17.5t-16.5 -44.5zM254 14v-14h59v14h-16v37h45v-37h-16v-14h59v14h-16
v84h16v15h-59v-15h16v-32h-45v32h16v15h-59v-15h16v-84h-16zM950 68h-37v-15h13q-2 -7 -13 -18q-4 4 -11.5 12.5t-12.5 13.5q22 9 22 25q0 10 -7.5 17.5t-20.5 7.5q-14 0 -24.5 -9t-10.5 -20q0 -13 12 -25q-26 -7 -26 -30q0 -29 36 -29q19 0 31 12q10 -12 25 -12q19 0 26 25
l-10 2q-3 -11 -8 -11t-12 11q12 16 18 28h10v15zM602 80v6q0 25 12 25l7 -2q-3 -3 -3 -7q0 -12 13 -12v-10h-29zM883 68q-13 13 -13 20q0 10 11 10q12 0 12 -12q0 -11 -10 -18zM506 37h53q3 45 -39 45q-17 0 -29 -12t-12 -31t11.5 -30t31.5 -11q30 0 37 29h-14
q-3 -15 -19 -15q-20 0 -20 25zM754 14v-14h53v14h-16v33q8 19 14 19v-3q0 -12 12 -12q14 0 14 15q0 16 -16 16q-15 0 -24 -23v21h-37v-14h12v-52h-12zM1075 41q0 -20 12 -31.5t31 -11.5t31 12t12 31t-12 30t-31 11t-31 -11t-12 -30zM387 41q0 -20 12 -31.5t31 -11.5t31 12
t12 31t-12 30t-31 11t-31 -11t-12 -30zM696 37h54q3 45 -39 45q-17 0 -29 -12t-12 -31t11.5 -30t31.5 -11q30 0 37 29h-15q-3 -15 -18 -15q-21 0 -21 25zM1135 41q0 -33 -17 -33q-16 0 -16 33q0 31 16 31q17 0 17 -31zM446 41q0 -33 -16 -33t-16 33q0 31 16 31t16 -31z
M696 47q0 25 15 25q14 0 14 -25h-29zM506 47q0 25 14 25q15 0 15 -25h-29zM895 18q-9 -6 -16 -6q-9 0 -15 6t-6 15q0 10 8 18q9 -9 29 -33zM1194 12q0 15 -14 15q-6 0 -10.5 -4.5t-4.5 -10.5q0 -14 15 -14q14 0 14 14z" />
    <glyph glyph-name="fi" unicode="&#xfb01;" horiz-adv-x="1265" 
d="M715 1417v-207h-88q-78 0 -112 -31t-34 -96v-96h219v-213h-219v-774h-274v774h-162v213h162v113q0 317 373 317h135zM858 1376h287v-233h-287v233zM862 987h279v-987h-279v987z" />
    <glyph glyph-name="fl" unicode="&#xfb02;" horiz-adv-x="1265" 
d="M715 1417v-207h-88q-78 0 -112 -31t-34 -96v-96h219v-213h-219v-774h-274v774h-162v213h162v113q0 317 373 317h135zM1141 1417v-1417h-279v1417h279z" />
    <glyph glyph-name="NUL" horiz-adv-x="0" 
 />
    <glyph glyph-name="Q.alt" horiz-adv-x="1353" 
d="M1071 -133v-193h-108q-157 0 -249.5 34t-130.5 100t-38 176v10q-208 36 -325.5 180.5t-117.5 376.5v274q0 269 154.5 419.5t421.5 150.5q266 0 419.5 -150.5t153.5 -419.5v-274q0 -231 -116 -375t-322 -180v-29q0 -56 56 -78t180 -22h22zM678 1145q-131 0 -205 -80
t-74 -227v-301q0 -148 74 -228t205 -80t203.5 79.5t72.5 228.5v301q0 148 -73 227.5t-203 79.5z" />
    <glyph glyph-name="Q.alt2" horiz-adv-x="1372" 
d="M1350 -12q-68 -33 -142 -33q-69 0 -121 21t-104 75q-132 -82 -305 -82q-267 0 -421.5 151t-154.5 425v274q0 274 154.5 425t421.5 151t420 -151t153 -425v-274q0 -184 -96 -334q31 -30 60.5 -38.5t76.5 -8.5q18 0 58 6v-182zM952 444l2 -2q7 44 7 84v305q0 152 -75 234
t-208 82q-132 0 -206.5 -82t-74.5 -234v-258q0 -38 4 -61q34 72 97.5 106.5t142.5 34.5q99 0 173 -49.5t138 -159.5zM485 340q0 -64 49 -100.5t144 -36.5q104 0 174 49l-12 20q-56 104 -104 148.5t-115 44.5q-61 0 -98.5 -36t-37.5 -89z" />
    <glyph glyph-name="R.alt" horiz-adv-x="1294" 
d="M147 1364h603q214 0 325 -95.5t111 -267.5v-53q0 -131 -58.5 -202t-173.5 -107v-4q100 -32 149.5 -97t49.5 -180v-159q0 -62 16.5 -98.5t55.5 -61.5v-39h-205q-84 0 -123 46.5t-39 146.5v151q0 172 -176 172h-240v-516h-295v1364zM440 1124v-387h244q99 0 153 43t54 121
v64q0 75 -50.5 117t-150.5 42h-250z" />
    <glyph glyph-name="t.alt" horiz-adv-x="741" 
d="M201 1186l274 65v-264h238v-213h-238v-414q0 -121 32 -189t122 -142v-29h-310q-67 70 -92.5 143t-25.5 228v403h-158v213h158v199z" />
    <glyph glyph-name="Racute.alt" horiz-adv-x="1294" 
d="M1010 1898l-322 -356h-186l192 356h316zM147 1364h603q214 0 325 -95.5t111 -267.5v-53q0 -131 -58.5 -202t-173.5 -107v-4q100 -32 149.5 -97t49.5 -180v-159q0 -62 16.5 -98.5t55.5 -61.5v-39h-205q-84 0 -123 46.5t-39 146.5v151q0 172 -176 172h-240v-516h-295v1364z
M440 1124v-387h244q99 0 153 43t54 121v64q0 75 -50.5 117t-150.5 42h-250z" />
    <glyph glyph-name="Rcaron.alt" horiz-adv-x="1294" 
d="M256 1909q109 -19 207.5 -74t152.5 -119q54 64 153 119t208 74v-99q-170 -84 -219 -268h-283q-49 184 -219 268v99zM147 1364h603q214 0 325 -95.5t111 -267.5v-53q0 -131 -58.5 -202t-173.5 -107v-4q100 -32 149.5 -97t49.5 -180v-159q0 -62 16.5 -98.5t55.5 -61.5v-39
h-205q-84 0 -123 46.5t-39 146.5v151q0 172 -176 172h-240v-516h-295v1364zM440 1124v-387h244q99 0 153 43t54 121v64q0 75 -50.5 117t-150.5 42h-250z" />
    <glyph glyph-name="Rcommaaccent.alt" horiz-adv-x="1294" 
d="M147 1364h603q214 0 325 -95.5t111 -267.5v-53q0 -131 -58.5 -202t-173.5 -107v-4q100 -32 149.5 -97t49.5 -180v-159q0 -62 16.5 -98.5t55.5 -61.5v-39h-205q-84 0 -123 46.5t-39 146.5v151q0 172 -176 172h-240v-516h-295v1364zM440 1124v-387h244q99 0 153 43t54 121
v64q0 75 -50.5 117t-150.5 42h-250zM537 -162h249v-221q0 -114 -71.5 -187.5t-196.5 -95.5v68q67 21 109 74.5t41 128.5h-131v233z" />
    <glyph glyph-name="tcaron.alt" horiz-adv-x="741" 
d="M616 1452h242l-121 -346h-137zM201 1186l274 65v-264h238v-213h-238v-414q0 -121 32 -189t122 -142v-29h-310q-67 70 -92.5 143t-25.5 228v403h-158v213h158v199z" />
    <glyph glyph-name="tcommaaccent.alt" horiz-adv-x="741" 
d="M201 1186l274 65v-264h238v-213h-238v-414q0 -121 32 -189t122 -142v-29h-310q-67 70 -92.5 143t-25.5 228v403h-158v213h158v199zM279 -164h249v-223q0 -114 -71.5 -186.5t-198.5 -96.5v68q69 23 111 76t39 127h-129v235z" />
    <glyph glyph-name="one.alt" horiz-adv-x="989" 
d="M942 0h-821v236h274v741h-297v221h103q142 0 204.5 39.5t77.5 132.5h201v-1134h258v-236z" />
    <glyph glyph-name="one.alt2" horiz-adv-x="643" 
d="M178 1208q69 4 103 48t34 114h150v-1370h-287v1208z" />
    <glyph glyph-name="colon.alt" horiz-adv-x="483" 
d="M102 1169h279v-303h-279v303zM102 500h279v-303h-279v303z" />
    <glyph glyph-name="guillemotleft.cap" horiz-adv-x="1286" 
d="M483 1174h144q-34 -279 -244 -492q209 -206 244 -489h-144q-45 132 -146 241t-249 180v138q147 71 248.5 181t146.5 241zM1018 1174h143q-38 -284 -243 -492q205 -202 243 -489h-143q-45 132 -146 241t-249 180v138q147 71 248.5 181t146.5 241z" />
    <glyph glyph-name="guillemotright.cap" horiz-adv-x="1282" 
d="M797 190h-144q37 279 244 492q-206 206 -244 489h144q46 -132 147.5 -241t247.5 -180v-138q-145 -71 -246.5 -181t-148.5 -241zM266 190h-143q37 279 244 492q-206 206 -244 489h143q46 -132 148 -241t248 -180v-138q-146 -71 -248 -181t-148 -241z" />
    <glyph glyph-name="guilsinglleft.cap" horiz-adv-x="751" 
d="M483 1174h144q-34 -279 -244 -492q209 -206 244 -489h-144q-45 132 -146 241t-249 180v138q147 71 248.5 181t146.5 241z" />
    <glyph glyph-name="guilsinglright.cap" horiz-adv-x="751" 
d="M266 190h-143q37 281 244 494q-206 206 -244 490h143q46 -132 148 -241.5t248 -180.5v-138q-146 -73 -248 -182.5t-148 -241.5z" />
    <glyph glyph-name="hyphen.cap" horiz-adv-x="772" 
d="M104 793h562v-220h-562v220z" />
    <glyph glyph-name="endash.cap" horiz-adv-x="1171" 
d="M133 793h903v-220h-903v220z" />
    <glyph glyph-name="emdash.cap" horiz-adv-x="1705" 
d="M133 793h1440v-220h-1440v220z" />
    <glyph glyph-name="at.cap" horiz-adv-x="1591" 
d="M854 1458q135 0 249 -36t192 -96.5t132.5 -141t79.5 -168t25 -178.5q0 -105 -29.5 -202.5t-82.5 -173.5t-134 -121.5t-176 -45.5q-110 0 -169.5 50.5t-59.5 129.5q-96 -164 -234 -164q-106 0 -164.5 70t-58.5 197q0 76 23 159.5t66 160.5t115.5 127t159.5 50
q72 0 120.5 -34.5t66.5 -88.5l35 107h198l-123 -406q-40 -137 -26 -191t86 -54q101 0 179.5 121.5t78.5 301.5q0 235 -152.5 375t-398.5 140q-193 0 -342 -92.5t-230 -257t-81 -373.5q0 -175 71.5 -311t213 -215t333.5 -79q132 0 251.5 43t207.5 107l63 -96
q-94 -73 -233 -119.5t-293 -46.5q-169 0 -308.5 53t-234.5 147t-147.5 225.5t-52.5 286.5q0 243 99.5 434.5t278.5 298.5t406 107zM838 936q-54 0 -97 -42t-66 -102.5t-34.5 -116t-11.5 -95.5q0 -63 27 -93t71 -30q48 0 88.5 47.5t61.5 124.5l61 223q-2 33 -30.5 58.5
t-69.5 25.5z" />
    <glyph glyph-name="registered.large" horiz-adv-x="1724" 
d="M113 682q0 154 56 291t154.5 236t238 156.5t300.5 57.5q160 0 300 -57.5t239 -156.5t156 -236t57 -291t-57 -291t-156 -236t-239 -156.5t-300 -57.5q-161 0 -300.5 57.5t-238 156.5t-154.5 236t-56 291zM1497 682q0 177 -79 322t-225 230t-331 85q-184 0 -330 -85
t-224.5 -230t-78.5 -322t78.5 -322t224.5 -230t330 -85q185 0 331 85t225 230t79 322zM754 571v-243h-170v708h348q242 0 242 -231q0 -162 -132 -215l142 -262h-185l-129 243h-116zM754 895v-195h135q59 0 85.5 22t26.5 73t-25.5 75.5t-84.5 24.5h-137z" />
    <glyph glyph-name="registered.large_alt" horiz-adv-x="1724" 
d="M113 682q0 154 56 291t154.5 236t238 156.5t300.5 57.5q160 0 300 -57.5t239 -156.5t156 -236t57 -291t-57 -291t-156 -236t-239 -156.5t-300 -57.5q-161 0 -300.5 57.5t-238 156.5t-154.5 236t-56 291zM1497 682q0 177 -79 322t-225 230t-331 85q-184 0 -330 -85
t-224.5 -230t-78.5 -322t78.5 -322t224.5 -230t330 -85q185 0 331 85t225 230t79 322zM584 1036h346q119 0 180 -53.5t61 -155.5q0 -82 -31.5 -122t-99.5 -60v-2q113 -31 113 -143v-49q0 -34 9 -52t30 -32v-39h-119q-47 0 -68.5 24.5t-21.5 75.5v64q0 40 -23 59.5t-77 19.5
h-129v-243h-170v708zM754 895v-190h135q59 0 85.5 21.5t26.5 72.5q0 50 -25 73t-83 23h-139z" />
    <glyph glyph-name="registered.alt" horiz-adv-x="1060" 
d="M530 1395q194 0 321.5 -127.5t127.5 -313.5q0 -188 -127 -314t-322 -126t-321.5 126t-126.5 314q0 187 127 314t321 127zM530 1323q-166 0 -268 -104t-102 -265q0 -160 102 -265t268 -105t268.5 105t102.5 265q0 161 -102.5 265t-268.5 104zM352 1182h223q78 0 119 -34
t41 -99q0 -51 -22 -77.5t-64 -37.5v-2q74 -15 74 -90v-19q0 -24 5.5 -35t21.5 -22v-31h-78q-60 0 -60 64v37q0 27 -14.5 40t-50.5 13h-86v-154h-109v447zM461 1094v-123h86q40 0 58 14t18 47q0 34 -16 48t-56 14h-90z" />
    <glyph glyph-name="R_p" horiz-adv-x="2357" 
d="M457 498v-498h-277v1364h584q215 0 328.5 -99t113.5 -282v-102q0 -129 -68.5 -222t-189.5 -133l287 -526h-297l-264 498h-217zM457 721h256q215 0 215 172v72q0 87 -50 128.5t-161 41.5h-260v-414zM1913 -25q-97 0 -163.5 38t-121.5 104v-441h-276v1311h237l17 -153
q58 84 130.5 131t180.5 47q156 0 249 -103t93 -282v-267q0 -179 -95 -282t-251 -103zM1812 180q81 0 128 55t47 144v227q0 90 -47 145.5t-128 55.5q-78 0 -131 -58t-53 -149v-213q0 -91 53 -149t131 -58z" />
    <glyph glyph-name="R_p.alt" horiz-adv-x="2385" 
d="M180 1364h588q216 0 327 -95.5t111 -267.5v-51q0 -130 -60 -201t-175 -108v-4q103 -27 156 -93.5t53 -181.5v-163q0 -63 15.5 -99t53.5 -61v-39h-194q-85 0 -124.5 46t-39.5 147v161q0 86 -43 128t-141 42h-250v-524h-277v1364zM457 1133v-400h256q103 0 158 43t55 125
v70q0 162 -205 162h-264zM1380 987h236l18 -153q58 84 131.5 131t182.5 47q154 0 247 -103t93 -282v-267q0 -179 -95 -282t-251 -103q-97 0 -163.5 38t-121.5 104v-441h-277v1311zM1841 807q-78 0 -131 -58t-53 -149v-213q0 -91 53 -149t131 -58q82 0 128 54.5t46 144.5v227
q0 91 -46 146t-128 55z" />
    <glyph glyph-name="rupee.alt" horiz-adv-x="2250" 
d="M180 1364h588q216 0 327 -95.5t111 -267.5v-51q0 -130 -60 -201t-175 -108v-4q103 -27 156 -93.5t53 -181.5v-163q0 -63 15.5 -99t53.5 -61v-39h-194q-85 0 -124.5 46t-39.5 147v161q0 86 -43 128t-141 42h-250v-524h-277v1364zM457 1133v-400h256q103 0 158 43t55 125
v70q0 162 -205 162h-264zM1749 -29q-213 0 -312.5 87.5t-99.5 244.5v37h232v-25q0 -68 44.5 -106.5t137.5 -38.5q76 0 115 27t39 69q0 45 -41.5 69.5t-169.5 63.5q-175 42 -257.5 111.5t-82.5 198.5q0 132 105 218.5t290 86.5q187 0 290 -84t103 -232v-32h-231v14
q0 65 -42.5 100t-123.5 35q-66 0 -103.5 -25.5t-37.5 -66.5q0 -45 42 -69t166 -60q87 -21 148 -46t107.5 -61t69 -86.5t22.5 -117.5q0 -138 -106.5 -225t-303.5 -87z" />
    <glyph glyph-name="rupeeindia.alt" horiz-adv-x="1292" 
d="M1081 39v-39h-219q-85 0 -122.5 41t-43.5 141l-4 78q-6 98 -63.5 144.5t-202.5 46.5h-295v213h285q133 0 197 41.5t79 130.5h-561v161h563q-14 89 -74 130t-190 42h-299v195h1096v-195h-361q90 -71 119 -159h244v-195h-248q-50 -166 -274 -231v-6q81 -15 135.5 -40.5
t86 -64t45.5 -83.5t19 -109l6 -84q3 -62 20.5 -97.5t61.5 -60.5z" />
    <glyph glyph-name="onehalf.alt" horiz-adv-x="1847" 
d="M659 545h-583v164h194v399h-204v162h100q82 0 118.5 25t47.5 81h147v-667h180v-164zM1417 1364l-821 -1364h-156l822 1364h155zM1778 0h-627v47q0 146 57.5 227.5t223.5 167.5q100 54 127.5 79.5t27.5 72.5q0 86 -110 86q-64 0 -99 -29.5t-35 -83.5v-39h-192v50
q0 121 84.5 193.5t249.5 72.5q157 0 233 -67t76 -177q0 -92 -52.5 -150.5t-207.5 -140.5q-94 -49 -125.5 -75t-32.5 -62h402v-172z" />
    <glyph glyph-name="onethird.alt" horiz-adv-x="1890" 
d="M694 545h-581v164h194v399h-207v162h101q82 0 118.5 25t47.5 81h149v-667h178v-164zM1452 1364l-821 -1364h-156l821 1364h156zM1520 844q152 0 234.5 -65t82.5 -167v-14q0 -69 -46 -114.5t-126 -63.5q180 -31 180 -189v-14q0 -104 -86 -169.5t-239 -65.5
q-167 0 -250.5 67t-83.5 184v48h188v-37q0 -48 35.5 -75.5t101.5 -27.5q61 0 94 25t33 70v22q0 86 -143 86h-76v139h76q141 0 141 88v19q0 44 -33.5 68t-93.5 24q-66 0 -99.5 -27.5t-33.5 -72.5v-39h-190v49q0 111 85.5 181.5t248.5 70.5z" />
    <glyph glyph-name="onequarter.alt" horiz-adv-x="1794" 
d="M694 545h-581v164h194v399h-207v162h101q82 0 118.5 25t47.5 81h149v-667h178v-164zM1452 1364l-821 -1364h-156l821 1364h156zM1403 825h254v-506h106v-153h-106v-166h-189v166h-413v147zM1468 319v353l-227 -353h227z" />
    <glyph glyph-name="onefifth.alt" horiz-adv-x="1900" 
d="M694 545h-581v164h194v399h-207v162h101q82 0 118.5 25t47.5 81h149v-667h178v-164zM1452 1364l-821 -1364h-156l821 1364h156zM1257 825h576q-8 -103 -31.5 -138.5t-95.5 -35.5h-279l-16 -186q92 65 203 65q114 0 174.5 -57.5t60.5 -163.5v-57q0 -125 -82 -197.5
t-239 -72.5q-168 0 -243 66.5t-75 178.5v31h195v-14q0 -44 31 -72.5t88 -28.5q59 0 90 31.5t31 81.5v37q0 45 -27 72.5t-84 27.5q-82 0 -143 -61l-166 26z" />
    <glyph glyph-name="onesixth.alt" horiz-adv-x="1863" 
d="M694 545h-581v164h194v399h-207v162h101q82 0 118.5 25t47.5 81h149v-667h178v-164zM1452 1364l-821 -1364h-156l821 1364h156zM1489 -18q-161 0 -243.5 83t-82.5 248v179q0 169 86 259.5t250 90.5q83 0 145 -21t96 -56.5t50 -76t16 -84.5v-26h-192v14q0 41 -29.5 65.5
t-85.5 24.5q-75 0 -109 -43.5t-34 -114.5v-84q76 70 196 70q124 0 192 -59.5t68 -159.5v-39q0 -125 -83.5 -197.5t-239.5 -72.5zM1489 145q58 0 91.5 28.5t33.5 78.5v18q0 48 -32.5 76.5t-90.5 28.5t-93.5 -27.5t-35.5 -73.5v-20q0 -51 34 -80t93 -29z" />
    <glyph glyph-name="oneeighth.alt" horiz-adv-x="1888" 
d="M694 545h-581v164h194v399h-207v162h101q82 0 118.5 25t47.5 81h149v-667h178v-164zM1452 1364l-821 -1364h-156l821 1364h156zM1511 846q156 0 239 -68.5t83 -173.5v-10q0 -122 -139 -176q149 -56 149 -193v-12q0 -106 -85 -169.5t-247 -63.5t-246.5 63t-84.5 170v12
q0 137 151 193q-141 54 -141 176v10q0 106 82.5 174t238.5 68zM1511 686q-57 0 -89.5 -26.5t-32.5 -67.5v-21q0 -42 34 -67t88 -25q55 0 89 25t34 67v21q0 41 -33 67.5t-90 26.5zM1511 139q62 0 95.5 27.5t33.5 69.5v22q0 43 -34.5 68.5t-94.5 25.5t-94.5 -25.5t-34.5 -68.5
v-22q0 -42 33.5 -69.5t95.5 -27.5z" />
    <glyph glyph-name="one.sup_alt" 
d="M694 598h-581v164h194v399h-207v162h101q82 0 118.5 25.5t47.5 81.5h149v-668h178v-164z" />
    <glyph glyph-name="one.inf_alt" 
d="M694 -324h-581v164h194v400h-207v161h101q82 0 118.5 25.5t47.5 81.5h149v-668h178v-164z" />
    <glyph glyph-name="zero.tab" horiz-adv-x="1196" 
d="M598 1395q248 0 383 -147t135 -412v-308q0 -264 -136 -411.5t-382 -147.5t-382 147.5t-136 411.5v314q0 263 135 408t383 145zM598 1155q-118 0 -180 -82.5t-62 -238.5v-304q0 -157 61.5 -238t180.5 -81q120 0 181 81t61 238v304q0 156 -61.5 238.5t-180.5 82.5z" />
    <glyph glyph-name="one.tab" horiz-adv-x="1196" 
d="M598 1370h207v-1143h346v-227h-999v227h374v748h-403v221h194q143 0 204.5 39.5t76.5 134.5z" />
    <glyph glyph-name="two.tab" horiz-adv-x="1196" 
d="M618 1395q240 0 358 -111.5t118 -292.5q0 -68 -15.5 -122t-42.5 -96t-79 -83t-109 -74.5t-148 -80.5q-168 -87 -227.5 -143t-60.5 -138h665v-254h-977v78q0 101 13.5 175.5t42.5 137t82 116.5t123 102t176 104q58 33 89.5 52t67.5 43t52.5 41t32.5 40t21 46.5t5 53.5
q0 79 -51 119.5t-148 40.5q-105 0 -161 -48t-56 -140v-76h-268v84q0 197 126.5 311.5t370.5 114.5z" />
    <glyph glyph-name="three.tab" horiz-adv-x="1196" 
d="M606 1393q232 0 355.5 -104.5t123.5 -266.5v-27q0 -112 -69.5 -193t-196.5 -108q275 -56 275 -301v-37q0 -163 -131.5 -274t-358.5 -111q-132 0 -230.5 31t-157 87t-86.5 127.5t-28 160.5v74h269v-60q0 -79 56 -127.5t165 -48.5q101 0 158 45t57 123v35q0 86 -55.5 126
t-178.5 40h-127v207h127q117 0 173.5 42.5t56.5 120.5v29q0 77 -55.5 121.5t-157.5 44.5q-110 0 -164.5 -49t-54.5 -127v-60h-269v72q0 86 29.5 158.5t89 129t158 88.5t227.5 32z" />
    <glyph glyph-name="four.tab" horiz-adv-x="1196" 
d="M618 1364h353v-870h182v-222h-182v-272h-256v272h-664v203zM715 494v632l-406 -632h406z" />
    <glyph glyph-name="five.tab" horiz-adv-x="1196" 
d="M717 881q197 0 298 -100t101 -277v-86q0 -207 -132.5 -327t-375.5 -120q-255 0 -377 111t-122 293v28h266v-14q0 -85 60 -130.5t167 -45.5q106 0 169 50.5t63 150.5v67q0 88 -50.5 135.5t-152.5 47.5q-137 0 -271 -103l-227 39l51 764h906q-6 -78 -14 -121.5t-28 -75
t-53 -42.5t-88 -11h-487l-27 -354q139 121 324 121z" />
    <glyph glyph-name="six.tab" horiz-adv-x="1196" 
d="M600 -29q-249 0 -375.5 130t-126.5 384v357q0 262 136.5 406.5t388.5 144.5q100 0 181 -22t134 -58t88.5 -85.5t50.5 -102t15 -109.5v-62h-265v31q0 87 -53.5 129.5t-150.5 42.5q-256 0 -256 -276v-170q50 56 131 96.5t192 40.5q196 0 304 -97.5t108 -267.5v-69
q0 -202 -134 -322.5t-368 -120.5zM602 207q103 0 165 49t62 150v47q0 98 -59 147t-164 49q-103 0 -168 -50.5t-65 -141.5v-51q0 -101 62 -150t167 -49z" />
    <glyph glyph-name="seven.tab" horiz-adv-x="1196" 
d="M635 0h-318q26 318 151.5 574.5t379.5 533.5h-760v256h1057v-154q-240 -296 -361.5 -576t-148.5 -634z" />
    <glyph glyph-name="eight.tab" horiz-adv-x="1196" 
d="M600 1395q238 0 364 -108.5t126 -280.5v-19q0 -105 -58.5 -181t-167.5 -118q244 -89 244 -315v-23q0 -175 -130.5 -278t-377.5 -103q-249 0 -379.5 103t-130.5 278v23q0 229 246 315q-109 42 -168 118.5t-59 180.5v19q0 173 126 281t365 108zM600 1167q-102 0 -161.5 -47
t-59.5 -131v-35q0 -86 61 -131t160 -45q98 0 159.5 45t61.5 131v35q0 83 -60 130.5t-161 47.5zM600 197q109 0 170 48.5t61 135.5v31q0 89 -62 136.5t-169 47.5q-108 0 -170.5 -46.5t-62.5 -135.5v-31q0 -89 61 -137.5t172 -48.5z" />
    <glyph glyph-name="nine.tab" horiz-adv-x="1196" 
d="M596 1395q248 0 375 -130.5t127 -379.5v-357q0 -266 -136 -411.5t-391 -145.5q-101 0 -183 23t-134.5 60t-88 86t-50.5 99.5t-15 102.5v47h265v-20q0 -78 54.5 -120t149.5 -42q260 0 260 276v150q-121 -139 -315 -139q-199 0 -309.5 97.5t-110.5 262.5v100
q0 200 134 320.5t368 120.5zM594 1159q-103 0 -165 -49.5t-62 -153.5v-69q0 -97 59.5 -146t163.5 -49q103 0 168 50.5t65 140.5v73q0 103 -62.5 153t-166.5 50z" />
    <glyph glyph-name="dollar.tab" horiz-adv-x="1196" 
d="M1096 389q0 -164 -99 -267t-276 -130v-205h-219v203q-200 22 -298 128.5t-98 274.5v56h269v-35q0 -96 58 -149.5t173 -53.5q105 0 160 38t55 113q0 77 -59.5 122t-226.5 102q-225 65 -317.5 153.5t-92.5 243.5q0 152 102 258.5t279 130.5v203h221v-203
q181 -27 267.5 -130t86.5 -263v-41h-266v37q0 82 -51 130t-162 48q-97 0 -149 -40t-52 -105q0 -75 55.5 -116.5t221.5 -96.5q232 -70 325 -158.5t93 -247.5z" />
    <glyph glyph-name="sterling.tab" horiz-adv-x="1196" 
d="M834 -31q-65 0 -128 25t-101 52.5t-93 74.5q-41 -71 -107.5 -111.5t-142.5 -40.5q-113 0 -173 57.5t-60 153.5q0 95 62.5 157t174.5 62q68 0 148 -34v43q0 90 -41 180h-256v157h178q-72 144 -72 275q0 167 113 271t326 104q214 0 323 -109.5t109 -294.5v-69h-248v39
q0 93 -46.5 144.5t-133.5 51.5q-79 0 -125.5 -43.5t-46.5 -124.5q0 -23 3 -46t6.5 -40t12 -42t12.5 -37t15.5 -40.5t15.5 -38.5h334v-157h-285q10 -62 10 -125q0 -109 -40 -193q114 -71 196 -71q73 0 103 39t30 129v53h232v-74q0 -188 -71.5 -282.5t-233.5 -94.5zM172 178
q0 -39 25 -62.5t71 -23.5q45 0 78.5 32t50.5 93q-71 47 -129 47q-45 0 -70.5 -24t-25.5 -62z" />
    <glyph glyph-name="Euro.tab" horiz-adv-x="1196" 
d="M1116 412q0 -200 -117.5 -320.5t-336.5 -120.5q-233 0 -361.5 132t-138.5 384h-133v129h133v132h-133v126h133q10 252 139 385.5t361 133.5q225 0 339.5 -118t114.5 -323v-24h-252v22q0 92 -48 149.5t-150 57.5q-122 0 -177.5 -69.5t-60.5 -213.5h377v-126h-379v-132h379
v-129h-377q5 -139 61.5 -209.5t176.5 -70.5q101 0 148 56.5t50 150.5v20h252v-22z" />
    <glyph glyph-name="yen.tab" horiz-adv-x="1196" 
d="M1087 227h-356v-227h-264v227h-358v150h358v108l-18 41h-340v148h268l-334 690h293l274 -623l273 623h276l-336 -690h264v-148h-335l-21 -41v-108h356v-150z" />
    <glyph glyph-name="cent.tab" horiz-adv-x="1196" 
d="M1047 549q0 -145 -84.5 -246.5t-239.5 -128.5v-184h-221v184q-167 31 -257.5 150.5t-90.5 310.5v94q0 188 91.5 309t256.5 152v184h221v-182q158 -26 241 -126t83 -249v-16h-256v6q0 74 -45 120t-130 46q-93 0 -141.5 -60t-48.5 -159v-142q0 -99 48.5 -159t141.5 -60
q82 0 128.5 45.5t46.5 116.5v6h256v-12z" />
    <glyph glyph-name="numbersign.tab" horiz-adv-x="1196" 
d="M635 0l45 344h-250l-45 -344h-188l45 344h-201v180h223l41 316h-215v180h238l45 344h190l-45 -344h248l45 344h190l-45 -344h201v-180h-223l-41 -316h215v-180h-240l-45 -344h-188zM455 524h247l41 316h-247z" />
    <glyph glyph-name="degree.tab" horiz-adv-x="1196" 
d="M598 1397q201 0 313.5 -110.5t112.5 -293.5q0 -182 -114 -292.5t-312 -110.5q-197 0 -310.5 110t-113.5 293t113 293.5t311 110.5zM598 1219q-106 0 -161.5 -60t-55.5 -166q0 -107 56.5 -166t160.5 -59q106 0 161.5 58.5t55.5 166.5q0 107 -55 166.5t-162 59.5z" />
    <glyph glyph-name="percent.tab" horiz-adv-x="1796" 
d="M465 1389q147 0 232 -85.5t85 -232.5v-84q0 -149 -85 -233t-232 -84t-233.5 84.5t-86.5 232.5v84q0 147 86.5 232.5t233.5 85.5zM1567 1370l-1135 -1376h-203l1135 1376h203zM465 1229q-68 0 -101.5 -42t-33.5 -116v-82q0 -75 33.5 -117.5t101.5 -42.5q133 0 133 160v82
q0 74 -32.5 116t-100.5 42zM1331 -25q-147 0 -233 85.5t-86 232.5v84q0 148 86 232.5t233 84.5t232.5 -84.5t85.5 -232.5v-84q0 -147 -85.5 -232.5t-232.5 -85.5zM1331 135q67 0 101 42.5t34 115.5v82q0 74 -34 117t-101 43q-68 0 -101.5 -42.5t-33.5 -117.5v-82
q0 -74 33.5 -116t101.5 -42z" />
    <glyph glyph-name="quotedbl.tab" horiz-adv-x="1196" 
d="M309 1364h291l-215 -645h-174zM756 1364h291l-244 -645h-174z" />
    <glyph glyph-name="quotesingle.tab" horiz-adv-x="598" 
d="M217 1364h293l-201 -645h-180z" />
    <glyph glyph-name="period.tab" horiz-adv-x="598" 
d="M158 303h280v-303h-280v303z" />
    <glyph glyph-name="comma.tab" horiz-adv-x="598" 
d="M158 303h280v-229q0 -94 -20 -163t-62 -115.5t-95 -76t-130 -53.5v82q92 59 120 106t28 146h-121v303z" />
    <glyph glyph-name="colon.tab" horiz-adv-x="598" 
d="M158 973h280v-303h-280v303zM158 303h280v-303h-280v303z" />
    <glyph glyph-name="semicolon.tab" horiz-adv-x="598" 
d="M158 973h280v-303h-280v303zM158 303h280v-229q0 -94 -20 -163t-62 -115.5t-95 -76t-130 -53.5v82q92 59 120 106t28 146h-121v303z" />
    <glyph glyph-name="periodcentered.tab" horiz-adv-x="598" 
d="M158 836h280v-306h-280v306z" />
    <glyph glyph-name="slash.tab" horiz-adv-x="1196" 
d="M903 1563h232l-838 -1887h-229z" />
    <glyph glyph-name="bar.tab" horiz-adv-x="598" 
d="M190 1561h220v-1885h-220v1885z" />
    <glyph glyph-name="underscore.tab" horiz-adv-x="1196" 
d="M63 -150h1072v-174h-1072v174z" />
    <glyph glyph-name="plus.tab" horiz-adv-x="1196" 
d="M489 1141h222v-353h346v-213h-346v-352h-222v352h-348v213h348v353z" />
    <glyph glyph-name="minus.tab" horiz-adv-x="1196" 
d="M166 793h868v-220h-868v220z" />
    <glyph glyph-name="divide.tab" horiz-adv-x="1196" 
d="M477 1153h240v-223h-240v223zM150 782h899v-198h-899v198zM477 436h240v-223h-240v223z" />
    <glyph glyph-name="equal.tab" horiz-adv-x="1196" 
d="M182 1001h836v-210h-836v210zM182 573h836v-211h-836v211z" />
    <glyph glyph-name="multiply.tab" horiz-adv-x="1196" 
d="M891 229l-295 299l-295 -299l-156 152l297 301l-295 299l156 154l295 -297l293 297l156 -152l-295 -299l297 -301z" />
    <glyph glyph-name="less.tab" horiz-adv-x="1196" 
d="M969 1180v-242l-537 -256l537 -256v-242l-809 396v204z" />
    <glyph glyph-name="greater.tab" horiz-adv-x="1196" 
d="M221 1180l809 -396v-204l-809 -396v242l535 256l-535 256v242z" />
    <glyph glyph-name="plusminus.tab" horiz-adv-x="1196" 
d="M496 1270h206v-314h312v-200h-312v-316h-206v316h-312v200h312v314zM184 301h830v-199h-830v199z" />
    <glyph glyph-name="onehalf.tab" horiz-adv-x="1796" 
d="M694 545h-581v164h194v399h-207v162h101q82 0 118.5 25t47.5 81h149v-667h178v-164zM1405 1364l-823 -1364h-154l821 1364h156zM1724 0h-626v47q0 146 58 227.5t224 167.5q101 55 128.5 80t27.5 72q0 86 -113 86q-64 0 -98.5 -29.5t-34.5 -83.5v-39h-192v50
q0 121 85 193.5t249 72.5q159 0 234 -67t75 -177q0 -92 -52.5 -150.5t-205.5 -140.5q-94 -48 -125.5 -74.5t-34.5 -62.5h401v-172z" />
    <glyph glyph-name="onethird.tab" horiz-adv-x="1796" 
d="M694 545h-581v164h194v399h-207v162h101q82 0 118.5 25t47.5 81h149v-667h178v-164zM1405 1364l-823 -1364h-154l821 1364h156zM1423 844q150 0 234 -65t84 -167v-14q0 -69 -46 -114.5t-126 -63.5q180 -31 180 -189v-14q0 -104 -87 -169.5t-241 -65.5q-166 0 -248.5 67
t-82.5 184v48h188v-37q0 -48 35.5 -75.5t101.5 -27.5q61 0 94 25t33 70v22q0 86 -143 86h-76v139h76q139 0 139 88v19q0 44 -32.5 68t-92.5 24q-66 0 -99.5 -27.5t-33.5 -72.5v-39h-190v49q0 112 85 182t248 70z" />
    <glyph glyph-name="twothirds.tab" horiz-adv-x="1796" 
d="M684 545h-627v47q0 146 57.5 227.5t223.5 167.5q102 55 130 80t28 72q0 86 -113 86q-64 0 -98.5 -29.5t-34.5 -83.5v-39h-193v49q0 121 84.5 194t249.5 73q159 0 234 -67t75 -177q0 -91 -53 -150t-207 -141q-93 -49 -124.5 -75t-32.5 -60h401v-174zM1399 1364l-824 -1364
h-153l821 1364h156zM1423 844q150 0 234 -65t84 -167v-14q0 -69 -46 -114.5t-126 -63.5q180 -31 180 -189v-14q0 -104 -87 -169.5t-241 -65.5q-166 0 -248.5 67t-82.5 184v48h188v-37q0 -48 35.5 -75.5t101.5 -27.5q61 0 94 25t33 70v22q0 86 -143 86h-76v139h76
q139 0 139 88v19q0 44 -32.5 68t-92.5 24q-66 0 -99.5 -27.5t-33.5 -72.5v-39h-190v49q0 112 85 182t248 70z" />
    <glyph glyph-name="onequarter.tab" horiz-adv-x="1796" 
d="M694 545h-581v164h194v399h-207v162h101q82 0 118.5 25t47.5 81h149v-667h178v-164zM1454 1364l-823 -1364h-156l823 1364h156zM1403 825h254v-506h106v-153h-106v-166h-189v166h-413v147zM1468 319v353l-227 -353h227z" />
    <glyph glyph-name="threequarters.tab" horiz-adv-x="1796" 
d="M383 1389q150 0 233.5 -64.5t83.5 -165.5v-16q0 -69 -46 -114.5t-126 -63.5q179 -29 179 -189v-14q0 -103 -86 -169.5t-240 -66.5q-166 0 -250 67.5t-84 184.5v47h191v-37q0 -100 137 -100q61 0 94 24.5t33 67.5v23q0 44 -35 65t-111 21h-73v141h73q142 0 142 86v19
q0 44 -32.5 69t-92.5 25q-66 0 -100.5 -29t-34.5 -74v-39h-189v50q0 113 85 182.5t249 69.5zM1444 1364l-823 -1364h-154l821 1364h156zM1403 825h254v-506h106v-153h-106v-166h-189v166h-413v147zM1468 319v353l-227 -353h227z" />
    <glyph glyph-name="onefifth.tab" horiz-adv-x="1796" 
d="M694 545h-581v164h194v399h-207v162h101q82 0 118.5 25t47.5 81h149v-667h178v-164zM1401 1364l-821 -1364h-156l821 1364h156zM1149 825h575q-8 -103 -31 -138.5t-94 -35.5h-280l-14 -186q46 33 92 49t110 16q113 0 174.5 -57.5t61.5 -163.5v-57q0 -125 -83 -197.5
t-241 -72.5q-168 0 -242.5 66.5t-74.5 178.5v31h194v-14q0 -44 31 -72.5t90 -28.5q58 0 89.5 32t31.5 81v37q0 45 -27.5 72.5t-85.5 27.5q-80 0 -141 -61l-166 26z" />
    <glyph glyph-name="twofifths.tab" horiz-adv-x="1796" 
d="M684 545h-627v47q0 146 57.5 227.5t223.5 167.5q102 55 130 80t28 72q0 86 -113 86q-64 0 -98.5 -29.5t-34.5 -83.5v-39h-193v49q0 121 84.5 194t249.5 73q159 0 234 -67t75 -177q0 -91 -53 -150t-207 -141q-93 -49 -124.5 -75t-32.5 -60h401v-174zM1391 1364l-824 -1364
h-153l821 1364h156zM1149 825h575q-8 -103 -31 -138.5t-94 -35.5h-280l-14 -186q46 33 92 49t110 16q113 0 174.5 -57.5t61.5 -163.5v-57q0 -125 -83 -197.5t-241 -72.5q-168 0 -242.5 66.5t-74.5 178.5v31h194v-14q0 -44 31 -72.5t90 -28.5q58 0 89.5 32t31.5 81v37
q0 45 -27.5 72.5t-85.5 27.5q-80 0 -141 -61l-166 26z" />
    <glyph glyph-name="threefifths.tab" horiz-adv-x="1796" 
d="M383 1389q150 0 233.5 -64.5t83.5 -165.5v-16q0 -69 -46 -114.5t-126 -63.5q179 -29 179 -189v-14q0 -103 -86 -169.5t-240 -66.5q-166 0 -250 67.5t-84 184.5v47h191v-37q0 -100 137 -100q61 0 94 24.5t33 67.5v23q0 44 -35 65t-111 21h-73v141h73q142 0 142 86v19
q0 44 -32.5 69t-92.5 25q-66 0 -100.5 -29t-34.5 -74v-39h-189v50q0 113 85 182.5t249 69.5zM1372 1364l-821 -1364h-156l822 1364h155zM1149 825h575q-8 -103 -31 -138.5t-94 -35.5h-280l-14 -186q46 33 92 49t110 16q113 0 174.5 -57.5t61.5 -163.5v-57q0 -125 -83 -197.5
t-241 -72.5q-168 0 -242.5 66.5t-74.5 178.5v31h194v-14q0 -44 31 -72.5t90 -28.5q58 0 89.5 32t31.5 81v37q0 45 -27.5 72.5t-85.5 27.5q-80 0 -141 -61l-166 26z" />
    <glyph glyph-name="fourfifths.tab" horiz-adv-x="1796" 
d="M360 1370h256v-506h105v-153h-105v-166h-188v166h-416v147zM1384 1364l-823 -1364h-153l821 1364h155zM428 864v353l-227 -353h227zM1149 825h575q-8 -103 -31 -138.5t-94 -35.5h-280l-14 -186q46 33 92 49t110 16q113 0 174.5 -57.5t61.5 -163.5v-57q0 -125 -83 -197.5
t-241 -72.5q-168 0 -242.5 66.5t-74.5 178.5v31h194v-14q0 -44 31 -72.5t90 -28.5q58 0 89.5 32t31.5 81v37q0 45 -27.5 72.5t-85.5 27.5q-80 0 -141 -61l-166 26z" />
    <glyph glyph-name="onesixth.tab" horiz-adv-x="1796" 
d="M694 545h-581v164h194v399h-207v162h101q82 0 118.5 25t47.5 81h149v-667h178v-164zM1423 1364l-823 -1364h-154l822 1364h155zM1419 -18q-325 0 -325 331v179q0 169 85 259.5t248 90.5q83 0 145.5 -21t97 -56.5t51 -76t16.5 -84.5v-26h-193v14q0 41 -30 65.5t-87 24.5
q-73 0 -107 -43.5t-34 -114.5v-84q76 70 197 70q124 0 192 -59.5t68 -159.5v-39q0 -125 -84.5 -197.5t-239.5 -72.5zM1419 145q58 0 91.5 28.5t33.5 78.5v18q0 48 -32.5 76.5t-90.5 28.5q-60 0 -94.5 -27.5t-34.5 -73.5v-20q0 -51 34 -80t93 -29z" />
    <glyph glyph-name="fivesixths.tab" horiz-adv-x="1796" 
d="M109 1370h575q-8 -103 -31.5 -138.5t-95.5 -35.5h-278l-15 -186q88 65 201 65q114 0 174.5 -57.5t60.5 -163.5v-57q0 -124 -82 -197.5t-239 -73.5q-168 0 -243 67t-75 179v31h195v-15q0 -44 31 -72t88 -28q59 0 90 31.5t31 81.5v37q0 45 -27 72.5t-84 27.5
q-80 0 -143 -59l-166 24zM1399 1364l-824 -1364h-153l821 1364h156zM1419 -18q-325 0 -325 331v179q0 169 85 259.5t248 90.5q83 0 145.5 -21t97 -56.5t51 -76t16.5 -84.5v-26h-193v14q0 41 -30 65.5t-87 24.5q-73 0 -107 -43.5t-34 -114.5v-84q76 70 197 70
q124 0 192 -59.5t68 -159.5v-39q0 -125 -84.5 -197.5t-239.5 -72.5zM1419 145q58 0 91.5 28.5t33.5 78.5v18q0 48 -32.5 76.5t-90.5 28.5q-60 0 -94.5 -27.5t-34.5 -73.5v-20q0 -51 34 -80t93 -29z" />
    <glyph glyph-name="oneeighth.tab" horiz-adv-x="1796" 
d="M694 545h-581v164h194v399h-207v162h101q82 0 118.5 25t47.5 81h149v-667h178v-164zM1407 1364l-821 -1364h-156l821 1364h156zM1417 846q156 0 239 -68.5t83 -173.5v-10q0 -122 -140 -176q150 -56 150 -193v-12q0 -106 -85 -169.5t-247 -63.5t-247 63.5t-85 169.5v12
q0 137 152 193q-141 54 -141 176v10q0 105 83 173.5t238 68.5zM1417 686q-57 0 -90 -26.5t-33 -67.5v-21q0 -42 34.5 -67t88.5 -25q55 0 89 25t34 67v21q0 41 -33 67.5t-90 26.5zM1417 139q63 0 96 27.5t33 69.5v22q0 43 -34.5 68.5t-94.5 25.5t-94.5 -25.5t-34.5 -68.5v-22
q0 -42 33.5 -69.5t95.5 -27.5z" />
    <glyph glyph-name="threeeighths.tab" horiz-adv-x="1796" 
d="M383 1389q150 0 233.5 -64.5t83.5 -165.5v-16q0 -69 -46 -114.5t-126 -63.5q179 -29 179 -189v-14q0 -103 -86 -169.5t-240 -66.5q-166 0 -250 67.5t-84 184.5v47h191v-37q0 -100 137 -100q61 0 94 24.5t33 67.5v23q0 44 -35 65t-111 21h-73v141h73q142 0 142 86v19
q0 44 -32.5 69t-92.5 25q-66 0 -100.5 -29t-34.5 -74v-39h-189v50q0 113 85 182.5t249 69.5zM1384 1364l-823 -1364h-153l821 1364h155zM1417 846q156 0 239 -68.5t83 -173.5v-10q0 -122 -140 -176q150 -56 150 -193v-12q0 -106 -85 -169.5t-247 -63.5t-247 63.5t-85 169.5
v12q0 137 152 193q-141 54 -141 176v10q0 105 83 173.5t238 68.5zM1417 686q-57 0 -90 -26.5t-33 -67.5v-21q0 -42 34.5 -67t88.5 -25q55 0 89 25t34 67v21q0 41 -33 67.5t-90 26.5zM1417 139q63 0 96 27.5t33 69.5v22q0 43 -34.5 68.5t-94.5 25.5t-94.5 -25.5t-34.5 -68.5
v-22q0 -42 33.5 -69.5t95.5 -27.5z" />
    <glyph glyph-name="fiveeighths.tab" horiz-adv-x="1796" 
d="M109 1370h575q-8 -103 -31.5 -138.5t-95.5 -35.5h-278l-15 -186q88 65 201 65q114 0 174.5 -57.5t60.5 -163.5v-57q0 -124 -82 -197.5t-239 -73.5q-168 0 -243 67t-75 179v31h195v-15q0 -44 31 -72t88 -28q59 0 90 31.5t31 81.5v37q0 45 -27 72.5t-84 27.5
q-80 0 -143 -59l-166 24zM1384 1364l-823 -1364h-153l821 1364h155zM1417 846q156 0 239 -68.5t83 -173.5v-10q0 -122 -140 -176q150 -56 150 -193v-12q0 -106 -85 -169.5t-247 -63.5t-247 63.5t-85 169.5v12q0 137 152 193q-141 54 -141 176v10q0 105 83 173.5t238 68.5z
M1417 686q-57 0 -90 -26.5t-33 -67.5v-21q0 -42 34.5 -67t88.5 -25q55 0 89 25t34 67v21q0 41 -33 67.5t-90 26.5zM1417 139q63 0 96 27.5t33 69.5v22q0 43 -34.5 68.5t-94.5 25.5t-94.5 -25.5t-34.5 -68.5v-22q0 -42 33.5 -69.5t95.5 -27.5z" />
    <glyph glyph-name="seveneighths.tab" horiz-adv-x="1796" 
d="M63 1370h652v-108q-152 -167 -221 -330t-84 -387h-236q15 197 93 346t237 295h-441v184zM1309 1364l-824 -1364h-155l821 1364h158zM1417 846q156 0 239 -68.5t83 -173.5v-10q0 -122 -140 -176q150 -56 150 -193v-12q0 -106 -85 -169.5t-247 -63.5t-247 63.5t-85 169.5
v12q0 137 152 193q-141 54 -141 176v10q0 105 83 173.5t238 68.5zM1417 686q-57 0 -90 -26.5t-33 -67.5v-21q0 -42 34.5 -67t88.5 -25q55 0 89 25t34 67v21q0 41 -33 67.5t-90 26.5zM1417 139q63 0 96 27.5t33 69.5v22q0 43 -34.5 68.5t-94.5 25.5t-94.5 -25.5t-34.5 -68.5
v-22q0 -42 33.5 -69.5t95.5 -27.5z" />
    <glyph glyph-name="i.dot" horiz-adv-x="526" 
d="M121 1376h287v-233h-287v233zM125 987h276v-987h-276v987z" />
    <glyph glyph-name="fraction.tab" horiz-adv-x="286" 
d="M631 1364l-824 -1364h-153l821 1364h156z" />
    <glyph glyph-name="zero.num" 
d="M377 1393q158 0 248 -93.5t90 -259.5v-163q0 -168 -90.5 -260.5t-249.5 -92.5q-158 0 -248 92.5t-90 260.5v163q0 167 90.5 260t249.5 93zM377 1217q-133 0 -133 -179v-159q0 -179 131 -179q133 0 133 179v159q0 179 -131 179z" />
    <glyph glyph-name="one.num" horiz-adv-x="632" 
d="M307 1376h150v-831h-213v567h-172v158h75q76 0 112 25t48 81z" />
    <glyph glyph-name="one.num_alt" 
d="M694 545h-581v164h194v399h-207v162h101q82 0 118.5 25t47.5 81h149v-667h178v-164z" />
    <glyph glyph-name="two.num" 
d="M684 545h-627v47q0 146 57.5 227.5t223.5 167.5q102 55 130 80t28 72q0 86 -113 86q-64 0 -98.5 -29.5t-34.5 -83.5v-39h-193v49q0 121 84.5 194t249.5 73q159 0 234 -67t75 -177q0 -91 -53 -150t-207 -141q-93 -49 -124.5 -75t-32.5 -60h401v-174z" />
    <glyph glyph-name="three.num" 
d="M383 1389q150 0 233.5 -64.5t83.5 -165.5v-16q0 -69 -46 -114.5t-126 -63.5q179 -29 179 -189v-14q0 -103 -86 -169.5t-240 -66.5q-166 0 -250 67.5t-84 184.5v47h191v-37q0 -100 137 -100q61 0 94 24.5t33 67.5v23q0 44 -35 65t-111 21h-73v141h73q142 0 142 86v19
q0 44 -32.5 69t-92.5 25q-66 0 -100.5 -29t-34.5 -74v-39h-189v50q0 113 85 182.5t249 69.5z" />
    <glyph glyph-name="four.num" 
d="M360 1370h256v-506h105v-153h-105v-166h-188v166h-416v147zM428 864v353l-227 -353h227z" />
    <glyph glyph-name="five.num" 
d="M109 1370h575q-8 -103 -31.5 -138.5t-95.5 -35.5h-278l-15 -186q88 65 201 65q114 0 174.5 -57.5t60.5 -163.5v-57q0 -124 -82 -197.5t-239 -73.5q-168 0 -243 67t-75 179v31h195v-15q0 -44 31 -72t88 -28q59 0 90 31.5t31 81.5v37q0 45 -27 72.5t-84 27.5
q-80 0 -143 -59l-166 24z" />
    <glyph glyph-name="six.num" 
d="M379 526q-161 0 -244.5 84t-83.5 250v176q0 168 86.5 259t249.5 91q83 0 145 -20.5t96 -56t50 -75.5t16 -85v-27h-192v15q0 41 -29 65.5t-86 24.5q-75 0 -109 -43.5t-34 -114.5v-84q75 70 198 70q124 0 192 -59t68 -160v-39q0 -125 -84.5 -198t-238.5 -73zM377 692
q59 0 92 27t33 78v18q0 48 -32.5 76.5t-90.5 28.5t-93.5 -27.5t-35.5 -73.5v-20q0 -51 34 -79t93 -28z" />
    <glyph glyph-name="seven.num" 
d="M63 1370h652v-108q-152 -167 -221 -330t-84 -387h-236q15 197 93 346t237 295h-441v184z" />
    <glyph glyph-name="eight.num" 
d="M377 1391q156 0 238.5 -68t82.5 -172v-12q0 -119 -139 -176q150 -56 150 -193v-12q0 -105 -85 -169.5t-247 -64.5t-247 64.5t-85 169.5v12q0 137 150 193q-140 58 -140 176v12q0 104 83 172t239 68zM377 1231q-57 0 -90 -26.5t-33 -67.5v-21q0 -42 34 -67t89 -25t89 25
t34 67v21q0 41 -33 67.5t-90 26.5zM377 684q62 0 95.5 27t33.5 69v23q0 43 -35 69.5t-94 26.5t-94 -26.5t-35 -69.5v-23q0 -42 33.5 -69t95.5 -27z" />
    <glyph glyph-name="nine.num" 
d="M375 1389q162 0 246 -83.5t84 -248.5v-176q0 -170 -88.5 -262.5t-254.5 -92.5q-85 0 -148 21t-97.5 56.5t-51 76t-16.5 86.5v18h193v-6q0 -90 120 -90q79 0 114.5 43.5t35.5 116.5v74q-68 -68 -203 -68q-124 0 -193 58.5t-69 158.5v45q0 126 86 199.5t242 73.5zM375 1223
q-57 0 -92 -29.5t-35 -75.5v-28q0 -46 34 -74.5t93 -28.5t95 27.5t36 72.5v29q0 51 -35 79t-96 28z" />
    <glyph glyph-name="zero.den" 
d="M377 848q158 0 248 -93t90 -259v-164q0 -168 -90.5 -260t-249.5 -92q-158 0 -248 92.5t-90 259.5v164q0 166 90.5 259t249.5 93zM377 672q-133 0 -133 -180v-158q0 -178 131 -178q133 0 133 178v158q0 180 -131 180z" />
    <glyph glyph-name="one.den" horiz-adv-x="632" 
d="M307 831h150v-831h-213v567h-172v158h75q76 0 112 25t48 81z" />
    <glyph glyph-name="one.den_alt" 
d="M694 0h-581v164h194v399h-207v162h101q82 0 118.5 25t47.5 81h149v-667h178v-164z" />
    <glyph glyph-name="two.den" 
d="M684 0h-627v47q0 146 57.5 227.5t223.5 167.5q102 55 130 80t28 72q0 86 -113 86q-64 0 -98.5 -29.5t-34.5 -83.5v-39h-193v50q0 121 84.5 193.5t249.5 72.5q159 0 234 -67t75 -177q0 -92 -52.5 -150.5t-207.5 -140.5q-94 -49 -125 -75t-32 -62h401v-172z" />
    <glyph glyph-name="three.den" 
d="M383 844q150 0 233.5 -65t83.5 -167v-14q0 -69 -46 -114.5t-126 -63.5q179 -32 179 -189v-14q0 -104 -86 -169.5t-240 -65.5q-167 0 -250.5 67t-83.5 184v48h191v-37q0 -48 34.5 -75.5t102.5 -27.5q61 0 94 25t33 70v22q0 86 -146 86h-73v139h73q142 0 142 88v19
q0 44 -32.5 68t-92.5 24q-66 0 -100.5 -27.5t-34.5 -72.5v-39h-189v49q0 111 85.5 181.5t248.5 70.5z" />
    <glyph glyph-name="four.den" 
d="M360 825h256v-506h105v-153h-105v-166h-188v166h-416v147zM428 319v353l-227 -353h227z" />
    <glyph glyph-name="five.den" 
d="M109 825h575q-8 -103 -31.5 -138.5t-95.5 -35.5h-278l-15 -186q88 65 201 65q114 0 174.5 -57.5t60.5 -163.5v-57q0 -125 -82 -197.5t-239 -72.5q-168 0 -243 66.5t-75 178.5v31h195v-14q0 -44 31 -72.5t88 -28.5q59 0 90 31.5t31 81.5v37q0 45 -27 72.5t-84 27.5
q-82 0 -143 -61l-166 26z" />
    <glyph glyph-name="six.den" 
d="M379 -18q-161 0 -244.5 83t-83.5 248v179q0 168 86.5 259t249.5 91q83 0 145 -21t96 -56.5t50 -76t16 -84.5v-26h-192v14q0 41 -29 65.5t-86 24.5q-75 0 -109 -43.5t-34 -114.5v-84q81 70 198 70q124 0 192 -59.5t68 -159.5v-39q0 -125 -84.5 -197.5t-238.5 -72.5z
M377 145q59 0 92 28t33 79v18q0 48 -32.5 76.5t-90.5 28.5t-93.5 -27.5t-35.5 -73.5v-20q0 -51 34 -80t93 -29z" />
    <glyph glyph-name="seven.den" 
d="M63 825h652v-108q-152 -167 -221 -330t-84 -387h-236q15 197 93 345t237 296h-441v184z" />
    <glyph glyph-name="eight.den" 
d="M377 846q156 0 238.5 -68t82.5 -174v-10q0 -122 -139 -176q150 -56 150 -193v-12q0 -106 -85 -169.5t-247 -63.5t-247 63.5t-85 169.5v12q0 137 150 193q-140 54 -140 176v10q0 105 83 173.5t239 68.5zM377 686q-57 0 -90 -26.5t-33 -67.5v-21q0 -42 34 -67t89 -25t89 25
t34 67v21q0 41 -33 67.5t-90 26.5zM377 139q62 0 95.5 27.5t33.5 69.5v22q0 43 -34.5 68.5t-94.5 25.5t-94.5 -25.5t-34.5 -68.5v-22q0 -42 33.5 -69.5t95.5 -27.5z" />
    <glyph glyph-name="nine.den" 
d="M375 844q162 0 246 -83.5t84 -248.5v-176q0 -170 -88.5 -262t-254.5 -92q-85 0 -148 20.5t-97.5 56t-51 76t-16.5 86.5v19h193v-7q0 -90 120 -90q150 0 150 160v74q-70 -70 -203 -70q-124 0 -193 59.5t-69 159.5v45q0 126 86 199.5t242 73.5zM375 678q-57 0 -92 -29.5
t-35 -75.5v-28q0 -46 34 -74.5t93 -28.5t95 27.5t36 73.5v28q0 49 -35.5 78t-95.5 29z" />
    <glyph glyph-name="caron.alt" horiz-adv-x="1024" 
d="M410 1458h239l-121 -346h-135z" />
    <glyph glyph-name="acute.cap" horiz-adv-x="1021" 
d="M766 1898l-324 -356h-184l193 356h315z" />
    <glyph glyph-name="hungarumlaut.cap" horiz-adv-x="1021" 
d="M555 1898l-283 -356h-168l189 356h262zM918 1898l-285 -356h-166l188 356h263z" />
    <glyph glyph-name="grave.cap" horiz-adv-x="1021" 
d="M258 1898h315l193 -356h-184z" />
    <glyph glyph-name="circumflex.cap" horiz-adv-x="1024" 
d="M373 1874h282q49 -184 219 -268v-99q-109 19 -208.5 74.5t-151.5 118.5q-54 -64 -153 -119t-209 -74v99q173 86 221 268z" />
    <glyph glyph-name="caron.cap" horiz-adv-x="1024" 
d="M152 1909q109 -19 207.5 -74t152.5 -119q54 64 152.5 119t207.5 74v-99q-170 -84 -219 -268h-282q-49 184 -219 268v99z" />
    <glyph glyph-name="breve.cap" horiz-adv-x="1024" 
d="M512 1724q207 0 207 113q0 23 -6 61h98q25 -65 25 -131q0 -118 -87.5 -183.5t-236.5 -65.5t-236.5 65.5t-87.5 183.5q0 66 25 131h98q-6 -38 -6 -61q0 -113 207 -113z" />
    <glyph glyph-name="tilde.cap" horiz-adv-x="1021" 
d="M346 1870q96 0 189 -78q7 -6 25.5 -21t26 -21.5t23 -17.5t26 -15.5t24 -8.5t26.5 -4q34 0 53 23.5t19 64.5q0 26 -10 68h102q20 -68 20 -136q0 -97 -50.5 -157t-141.5 -60q-56 0 -101 22.5t-94 61.5q-5 4 -28.5 23.5t-31 25t-25.5 17t-31.5 15t-28.5 3.5q-33 0 -52.5 -24
t-19.5 -64q0 -27 10 -69h-102q-20 68 -20 135q0 97 50.5 157t141.5 60z" />
    <glyph glyph-name="macron.cap" horiz-adv-x="1024" 
d="M178 1739h668v-164h-668v164z" />
    <glyph glyph-name="dieresis.cap" horiz-adv-x="1024" 
d="M195 1790h233v-248h-233v248zM596 1790h233v-248h-233v248z" />
    <glyph glyph-name="dotaccent.cap" horiz-adv-x="1021" 
d="M367 1772h290v-230h-290v230z" />
    <glyph glyph-name="ring.cap" horiz-adv-x="1024" 
d="M512 1954q115 0 185.5 -65.5t70.5 -162.5t-70.5 -163t-185.5 -66t-185.5 66t-70.5 163q0 95 70.5 161.5t185.5 66.5zM512 1855q-65 0 -104 -37t-39 -92t39 -92t104 -37t104 37t39 92q0 53 -39 91t-104 38z" />
    <glyph glyph-name="commaaccent.rot" horiz-adv-x="1024" 
d="M375 1143v223q0 112 72 185.5t198 97.5v-70q-68 -21 -110 -73.5t-39 -127.5h129v-235h-250z" />
    </font>
</defs>
</svg>
