<?xml version="1.0" standalone="no"?>
<!DOCTYPE svg PUBLIC "-//W3C//DTD SVG 1.1//EN" "http://www.w3.org/Graphics/SVG/1.1/DTD/svg11.dtd" >
<svg xmlns="http://www.w3.org/2000/svg" xmlns:xlink="http://www.w3.org/1999/xlink" version="1.1">
<metadata>
Created by FontForge 20201107 at Wed Jul 30 10:59:04 2025
 By 
Copyright (C) 2017 Hoefler &#38; Co. http://www.typography.com
</metadata>
<defs>
<font id="RingsideNarrow-Book" horiz-adv-x="753" >
  <font-face 
    font-family="Ringside Narrow Book"
    font-weight="325"
    font-stretch="semi-condensed"
    units-per-em="2048"
    panose-1="2 0 5 0 0 0 0 0 0 0"
    ascent="1638"
    descent="-410"
    x-height="965"
    cap-height="1364"
    bbox="-356 -662 2152 2118"
    underline-thickness="0"
    underline-position="0"
    unicode-range="U+0020-FB04"
  />
<missing-glyph horiz-adv-x="1024" 
d="M0 -410v2048h1024v-2048h-1024zM145 1536l367 -799l367 799h-734zM102 -156l353 770l-353 770v-1540zM922 1384l-353 -770l353 -770v1540zM512 492l-367 -799h734z" />
    <glyph glyph-name="f_f" unicode="ff" horiz-adv-x="1263" 
d="M543 1417h90v-131h-66q-95 0 -137.5 -42t-42.5 -124v-155h436v159q0 141 78.5 217t239.5 76h90v-131h-66q-95 0 -137.5 -42t-42.5 -124v-155h242v-131h-242v-834h-162v834h-436v-834h-160v834h-159v131h159v159q0 141 77.5 217t238.5 76z" />
    <glyph glyph-name="f_f_i" unicode="ffi" horiz-adv-x="1740" 
d="M1231 1417v-131h-66q-95 0 -137.5 -42t-42.5 -124v-155h242v-131h-242v-834h-162v834h-436v-834h-160v834h-159v131h159v159q0 141 77.5 217t238.5 76h90v-131h-66q-95 0 -137.5 -42t-42.5 -124v-155h436v159q0 141 78.5 217t239.5 76h90zM1413 1350h180v-183h-180v183z
M1421 965h162v-965h-162v965z" />
    <glyph glyph-name="f_f_l" unicode="ffl" horiz-adv-x="1740" 
d="M633 1417v-131h-66q-95 0 -137.5 -42t-42.5 -124v-155h436v159q0 141 78.5 217t239.5 76h90v-131h-66q-95 0 -137.5 -42t-42.5 -124v-155h242v-131h-242v-834h-162v834h-436v-834h-160v834h-159v131h159v159q0 141 77.5 217t238.5 76h90zM1421 1417h162v-1417h-162v1417z
" />
    <glyph glyph-name=".notdef" horiz-adv-x="1024" 
d="M0 -410v2048h1024v-2048h-1024zM145 1536l367 -799l367 799h-734zM102 -156l353 770l-353 770v-1540zM922 1384l-353 -770l353 -770v1540zM512 492l-367 -799h734z" />
    <glyph glyph-name=".null" horiz-adv-x="0" 
 />
    <glyph glyph-name="nonmarkingreturn" horiz-adv-x="682" 
 />
    <glyph glyph-name="space" unicode=" " horiz-adv-x="405" 
 />
    <glyph glyph-name="exclam" unicode="!" horiz-adv-x="497" 
d="M166 1364h166v-436l-58 -533h-53l-55 533v436zM156 225h184v-225h-184v225z" />
    <glyph glyph-name="quotedbl" unicode="&#x22;" horiz-adv-x="819" 
d="M197 1364h178l-174 -600h-107zM565 1364h178l-184 -600h-108z" />
    <glyph glyph-name="numbersign" unicode="#" horiz-adv-x="1474" 
d="M786 0l68 365h-348l-66 -365h-131l66 365h-285v122h307l72 390h-322v122h345l65 365h131l-67 -365h348l65 365h131l-65 -365h284v-122h-307l-71 -390h321v-122h-344l-65 -365h-132zM528 487h349l69 390h-348z" />
    <glyph glyph-name="dollar" unicode="$" horiz-adv-x="1183" 
d="M1055 365q0 -159 -103.5 -258.5t-279.5 -118.5v-217h-140v217q-198 15 -300.5 120t-102.5 271v65h164v-51q0 -127 77.5 -198.5t231.5 -71.5q132 0 209.5 60.5t77.5 168.5q0 103 -70.5 156.5t-257.5 114.5q-216 64 -312.5 147t-96.5 236q0 149 103 251t280 119v215h139
v-217q96 -10 167.5 -43.5t114 -85t63.5 -115t21 -137.5v-53h-161v45q0 113 -68 183.5t-219 70.5q-127 0 -201 -62t-74 -159q0 -51 17 -87.5t60 -66.5t97.5 -53t147.5 -53q112 -36 183 -68t127.5 -77.5t81 -105.5t24.5 -142z" />
    <glyph glyph-name="percent" unicode="%" horiz-adv-x="1622" 
d="M397 1393q135 0 212 -82t77 -215v-99q0 -133 -77.5 -214t-211.5 -81t-211 81t-77 214v99q0 133 76.5 215t211.5 82zM1417 1378l-1073 -1392h-137l1073 1392h137zM397 1282q-83 0 -124.5 -51t-41.5 -133v-103q0 -82 42 -132t124 -50q81 0 122.5 50t41.5 132v103
q0 83 -41 133.5t-123 50.5zM1225 -29q-134 0 -210.5 81t-76.5 214v99q0 134 76 215.5t213 81.5q135 0 212 -82t77 -215v-99q0 -132 -78 -213.5t-213 -81.5zM1227 82q81 0 122.5 50t41.5 132v103q0 84 -41 134t-125 50q-81 0 -121.5 -50t-40.5 -134v-103q0 -82 41.5 -132
t122.5 -50z" />
    <glyph glyph-name="ampersand" unicode="&#x26;" horiz-adv-x="1388" 
d="M1354 268q0 -149 -48.5 -224t-156.5 -75q-142 0 -305 160q-186 -160 -393 -160q-174 0 -274.5 98t-100.5 248q0 137 83 239t253 183q-97 180 -97 324q0 91 38 165.5t116 121.5t184 47q154 0 240 -82t86 -203q0 -125 -85.5 -229t-283.5 -197q111 -190 246 -348
q135 164 209 422h135q-79 -303 -256 -522q129 -138 205 -138q53 0 75.5 45t22.5 160v53h107v-88zM467 1059q0 -128 88 -271q145 67 209.5 143.5t64.5 168.5q0 67 -43.5 116.5t-130.5 49.5q-96 0 -142 -60t-46 -147zM231 330q0 -112 67.5 -170t164.5 -58q155 0 291 127
q-132 149 -285 400q-238 -117 -238 -299z" />
    <glyph glyph-name="quotesingle" unicode="'" horiz-adv-x="456" 
d="M203 1364h178l-180 -600h-107z" />
    <glyph glyph-name="parenleft" unicode="(" horiz-adv-x="788" 
d="M700 1599l76 -75q-448 -358 -448 -903q0 -548 448 -902l-76 -77q-266 192 -399 441t-133 538t133 537.5t399 440.5z" />
    <glyph glyph-name="parenright" unicode=")" horiz-adv-x="788" 
d="M90 -358l-78 75q449 359 449 906t-447 899l76 77q265 -191 399 -440t134 -536q0 -289 -133.5 -538.5t-399.5 -442.5z" />
    <glyph glyph-name="asterisk" unicode="*" horiz-adv-x="870" 
d="M492 639q0 -33 -33 -33h-47q-17 0 -26 10t-9 23q0 136 37 309q-131 -115 -250 -186q-28 -16 -45 12l-23 43q-18 29 10 45q112 64 285 123q-160 54 -285 123q-28 16 -10 45l23 43q17 28 45 12q116 -66 250 -184q-37 171 -37 307q0 13 9 23t26 10h47q33 0 33 -33
q0 -146 -35 -307q138 122 248 184q29 15 45 -12l24 -43q17 -28 -12 -45q-120 -68 -283 -123q175 -59 283 -123q30 -15 12 -45l-22 -43q-19 -27 -45 -12q-113 65 -250 186q35 -164 35 -309z" />
    <glyph glyph-name="plus" unicode="+" horiz-adv-x="1150" 
d="M508 1096h137v-348h352v-132h-352v-348h-137v348h-354v132h354v348z" />
    <glyph glyph-name="comma" unicode="," horiz-adv-x="423" 
d="M117 236h190v-168q0 -167 -61 -250t-195 -121v57q90 44 121 97.5t33 148.5h-88v236z" />
    <glyph glyph-name="hyphen" unicode="-" horiz-adv-x="776" 
d="M117 688h540v-133h-540v133z" />
    <glyph glyph-name="period" unicode="." horiz-adv-x="423" 
d="M117 236h190v-236h-190v236z" />
    <glyph glyph-name="slash" unicode="/" horiz-adv-x="831" 
d="M627 1559h139l-602 -1876h-139z" />
    <glyph glyph-name="zero" unicode="0" horiz-adv-x="1253" 
d="M627 1395q236 0 367.5 -147.5t131.5 -407.5v-314q0 -262 -131.5 -409.5t-367.5 -147.5t-368 147.5t-132 409.5v314q0 260 132 407.5t368 147.5zM627 1249q-160 0 -247 -107t-87 -300v-318q0 -194 87 -301.5t247 -107.5t245.5 107t85.5 302v318q0 194 -85.5 300.5
t-245.5 106.5z" />
    <glyph glyph-name="one" unicode="1" horiz-adv-x="735" 
d="M51 1085v115h70q140 0 201 38t73 144h121v-1382h-168v1085h-297z" />
    <glyph glyph-name="two" unicode="2" horiz-adv-x="1140" 
d="M600 1393q220 0 331 -103t111 -270q0 -49 -9.5 -90t-23.5 -74t-44.5 -66.5t-58.5 -58.5t-81.5 -59t-96 -58.5t-118.5 -66.5q-132 -71 -196.5 -123t-92.5 -114.5t-28 -159.5h737v-150h-915v76q0 76 7.5 133t27 110.5t49.5 95.5t80 86.5t113 86.5t153 92q202 110 264.5 173
t62.5 165q0 113 -74 171t-202 58q-139 0 -219 -67t-80 -191v-71h-162v77q0 178 122.5 288t342.5 110z" />
    <glyph glyph-name="three" unicode="3" horiz-adv-x="1153" 
d="M582 1395q110 0 197 -29.5t140.5 -80.5t81 -115t27.5 -136v-30q0 -109 -71 -194t-199 -116q135 -29 204.5 -109.5t69.5 -201.5v-33q0 -163 -117.5 -272t-334.5 -109q-127 0 -220.5 31t-145 85t-75.5 119t-24 142v62h159v-54q0 -111 73 -175t226 -64q139 0 215 63.5
t76 179.5v33q0 111 -77.5 172.5t-241.5 61.5h-127v131h127q159 0 237 63t78 170v25q0 114 -76.5 174.5t-210.5 60.5q-145 0 -221 -66.5t-76 -172.5v-54h-159v62q0 57 15.5 109.5t51 101.5t87.5 85.5t132 58.5t179 22z" />
    <glyph glyph-name="four" unicode="4" horiz-adv-x="1175" 
d="M717 1364h203v-893h200v-141h-200v-330h-158v330h-696v125zM762 471v717l-518 -717h518z" />
    <glyph glyph-name="five" unicode="5" horiz-adv-x="1167" 
d="M666 877q197 0 295 -105t98 -283v-92q0 -191 -120 -309.5t-345 -118.5q-121 0 -211.5 29.5t-144 82.5t-79.5 120t-26 149v23h162v-15q0 -118 77.5 -180.5t219.5 -62.5q135 0 218 71.5t83 208.5v78q0 126 -64.5 196t-199.5 70q-106 0 -185.5 -38.5t-158.5 -112.5l-133 30
l53 746h827q-6 -90 -32 -118.5t-109 -28.5h-543l-37 -482q72 64 154 103t201 39z" />
    <glyph glyph-name="six" unicode="6" horiz-adv-x="1191" 
d="M604 -29q-237 0 -356 127t-119 359v407q0 248 127 389.5t373 141.5q94 0 170.5 -22.5t124.5 -58t80.5 -83t45.5 -94.5t13 -95v-49h-162v25q0 105 -71.5 169t-198.5 64q-340 0 -340 -381v-196q130 170 373 170q198 0 306.5 -106.5t108.5 -278.5v-60q0 -91 -30.5 -168.5
t-89 -135.5t-149.5 -91t-206 -33zM604 115q138 0 222.5 71t84.5 211v39q0 136 -77.5 206.5t-219.5 70.5q-135 0 -227 -69.5t-92 -192.5v-48q0 -142 86.5 -215t222.5 -73z" />
    <glyph glyph-name="seven" unicode="7" horiz-adv-x="1056" 
d="M494 0h-181q23 307 152 600.5t369 611.5h-762v152h944v-109q-236 -318 -364 -617t-158 -638z" />
    <glyph glyph-name="eight" unicode="8" horiz-adv-x="1210" 
d="M604 1395q224 0 345.5 -106.5t121.5 -272.5v-21q0 -107 -57.5 -186t-169.5 -121q248 -88 248 -321v-23q0 -170 -128.5 -272.5t-359.5 -102.5q-229 0 -357 102.5t-128 272.5v23q0 234 248 321q-113 42 -171.5 121t-58.5 186v21q0 166 121.5 272.5t345.5 106.5zM604 1255
q-138 0 -219.5 -63.5t-81.5 -179.5v-27q0 -112 82 -173.5t219 -61.5t220 61.5t83 173.5v27q0 116 -82 179.5t-221 63.5zM604 109q149 0 235.5 63.5t86.5 181.5v25q0 118 -86.5 183t-235.5 65q-148 0 -233.5 -64.5t-85.5 -183.5v-25q0 -118 85.5 -181.5t233.5 -63.5z" />
    <glyph glyph-name="nine" unicode="9" horiz-adv-x="1191" 
d="M588 1395q235 0 355 -127.5t120 -358.5v-409q0 -246 -127.5 -387.5t-376.5 -141.5q-95 0 -171.5 22t-125 57.5t-81 82t-45.5 92t-13 90.5v45h162v-24q0 -98 71.5 -159.5t202.5 -61.5q340 0 340 379v178q-125 -170 -371 -170q-199 0 -307 106t-108 281v74
q0 191 124.5 311.5t350.5 120.5zM588 1251q-135 0 -222 -70t-87 -218v-50q0 -144 79.5 -213t219.5 -69q133 0 226 69.5t93 196.5v57q0 76 -25 134.5t-69 93t-98 52t-117 17.5z" />
    <glyph glyph-name="colon" unicode=":" horiz-adv-x="446" 
d="M129 950h190v-235h-190v235zM129 236h190v-236h-190v236z" />
    <glyph glyph-name="semicolon" unicode=";" horiz-adv-x="446" 
d="M129 950h190v-235h-190v235zM129 236h190v-168q0 -167 -61.5 -250t-196.5 -121v57q91 44 122.5 98t31.5 148h-86v236z" />
    <glyph glyph-name="less" unicode="&#x3c;" horiz-adv-x="1060" 
d="M872 1130v-153l-583 -295l583 -295v-156l-745 385v132z" />
    <glyph glyph-name="equal" unicode="=" horiz-adv-x="1196" 
d="M180 950h836v-135h-836v135zM180 547h836v-135h-836v135z" />
    <glyph glyph-name="greater" unicode="&#x3e;" horiz-adv-x="1060" 
d="M188 233v154l584 295l-584 295v156l746 -385v-132z" />
    <glyph glyph-name="question" unicode="?" horiz-adv-x="1040" 
d="M961 1040q0 -118 -55 -200.5t-206 -175.5q-55 -35 -85 -60t-47 -57t-21.5 -63t-5.5 -87h-142q0 105 17 163.5t63 108.5t150 124q98 64 131 117.5t33 125.5q0 211 -265 211q-161 0 -229 -69.5t-68 -198.5v-61h-155v79q0 63 13.5 118t46.5 107t83.5 89t130 59.5t180.5 22.5
q96 0 171.5 -19.5t123.5 -52.5t79 -79t44 -95.5t13 -106.5zM379 0v225h184v-225h-184z" />
    <glyph glyph-name="at" unicode="@" horiz-adv-x="1603" 
d="M868 1364q131 0 240.5 -34t184 -91.5t126 -134.5t75.5 -162.5t24 -175.5q0 -151 -54.5 -277.5t-147 -198t-200.5 -71.5q-97 0 -152.5 51.5t-50.5 132.5q-95 -170 -235 -170q-99 0 -157 69t-58 192q0 79 25.5 163t70 156t114 118t148.5 46q69 0 117 -37.5t63 -103.5
l41 129h132l-123 -402q-77 -256 82 -256q109 0 196.5 132.5t87.5 324.5q0 228 -149 369t-400 141q-190 0 -341.5 -97t-236.5 -270.5t-85 -390.5q0 -279 160 -442.5t442 -163.5q140 0 269.5 46.5t215.5 113.5l54 -74q-96 -76 -240.5 -127t-298.5 -51q-322 0 -513.5 190
t-191.5 508q0 184 58.5 342.5t160.5 269t243.5 173.5t303.5 63zM844 874q-58 0 -106.5 -39.5t-78 -99t-45.5 -124t-16 -119.5q0 -76 31.5 -115t89.5 -39q61 0 114.5 57t81.5 150l56 194q-2 53 -35 94t-92 41z" />
    <glyph glyph-name="A" unicode="A" horiz-adv-x="1269" 
d="M1022 0l-115 340h-553l-114 -340h-170l473 1376h186l471 -1376h-178zM629 1159l-228 -680h461l-229 680h-4z" />
    <glyph glyph-name="B" unicode="B" horiz-adv-x="1226" 
d="M180 1364h506q198 0 301 -85t103 -239v-53q0 -121 -59 -191t-173 -102v-4q122 -32 185 -104t63 -195v-65q0 -155 -103 -240.5t-298 -85.5h-525v1364zM350 1225v-473h305q128 0 196.5 57t68.5 162v53q0 96 -64.5 148.5t-187.5 52.5h-318zM350 623v-484h334q125 0 188.5 53
t63.5 150v59q0 106 -70.5 164t-206.5 58h-309z" />
    <glyph glyph-name="C" unicode="C" horiz-adv-x="1255" 
d="M655 1395q229 0 353.5 -118.5t124.5 -305.5v-84h-170v69q0 127 -80 209t-228 82q-162 0 -256 -109t-94 -280v-352q0 -170 94.5 -279.5t255.5 -109.5q147 0 227.5 82t80.5 209v69h170v-84q0 -185 -126.5 -304.5t-355.5 -119.5q-240 0 -380 152t-140 397v328q0 245 142 397
t382 152z" />
    <glyph glyph-name="D" unicode="D" horiz-adv-x="1296" 
d="M180 1364h453q259 0 395.5 -145.5t136.5 -393.5v-290q0 -246 -138 -390.5t-396 -144.5h-451v1364zM354 1219v-1074h271q182 0 275 106.5t93 285.5v288q0 181 -93.5 287.5t-276.5 106.5h-269z" />
    <glyph glyph-name="E" unicode="E" horiz-adv-x="1130" 
d="M180 1364h854v-147h-684v-455h541v-141h-541v-474h686v-147h-856v1364z" />
    <glyph glyph-name="F" unicode="F" horiz-adv-x="1069" 
d="M180 1364h832v-147h-662v-480h518v-145h-518v-592h-170v1364z" />
    <glyph glyph-name="G" unicode="G" horiz-adv-x="1298" 
d="M659 1395q116 0 208.5 -34t150.5 -93.5t88.5 -137.5t30.5 -169v-41h-168v28q0 131 -79 216t-233 85q-166 0 -259 -109.5t-93 -287.5v-338q0 -182 93 -290.5t251 -108.5q149 0 238.5 93.5t89.5 244.5v100h-311v133h479v-686h-92l-27 221q-123 -248 -405 -248
q-222 0 -356 148t-134 397v326q0 246 142 398.5t386 152.5z" />
    <glyph glyph-name="H" unicode="H" horiz-adv-x="1337" 
d="M180 1364h174v-598h629v598h174v-1364h-174v616h-629v-616h-174v1364z" />
    <glyph glyph-name="I" unicode="I" horiz-adv-x="555" 
d="M190 1364h175v-1364h-175v1364z" />
    <glyph glyph-name="J" unicode="J" horiz-adv-x="1093" 
d="M754 1364h172v-911q0 -233 -106.5 -357.5t-319.5 -124.5q-206 0 -309 108t-103 312v123h162v-113q0 -138 60 -209t190 -71q254 0 254 321v922z" />
    <glyph glyph-name="K" unicode="K" horiz-adv-x="1193" 
d="M950 0q-298 473 -407 643l-189 -242v-401h-174v1364h174v-750l584 750h201l-477 -594l485 -770h-197z" />
    <glyph glyph-name="L" unicode="L" horiz-adv-x="1030" 
d="M180 1364h174v-1212h617v-152h-791v1364z" />
    <glyph glyph-name="M" unicode="M" horiz-adv-x="1677" 
d="M180 1364h248l410 -1116h4l407 1116h248v-1364h-164v1159h-4l-428 -1161h-133l-426 1161h-6v-1159h-156v1364z" />
    <glyph glyph-name="N" unicode="N" horiz-adv-x="1343" 
d="M180 1364h168l653 -1057h5v1057h157v-1364h-159l-662 1067h-4v-1067h-158v1364z" />
    <glyph glyph-name="O" unicode="O" horiz-adv-x="1329" 
d="M666 1395q247 0 389.5 -149.5t142.5 -409.5v-308q0 -261 -143 -410t-391 -149q-247 0 -390 149.5t-143 409.5v308q0 260 143.5 409.5t391.5 149.5zM666 1247q-169 0 -265 -107.5t-96 -295.5v-324q0 -188 96 -295.5t263 -107.5q168 0 264 107.5t96 295.5v324
q0 188 -95.5 295.5t-262.5 107.5z" />
    <glyph glyph-name="P" unicode="P" horiz-adv-x="1153" 
d="M180 1364h473q209 0 315.5 -97t106.5 -274v-98q0 -180 -107 -276.5t-319 -96.5h-295v-522h-174v1364zM354 1223v-557h277q144 0 207 59.5t63 179.5v80q0 117 -64.5 177.5t-207.5 60.5h-275z" />
    <glyph glyph-name="Q" unicode="Q" horiz-adv-x="1335" 
d="M1280 -25q-60 -26 -123 -26q-60 0 -108.5 23.5t-96.5 74.5q-127 -78 -288 -78q-245 0 -389 150.5t-144 404.5v314q0 256 143.5 406.5t389.5 150.5q247 0 389.5 -150.5t142.5 -406.5v-318q0 -234 -131 -381q38 -34 69 -46.5t70 -12.5q24 0 76 10v-115zM305 514
q0 -181 97 -290t262 -109q108 0 192 49l-192 223l96 80l190 -215q74 104 74 256v342q0 181 -97 290t-263 109q-165 0 -262 -109t-97 -290v-336z" />
    <glyph glyph-name="R" unicode="R" horiz-adv-x="1218" 
d="M354 563v-563h-174v1364h500q210 0 314 -91t104 -263v-88q0 -130 -75 -221t-212 -123l332 -578h-191l-317 563h-281zM354 1223v-523h291q135 0 208 61.5t73 166.5v71q0 115 -65.5 169.5t-205.5 54.5h-301z" />
    <glyph glyph-name="S" unicode="S" horiz-adv-x="1177" 
d="M598 1391q234 0 347.5 -109.5t113.5 -284.5v-53h-170v47q0 115 -70 185.5t-225 70.5q-130 0 -205.5 -61.5t-75.5 -161.5q0 -43 12.5 -75.5t34.5 -57t65.5 -47.5t91.5 -41.5t128 -44.5q118 -37 193 -71t131 -81t80 -107.5t24 -144.5q0 -179 -127.5 -280t-339.5 -101
q-242 0 -364.5 108t-122.5 294v65h172v-53q0 -129 79 -199.5t240 -70.5q134 0 212.5 59t78.5 168t-69 161.5t-273 117.5q-112 33 -184.5 65t-128 77.5t-80.5 106.5t-25 144q0 165 123.5 270t333.5 105z" />
    <glyph glyph-name="T" unicode="T" horiz-adv-x="1130" 
d="M63 1364h1006v-150h-418v-1214h-172v1214h-416v150z" />
    <glyph glyph-name="U" unicode="U" horiz-adv-x="1296" 
d="M166 1364h172v-909q0 -162 81.5 -248t231.5 -86q149 0 230.5 86t81.5 248v909h167v-905q0 -233 -125.5 -360.5t-357.5 -127.5q-233 0 -357 126.5t-124 361.5v905z" />
    <glyph glyph-name="V" unicode="V" horiz-adv-x="1259" 
d="M70 1364h186l375 -1133h4l377 1133h178l-479 -1378h-162z" />
    <glyph glyph-name="W" unicode="W" horiz-adv-x="1830" 
d="M88 1364h180l262 -1122h5l305 1128h157l308 -1128h4l260 1122h172l-352 -1378h-170l-304 1097h-4l-307 -1097h-168z" />
    <glyph glyph-name="X" unicode="X" horiz-adv-x="1216" 
d="M952 0l-352 571l-344 -571h-190l436 692l-422 672h196l340 -549l330 549h191l-422 -672l434 -692h-197z" />
    <glyph glyph-name="Y" unicode="Y" horiz-adv-x="1179" 
d="M51 1364h191l354 -674l348 674h186l-454 -836v-528h-172v530z" />
    <glyph glyph-name="Z" unicode="Z" horiz-adv-x="1134" 
d="M125 1364h919v-98l-725 -1114h711v-152h-940v98l733 1119h-698v147z" />
    <glyph glyph-name="bracketleft" unicode="[" horiz-adv-x="772" 
d="M211 1559h541v-119h-396v-1641h396v-116h-541v1876z" />
    <glyph glyph-name="backslash" unicode="\" horiz-adv-x="831" 
d="M66 1559h139l602 -1876h-139z" />
    <glyph glyph-name="bracketright" unicode="]" horiz-adv-x="772" 
d="M561 -317h-541v116h394v1643h-394v117h541v-1876z" />
    <glyph glyph-name="asciicircum" unicode="^" horiz-adv-x="1179" 
d="M1038 625h-155l-293 573l-293 -573h-156l381 739h135z" />
    <glyph glyph-name="underscore" unicode="_" horiz-adv-x="872" 
d="M-2 -201h876v-116h-876v116z" />
    <glyph glyph-name="grave" unicode="`" horiz-adv-x="1021" 
d="M307 1530h199l215 -377h-109z" />
    <glyph glyph-name="a" unicode="a" horiz-adv-x="997" 
d="M688 176q-115 -194 -330 -194q-123 0 -191.5 67t-68.5 187q0 87 36.5 148t119.5 101q133 67 430 95v79q0 197 -199 197q-95 0 -148.5 -47t-53.5 -129v-21h-148v23q0 137 92 223t265 86q174 0 261 -87t87 -247v-419q0 -83 22.5 -108.5t89.5 -27.5v-108h-55
q-98 0 -148.5 39t-60.5 143zM256 248q0 -69 37.5 -107.5t114.5 -38.5q106 0 191 80t85 178v119q-240 -24 -324 -67q-57 -30 -80.5 -69t-23.5 -95z" />
    <glyph glyph-name="b" unicode="b" horiz-adv-x="1064" 
d="M152 1417h161v-616q56 88 128 137t180 49q157 0 248.5 -110.5t91.5 -284.5v-219q0 -173 -95 -284.5t-252 -111.5q-59 0 -108.5 15.5t-87 44.5t-64.5 60.5t-53 74.5l-14 -172h-135v1417zM571 856q-104 0 -181 -84t-77 -207v-164q0 -124 77.5 -208t180.5 -84
q107 0 168.5 76.5t61.5 197.5v199q0 121 -61.5 197.5t-168.5 76.5z" />
    <glyph glyph-name="c" unicode="c" horiz-adv-x="952" 
d="M502 109q110 0 163.5 61t53.5 152v6h151v-17q0 -144 -96.5 -241t-271.5 -97q-194 0 -299 117t-105 322v137q0 203 108 322.5t298 119.5q178 0 272 -95t94 -243v-18h-151v6q0 94 -51.5 154.5t-161.5 60.5q-121 0 -184.5 -78.5t-63.5 -216.5v-160q0 -138 62.5 -215
t181.5 -77z" />
    <glyph glyph-name="d" unicode="d" horiz-adv-x="1064" 
d="M752 1417h161v-1417h-135l-12 184q-57 -99 -132.5 -153t-189.5 -54q-157 0 -248.5 110.5t-91.5 287.5v215q0 176 94.5 286.5t252.5 110.5q106 0 177 -48t124 -130v608zM494 856q-107 0 -168.5 -76.5t-61.5 -197.5v-199q0 -121 61.5 -199t168.5 -78q104 0 181 84.5
t77 208.5v164q0 125 -77 209t-181 84z" />
    <glyph glyph-name="e" unicode="e" horiz-adv-x="976" 
d="M881 289q0 -140 -100 -228t-273 -88q-203 0 -306.5 115t-103.5 311v150q0 197 107 319.5t291 122.5q188 0 287.5 -118t99.5 -310v-119h-629v-61q0 -127 62 -202t192 -75q107 0 166 52t59 135v8h148v-12zM254 569v-18h473v27q0 130 -57 205t-174 75q-116 0 -179 -78
t-63 -211z" />
    <glyph glyph-name="f" unicode="f" horiz-adv-x="665" 
d="M633 1417v-131h-66q-95 0 -137.5 -42t-42.5 -124v-155h242v-131h-242v-834h-160v834h-159v131h159v159q0 141 77.5 217t238.5 76h90z" />
    <glyph glyph-name="g" unicode="g" horiz-adv-x="980" 
d="M944 -86q0 -117 -116.5 -182.5t-329.5 -65.5q-217 0 -330 55t-113 158q0 132 209 176v4q-75 25 -113 58.5t-38 83.5q0 48 37 83.5t112 65.5q-66 40 -101.5 105t-35.5 147v72q0 138 99.5 223.5t264.5 85.5q72 0 140 -20q60 8 97.5 22t56 36.5t24 46.5t4.5 62h123
q12 -40 12 -69q0 -72 -51 -108t-158 -52q59 -43 88 -98.5t29 -134.5v-68q0 -138 -98.5 -222.5t-266.5 -84.5q-79 0 -143 18q-96 -32 -96 -80q0 -38 71.5 -59.5t180.5 -21.5h30q412 0 412 -236zM489 410q100 0 154.5 51t54.5 135v84q0 82 -54.5 134t-154.5 52
q-99 0 -153.5 -51t-54.5 -135v-82q0 -85 54.5 -136.5t153.5 -51.5zM500 -229q147 0 224 32.5t77 94.5q0 60 -71 89t-222 29h-29q-138 0 -208 -33.5t-70 -91.5q0 -120 299 -120z" />
    <glyph glyph-name="h" unicode="h" horiz-adv-x="1060" 
d="M152 1417h161v-624q62 95 139 144.5t183 49.5q130 0 206.5 -83.5t76.5 -223.5v-680h-162v655q0 89 -46.5 141t-131.5 52q-107 0 -186 -82.5t-79 -181.5v-584h-161v1417z" />
    <glyph glyph-name="i" unicode="i" horiz-adv-x="473" 
d="M147 1350h181v-183h-181v183zM156 965h161v-965h-161v965z" />
    <glyph glyph-name="j" unicode="j" horiz-adv-x="481" 
d="M156 1350h178v-183h-178v183zM164 965h162v-988q0 -153 -75 -224.5t-237 -71.5h-39v124h15q98 0 136 42t38 130v988z" />
    <glyph glyph-name="k" unicode="k" horiz-adv-x="952" 
d="M152 1417h161v-1003l392 551h178l-287 -394l311 -571h-176l-246 451l-172 -234v-217h-161v1417z" />
    <glyph glyph-name="l" unicode="l" horiz-adv-x="473" 
d="M156 1417h161v-1417h-161v1417z" />
    <glyph glyph-name="m" unicode="m" horiz-adv-x="1628" 
d="M313 588v-588h-161v965h135l14 -189q63 104 139.5 157.5t184.5 53.5q99 0 166 -51t94 -143q63 96 138.5 145t182.5 49q129 0 204 -82.5t75 -222.5v-682h-162v657q0 88 -43.5 139.5t-124.5 51.5q-105 0 -180.5 -81t-75.5 -179v-588h-162v657q0 88 -43.5 139.5t-124.5 51.5
q-105 0 -180.5 -81t-75.5 -179z" />
    <glyph glyph-name="n" unicode="n" horiz-adv-x="1060" 
d="M152 965h135l14 -191q64 104 143.5 158.5t190.5 54.5q130 0 206.5 -83.5t76.5 -223.5v-680h-162v655q0 89 -46.5 141t-131.5 52q-107 0 -186 -82.5t-79 -181.5v-584h-161v965z" />
    <glyph glyph-name="o" unicode="o" horiz-adv-x="1009" 
d="M506 991q188 0 297.5 -116.5t109.5 -309.5v-168q0 -191 -112 -308.5t-297 -117.5t-296.5 117.5t-111.5 308.5v166q0 194 110.5 311t299.5 117zM506 858q-116 0 -182 -76.5t-66 -199.5v-201q0 -123 67.5 -199t180.5 -76q112 0 179 76t67 199v201q0 123 -65.5 199.5
t-180.5 76.5z" />
    <glyph glyph-name="p" unicode="p" horiz-adv-x="1064" 
d="M152 965h135l14 -185q55 98 130.5 152.5t189.5 54.5q157 0 248.5 -110.5t91.5 -286.5v-215q0 -176 -94.5 -287t-252.5 -111q-106 0 -176 47.5t-125 129.5v-471h-161v1282zM571 856q-104 0 -181 -84t-77 -207v-164q0 -124 77.5 -208t180.5 -84q107 0 168.5 76.5
t61.5 197.5v199q0 121 -61.5 197.5t-168.5 76.5z" />
    <glyph glyph-name="q" unicode="q" horiz-adv-x="1062" 
d="M449 987q112 0 185.5 -52.5t129.5 -141.5l12 172h137v-1282h-163v481q-53 -88 -125 -137.5t-181 -49.5q-157 0 -249.5 111t-92.5 285v219q0 173 95.5 284t251.5 111zM494 856q-107 0 -168.5 -76.5t-61.5 -197.5v-199q0 -122 60.5 -199.5t169.5 -77.5q104 0 181 84.5
t77 208.5v164q0 124 -77.5 208.5t-180.5 84.5z" />
    <glyph glyph-name="r" unicode="r" horiz-adv-x="708" 
d="M152 965h135l14 -232q99 246 299 246q39 0 72 -8v-162q-33 8 -78 8q-118 0 -199.5 -84.5t-81.5 -200.5v-532h-161v965z" />
    <glyph glyph-name="s" unicode="s" horiz-adv-x="921" 
d="M467 -27q-187 0 -282 86.5t-95 229.5v37h143v-31q0 -91 60.5 -144t175.5 -53q97 0 151 41t54 113q0 67 -52 103t-190 71q-166 39 -243.5 103t-77.5 184q0 117 95 197.5t255 80.5q169 0 259.5 -81.5t90.5 -215.5v-32h-141v22q0 86 -54 134t-157 48q-90 0 -144.5 -41
t-54.5 -106q0 -66 55 -102t189 -70q168 -39 245.5 -102t77.5 -185q0 -129 -95.5 -208t-264.5 -79z" />
    <glyph glyph-name="t" unicode="t" horiz-adv-x="706" 
d="M59 965h156v209l162 45v-254h270v-131h-270v-517q0 -109 37.5 -148.5t136.5 -39.5h49v-131h-84q-156 0 -228.5 66t-72.5 223v547h-156v131z" />
    <glyph glyph-name="u" unicode="u" horiz-adv-x="1060" 
d="M143 965h162v-656q0 -89 46.5 -140.5t131.5 -51.5q107 0 186 82.5t79 181.5v584h161v-965h-135l-14 190q-64 -105 -143.5 -159t-190.5 -54q-129 0 -206 84t-77 224v680z" />
    <glyph glyph-name="v" unicode="v" horiz-adv-x="944" 
d="M45 965h170l258 -781h4l258 781h164l-344 -971h-166z" />
    <glyph glyph-name="w" unicode="w" horiz-adv-x="1423" 
d="M55 965h164l205 -772h4l209 772h151l216 -772h4l202 772h158l-285 -971h-149l-221 756h-4l-220 -756h-149z" />
    <glyph glyph-name="x" unicode="x" horiz-adv-x="915" 
d="M692 0l-241 387l-238 -387h-172l324 489l-316 476h182l234 -373l229 373h172l-313 -480l321 -485h-182z" />
    <glyph glyph-name="y" unicode="y" horiz-adv-x="944" 
d="M53 965h168l262 -787h2l252 787h164l-332 -963q-34 -90 -62.5 -145t-69.5 -98.5t-96.5 -62t-133.5 -18.5h-72v132h41q87 0 133.5 32.5t71.5 106.5l14 45z" />
    <glyph glyph-name="z" unicode="z" horiz-adv-x="890" 
d="M109 965h704v-93l-522 -737h510v-135h-715v92l526 742h-503v131z" />
    <glyph glyph-name="braceleft" unicode="{" horiz-adv-x="837" 
d="M686 1559h115v-115h-66q-172 0 -244.5 -47t-72.5 -144q0 -51 23 -109.5t50.5 -102.5t50.5 -99.5t23 -101.5q0 -81 -59.5 -136t-194.5 -83v-3q254 -50 254 -217q0 -46 -23 -101.5t-50.5 -99.5t-50.5 -103t-23 -111q0 -96 73 -143.5t244 -47.5h66v-112h-115
q-121 0 -207.5 24.5t-132.5 67.5t-66 91t-20 105q0 63 26 132t57 118.5t57 106t26 98.5q0 63 -74 100t-198 37h-43v115h43q124 0 198 37t74 100q0 42 -26 98.5t-57 105.5t-57 117.5t-26 131.5q0 57 20 105.5t66 92t132.5 68.5t207.5 25z" />
    <glyph glyph-name="bar" unicode="|" horiz-adv-x="708" 
d="M287 1559h137v-1876h-137v1876z" />
    <glyph glyph-name="braceright" unicode="}" horiz-adv-x="837" 
d="M37 1559h115q121 0 207.5 -25t132.5 -68.5t66 -92t20 -105.5q0 -51 -17.5 -105t-42 -99t-49 -87.5t-42 -84.5t-17.5 -77q0 -63 75 -100t199 -37h43v-115h-43q-124 0 -199 -37t-75 -100q0 -42 26 -98.5t58 -106t58 -118.5t26 -132q0 -57 -20 -105t-66 -91t-132.5 -67.5
t-207.5 -24.5h-115v112h63q172 0 245 47.5t73 143.5q0 52 -23 111t-50 103t-50 99.5t-23 101.5q0 167 254 217v3q-135 28 -194.5 83t-59.5 136q0 46 23 101.5t50 99.5t50 102.5t23 109.5q0 97 -72.5 144t-245.5 47h-63v115z" />
    <glyph glyph-name="asciitilde" unicode="~" horiz-adv-x="1294" 
d="M401 920q42 0 81.5 -14t77 -43.5t62.5 -54t62 -65.5q79 -88 112 -114q50 -39 95 -39q46 0 73 37t27 110q0 90 -33 181h121q41 -89 41 -203q0 -118 -57 -194.5t-170 -76.5q-42 0 -80.5 13.5t-75 41t-61 51t-60.5 62.5q-5 6 -21.5 24t-22 24.5t-20.5 22t-21.5 21.5
t-20 18.5t-21.5 17.5l-20 12.5t-22 11t-21.5 6t-22.5 2.5q-46 0 -74 -36.5t-28 -108.5q0 -85 35 -181h-123q-39 90 -39 203q0 117 56.5 194t170.5 77z" />
    <glyph glyph-name="asciitilde" unicode="&#x223c;" horiz-adv-x="1294" 
d="M401 920q42 0 81.5 -14t77 -43.5t62.5 -54t62 -65.5q79 -88 112 -114q50 -39 95 -39q46 0 73 37t27 110q0 90 -33 181h121q41 -89 41 -203q0 -118 -57 -194.5t-170 -76.5q-42 0 -80.5 13.5t-75 41t-61 51t-60.5 62.5q-5 6 -21.5 24t-22 24.5t-20.5 22t-21.5 21.5
t-20 18.5t-21.5 17.5l-20 12.5t-22 11t-21.5 6t-22.5 2.5q-46 0 -74 -36.5t-28 -108.5q0 -85 35 -181h-123q-39 90 -39 203q0 117 56.5 194t170.5 77z" />
    <glyph glyph-name="uni00A0" unicode="&#xa0;" horiz-adv-x="405" 
 />
    <glyph glyph-name="exclamdown" unicode="&#xa1;" horiz-adv-x="497" 
d="M340 1139h-182v225h182v-225zM332 0h-166v436l55 533h55l56 -533v-436z" />
    <glyph glyph-name="cent" unicode="&#xa2;" horiz-adv-x="999" 
d="M895 516q0 -84 -33 -153.5t-103.5 -118.5t-168.5 -62v-194h-139v194q-162 21 -249 136t-87 298v134q0 179 88 294t248 138v192h139v-192q148 -18 226.5 -109.5t78.5 -224.5v-17h-156v5q0 89 -53 150t-162 61q-120 0 -182.5 -77.5t-62.5 -209.5v-156q0 -131 62 -209
t181 -78q108 0 162.5 61t54.5 148v9h156v-19z" />
    <glyph glyph-name="sterling" unicode="&#xa3;" horiz-adv-x="1376" 
d="M1264 324q0 -183 -72.5 -269t-224.5 -86q-79 0 -159 27.5t-129.5 58t-121.5 82.5q-51 -80 -123 -124t-158 -44q-104 0 -162.5 56t-58.5 143q0 86 61 145.5t167 59.5q95 0 219 -62q14 49 14 103q0 100 -53 204h-285v115h228q-78 148 -78 281q0 165 116.5 273t337.5 108
q218 0 330.5 -101t112.5 -282v-58h-160v41q0 125 -73.5 188.5t-209.5 63.5q-127 0 -205.5 -61t-78.5 -180q0 -49 13 -101.5t22.5 -74.5t37.5 -81q5 -11 7 -16h419v-115h-372q32 -94 32 -186q0 -89 -43 -186q60 -36 85 -50.5t74.5 -39t89.5 -34t81 -9.5q83 0 127.5 46
t44.5 171v90h148v-96zM170 168q0 -40 29.5 -69t79.5 -29q117 0 188 129q-106 69 -188 69q-52 0 -80.5 -28.5t-28.5 -71.5z" />
    <glyph glyph-name="yen" unicode="&#xa5;" horiz-adv-x="1210" 
d="M1067 254h-381v-254h-158v254h-387v106h387v179l-8 12h-379v106h322l-381 707h180l350 -674l344 674h174l-378 -707h315v-106h-373l-8 -12v-179h381v-106z" />
    <glyph glyph-name="section" unicode="&#xa7;" horiz-adv-x="1202" 
d="M1049 -41q0 -136 -112 -221.5t-333 -85.5q-235 0 -352 97t-117 257v41h158v-33q0 -102 76.5 -162.5t240.5 -60.5q134 0 205.5 45t71.5 119q0 72 -67 115t-273 114q-93 32 -153.5 56.5t-114.5 55t-83.5 62.5t-46 73t-16.5 93q0 190 266 281q-121 54 -174 119t-53 161
q0 136 109 223t319 87q223 0 336 -98.5t113 -256.5v-24h-156v16q0 100 -74 161.5t-227 61.5q-122 0 -190 -45.5t-68 -119.5q0 -73 64 -116.5t259 -111.5q94 -32 154.5 -56.5t115 -55t84 -62.5t46 -73t16.5 -93q0 -187 -266 -280q128 -55 185 -120t57 -163zM659 297
q5 -1 14.5 -4t14.5 -4q107 27 170.5 80.5t63.5 126.5q0 78 -78 129t-297 125q-5 1 -14.5 4t-14.5 4q-106 -27 -169.5 -81t-63.5 -126q0 -79 76.5 -129.5t297.5 -124.5z" />
    <glyph glyph-name="dieresis" unicode="&#xa8;" horiz-adv-x="1024" 
d="M264 1356h160v-189h-160v189zM600 1356h160v-189h-160v189z" />
    <glyph glyph-name="copyright" unicode="&#xa9;" horiz-adv-x="1757" 
d="M133 682q0 158 56 295.5t154.5 235.5t237 154t298.5 56q213 0 383.5 -96t266 -265.5t95.5 -379.5t-95.5 -379.5t-266 -265.5t-383.5 -96q-160 0 -298.5 56t-237 154t-154.5 235.5t-56 295.5zM1528 682q0 187 -81.5 336.5t-230.5 235t-337 85.5q-189 0 -338 -85.5
t-230.5 -235t-81.5 -336.5t81.5 -336.5t230.5 -235t338 -85.5q188 0 337 85.5t230.5 235t81.5 336.5zM887 1049q133 0 200.5 -64t67.5 -170v-29h-117v19q0 62 -38 99.5t-113 37.5q-85 0 -128.5 -51.5t-43.5 -140.5v-136q0 -87 44 -139.5t128 -52.5q75 0 113 38t38 101v19
h117v-29q0 -107 -68.5 -171.5t-199.5 -64.5q-139 0 -217 81.5t-78 219.5v134q0 137 78.5 218t216.5 81z" />
    <glyph glyph-name="ordfeminine" unicode="&#xaa;" horiz-adv-x="874" 
d="M598 743q-92 -161 -287 -161q-108 0 -166.5 53t-58.5 149q0 65 29.5 113.5t99.5 83.5q113 55 377 82v47q0 75 -39.5 110t-128.5 35q-82 0 -127 -38.5t-45 -102.5v-12h-131v18q0 113 80 184.5t229 71.5q153 0 228 -70.5t75 -199.5v-330q0 -51 19 -68.5t75 -19.5v-94h-57
q-87 0 -125 30.5t-47 118.5zM227 803q0 -51 32 -80t95 -29q101 0 169.5 58.5t68.5 142.5v80q-224 -26 -295 -68q-70 -36 -70 -104z" />
    <glyph glyph-name="guillemotleft" unicode="&#xab;" horiz-adv-x="1239" 
d="M516 958h98q-35 -149 -112 -263.5t-207 -213.5q129 -97 206.5 -211.5t112.5 -263.5h-98q-99 276 -410 422v109q310 143 410 421zM1018 958h98q-35 -150 -112.5 -264t-208.5 -213q131 -97 208.5 -211.5t112.5 -263.5h-98q-98 274 -410 422v109q311 145 410 421z" />
    <glyph glyph-name="registered" unicode="&#xae;" horiz-adv-x="1060" 
d="M530 1395q188 0 311.5 -123.5t123.5 -304.5t-123.5 -303.5t-311.5 -122.5q-189 0 -311.5 122t-122.5 304t122.5 305t311.5 123zM530 1327q-163 0 -262.5 -101t-99.5 -259t99.5 -259.5t262.5 -101.5t262 101.5t99 259.5t-99 259t-262 101zM453 915v-153h-84v422h198
q148 0 148 -133q0 -100 -84 -125l94 -164h-92l-88 153h-92zM453 1114v-133h96q82 0 82 68q0 35 -19 50t-59 15h-100z" />
    <glyph glyph-name="macron" unicode="&#xaf;" horiz-adv-x="1024" 
d="M207 1315h610v-113h-610v113z" />
    <glyph glyph-name="degree" unicode="&#xb0;" horiz-adv-x="880" 
d="M438 1395q158 0 251 -96.5t93 -247.5q0 -150 -94 -246t-250 -96t-249 96t-93 246q0 151 92.5 247.5t249.5 96.5zM438 1276q-96 0 -151.5 -61.5t-55.5 -163.5q0 -103 56 -163.5t151 -60.5t152 60.5t57 163.5q0 102 -56 163.5t-153 61.5z" />
    <glyph glyph-name="plusminus" unicode="&#xb1;" horiz-adv-x="1185" 
d="M526 1245h133v-336h342v-127h-342v-338h-133v338h-344v127h344v336zM182 266h819v-131h-819v131z" />
    <glyph glyph-name="two.sup" unicode="&#xb2;" 
d="M662 618h-582v46q0 132 54 205t216 157q120 61 156.5 94t36.5 88q0 60 -44 90.5t-114 30.5q-80 0 -127 -36.5t-47 -104.5v-39h-123v45q0 109 79 175.5t222 66.5q140 0 211.5 -62t71.5 -162q0 -47 -13.5 -82t-49.5 -68t-78.5 -59.5t-122.5 -68.5q-113 -57 -150.5 -96
t-38.5 -107h443v-113z" />
    <glyph glyph-name="three.sup" unicode="&#xb3;" 
d="M379 1436q135 0 211 -61t76 -154v-17q0 -64 -43.5 -112.5t-122.5 -65.5q83 -19 126.5 -66.5t43.5 -119.5v-15q0 -96 -78.5 -160.5t-214.5 -64.5q-152 0 -226.5 64.5t-74.5 164.5v39h121v-32q0 -58 45 -93.5t131 -35.5q74 0 121 33.5t47 90.5v17q0 125 -189 125h-82v98h82
q95 0 141 34t46 89v16q0 56 -46 88.5t-120 32.5q-83 0 -128.5 -36.5t-45.5 -92.5v-33h-121v39q0 96 76 162t225 66z" />
    <glyph glyph-name="acute" unicode="&#xb4;" horiz-adv-x="1021" 
d="M719 1530l-305 -377h-109l215 377h199z" />
    <glyph glyph-name="paragraph" unicode="&#xb6;" horiz-adv-x="1402" 
d="M1231 1364v-1681h-131v1540h-207v-1540h-131v679h-103q-134 1 -242 39t-178.5 104t-108.5 154.5t-38 190.5v24q0 103 38.5 192t109.5 155.5t179 104.5t240 38h572zM762 1223h-80q-152 0 -223.5 -84t-71.5 -250v-68q0 -164 71 -244.5t224 -80.5h80v727z" />
    <glyph glyph-name="periodcentered" unicode="&#xb7;" horiz-adv-x="423" 
d="M117 801h190v-236h-190v236z" />
    <glyph glyph-name="cedilla" unicode="&#xb8;" horiz-adv-x="1024" 
d="M758 -330q0 -93 -66.5 -143.5t-187.5 -50.5q-138 0 -242 51l27 70q98 -39 194 -39q148 0 148 110q0 99 -125 99q-50 0 -111 -23l-37 57l166 222h92l-149 -191q54 14 92 14q91 0 145 -47.5t54 -128.5z" />
    <glyph glyph-name="one.sup" unicode="&#xb9;" horiz-adv-x="587" 
d="M305 1430h94v-812h-135v596h-190v99h73q76 0 112 26t46 91z" />
    <glyph glyph-name="ordmasculine" unicode="&#xba;" horiz-adv-x="866" 
d="M432 1378q162 0 254 -93.5t92 -250.5v-121q0 -156 -93.5 -249t-252.5 -93t-250.5 92.5t-91.5 247.5v123q0 157 91 250.5t251 93.5zM432 1253q-93 0 -143.5 -56t-50.5 -148v-150q0 -92 51 -146.5t143 -54.5q93 0 145 54.5t52 146.5v150q0 92 -52 148t-145 56z" />
    <glyph glyph-name="guillemotright" unicode="&#xbb;" horiz-adv-x="1230" 
d="M715 6h-99q33 147 111 262t209 215q-131 98 -209 212t-111 263h99q96 -276 407 -421v-109q-312 -148 -407 -422zM221 6h-98q35 149 112.5 263.5t208.5 213.5q-131 97 -208.5 211t-112.5 264h98q99 -276 410 -421v-109q-312 -148 -410 -422z" />
    <glyph glyph-name="onequarter" unicode="&#xbc;" horiz-adv-x="1533" 
d="M305 1376h94v-811h-135v596h-190v99h73q76 0 112 25.5t46 90.5zM1223 1364l-883 -1364h-115l883 1364h115zM1206 801h162v-518h117v-103h-117v-180h-121v180h-438v101zM1247 283v415l-313 -415h313z" />
    <glyph glyph-name="onehalf" unicode="&#xbd;" horiz-adv-x="1634" 
d="M305 1376h94v-811h-135v596h-190v99h73q76 0 112 25.5t46 90.5zM1223 1364l-883 -1364h-115l883 1364h115zM1542 0h-579v45q0 133 53 206t215 157q120 62 156 95t36 89q0 59 -43.5 89t-111.5 30q-80 0 -128 -37t-48 -103v-41h-123v48q0 107 79.5 174t221.5 67
q141 0 212.5 -62t71.5 -163q0 -90 -55.5 -144t-210.5 -135q-113 -57 -149.5 -95t-36.5 -107h440v-113z" />
    <glyph glyph-name="threequarters" unicode="&#xbe;" horiz-adv-x="1716" 
d="M379 1382q135 0 211 -61t76 -154v-16q0 -64 -43.5 -112.5t-122.5 -65.5q83 -19 126.5 -67t43.5 -120v-14q0 -96 -78.5 -160.5t-214.5 -64.5q-152 0 -226.5 64.5t-74.5 164.5v39h121v-33q0 -58 45 -93.5t131 -35.5q74 0 121 34t47 91v17q0 125 -189 125h-82v98h82
q95 0 141 34t46 89v16q0 56 -46 88.5t-120 32.5q-83 0 -128.5 -36.5t-45.5 -92.5v-33h-121v39q0 96 76 161.5t225 65.5zM1407 1364l-885 -1364h-112l882 1364h115zM1389 801h163v-518h115v-103h-115v-180h-122v180h-439v101zM1430 283v415l-314 -415h314z" />
    <glyph glyph-name="questiondown" unicode="&#xbf;" horiz-adv-x="1040" 
d="M662 1364v-225h-183v225h183zM80 324q0 118 54.5 201t205.5 175q44 28 71.5 50t46 43t27 48t11.5 54.5t4 71.5h141q0 -80 -7 -127t-33.5 -93t-68 -83t-120.5 -93q-98 -64 -131 -117.5t-33 -125.5q0 -211 264 -211q161 0 229 69.5t68 198.5v61h156v-79q0 -63 -13.5 -118
t-46.5 -107t-84 -89t-130.5 -59.5t-180.5 -22.5q-118 0 -204.5 29t-134 80.5t-69.5 111.5t-22 132z" />
    <glyph glyph-name="Agrave" unicode="&#xc0;" horiz-adv-x="1269" 
d="M281 1911h198l213 -332h-114zM1022 0l-115 340h-553l-114 -340h-170l473 1376h186l471 -1376h-178zM629 1159l-228 -680h461l-229 680h-4z" />
    <glyph glyph-name="Aacute" unicode="&#xc1;" horiz-adv-x="1269" 
d="M989 1911l-297 -332h-114l213 332h198zM1022 0l-115 340h-553l-114 -340h-170l473 1376h186l471 -1376h-178zM629 1159l-228 -680h461l-229 680h-4z" />
    <glyph glyph-name="Acircumflex" unicode="&#xc2;" horiz-adv-x="1269" 
d="M551 1903h168q61 -203 239 -265v-77q-109 20 -193 81.5t-130 137.5q-45 -76 -129.5 -137.5t-194.5 -81.5v77q183 64 240 265zM1022 0l-115 340h-553l-114 -340h-170l473 1376h186l471 -1376h-178zM629 1159l-228 -680h461l-229 680h-4z" />
    <glyph glyph-name="Atilde" unicode="&#xc3;" horiz-adv-x="1269" 
d="M467 1884q62 0 106.5 -28t88.5 -78q4 -4 17 -18t18 -18.5t16.5 -16t17.5 -16t16.5 -12t18.5 -10.5t18.5 -5.5t20.5 -2.5q37 0 56.5 25.5t19.5 71.5q0 42 -17 98h82q23 -67 23 -127q0 -84 -45 -135t-121 -51q-62 0 -106 27.5t-89 76.5q-4 4 -15.5 16.5t-15.5 17t-14 15
t-15.5 14.5t-15 12t-16 11t-15.5 7t-18 5.5t-18 1.5q-37 0 -56.5 -25t-19.5 -71q0 -42 17 -98h-82q-23 67 -23 125q0 85 45 136.5t121 51.5zM1022 0l-115 340h-553l-114 -340h-170l473 1376h186l471 -1376h-178zM629 1159l-228 -680h461l-229 680h-4z" />
    <glyph glyph-name="Adieresis" unicode="&#xc4;" horiz-adv-x="1269" 
d="M373 1782h159v-187h-159v187zM737 1782h160v-187h-160v187zM1022 0l-115 340h-553l-114 -340h-170l473 1376h186l471 -1376h-178zM629 1159l-228 -680h461l-229 680h-4z" />
    <glyph glyph-name="Aring" unicode="&#xc5;" horiz-adv-x="1269" 
d="M1020 0l-113 340h-553l-112 -340h-172l450 1317q-54 28 -83 75.5t-29 106.5q0 85 63 145t164 60t163 -59.5t62 -145.5q0 -59 -29 -106.5t-81 -73.5l450 -1319h-180zM635 1624q-63 0 -101 -36t-38 -89q0 -55 38 -91t101 -36t100 36t37 91q0 53 -37 89t-100 36zM631 1163
l-230 -684h459z" />
    <glyph glyph-name="AE" unicode="&#xc6;" horiz-adv-x="1826" 
d="M-16 0l796 1364h951v-147h-682v-455h538v-141h-538v-474h684v-147h-856v344h-510l-199 -344h-184zM872 1221l-428 -744h433v744h-5z" />
    <glyph glyph-name="Ccedilla" unicode="&#xc7;" horiz-adv-x="1255" 
d="M874 -330q0 -94 -65.5 -144t-185.5 -50q-135 0 -244 51l29 70q95 -39 192 -39q148 0 148 110q0 46 -30.5 72.5t-92.5 26.5q-52 0 -113 -23l-37 57l129 170q-220 17 -346.5 166t-126.5 381v328q0 245 142 397t382 152q229 0 353.5 -118.5t124.5 -305.5v-84h-170v69
q0 127 -80 209t-228 82q-162 0 -256 -109t-94 -280v-352q0 -170 94.5 -279.5t255.5 -109.5q147 0 227.5 82t80.5 209v69h170v-84q0 -176 -114.5 -293t-324.5 -129l-110 -139q54 14 92 14q92 0 145 -47t53 -129z" />
    <glyph glyph-name="Egrave" unicode="&#xc8;" horiz-adv-x="1130" 
d="M301 1898h199l211 -331h-113zM180 1364h854v-147h-684v-455h541v-141h-541v-474h686v-147h-856v1364z" />
    <glyph glyph-name="Eacute" unicode="&#xc9;" horiz-adv-x="1130" 
d="M926 1898l-295 -331h-115l213 331h197zM180 1364h854v-147h-684v-455h541v-141h-541v-474h686v-147h-856v1364z" />
    <glyph glyph-name="Ecircumflex" unicode="&#xca;" horiz-adv-x="1130" 
d="M522 1890h170q57 -201 240 -264v-78q-111 20 -195.5 81.5t-130.5 137.5q-46 -76 -130 -137.5t-193 -81.5v78q182 64 239 264zM180 1364h854v-147h-684v-455h541v-141h-541v-474h686v-147h-856v1364z" />
    <glyph glyph-name="Edieresis" unicode="&#xcb;" horiz-adv-x="1130" 
d="M344 1769h160v-188h-160v188zM709 1769h161v-188h-161v188zM180 1364h854v-147h-684v-455h541v-141h-541v-474h686v-147h-856v1364z" />
    <glyph glyph-name="Igrave" unicode="&#xcc;" horiz-adv-x="555" 
d="M-76 1898h199l211 -331h-113zM190 1364h175v-1364h-175v1364z" />
    <glyph glyph-name="Iacute" unicode="&#xcd;" horiz-adv-x="555" 
d="M631 1898l-297 -331h-113l211 331h199zM190 1364h175v-1364h-175v1364z" />
    <glyph glyph-name="Icircumflex" unicode="&#xce;" horiz-adv-x="555" 
d="M193 1890h169q56 -200 240 -264v-78q-111 20 -194 81t-129 138q-46 -76 -130.5 -137.5t-195.5 -81.5v78q184 64 240 264zM190 1364h175v-1364h-175v1364z" />
    <glyph glyph-name="Idieresis" unicode="&#xcf;" horiz-adv-x="555" 
d="M14 1769h160v-188h-160v188zM381 1769h160v-188h-160v188zM190 1364h175v-1364h-175v1364z" />
    <glyph glyph-name="Eth" unicode="&#xd0;" horiz-adv-x="1304" 
d="M1174 535q0 -246 -137.5 -390.5t-395.5 -144.5h-451v635h-159v106h159v623h453q258 0 394.5 -145.5t136.5 -393.5v-290zM362 143h271q183 0 275.5 106.5t92.5 287.5v290q0 181 -93.5 287.5t-276.5 106.5h-269v-480h359v-106h-359v-492z" />
    <glyph glyph-name="Ntilde" unicode="&#xd1;" horiz-adv-x="1343" 
d="M502 1872q43 0 82 -18t60.5 -37t51.5 -52q4 -4 17 -18t17.5 -18.5t16.5 -15.5t18 -15.5t16.5 -12t19 -10.5t19 -5.5t20.5 -2.5q75 0 75 96q0 31 -16 97h82q23 -62 23 -125q0 -85 -45 -136t-121 -51q-43 0 -82 17.5t-61.5 36t-53.5 51.5q-4 4 -19 21t-20 21.5t-18 17.5
t-20.5 17.5t-19 11t-23 9t-23.5 2.5q-37 0 -56.5 -25t-19.5 -71q0 -39 18 -98h-84q-22 64 -22 124q0 85 46 137t122 52zM180 1364h168l653 -1057h5v1057h157v-1364h-159l-662 1067h-4v-1067h-158v1364z" />
    <glyph glyph-name="Ograve" unicode="&#xd2;" horiz-adv-x="1329" 
d="M358 1907h199l211 -330h-113zM666 1395q247 0 389.5 -149.5t142.5 -409.5v-308q0 -261 -143 -410t-391 -149q-247 0 -390 149.5t-143 409.5v308q0 260 143.5 409.5t391.5 149.5zM666 1247q-169 0 -265 -107.5t-96 -295.5v-324q0 -188 96 -295.5t263 -107.5
q168 0 264 107.5t96 295.5v324q0 188 -95.5 295.5t-262.5 107.5z" />
    <glyph glyph-name="Oacute" unicode="&#xd3;" horiz-adv-x="1329" 
d="M985 1907l-297 -330h-113l211 330h199zM666 1395q247 0 389.5 -149.5t142.5 -409.5v-308q0 -261 -143 -410t-391 -149q-247 0 -390 149.5t-143 409.5v308q0 260 143.5 409.5t391.5 149.5zM666 1247q-169 0 -265 -107.5t-96 -295.5v-324q0 -188 96 -295.5t263 -107.5
q168 0 264 107.5t96 295.5v324q0 188 -95.5 295.5t-262.5 107.5z" />
    <glyph glyph-name="Ocircumflex" unicode="&#xd4;" horiz-adv-x="1329" 
d="M580 1898h170q57 -198 239 -264v-78q-111 22 -194 83t-129 137q-45 -76 -130 -137t-196 -83v78q183 67 240 264zM666 1395q247 0 389.5 -149.5t142.5 -409.5v-308q0 -261 -143 -410t-391 -149q-247 0 -390 149.5t-143 409.5v308q0 260 143.5 409.5t391.5 149.5zM666 1247
q-169 0 -265 -107.5t-96 -295.5v-324q0 -188 96 -295.5t263 -107.5q168 0 264 107.5t96 295.5v324q0 188 -95.5 295.5t-262.5 107.5z" />
    <glyph glyph-name="Otilde" unicode="&#xd5;" horiz-adv-x="1329" 
d="M498 1882q62 0 105.5 -28.5t88.5 -79.5q34 -37 47 -50.5t42 -31t55 -17.5q36 0 55.5 26.5t19.5 72.5q0 37 -18 96h84q22 -64 22 -125q0 -85 -46 -137t-122 -52q-42 0 -80.5 17.5t-60 36t-53.5 51.5q-5 5 -22.5 24.5t-23 25.5t-20.5 19.5t-24.5 18t-24 9.5t-28.5 5
q-36 0 -56 -26t-20 -72q0 -37 18 -96h-84q-22 64 -22 125q0 85 45.5 136.5t122.5 51.5zM666 1395q247 0 389.5 -149.5t142.5 -409.5v-308q0 -261 -143 -410t-391 -149q-247 0 -390 149.5t-143 409.5v308q0 260 143.5 409.5t391.5 149.5zM666 1247q-169 0 -265 -107.5
t-96 -295.5v-324q0 -188 96 -295.5t263 -107.5q168 0 264 107.5t96 295.5v324q0 188 -95.5 295.5t-262.5 107.5z" />
    <glyph glyph-name="Odieresis" unicode="&#xd6;" horiz-adv-x="1329" 
d="M401 1780h160v-189h-160v189zM768 1780h160v-189h-160v189zM666 1395q247 0 389.5 -149.5t142.5 -409.5v-308q0 -261 -143 -410t-391 -149q-247 0 -390 149.5t-143 409.5v308q0 260 143.5 409.5t391.5 149.5zM666 1247q-169 0 -265 -107.5t-96 -295.5v-324
q0 -188 96 -295.5t263 -107.5q168 0 264 107.5t96 295.5v324q0 188 -95.5 295.5t-262.5 107.5z" />
    <glyph glyph-name="multiply" unicode="&#xd7;" horiz-adv-x="1142" 
d="M860 295l-289 291l-290 -293l-97 94l291 295l-291 295l97 94l290 -293l289 293l98 -94l-292 -295l292 -295z" />
    <glyph glyph-name="Oslash" unicode="&#xd8;" horiz-adv-x="1329" 
d="M664 -31q-190 0 -330 97l-113 -164l-90 59l121 184q-121 146 -121 383v308q0 260 143.5 409.5t391.5 149.5q190 0 327 -97l113 164l90 -59l-119 -182q121 -149 121 -385v-308q0 -261 -143 -410t-391 -149zM303 520q0 -142 51 -231l549 878q-94 82 -237 82
q-170 0 -266.5 -108t-96.5 -297v-324zM1026 844q0 141 -51 233l-549 -880q91 -82 238 -82q169 0 265.5 108t96.5 297v324z" />
    <glyph glyph-name="Ugrave" unicode="&#xd9;" horiz-adv-x="1296" 
d="M342 1888h199l211 -332h-113zM166 1364h172v-909q0 -162 81.5 -248t231.5 -86q149 0 230.5 86t81.5 248v909h167v-905q0 -233 -125.5 -360.5t-357.5 -127.5q-233 0 -357 126.5t-124 361.5v905z" />
    <glyph glyph-name="Uacute" unicode="&#xda;" horiz-adv-x="1296" 
d="M969 1888l-297 -332h-113l211 332h199zM166 1364h172v-909q0 -162 81.5 -248t231.5 -86q149 0 230.5 86t81.5 248v909h167v-905q0 -233 -125.5 -360.5t-357.5 -127.5q-233 0 -357 126.5t-124 361.5v905z" />
    <glyph glyph-name="Ucircumflex" unicode="&#xdb;" horiz-adv-x="1296" 
d="M563 1880h170q56 -200 240 -264v-78q-111 20 -194.5 81t-129.5 138q-46 -76 -130 -137.5t-195 -81.5v78q182 64 239 264zM166 1364h172v-909q0 -162 81.5 -248t231.5 -86q149 0 230.5 86t81.5 248v909h167v-905q0 -233 -125.5 -360.5t-357.5 -127.5q-233 0 -357 126.5
t-124 361.5v905z" />
    <glyph glyph-name="Udieresis" unicode="&#xdc;" horiz-adv-x="1296" 
d="M385 1759h162v-186h-162v186zM752 1759h159v-186h-159v186zM166 1364h172v-909q0 -162 81.5 -248t231.5 -86q149 0 230.5 86t81.5 248v909h167v-905q0 -233 -125.5 -360.5t-357.5 -127.5q-233 0 -357 126.5t-124 361.5v905z" />
    <glyph glyph-name="Yacute" unicode="&#xdd;" horiz-adv-x="1179" 
d="M915 1888l-297 -332h-112l211 332h198zM51 1364h191l354 -674l348 674h186l-454 -836v-528h-172v530z" />
    <glyph glyph-name="Thorn" unicode="&#xde;" horiz-adv-x="1177" 
d="M180 1364h174v-266h318q214 0 320 -95.5t106 -271.5v-96q0 -178 -107 -273.5t-323 -95.5h-314v-266h-174v1364zM354 958v-552h297q146 0 210.5 59t64.5 182v74q0 118 -66 177.5t-211 59.5h-295z" />
    <glyph glyph-name="germandbls" unicode="&#xdf;" horiz-adv-x="1060" 
d="M539 1427q175 0 269.5 -90t94.5 -245v-37q0 -227 -207 -279v-4q137 -34 203 -124.5t66 -221.5v-78q0 -168 -92 -263t-269 -95q-86 0 -158 20v113q57 -14 117 -14q115 0 174.5 61t59.5 180v78q0 122 -74.5 193t-233.5 77v113q134 4 196.5 62.5t62.5 173.5v38
q0 101 -53 159.5t-156 58.5q-110 0 -168 -68t-58 -201v-1034h-161v1020q0 196 101 301.5t286 105.5z" />
    <glyph glyph-name="agrave" unicode="&#xe0;" horiz-adv-x="997" 
d="M197 1536h196l217 -377h-110zM688 176q-115 -194 -330 -194q-123 0 -191.5 67t-68.5 187q0 87 36.5 148t119.5 101q133 67 430 95v79q0 197 -199 197q-95 0 -148.5 -47t-53.5 -129v-21h-148v23q0 137 92 223t265 86q174 0 261 -87t87 -247v-419q0 -83 22.5 -108.5
t89.5 -27.5v-108h-55q-98 0 -148.5 39t-60.5 143zM256 248q0 -69 37.5 -107.5t114.5 -38.5q106 0 191 80t85 178v119q-240 -24 -324 -67q-57 -30 -80.5 -69t-23.5 -95z" />
    <glyph glyph-name="aacute" unicode="&#xe1;" horiz-adv-x="997" 
d="M807 1536l-305 -377h-109l215 377h199zM688 176q-115 -194 -330 -194q-123 0 -191.5 67t-68.5 187q0 87 36.5 148t119.5 101q133 67 430 95v79q0 197 -199 197q-95 0 -148.5 -47t-53.5 -129v-21h-148v23q0 137 92 223t265 86q174 0 261 -87t87 -247v-419
q0 -83 22.5 -108.5t89.5 -27.5v-108h-55q-98 0 -148.5 39t-60.5 143zM256 248q0 -69 37.5 -107.5t114.5 -38.5q106 0 191 80t85 178v119q-240 -24 -324 -67q-57 -30 -80.5 -69t-23.5 -95z" />
    <glyph glyph-name="acircumflex" unicode="&#xe2;" horiz-adv-x="997" 
d="M416 1528h149q61 -238 230 -309v-78q-102 20 -183 89t-120 165q-41 -96 -122.5 -165t-183.5 -89v78q169 69 230 309zM688 176q-115 -194 -330 -194q-123 0 -191.5 67t-68.5 187q0 87 36.5 148t119.5 101q133 67 430 95v79q0 197 -199 197q-95 0 -148.5 -47t-53.5 -129
v-21h-148v23q0 137 92 223t265 86q174 0 261 -87t87 -247v-419q0 -83 22.5 -108.5t89.5 -27.5v-108h-55q-98 0 -148.5 39t-60.5 143zM256 248q0 -69 37.5 -107.5t114.5 -38.5q106 0 191 80t85 178v119q-240 -24 -324 -67q-57 -30 -80.5 -69t-23.5 -95z" />
    <glyph glyph-name="atilde" unicode="&#xe3;" horiz-adv-x="997" 
d="M338 1481q33 0 61 -10t53.5 -32.5t39 -38t38.5 -46.5q23 -30 37 -46.5t36 -30t44 -13.5q32 0 53 23.5t21 72.5q0 53 -14 108h81q23 -81 23 -133q0 -91 -47 -142.5t-121 -51.5q-39 0 -75 19t-56 39t-49 56q-3 3 -12 15t-12.5 15.5t-12 14t-12.5 14t-12 11.5t-13 11.5
t-12.5 8.5t-13.5 7.5t-13.5 4t-15.5 1.5q-31 0 -52.5 -24t-21.5 -74q0 -52 14 -107h-81q-21 73 -21 133q0 91 46.5 143t119.5 52zM688 176q-115 -194 -330 -194q-123 0 -191.5 67t-68.5 187q0 87 36.5 148t119.5 101q133 67 430 95v79q0 197 -199 197q-95 0 -148.5 -47
t-53.5 -129v-21h-148v23q0 137 92 223t265 86q174 0 261 -87t87 -247v-419q0 -83 22.5 -108.5t89.5 -27.5v-108h-55q-98 0 -148.5 39t-60.5 143zM256 248q0 -69 37.5 -107.5t114.5 -38.5q106 0 191 80t85 178v119q-240 -24 -324 -67q-57 -30 -80.5 -69t-23.5 -95z" />
    <glyph glyph-name="adieresis" unicode="&#xe4;" horiz-adv-x="997" 
d="M244 1362h159v-186h-159v186zM578 1362h159v-186h-159v186zM688 176q-115 -194 -330 -194q-123 0 -191.5 67t-68.5 187q0 87 36.5 148t119.5 101q133 67 430 95v79q0 197 -199 197q-95 0 -148.5 -47t-53.5 -129v-21h-148v23q0 137 92 223t265 86q174 0 261 -87t87 -247
v-419q0 -83 22.5 -108.5t89.5 -27.5v-108h-55q-98 0 -148.5 39t-60.5 143zM256 248q0 -69 37.5 -107.5t114.5 -38.5q106 0 191 80t85 178v119q-240 -24 -324 -67q-57 -30 -80.5 -69t-23.5 -95z" />
    <glyph glyph-name="aring" unicode="&#xe5;" horiz-adv-x="997" 
d="M492 1540q99 0 161 -59.5t62 -145.5t-62 -145.5t-161 -59.5q-100 0 -163 59.5t-63 145.5t63 145.5t163 59.5zM492 1462q-62 0 -100 -36.5t-38 -90.5t38 -90.5t100 -36.5q60 0 97.5 36.5t37.5 90.5t-37.5 90.5t-97.5 36.5zM688 176q-115 -194 -330 -194q-123 0 -191.5 67
t-68.5 187q0 87 36.5 148t119.5 101q133 67 430 95v79q0 197 -199 197q-95 0 -148.5 -47t-53.5 -129v-21h-148v23q0 137 92 223t265 86q174 0 261 -87t87 -247v-419q0 -83 22.5 -108.5t89.5 -27.5v-108h-55q-98 0 -148.5 39t-60.5 143zM256 248q0 -69 37.5 -107.5
t114.5 -38.5q106 0 191 80t85 178v119q-240 -24 -324 -67q-57 -30 -80.5 -69t-23.5 -95z" />
    <glyph glyph-name="ae" unicode="&#xe6;" horiz-adv-x="1564" 
d="M1468 293q0 -141 -99.5 -230.5t-272.5 -89.5q-142 0 -232.5 58.5t-130.5 163.5q-113 -220 -360 -220q-132 0 -203.5 67.5t-71.5 188.5q0 87 36.5 149t119.5 103q137 67 430 95v86q0 96 -48 144t-149 48q-96 0 -150 -47t-54 -131v-21h-148v23q0 138 90.5 223.5t261.5 85.5
q226 0 295 -160q103 162 305 162q188 0 285.5 -117.5t97.5 -310.5v-119h-628v-61q0 -127 62.5 -202t193.5 -75q104 0 163.5 54t59.5 137v6h147v-10zM842 571v-20h473v27q0 130 -57.5 205t-174.5 75q-115 0 -178 -77t-63 -210zM256 244q0 -68 38.5 -107t115.5 -39
q114 0 194 78.5t80 190.5v110q-238 -24 -324 -69q-57 -28 -80.5 -67.5t-23.5 -96.5z" />
    <glyph glyph-name="ccedilla" unicode="&#xe7;" horiz-adv-x="952" 
d="M725 -330q0 -93 -66 -143.5t-186 -50.5q-135 0 -244 51l29 70q95 -39 193 -39q147 0 147 110q0 46 -30.5 72.5t-92.5 26.5q-52 0 -113 -23l-36 57l131 174q-173 13 -266 128.5t-93 308.5v137q0 203 108 322.5t298 119.5q178 0 272 -95t94 -243v-18h-151v6
q0 94 -51.5 154.5t-161.5 60.5q-121 0 -184.5 -78.5t-63.5 -216.5v-160q0 -138 62.5 -215t181.5 -77q110 0 163.5 61t53.5 152v6h151v-17q0 -134 -84 -228.5t-237 -107.5l-115 -143q54 14 92 14q92 0 145.5 -47t53.5 -129z" />
    <glyph glyph-name="egrave" unicode="&#xe8;" horiz-adv-x="976" 
d="M203 1538h198l215 -379h-108zM881 289q0 -140 -100 -228t-273 -88q-203 0 -306.5 115t-103.5 311v150q0 197 107 319.5t291 122.5q188 0 287.5 -118t99.5 -310v-119h-629v-61q0 -127 62 -202t192 -75q107 0 166 52t59 135v8h148v-12zM254 569v-18h473v27q0 130 -57 205
t-174 75q-116 0 -179 -78t-63 -211z" />
    <glyph glyph-name="eacute" unicode="&#xe9;" horiz-adv-x="976" 
d="M815 1538l-305 -379h-109l215 379h199zM881 289q0 -140 -100 -228t-273 -88q-203 0 -306.5 115t-103.5 311v150q0 197 107 319.5t291 122.5q188 0 287.5 -118t99.5 -310v-119h-629v-61q0 -127 62 -202t192 -75q107 0 166 52t59 135v8h148v-12zM254 569v-18h473v27
q0 130 -57 205t-174 75q-116 0 -179 -78t-63 -211z" />
    <glyph glyph-name="ecircumflex" unicode="&#xea;" horiz-adv-x="976" 
d="M424 1528h147q33 -122 88.5 -197.5t143.5 -111.5v-78q-102 20 -183 89t-122 165q-41 -96 -121.5 -165t-181.5 -89v78q86 36 141 111.5t88 197.5zM881 289q0 -140 -100 -228t-273 -88q-203 0 -306.5 115t-103.5 311v150q0 197 107 319.5t291 122.5q188 0 287.5 -118
t99.5 -310v-119h-629v-61q0 -127 62 -202t192 -75q107 0 166 52t59 135v8h148v-12zM254 569v-18h473v27q0 130 -57 205t-174 75q-116 0 -179 -78t-63 -211z" />
    <glyph glyph-name="edieresis" unicode="&#xeb;" horiz-adv-x="976" 
d="M250 1362h160v-186h-160v186zM586 1362h159v-186h-159v186zM881 289q0 -140 -100 -228t-273 -88q-203 0 -306.5 115t-103.5 311v150q0 197 107 319.5t291 122.5q188 0 287.5 -118t99.5 -310v-119h-629v-61q0 -127 62 -202t192 -75q107 0 166 52t59 135v8h148v-12z
M254 569v-18h473v27q0 130 -57 205t-174 75q-116 0 -179 -78t-63 -211z" />
    <glyph glyph-name="igrave" unicode="&#xec;" horiz-adv-x="473" 
d="M-123 1530h199l215 -377h-109zM156 965h161v-965h-161v965z" />
    <glyph glyph-name="iacute" unicode="&#xed;" horiz-adv-x="473" 
d="M596 1530l-305 -377h-109l215 377h199zM156 965h161v-965h-161v965z" />
    <glyph glyph-name="icircumflex" unicode="&#xee;" horiz-adv-x="473" 
d="M164 1522h147q33 -122 88.5 -198t141.5 -112v-77q-101 20 -181.5 89t-121.5 165q-41 -96 -122.5 -165t-183.5 -89v77q88 36 143.5 112t88.5 198zM156 965h161v-965h-161v965z" />
    <glyph glyph-name="idieresis" unicode="&#xef;" horiz-adv-x="473" 
d="M-10 1356h160v-189h-160v189zM324 1356h161v-189h-161v189zM156 965h161v-965h-161v965z" />
    <glyph glyph-name="eth" unicode="&#xf0;" horiz-adv-x="1009" 
d="M909 414q0 -206 -107.5 -324.5t-299.5 -118.5q-186 0 -296 110.5t-110 305.5v174q0 194 102 303t271 109q186 0 291 -162q-39 199 -170 369l-232 -95l-32 78l206 84q-85 91 -194 162v8h176q74 -51 141 -121l226 93l32 -78l-198 -80q194 -247 194 -574v-243zM504 852
q-114 0 -180 -71t-66 -197v-211q0 -126 66.5 -197.5t179.5 -71.5q111 0 178.5 72t67.5 195v215q0 123 -66.5 194.5t-179.5 71.5z" />
    <glyph glyph-name="ntilde" unicode="&#xf1;" horiz-adv-x="1060" 
d="M373 1495q33 0 61 -10t53.5 -32.5t39 -38t38.5 -46.5q25 -32 37.5 -46t35 -29t44.5 -15q32 0 53 23.5t21 74.5q0 50 -15 109h82q23 -85 23 -133q0 -93 -47 -144t-121 -51q-30 0 -56 9t-49.5 28.5t-38 35t-36.5 42.5q-3 3 -8 10q-25 32 -39 47t-37 30t-45 15
q-32 0 -53 -23.5t-21 -74.5q0 -54 14 -109h-82q-22 81 -22 133q0 93 47 144t121 51zM152 965h135l14 -191q64 104 143.5 158.5t190.5 54.5q130 0 206.5 -83.5t76.5 -223.5v-680h-162v655q0 89 -46.5 141t-131.5 52q-107 0 -186 -82.5t-79 -181.5v-584h-161v965z" />
    <glyph glyph-name="ograve" unicode="&#xf2;" horiz-adv-x="1009" 
d="M211 1538h199l215 -377h-109zM506 991q188 0 297.5 -116.5t109.5 -309.5v-168q0 -191 -112 -308.5t-297 -117.5t-296.5 117.5t-111.5 308.5v166q0 194 110.5 311t299.5 117zM506 858q-116 0 -182 -76.5t-66 -199.5v-201q0 -123 67.5 -199t180.5 -76q112 0 179 76t67 199
v201q0 123 -65.5 199.5t-180.5 76.5z" />
    <glyph glyph-name="oacute" unicode="&#xf3;" horiz-adv-x="1009" 
d="M823 1538l-305 -377h-110l217 377h198zM506 991q188 0 297.5 -116.5t109.5 -309.5v-168q0 -191 -112 -308.5t-297 -117.5t-296.5 117.5t-111.5 308.5v166q0 194 110.5 311t299.5 117zM506 858q-116 0 -182 -76.5t-66 -199.5v-201q0 -123 67.5 -199t180.5 -76
q112 0 179 76t67 199v201q0 123 -65.5 199.5t-180.5 76.5z" />
    <glyph glyph-name="ocircumflex" unicode="&#xf4;" horiz-adv-x="1009" 
d="M432 1530h148q33 -124 88 -199t141 -110v-80q-101 21 -182 90t-121 166q-40 -97 -121 -166t-184 -90v80q88 35 143 110t88 199zM506 991q188 0 297.5 -116.5t109.5 -309.5v-168q0 -191 -112 -308.5t-297 -117.5t-296.5 117.5t-111.5 308.5v166q0 194 110.5 311t299.5 117
zM506 858q-116 0 -182 -76.5t-66 -199.5v-201q0 -123 67.5 -199t180.5 -76q112 0 179 76t67 199v201q0 123 -65.5 199.5t-180.5 76.5z" />
    <glyph glyph-name="otilde" unicode="&#xf5;" horiz-adv-x="1009" 
d="M352 1481q33 0 61.5 -10t54.5 -33t39 -37.5t38 -46.5q23 -27 30 -35.5t24.5 -25.5t32 -23t30.5 -6q32 0 53.5 24t21.5 74q0 54 -14 106h82q20 -70 20 -133q0 -91 -46.5 -141.5t-119.5 -50.5q-31 0 -57 9t-49.5 28.5t-37.5 34.5t-36 42q-4 5 -20 24.5t-21.5 25.5t-19 19.5
t-22.5 18.5t-21.5 10t-24.5 5q-33 0 -54.5 -24t-21.5 -74q0 -36 15 -109h-80q-23 85 -23 133q0 92 46.5 143.5t119.5 51.5zM506 991q188 0 297.5 -116.5t109.5 -309.5v-168q0 -191 -112 -308.5t-297 -117.5t-296.5 117.5t-111.5 308.5v166q0 194 110.5 311t299.5 117z
M506 858q-116 0 -182 -76.5t-66 -199.5v-201q0 -123 67.5 -199t180.5 -76q112 0 179 76t67 199v201q0 123 -65.5 199.5t-180.5 76.5z" />
    <glyph glyph-name="odieresis" unicode="&#xf6;" horiz-adv-x="1009" 
d="M258 1364h160v-188h-160v188zM592 1364h162v-188h-162v188zM506 991q188 0 297.5 -116.5t109.5 -309.5v-168q0 -191 -112 -308.5t-297 -117.5t-296.5 117.5t-111.5 308.5v166q0 194 110.5 311t299.5 117zM506 858q-116 0 -182 -76.5t-66 -199.5v-201q0 -123 67.5 -199
t180.5 -76q112 0 179 76t67 199v201q0 123 -65.5 199.5t-180.5 76.5z" />
    <glyph glyph-name="divide" unicode="&#xf7;" horiz-adv-x="1175" 
d="M498 1100h180v-170h-180v170zM154 750h870v-134h-870v134zM498 436h180v-170h-180v170z" />
    <glyph glyph-name="oslash" unicode="&#xf8;" horiz-adv-x="1009" 
d="M504 -29q-146 0 -248 76l-96 -131l-78 53l104 146q-90 114 -90 282v166q0 194 110.5 311t299.5 117q150 0 248 -73l96 131l78 -54l-103 -145q88 -111 88 -285v-168q0 -191 -112 -308.5t-297 -117.5zM252 381q0 -72 31 -143l389 565q-69 59 -166 59q-118 0 -186 -77.5
t-68 -202.5v-201zM758 582q0 81 -31 145l-387 -565q70 -60 166 -60q114 0 183 77.5t69 201.5v201z" />
    <glyph glyph-name="ugrave" unicode="&#xf9;" horiz-adv-x="1060" 
d="M231 1520h199l215 -377h-108zM143 965h162v-656q0 -89 46.5 -140.5t131.5 -51.5q107 0 186 82.5t79 181.5v584h161v-965h-135l-14 190q-64 -105 -143.5 -159t-190.5 -54q-129 0 -206 84t-77 224v680z" />
    <glyph glyph-name="uacute" unicode="&#xfa;" horiz-adv-x="1060" 
d="M844 1520l-305 -377h-109l215 377h199zM143 965h162v-656q0 -89 46.5 -140.5t131.5 -51.5q107 0 186 82.5t79 181.5v584h161v-965h-135l-14 190q-64 -105 -143.5 -159t-190.5 -54q-129 0 -206 84t-77 224v680z" />
    <glyph glyph-name="ucircumflex" unicode="&#xfb;" horiz-adv-x="1060" 
d="M453 1511h147q33 -122 88 -197.5t143 -111.5v-78q-102 20 -183 89t-122 165q-41 -96 -121.5 -165t-181.5 -89v78q166 69 230 309zM143 965h162v-656q0 -89 46.5 -140.5t131.5 -51.5q107 0 186 82.5t79 181.5v584h161v-965h-135l-14 190q-64 -105 -143.5 -159t-190.5 -54
q-129 0 -206 84t-77 224v680z" />
    <glyph glyph-name="udieresis" unicode="&#xfc;" horiz-adv-x="1060" 
d="M279 1346h161v-187h-161v187zM614 1346h160v-187h-160v187zM143 965h162v-656q0 -89 46.5 -140.5t131.5 -51.5q107 0 186 82.5t79 181.5v584h161v-965h-135l-14 190q-64 -105 -143.5 -159t-190.5 -54q-129 0 -206 84t-77 224v680z" />
    <glyph glyph-name="yacute" unicode="&#xfd;" horiz-adv-x="944" 
d="M799 1520l-305 -377h-109l215 377h199zM53 965h168l262 -787h2l252 787h164l-332 -963q-34 -90 -62.5 -145t-69.5 -98.5t-96.5 -62t-133.5 -18.5h-72v132h41q87 0 133.5 32.5t71.5 106.5l14 45z" />
    <glyph glyph-name="thorn" unicode="&#xfe;" horiz-adv-x="1064" 
d="M152 1417h159v-620q55 91 126.5 140.5t180.5 49.5q159 0 251 -110.5t92 -286.5v-215q0 -176 -94.5 -287t-252.5 -111q-74 0 -134 26.5t-95.5 61.5t-71.5 89v-471h-161v1734zM571 856q-104 0 -181 -84t-77 -207v-164q0 -124 77.5 -208t180.5 -84q107 0 168.5 76.5
t61.5 197.5v199q0 121 -61.5 197.5t-168.5 76.5z" />
    <glyph glyph-name="ydieresis" unicode="&#xff;" horiz-adv-x="944" 
d="M233 1346h162v-187h-162v187zM569 1346h160v-187h-160v187zM53 965h168l262 -787h2l252 787h164l-332 -963q-34 -90 -62.5 -145t-69.5 -98.5t-96.5 -62t-133.5 -18.5h-72v132h41q87 0 133.5 32.5t71.5 106.5l14 45z" />
    <glyph glyph-name="Amacron" unicode="&#x100;" horiz-adv-x="1269" 
d="M324 1743h622v-113h-622v113zM1022 0l-115 340h-553l-114 -340h-170l473 1376h186l471 -1376h-178zM629 1159l-228 -680h461l-229 680h-4z" />
    <glyph glyph-name="amacron" unicode="&#x101;" horiz-adv-x="997" 
d="M186 1323h609v-113h-609v113zM688 176q-115 -194 -330 -194q-123 0 -191.5 67t-68.5 187q0 87 36.5 148t119.5 101q133 67 430 95v79q0 197 -199 197q-95 0 -148.5 -47t-53.5 -129v-21h-148v23q0 137 92 223t265 86q174 0 261 -87t87 -247v-419q0 -83 22.5 -108.5
t89.5 -27.5v-108h-55q-98 0 -148.5 39t-60.5 143zM256 248q0 -69 37.5 -107.5t114.5 -38.5q106 0 191 80t85 178v119q-240 -24 -324 -67q-57 -30 -80.5 -69t-23.5 -95z" />
    <glyph glyph-name="Abreve" unicode="&#x102;" horiz-adv-x="1269" 
d="M635 1692q207 0 207 125q0 24 -13 94h74q29 -71 29 -133q0 -102 -82.5 -157.5t-214.5 -55.5t-214.5 55.5t-82.5 157.5q0 62 29 133h73q-12 -65 -12 -94q0 -125 207 -125zM1022 0l-115 340h-553l-114 -340h-170l473 1376h186l471 -1376h-178zM629 1159l-228 -680h461
l-229 680h-4z" />
    <glyph glyph-name="abreve" unicode="&#x103;" horiz-adv-x="997" 
d="M492 1276q97 0 141.5 35.5t44.5 109.5q0 32 -10 107h77q23 -86 23 -148q0 -116 -75.5 -175.5t-200.5 -59.5q-127 0 -203 59.5t-76 175.5q0 62 23 148h77q-10 -78 -10 -107q0 -74 45 -109.5t144 -35.5zM688 176q-115 -194 -330 -194q-123 0 -191.5 67t-68.5 187
q0 87 36.5 148t119.5 101q133 67 430 95v79q0 197 -199 197q-95 0 -148.5 -47t-53.5 -129v-21h-148v23q0 137 92 223t265 86q174 0 261 -87t87 -247v-419q0 -83 22.5 -108.5t89.5 -27.5v-108h-55q-98 0 -148.5 39t-60.5 143zM256 248q0 -69 37.5 -107.5t114.5 -38.5
q106 0 191 80t85 178v119q-240 -24 -324 -67q-57 -30 -80.5 -69t-23.5 -95z" />
    <glyph glyph-name="Aogonek" unicode="&#x104;" horiz-adv-x="1269" 
d="M1292 -471q-72 -53 -184 -53q-100 0 -157.5 49.5t-57.5 132.5q0 60 29 117q42 83 188 225h-88l-115 340h-553l-114 -340h-170l473 1376h186l471 -1376q-113 -135 -147 -201q-31 -64 -31 -114q0 -58 31.5 -87.5t87.5 -29.5q60 0 116 33zM629 1159l-228 -680h461l-229 680
h-4z" />
    <glyph glyph-name="aogonek" unicode="&#x105;" horiz-adv-x="997" 
d="M1047 -471q-75 -53 -185 -53q-100 0 -158.5 49.5t-58.5 132.5q0 57 31 117q37 78 182 219q-77 6 -118.5 47.5t-51.5 134.5q-115 -194 -330 -194q-123 0 -191.5 67t-68.5 187q0 87 36.5 148t119.5 101q133 67 430 95v79q0 197 -199 197q-95 0 -148.5 -47t-53.5 -129v-21
h-148v23q0 137 92 223t265 86q174 0 261 -87t87 -247v-419q0 -83 22.5 -108.5t89.5 -27.5v-108q-112 -131 -145 -195q-31 -64 -31 -114q0 -58 31.5 -87.5t87.5 -29.5q61 0 117 33zM256 248q0 -69 37.5 -107.5t114.5 -38.5q106 0 191 80t85 178v119q-240 -24 -324 -67
q-57 -30 -80.5 -69t-23.5 -95z" />
    <glyph glyph-name="Cacute" unicode="&#x106;" horiz-adv-x="1255" 
d="M967 1907l-297 -332h-113l211 332h199zM655 1395q229 0 353.5 -118.5t124.5 -305.5v-84h-170v69q0 127 -80 209t-228 82q-162 0 -256 -109t-94 -280v-352q0 -170 94.5 -279.5t255.5 -109.5q147 0 227.5 82t80.5 209v69h170v-84q0 -185 -126.5 -304.5t-355.5 -119.5
q-240 0 -380 152t-140 397v328q0 245 142 397t382 152z" />
    <glyph glyph-name="cacute" unicode="&#x107;" horiz-adv-x="952" 
d="M813 1538l-303 -379h-111l217 379h197zM502 109q110 0 163.5 61t53.5 152v6h151v-17q0 -144 -96.5 -241t-271.5 -97q-194 0 -299 117t-105 322v137q0 203 108 322.5t298 119.5q178 0 272 -95t94 -243v-18h-151v6q0 94 -51.5 154.5t-161.5 60.5q-121 0 -184.5 -78.5
t-63.5 -216.5v-160q0 -138 62.5 -215t181.5 -77z" />
    <glyph glyph-name="Cdotaccent" unicode="&#x10a;" horiz-adv-x="1255" 
d="M557 1772h180v-181h-180v181zM655 1395q229 0 353.5 -118.5t124.5 -305.5v-84h-170v69q0 127 -80 209t-228 82q-162 0 -256 -109t-94 -280v-352q0 -170 94.5 -279.5t255.5 -109.5q147 0 227.5 82t80.5 209v69h170v-84q0 -185 -126.5 -304.5t-355.5 -119.5
q-240 0 -380 152t-140 397v328q0 245 142 397t382 152z" />
    <glyph glyph-name="cdotaccent" unicode="&#x10b;" horiz-adv-x="952" 
d="M408 1356h180v-180h-180v180zM502 109q110 0 163.5 61t53.5 152v6h151v-17q0 -144 -96.5 -241t-271.5 -97q-194 0 -299 117t-105 322v137q0 203 108 322.5t298 119.5q178 0 272 -95t94 -243v-18h-151v6q0 94 -51.5 154.5t-161.5 60.5q-121 0 -184.5 -78.5t-63.5 -216.5
v-160q0 -138 62.5 -215t181.5 -77z" />
    <glyph glyph-name="Ccaron" unicode="&#x10c;" horiz-adv-x="1255" 
d="M322 1925q111 -22 195.5 -82.5t129.5 -136.5q45 76 129 136.5t195 82.5v-78q-183 -67 -240 -264h-170q-57 199 -239 264v78zM655 1395q229 0 353.5 -118.5t124.5 -305.5v-84h-170v69q0 127 -80 209t-228 82q-162 0 -256 -109t-94 -280v-352q0 -170 94.5 -279.5
t255.5 -109.5q147 0 227.5 82t80.5 209v69h170v-84q0 -185 -126.5 -304.5t-355.5 -119.5q-240 0 -380 152t-140 397v328q0 245 142 397t382 152z" />
    <glyph glyph-name="ccaron" unicode="&#x10d;" horiz-adv-x="952" 
d="M193 1550q103 -21 184 -90t121 -166q40 97 121 166t182 90v-80q-87 -35 -142 -110.5t-88 -198.5h-147q-33 124 -88 199t-143 110v80zM502 109q110 0 163.5 61t53.5 152v6h151v-17q0 -144 -96.5 -241t-271.5 -97q-194 0 -299 117t-105 322v137q0 203 108 322.5t298 119.5
q178 0 272 -95t94 -243v-18h-151v6q0 94 -51.5 154.5t-161.5 60.5q-121 0 -184.5 -78.5t-63.5 -216.5v-160q0 -138 62.5 -215t181.5 -77z" />
    <glyph glyph-name="Dcaron" unicode="&#x10e;" horiz-adv-x="1296" 
d="M299 1915q110 -20 194.5 -81.5t129.5 -137.5q46 76 130 137.5t193 81.5v-78q-183 -67 -239 -264h-168q-59 198 -240 264v78zM180 1364h453q259 0 395.5 -145.5t136.5 -393.5v-290q0 -246 -138 -390.5t-396 -144.5h-451v1364zM354 1219v-1074h271q182 0 275 106.5
t93 285.5v288q0 181 -93.5 287.5t-276.5 106.5h-269z" />
    <glyph glyph-name="dcaron" unicode="&#x10f;" horiz-adv-x="1064" 
d="M1079 1417h150l-78 -352h-88zM752 1417h161v-1417h-135l-12 184q-57 -99 -132.5 -153t-189.5 -54q-157 0 -248.5 110.5t-91.5 287.5v215q0 176 94.5 286.5t252.5 110.5q106 0 177 -48t124 -130v608zM494 856q-107 0 -168.5 -76.5t-61.5 -197.5v-199q0 -121 61.5 -199
t168.5 -78q104 0 181 84.5t77 208.5v164q0 125 -77 209t-181 84z" />
    <glyph glyph-name="Dcroat" unicode="&#x110;" horiz-adv-x="1304" 
d="M1174 535q0 -246 -137.5 -390.5t-395.5 -144.5h-451v635h-159v106h159v623h453q258 0 394.5 -145.5t136.5 -393.5v-290zM362 143h271q183 0 275.5 106.5t92.5 287.5v290q0 181 -93.5 287.5t-276.5 106.5h-269v-480h359v-106h-359v-492z" />
    <glyph glyph-name="dcroat" unicode="&#x111;" horiz-adv-x="1064" 
d="M766 184q-57 -99 -132.5 -153t-189.5 -54q-157 0 -248.5 110.5t-91.5 285.5v215q0 176 94.5 286.5t252.5 110.5q106 0 177 -48t124 -130v338h-293v90h293v182h161v-182h144v-90h-144v-1145h-135zM494 852q-107 0 -168.5 -76.5t-61.5 -197.5v-195q0 -121 61.5 -197.5
t168.5 -76.5q104 0 181 83.5t77 206.5v162q0 123 -77 207t-181 84z" />
    <glyph glyph-name="Emacron" unicode="&#x112;" horiz-adv-x="1130" 
d="M295 1729h625v-113h-625v113zM180 1364h854v-147h-684v-455h541v-141h-541v-474h686v-147h-856v1364z" />
    <glyph glyph-name="emacron" unicode="&#x113;" horiz-adv-x="976" 
d="M193 1323h610v-113h-610v113zM881 289q0 -140 -100 -228t-273 -88q-203 0 -306.5 115t-103.5 311v150q0 197 107 319.5t291 122.5q188 0 287.5 -118t99.5 -310v-119h-629v-61q0 -127 62 -202t192 -75q107 0 166 52t59 135v8h148v-12zM254 569v-18h473v27q0 130 -57 205
t-174 75q-116 0 -179 -78t-63 -211z" />
    <glyph glyph-name="Ebreve" unicode="&#x114;" horiz-adv-x="1130" 
d="M606 1679q207 0 207 125q0 42 -12 94h76q26 -72 26 -133q0 -103 -81.5 -158t-215.5 -55q-132 0 -213.5 55t-81.5 158q0 67 27 133h74q-13 -70 -13 -94q0 -125 207 -125zM180 1364h854v-147h-684v-455h541v-141h-541v-474h686v-147h-856v1364z" />
    <glyph glyph-name="ebreve" unicode="&#x115;" horiz-adv-x="976" 
d="M498 1276q97 0 141.5 36t44.5 109q0 51 -10 107h78q22 -71 22 -148q0 -115 -75 -175t-201 -60q-125 0 -201 60t-76 175q0 62 23 148h78q-11 -86 -11 -107q0 -73 45 -109t142 -36zM881 289q0 -140 -100 -228t-273 -88q-203 0 -306.5 115t-103.5 311v150q0 197 107 319.5
t291 122.5q188 0 287.5 -118t99.5 -310v-119h-629v-61q0 -127 62 -202t192 -75q107 0 166 52t59 135v8h148v-12zM254 569v-18h473v27q0 130 -57 205t-174 75q-116 0 -179 -78t-63 -211z" />
    <glyph glyph-name="Edotaccent" unicode="&#x116;" horiz-adv-x="1130" 
d="M516 1761h180v-180h-180v180zM180 1364h854v-147h-684v-455h541v-141h-541v-474h686v-147h-856v1364z" />
    <glyph glyph-name="edotaccent" unicode="&#x117;" horiz-adv-x="976" 
d="M408 1356h180v-180h-180v180zM881 289q0 -140 -100 -228t-273 -88q-203 0 -306.5 115t-103.5 311v150q0 197 107 319.5t291 122.5q188 0 287.5 -118t99.5 -310v-119h-629v-61q0 -127 62 -202t192 -75q107 0 166 52t59 135v8h148v-12zM254 569v-18h473v27q0 130 -57 205
t-174 75q-116 0 -179 -78t-63 -211z" />
    <glyph glyph-name="Eogonek" unicode="&#x118;" horiz-adv-x="1130" 
d="M1128 -471q-75 -53 -184 -53q-100 0 -158.5 49.5t-58.5 132.5q0 54 29 117q41 80 190 225h-766v1364h854v-147h-684v-455h541v-141h-541v-474h686v-147q-113 -135 -147 -201q-31 -64 -31 -114q0 -58 31.5 -87.5t87.5 -29.5q58 0 117 33z" />
    <glyph glyph-name="eogonek" unicode="&#x119;" horiz-adv-x="976" 
d="M907 -471q-72 -53 -182 -53q-101 0 -160 51.5t-59 138.5q0 57 33 131q42 82 137 205q-79 -29 -170 -29q-201 0 -304.5 115t-103.5 311v150q0 197 107 319.5t291 122.5q188 0 287.5 -118t99.5 -310v-119h-629v-61q0 -127 62 -202t192 -75q107 0 166 53t59 136v6h148v-8
q0 -91 -45 -164q-104 -165 -138 -235q-61 -119 -61 -203q0 -61 32.5 -92t88.5 -31q54 0 114 31zM254 569v-18h473v27q0 130 -57 205t-174 75q-116 0 -179 -78t-63 -211z" />
    <glyph glyph-name="Ecaron" unicode="&#x11a;" horiz-adv-x="1130" 
d="M283 1915q109 -20 193 -81.5t130 -137.5q46 76 130.5 137.5t195.5 81.5v-78q-184 -66 -240 -264h-170q-56 197 -239 264v78zM180 1364h854v-147h-684v-455h541v-141h-541v-474h686v-147h-856v1364z" />
    <glyph glyph-name="ecaron" unicode="&#x11b;" horiz-adv-x="976" 
d="M195 1550q101 -21 182 -90t121 -166q40 97 121 166t184 90v-80q-88 -35 -143.5 -110t-88.5 -199h-147q-33 124 -88 199t-141 110v80zM881 289q0 -140 -100 -228t-273 -88q-203 0 -306.5 115t-103.5 311v150q0 197 107 319.5t291 122.5q188 0 287.5 -118t99.5 -310v-119
h-629v-61q0 -127 62 -202t192 -75q107 0 166 52t59 135v8h148v-12zM254 569v-18h473v27q0 130 -57 205t-174 75q-116 0 -179 -78t-63 -211z" />
    <glyph glyph-name="Gbreve" unicode="&#x11e;" horiz-adv-x="1298" 
d="M649 1688q207 0 207 124q0 43 -12 97h76q26 -76 26 -133q0 -103 -82 -159t-215 -56q-132 0 -213.5 56t-81.5 159q0 64 27 133h76q-13 -59 -13 -97q0 -124 205 -124zM659 1395q116 0 208.5 -34t150.5 -93.5t88.5 -137.5t30.5 -169v-41h-168v28q0 131 -79 216t-233 85
q-166 0 -259 -109.5t-93 -287.5v-338q0 -182 93 -290.5t251 -108.5q149 0 238.5 93.5t89.5 244.5v100h-311v133h479v-686h-92l-27 221q-123 -248 -405 -248q-222 0 -356 148t-134 397v326q0 246 142 398.5t386 152.5z" />
    <glyph glyph-name="gbreve" unicode="&#x11f;" horiz-adv-x="980" 
d="M487 1288q97 0 142 36.5t45 109.5q0 31 -10 106h77q23 -86 23 -147q0 -115 -76 -175.5t-201 -60.5q-126 0 -202 60.5t-76 175.5q0 65 22 147h80q-10 -59 -10 -106q0 -73 44.5 -109.5t141.5 -36.5zM944 -86q0 -117 -116.5 -182.5t-329.5 -65.5q-217 0 -330 55t-113 158
q0 132 209 176v4q-75 25 -113 58.5t-38 83.5q0 48 37 83.5t112 65.5q-66 40 -101.5 105t-35.5 147v72q0 138 99.5 223.5t264.5 85.5q72 0 140 -20q60 8 97.5 22t56 36.5t24 46.5t4.5 62h123q12 -40 12 -69q0 -72 -51 -108t-158 -52q59 -43 88 -98.5t29 -134.5v-68
q0 -138 -98.5 -222.5t-266.5 -84.5q-79 0 -143 18q-96 -32 -96 -80q0 -38 71.5 -59.5t180.5 -21.5h30q412 0 412 -236zM489 410q100 0 154.5 51t54.5 135v84q0 82 -54.5 134t-154.5 52q-99 0 -153.5 -51t-54.5 -135v-82q0 -85 54.5 -136.5t153.5 -51.5zM500 -229
q147 0 224 32.5t77 94.5q0 60 -71 89t-222 29h-29q-138 0 -208 -33.5t-70 -91.5q0 -120 299 -120z" />
    <glyph glyph-name="Gdotaccent" unicode="&#x120;" horiz-adv-x="1298" 
d="M561 1772h180v-181h-180v181zM659 1395q116 0 208.5 -34t150.5 -93.5t88.5 -137.5t30.5 -169v-41h-168v28q0 131 -79 216t-233 85q-166 0 -259 -109.5t-93 -287.5v-338q0 -182 93 -290.5t251 -108.5q149 0 238.5 93.5t89.5 244.5v100h-311v133h479v-686h-92l-27 221
q-123 -248 -405 -248q-222 0 -356 148t-134 397v326q0 246 142 398.5t386 152.5z" />
    <glyph glyph-name="gdotaccent" unicode="&#x121;" horiz-adv-x="980" 
d="M397 1368h181v-180h-181v180zM944 -86q0 -117 -116.5 -182.5t-329.5 -65.5q-217 0 -330 55t-113 158q0 132 209 176v4q-75 25 -113 58.5t-38 83.5q0 48 37 83.5t112 65.5q-66 40 -101.5 105t-35.5 147v72q0 138 99.5 223.5t264.5 85.5q72 0 140 -20q60 8 97.5 22t56 36.5
t24 46.5t4.5 62h123q12 -40 12 -69q0 -72 -51 -108t-158 -52q59 -43 88 -98.5t29 -134.5v-68q0 -138 -98.5 -222.5t-266.5 -84.5q-79 0 -143 18q-96 -32 -96 -80q0 -38 71.5 -59.5t180.5 -21.5h30q412 0 412 -236zM489 410q100 0 154.5 51t54.5 135v84q0 82 -54.5 134
t-154.5 52q-99 0 -153.5 -51t-54.5 -135v-82q0 -85 54.5 -136.5t153.5 -51.5zM500 -229q147 0 224 32.5t77 94.5q0 60 -71 89t-222 29h-29q-138 0 -208 -33.5t-70 -91.5q0 -120 299 -120z" />
    <glyph glyph-name="Gcommaaccent" unicode="&#x122;" horiz-adv-x="1298" 
d="M659 1395q116 0 208.5 -34t150.5 -93.5t88.5 -137.5t30.5 -169v-41h-168v28q0 131 -79 216t-233 85q-166 0 -259 -109.5t-93 -287.5v-338q0 -182 93 -290.5t251 -108.5q149 0 238.5 93.5t89.5 244.5v100h-311v133h479v-686h-92l-27 221q-123 -248 -405 -248
q-222 0 -356 148t-134 397v326q0 246 142 398.5t386 152.5zM559 -215h180v-174q0 -220 -239 -273v54q160 50 157 198h-98v195z" />
    <glyph glyph-name="gcommaaccent" unicode="&#x123;" horiz-adv-x="980" 
d="M399 1186v176q0 216 240 272v-55q-76 -22 -117.5 -72.5t-40.5 -124.5h97v-196h-179zM944 -86q0 -117 -116.5 -182.5t-329.5 -65.5q-217 0 -330 55t-113 158q0 132 209 176v4q-75 25 -113 58.5t-38 83.5q0 48 37 83.5t112 65.5q-66 40 -101.5 105t-35.5 147v72
q0 138 99.5 223.5t264.5 85.5q72 0 140 -20q60 8 97.5 22t56 36.5t24 46.5t4.5 62h123q12 -40 12 -69q0 -72 -51 -108t-158 -52q59 -43 88 -98.5t29 -134.5v-68q0 -138 -98.5 -222.5t-266.5 -84.5q-79 0 -143 18q-96 -32 -96 -80q0 -38 71.5 -59.5t180.5 -21.5h30
q412 0 412 -236zM489 410q100 0 154.5 51t54.5 135v84q0 82 -54.5 134t-154.5 52q-99 0 -153.5 -51t-54.5 -135v-82q0 -85 54.5 -136.5t153.5 -51.5zM500 -229q147 0 224 32.5t77 94.5q0 60 -71 89t-222 29h-29q-138 0 -208 -33.5t-70 -91.5q0 -120 299 -120z" />
    <glyph glyph-name="Hbar" unicode="&#x126;" horiz-adv-x="1355" 
d="M362 612v-612h-172v1016h-159v108h159v240h172v-244h631v244h172v-240h160v-108h-160v-1016h-172v612h-631zM362 762h631v258h-631v-258z" />
    <glyph glyph-name="hbar" unicode="&#x127;" horiz-adv-x="1058" 
d="M313 582v-582h-161v1145h-144v90h144v182h161v-182h293v-90h-293v-354q62 94 139 143t181 49q129 0 205.5 -83t76.5 -224v-676h-161v653q0 89 -47 141t-132 52q-106 0 -184 -82.5t-78 -181.5z" />
    <glyph glyph-name="Imacron" unicode="&#x12a;" horiz-adv-x="555" 
d="M-35 1729h625v-113h-625v113zM190 1364h175v-1364h-175v1364z" />
    <glyph glyph-name="imacron" unicode="&#x12b;" horiz-adv-x="473" 
d="M-68 1315h609v-113h-609v113zM156 965h161v-965h-161v965z" />
    <glyph glyph-name="Ibreve" unicode="&#x12c;" horiz-adv-x="555" 
d="M276 1679q207 0 207 125q0 42 -12 94h76q26 -72 26 -133q0 -103 -81.5 -158t-215.5 -55q-132 0 -213 55t-81 158q0 70 26 133h76q-12 -52 -12 -94q0 -125 204 -125zM190 1364h175v-1364h-175v1364z" />
    <glyph glyph-name="ibreve" unicode="&#x12d;" horiz-adv-x="473" 
d="M238 1270q97 0 141.5 35.5t44.5 109.5q0 33 -10 105h78q22 -79 22 -146q0 -116 -75.5 -175.5t-200.5 -59.5q-127 0 -203 59.5t-76 175.5q0 64 23 146h79q-10 -56 -10 -105q0 -74 45 -109.5t142 -35.5zM156 965h161v-965h-161v965z" />
    <glyph glyph-name="Iogonek" unicode="&#x12e;" horiz-adv-x="555" 
d="M94 -223q34 62 185 223h-89v1364h175v-1364q-115 -149 -138 -197q-34 -59 -34 -122q0 -55 31.5 -85t84.5 -30t121 33l33 -70q-72 -53 -184 -53q-99 0 -157.5 49t-58.5 133q0 52 31 119z" />
    <glyph glyph-name="iogonek" unicode="&#x12f;" horiz-adv-x="473" 
d="M147 1350h181v-183h-181v183zM422 -471q-72 -53 -182 -53q-100 0 -158.5 49.5t-58.5 132.5q0 62 30 121q21 42 57 88t117 133h-71v965h161v-965q-103 -133 -133 -195q-32 -60 -32 -120q0 -58 32 -87.5t88 -29.5q58 0 117 33z" />
    <glyph glyph-name="Idotaccent" unicode="&#x130;" horiz-adv-x="555" 
d="M188 1761h181v-180h-181v180zM190 1364h175v-1364h-175v1364z" />
    <glyph glyph-name="dotlessi" unicode="&#x131;" horiz-adv-x="473" 
d="M156 965h161v-965h-161v965z" />
    <glyph glyph-name="Kcommaaccent" unicode="&#x136;" horiz-adv-x="1193" 
d="M950 0q-298 473 -407 643l-189 -242v-401h-174v1364h174v-750l584 750h201l-477 -594l485 -770h-197zM539 -199h180v-174q0 -216 -240 -272v53q76 24 117.5 74.5t40.5 124.5h-98v194z" />
    <glyph glyph-name="kcommaaccent" unicode="&#x137;" horiz-adv-x="952" 
d="M152 1417h161v-1003l392 551h178l-287 -394l311 -571h-176l-246 451l-172 -234v-217h-161v1417zM416 -199h178v-174q0 -216 -240 -272v53q76 24 117.5 74.5t40.5 124.5h-96v194z" />
    <glyph glyph-name="Lacute" unicode="&#x139;" horiz-adv-x="1030" 
d="M621 1898l-295 -331h-115l211 331h199zM180 1364h174v-1212h617v-152h-791v1364z" />
    <glyph glyph-name="lacute" unicode="&#x13a;" horiz-adv-x="473" 
d="M596 1898l-305 -376h-109l215 376h199zM156 1417h161v-1417h-161v1417z" />
    <glyph glyph-name="Lcommaaccent" unicode="&#x13b;" horiz-adv-x="1030" 
d="M180 1364h174v-1212h617v-152h-791v1364zM471 -209h180v-174q0 -216 -239 -272v53q76 24 117 74.5t40 124.5h-98v194z" />
    <glyph glyph-name="lcommaaccent" unicode="&#x13c;" horiz-adv-x="473" 
d="M156 1417h161v-1417h-161v1417zM145 -209h181v-174q0 -216 -240 -272v53q76 24 117.5 74.5t40.5 124.5h-99v194z" />
    <glyph glyph-name="Lcaron" unicode="&#x13d;" horiz-adv-x="1030" 
d="M555 1364h150l-78 -352h-88zM180 1364h174v-1212h617v-152h-791v1364z" />
    <glyph glyph-name="lcaron" unicode="&#x13e;" horiz-adv-x="473" 
d="M485 1417h150l-76 -352h-90zM156 1417h161v-1417h-161v1417z" />
    <glyph glyph-name="Ldot" unicode="&#x13f;" horiz-adv-x="1030" 
d="M180 1364h174v-1212h617v-152h-791v1364zM705 795h159v-187h-159v187z" />
    <glyph glyph-name="ldot" unicode="&#x140;" horiz-adv-x="643" 
d="M156 1417h161v-1417h-161v1417zM479 780h158v-188h-158v188z" />
    <glyph glyph-name="Lslash" unicode="&#x141;" horiz-adv-x="1040" 
d="M979 152v-152h-789v530l-139 -79l-53 90l192 108v715h172v-616l334 188l54 -88l-388 -219v-477h617z" />
    <glyph glyph-name="lslash" unicode="&#x142;" horiz-adv-x="522" 
d="M549 838l-207 -129v-709h-162v606l-151 -96l-52 78l203 129v700h162v-598l156 99z" />
    <glyph glyph-name="Nacute" unicode="&#x143;" horiz-adv-x="1343" 
d="M989 1888l-297 -332h-112l211 332h198zM180 1364h168l653 -1057h5v1057h157v-1364h-159l-662 1067h-4v-1067h-158v1364z" />
    <glyph glyph-name="nacute" unicode="&#x144;" horiz-adv-x="1060" 
d="M842 1552l-305 -376h-109l215 376h199zM152 965h135l14 -191q64 104 143.5 158.5t190.5 54.5q130 0 206.5 -83.5t76.5 -223.5v-680h-162v655q0 89 -46.5 141t-131.5 52q-107 0 -186 -82.5t-79 -181.5v-584h-161v965z" />
    <glyph glyph-name="Ncommaaccent" unicode="&#x145;" horiz-adv-x="1343" 
d="M180 1364h168l653 -1057h5v1057h157v-1364h-159l-662 1067h-4v-1067h-158v1364zM580 -199h180v-174q0 -216 -240 -272v53q76 24 117.5 74.5t40.5 124.5h-98v194z" />
    <glyph glyph-name="ncommaaccent" unicode="&#x146;" horiz-adv-x="1060" 
d="M152 965h135l14 -191q64 104 143.5 158.5t190.5 54.5q130 0 206.5 -83.5t76.5 -223.5v-680h-162v655q0 89 -46.5 141t-131.5 52q-107 0 -186 -82.5t-79 -181.5v-584h-161v965zM434 -199h180v-174q0 -216 -239 -272v53q76 24 117 74.5t40 124.5h-98v194z" />
    <glyph glyph-name="Ncaron" unicode="&#x147;" horiz-adv-x="1343" 
d="M344 1905q111 -20 195.5 -81.5t130.5 -137.5q46 76 130 137.5t193 81.5v-78q-182 -64 -239 -264h-170q-57 201 -240 264v78zM180 1364h168l653 -1057h5v1057h157v-1364h-159l-662 1067h-4v-1067h-158v1364z" />
    <glyph glyph-name="ncaron" unicode="&#x148;" horiz-adv-x="1060" 
d="M221 1565q101 -20 181.5 -89t121.5 -165q41 96 122 165t183 89v-78q-88 -36 -143 -111.5t-86 -197.5h-149q-64 240 -230 309v78zM152 965h135l14 -191q64 104 143.5 158.5t190.5 54.5q130 0 206.5 -83.5t76.5 -223.5v-680h-162v655q0 89 -46.5 141t-131.5 52
q-107 0 -186 -82.5t-79 -181.5v-584h-161v965z" />
    <glyph glyph-name="Omacron" unicode="&#x14c;" horiz-adv-x="1329" 
d="M352 1739h625v-113h-625v113zM666 1395q247 0 389.5 -149.5t142.5 -409.5v-308q0 -261 -143 -410t-391 -149q-247 0 -390 149.5t-143 409.5v308q0 260 143.5 409.5t391.5 149.5zM666 1247q-169 0 -265 -107.5t-96 -295.5v-324q0 -188 96 -295.5t263 -107.5
q168 0 264 107.5t96 295.5v324q0 188 -95.5 295.5t-262.5 107.5z" />
    <glyph glyph-name="omacron" unicode="&#x14d;" horiz-adv-x="1009" 
d="M201 1323h608v-113h-608v113zM506 991q188 0 297.5 -116.5t109.5 -309.5v-168q0 -191 -112 -308.5t-297 -117.5t-296.5 117.5t-111.5 308.5v166q0 194 110.5 311t299.5 117zM506 858q-116 0 -182 -76.5t-66 -199.5v-201q0 -123 67.5 -199t180.5 -76q112 0 179 76t67 199
v201q0 123 -65.5 199.5t-180.5 76.5z" />
    <glyph glyph-name="Obreve" unicode="&#x14e;" horiz-adv-x="1329" 
d="M664 1688q206 0 206 127q0 42 -12 94h76q27 -79 27 -133q0 -103 -82 -159t-215 -56q-132 0 -213.5 56t-81.5 159q0 66 26 133h76q-12 -52 -12 -94q0 -127 205 -127zM666 1395q247 0 389.5 -149.5t142.5 -409.5v-308q0 -261 -143 -410t-391 -149q-247 0 -390 149.5
t-143 409.5v308q0 260 143.5 409.5t391.5 149.5zM666 1247q-169 0 -265 -107.5t-96 -295.5v-324q0 -188 96 -295.5t263 -107.5q168 0 264 107.5t96 295.5v324q0 188 -95.5 295.5t-262.5 107.5z" />
    <glyph glyph-name="obreve" unicode="&#x14f;" horiz-adv-x="1009" 
d="M506 1276q97 0 141.5 36t44.5 109q0 32 -10 107h78q22 -82 22 -146q0 -116 -75.5 -176.5t-200.5 -60.5q-126 0 -201.5 60.5t-75.5 176.5q0 72 23 146h78q-11 -62 -11 -107q0 -73 45 -109t142 -36zM506 991q188 0 297.5 -116.5t109.5 -309.5v-168q0 -191 -112 -308.5
t-297 -117.5t-296.5 117.5t-111.5 308.5v166q0 194 110.5 311t299.5 117zM506 858q-116 0 -182 -76.5t-66 -199.5v-201q0 -123 67.5 -199t180.5 -76q112 0 179 76t67 199v201q0 123 -65.5 199.5t-180.5 76.5z" />
    <glyph glyph-name="Ohungarumlaut" unicode="&#x150;" horiz-adv-x="1329" 
d="M811 1907l-274 -330h-101l199 330h176zM1141 1907l-275 -330h-100l199 330h176zM666 1395q247 0 389.5 -149.5t142.5 -409.5v-308q0 -261 -143 -410t-391 -149q-247 0 -390 149.5t-143 409.5v308q0 260 143.5 409.5t391.5 149.5zM666 1247q-169 0 -265 -107.5t-96 -295.5
v-324q0 -188 96 -295.5t263 -107.5q168 0 264 107.5t96 295.5v324q0 188 -95.5 295.5t-262.5 107.5z" />
    <glyph glyph-name="ohungarumlaut" unicode="&#x151;" horiz-adv-x="1009" 
d="M672 1538l-281 -377h-98l205 377h174zM995 1538l-280 -377h-99l205 377h174zM506 991q188 0 297.5 -116.5t109.5 -309.5v-168q0 -191 -112 -308.5t-297 -117.5t-296.5 117.5t-111.5 308.5v166q0 194 110.5 311t299.5 117zM506 858q-116 0 -182 -76.5t-66 -199.5v-201
q0 -123 67.5 -199t180.5 -76q112 0 179 76t67 199v201q0 123 -65.5 199.5t-180.5 76.5z" />
    <glyph glyph-name="OE" unicode="&#x152;" horiz-adv-x="1890" 
d="M1796 0h-1134q-258 0 -395.5 145.5t-137.5 393.5v290q0 245 138.5 390t396.5 145h1130v-147h-682v-455h539v-141h-539v-474h684v-147zM672 1221q-183 0 -276 -107t-93 -287v-290q0 -180 94 -287t277 -107h268v1078h-270z" />
    <glyph glyph-name="oe" unicode="&#x153;" horiz-adv-x="1630" 
d="M1159 -27q-120 0 -205 46.5t-127 130.5q-50 -85 -133 -131t-192 -46q-184 0 -295 116.5t-111 307.5v166q0 194 110 311t298 117q112 0 197 -48t133 -136q47 87 129 135.5t192 48.5q186 0 283.5 -118t97.5 -310v-119h-629v-61q0 -127 62.5 -202t191.5 -75q106 0 165.5 54
t59.5 137v6h148v-10q0 -140 -101 -230t-274 -90zM907 569v-18h473v27q0 130 -57 205t-174 75q-116 0 -179 -78t-63 -211zM504 858q-114 0 -180 -77t-66 -199v-201q0 -122 67 -198.5t179 -76.5q111 0 178.5 77t67.5 198v201q0 122 -66 199t-180 77z" />
    <glyph glyph-name="Racute" unicode="&#x154;" horiz-adv-x="1218" 
d="M928 1898l-297 -331h-115l213 331h199zM354 563v-563h-174v1364h500q210 0 314 -91t104 -263v-88q0 -130 -75 -221t-212 -123l332 -578h-191l-317 563h-281zM354 1223v-523h291q135 0 208 61.5t73 166.5v71q0 115 -65.5 169.5t-205.5 54.5h-301z" />
    <glyph glyph-name="racute" unicode="&#x155;" horiz-adv-x="708" 
d="M721 1534l-305 -377h-109l215 377h199zM152 965h135l14 -232q99 246 299 246q39 0 72 -8v-162q-33 8 -78 8q-118 0 -199.5 -84.5t-81.5 -200.5v-532h-161v965z" />
    <glyph glyph-name="Rcommaaccent" unicode="&#x156;" horiz-adv-x="1218" 
d="M354 563v-563h-174v1364h500q210 0 314 -91t104 -263v-88q0 -130 -75 -221t-212 -123l332 -578h-191l-317 563h-281zM354 1223v-523h291q135 0 208 61.5t73 166.5v71q0 115 -65.5 169.5t-205.5 54.5h-301zM545 -199h180v-174q0 -216 -240 -272v53q76 24 117 74.5
t41 124.5h-98v194z" />
    <glyph glyph-name="rcommaaccent" unicode="&#x157;" horiz-adv-x="708" 
d="M152 965h135l14 -232q99 246 299 246q39 0 72 -8v-162q-33 8 -78 8q-118 0 -199.5 -84.5t-81.5 -200.5v-532h-161v965zM143 -209h181v-174q0 -216 -240 -272v53q76 24 117 74.5t41 124.5h-99v194z" />
    <glyph glyph-name="Rcaron" unicode="&#x158;" horiz-adv-x="1218" 
d="M283 1915q111 -20 194 -81t129 -138q46 76 130.5 137.5t195.5 81.5v-78q-184 -66 -240 -264h-170q-56 197 -239 264v78zM354 563v-563h-174v1364h500q210 0 314 -91t104 -263v-88q0 -130 -75 -221t-212 -123l332 -578h-191l-317 563h-281zM354 1223v-523h291
q135 0 208 61.5t73 166.5v71q0 115 -65.5 169.5t-205.5 54.5h-301z" />
    <glyph glyph-name="rcaron" unicode="&#x159;" horiz-adv-x="708" 
d="M100 1548q101 -21 182 -90t121 -166q40 97 121.5 166t184.5 90v-80q-88 -35 -143.5 -110t-88.5 -199h-147q-33 123 -88 198.5t-142 110.5v80zM152 965h135l14 -232q99 246 299 246q39 0 72 -8v-162q-33 8 -78 8q-118 0 -199.5 -84.5t-81.5 -200.5v-532h-161v965z" />
    <glyph glyph-name="Sacute" unicode="&#x15a;" horiz-adv-x="1177" 
d="M918 1905l-297 -332h-113l211 332h199zM598 1391q234 0 347.5 -109.5t113.5 -284.5v-53h-170v47q0 115 -70 185.5t-225 70.5q-130 0 -205.5 -61.5t-75.5 -161.5q0 -43 12.5 -75.5t34.5 -57t65.5 -47.5t91.5 -41.5t128 -44.5q118 -37 193 -71t131 -81t80 -107.5t24 -144.5
q0 -179 -127.5 -280t-339.5 -101q-242 0 -364.5 108t-122.5 294v65h172v-53q0 -129 79 -199.5t240 -70.5q134 0 212.5 59t78.5 168t-69 161.5t-273 117.5q-112 33 -184.5 65t-128 77.5t-80.5 106.5t-25 144q0 165 123.5 270t333.5 105z" />
    <glyph glyph-name="sacute" unicode="&#x15b;" horiz-adv-x="921" 
d="M774 1536l-305 -377h-109l218 377h196zM467 -27q-187 0 -282 86.5t-95 229.5v37h143v-31q0 -91 60.5 -144t175.5 -53q97 0 151 41t54 113q0 67 -52 103t-190 71q-166 39 -243.5 103t-77.5 184q0 117 95 197.5t255 80.5q169 0 259.5 -81.5t90.5 -215.5v-32h-141v22
q0 86 -54 134t-157 48q-90 0 -144.5 -41t-54.5 -106q0 -66 55 -102t189 -70q168 -39 245.5 -102t77.5 -185q0 -129 -95.5 -208t-264.5 -79z" />
    <glyph glyph-name="Scedilla" unicode="&#x15e;" horiz-adv-x="1177" 
d="M825 -330q0 -93 -66.5 -143.5t-187.5 -50.5q-132 0 -241 51l28 70q95 -39 193 -39q147 0 147 110q0 46 -30.5 72.5t-92.5 26.5q-51 0 -112 -23l-37 57l131 172q-218 12 -328 119.5t-110 282.5v65h172v-53q0 -129 79 -199.5t240 -70.5q134 0 212.5 59t78.5 168t-69 161.5
t-273 117.5q-112 33 -184.5 65t-128 77.5t-80.5 106.5t-25 144q0 165 123.5 270t333.5 105q234 0 347.5 -109.5t113.5 -284.5v-53h-170v47q0 115 -70 185.5t-225 70.5q-130 0 -205.5 -61.5t-75.5 -161.5q0 -43 12.5 -75.5t34.5 -57t65.5 -47.5t91.5 -41.5t128 -44.5
q118 -37 193 -71t131 -81t80 -107.5t24 -144.5q0 -169 -115.5 -269.5t-310.5 -111.5l-112 -141q54 14 92 14q91 0 144.5 -47.5t53.5 -128.5z" />
    <glyph glyph-name="scedilla" unicode="&#x15f;" horiz-adv-x="921" 
d="M686 -330q0 -93 -66.5 -143.5t-185.5 -50.5q-135 0 -244 51l29 70q95 -39 193 -39q147 0 147 110q0 46 -30.5 72.5t-92.5 26.5q-51 0 -112 -23l-37 57l131 174q-163 10 -245.5 94.5t-82.5 219.5v37h143v-31q0 -91 60.5 -144t175.5 -53q97 0 151 41t54 113q0 67 -52 103
t-190 71q-166 39 -243.5 103t-77.5 184q0 117 95 197.5t255 80.5q169 0 259.5 -81.5t90.5 -215.5v-32h-141v22q0 86 -54 134t-157 48q-90 0 -144.5 -41t-54.5 -106q0 -66 55 -102t189 -70q168 -39 245.5 -102t77.5 -185q0 -121 -83.5 -198.5t-233.5 -86.5l-115 -143
q54 14 92 14q91 0 145 -47.5t54 -128.5z" />
    <glyph glyph-name="Scaron" unicode="&#x160;" horiz-adv-x="1177" 
d="M272 1921q111 -20 195.5 -81.5t130.5 -137.5q46 77 129.5 138t194.5 81v-78q-184 -64 -240 -264h-170q-56 200 -240 264v78zM598 1391q234 0 347.5 -109.5t113.5 -284.5v-53h-170v47q0 115 -70 185.5t-225 70.5q-130 0 -205.5 -61.5t-75.5 -161.5q0 -43 12.5 -75.5
t34.5 -57t65.5 -47.5t91.5 -41.5t128 -44.5q118 -37 193 -71t131 -81t80 -107.5t24 -144.5q0 -179 -127.5 -280t-339.5 -101q-242 0 -364.5 108t-122.5 294v65h172v-53q0 -129 79 -199.5t240 -70.5q134 0 212.5 59t78.5 168t-69 161.5t-273 117.5q-112 33 -184.5 65
t-128 77.5t-80.5 106.5t-25 144q0 165 123.5 270t333.5 105z" />
    <glyph glyph-name="scaron" unicode="&#x161;" horiz-adv-x="921" 
d="M154 1550q103 -21 184 -90t121 -166q40 97 121 166t182 90v-80q-169 -68 -230 -309h-149q-31 124 -86 199t-143 110v80zM467 -27q-187 0 -282 86.5t-95 229.5v37h143v-31q0 -91 60.5 -144t175.5 -53q97 0 151 41t54 113q0 67 -52 103t-190 71q-166 39 -243.5 103
t-77.5 184q0 117 95 197.5t255 80.5q169 0 259.5 -81.5t90.5 -215.5v-32h-141v22q0 86 -54 134t-157 48q-90 0 -144.5 -41t-54.5 -106q0 -66 55 -102t189 -70q168 -39 245.5 -102t77.5 -185q0 -129 -95.5 -208t-264.5 -79z" />
    <glyph glyph-name="Tcommaaccent" unicode="&#x162;" horiz-adv-x="1130" 
d="M63 1364h1006v-150h-418v-1214h-172v1214h-416v150zM477 -209h180v-174q0 -215 -239 -272v53q157 49 157 199h-98v194z" />
    <glyph glyph-name="Tcommaaccent" unicode="&#x21a;" horiz-adv-x="1130" 
d="M63 1364h1006v-150h-418v-1214h-172v1214h-416v150zM477 -209h180v-174q0 -215 -239 -272v53q157 49 157 199h-98v194z" />
    <glyph glyph-name="tcommaaccent" unicode="&#x163;" horiz-adv-x="706" 
d="M59 965h156v209l162 45v-254h270v-131h-270v-517q0 -109 37.5 -148.5t136.5 -39.5h49v-131h-84q-156 0 -228.5 66t-72.5 223v547h-156v131zM299 -211h180v-174q0 -216 -239 -272v55q76 22 117 72t40 124h-98v195z" />
    <glyph glyph-name="tcommaaccent" unicode="&#x21b;" horiz-adv-x="706" 
d="M59 965h156v209l162 45v-254h270v-131h-270v-517q0 -109 37.5 -148.5t136.5 -39.5h49v-131h-84q-156 0 -228.5 66t-72.5 223v547h-156v131zM299 -211h180v-174q0 -216 -239 -272v55q76 22 117 72t40 124h-98v195z" />
    <glyph glyph-name="Tcaron" unicode="&#x164;" horiz-adv-x="1130" 
d="M242 1915q111 -20 195 -81.5t130 -137.5q45 76 129.5 137.5t194.5 81.5v-78q-184 -67 -240 -264h-170q-56 199 -239 264v78zM63 1364h1006v-150h-418v-1214h-172v1214h-416v150z" />
    <glyph glyph-name="tcaron" unicode="&#x165;" horiz-adv-x="706" 
d="M547 1456h151l-77 -352h-89zM59 965h156v209l162 45v-254h270v-131h-270v-517q0 -109 37.5 -148.5t136.5 -39.5h49v-131h-84q-156 0 -228.5 66t-72.5 223v547h-156v131z" />
    <glyph glyph-name="Umacron" unicode="&#x16a;" horiz-adv-x="1296" 
d="M336 1720h625v-112h-625v112zM166 1364h172v-909q0 -162 81.5 -248t231.5 -86q149 0 230.5 86t81.5 248v909h167v-905q0 -233 -125.5 -360.5t-357.5 -127.5q-233 0 -357 126.5t-124 361.5v905z" />
    <glyph glyph-name="umacron" unicode="&#x16b;" horiz-adv-x="1060" 
d="M223 1307h608v-113h-608v113zM143 965h162v-656q0 -89 46.5 -140.5t131.5 -51.5q107 0 186 82.5t79 181.5v584h161v-965h-135l-14 190q-64 -105 -143.5 -159t-190.5 -54q-129 0 -206 84t-77 224v680z" />
    <glyph glyph-name="Ubreve" unicode="&#x16c;" horiz-adv-x="1296" 
d="M649 1669q205 0 205 125q0 42 -12 94h76q26 -72 26 -133q0 -103 -81.5 -158t-213.5 -55q-134 0 -215.5 55t-81.5 158q0 58 27 133h76q-13 -56 -13 -94q0 -125 207 -125zM166 1364h172v-909q0 -162 81.5 -248t231.5 -86q149 0 230.5 86t81.5 248v909h167v-905
q0 -233 -125.5 -360.5t-357.5 -127.5q-233 0 -357 126.5t-124 361.5v905z" />
    <glyph glyph-name="ubreve" unicode="&#x16d;" horiz-adv-x="1060" 
d="M526 1260q97 0 142 36t45 109q0 44 -11 106h78q23 -74 23 -147q0 -116 -75.5 -176t-201.5 -60q-125 0 -200.5 60t-75.5 176q0 64 22 147h78q-10 -78 -10 -106q0 -73 44.5 -109t141.5 -36zM143 965h162v-656q0 -89 46.5 -140.5t131.5 -51.5q107 0 186 82.5t79 181.5v584
h161v-965h-135l-14 190q-64 -105 -143.5 -159t-190.5 -54q-129 0 -206 84t-77 224v680z" />
    <glyph glyph-name="Uring" unicode="&#x16e;" horiz-adv-x="1296" 
d="M649 1937q101 0 163 -59t62 -145t-62 -145.5t-163 -59.5t-164 59.5t-63 145.5t62.5 145t164.5 59zM649 1860q-64 0 -101.5 -36.5t-37.5 -90.5t37.5 -89.5t101.5 -35.5q63 0 100 35.5t37 89.5t-37 90.5t-100 36.5zM166 1364h172v-909q0 -162 81.5 -248t231.5 -86
q149 0 230.5 86t81.5 248v909h167v-905q0 -233 -125.5 -360.5t-357.5 -127.5q-233 0 -357 126.5t-124 361.5v905z" />
    <glyph glyph-name="uring" unicode="&#x16f;" horiz-adv-x="1060" 
d="M526 1524q100 0 163 -59.5t63 -145.5t-63 -145.5t-163 -59.5q-99 0 -161 59.5t-62 145.5t62 145.5t161 59.5zM526 1446q-62 0 -99.5 -36.5t-37.5 -90.5t37.5 -89.5t99.5 -35.5t100 35.5t38 89.5t-38 90.5t-100 36.5zM143 965h162v-656q0 -89 46.5 -140.5t131.5 -51.5
q107 0 186 82.5t79 181.5v584h161v-965h-135l-14 190q-64 -105 -143.5 -159t-190.5 -54q-129 0 -206 84t-77 224v680z" />
    <glyph glyph-name="Uhungarumlaut" unicode="&#x170;" horiz-adv-x="1296" 
d="M795 1888l-275 -332h-100l198 332h177zM1124 1888l-274 -332h-100l198 332h176zM166 1364h172v-909q0 -162 81.5 -248t231.5 -86q149 0 230.5 86t81.5 248v909h167v-905q0 -233 -125.5 -360.5t-357.5 -127.5q-233 0 -357 126.5t-124 361.5v905z" />
    <glyph glyph-name="uhungarumlaut" unicode="&#x171;" horiz-adv-x="1060" 
d="M694 1520l-282 -377h-97l203 377h176zM1016 1520l-281 -377h-98l205 377h174zM143 965h162v-656q0 -89 46.5 -140.5t131.5 -51.5q107 0 186 82.5t79 181.5v584h161v-965h-135l-14 190q-64 -105 -143.5 -159t-190.5 -54q-129 0 -206 84t-77 224v680z" />
    <glyph glyph-name="Uogonek" unicode="&#x172;" horiz-adv-x="1296" 
d="M881 -471q-75 -53 -185 -53q-100 0 -158.5 49.5t-58.5 132.5q0 59 31 123q20 37 50 76.5t95 113.5h-8q-233 0 -357 126.5t-124 361.5v905h172v-909q0 -162 81.5 -248t231.5 -86q149 0 230.5 86t81.5 248v909h167v-905q0 -205 -97.5 -328t-280.5 -151q-84 -118 -109 -166
q-33 -67 -33 -129q0 -58 31.5 -87.5t87.5 -29.5q58 0 117 33z" />
    <glyph glyph-name="uogonek" unicode="&#x173;" horiz-adv-x="1060" 
d="M1014 -471q-72 -53 -185 -53q-100 0 -158.5 49.5t-58.5 132.5q0 54 31 121q21 42 57 88t117 133h-43l-14 190q-64 -105 -143.5 -159t-190.5 -54q-129 0 -206 84t-77 224v680h162v-656q0 -89 46.5 -140.5t131.5 -51.5q107 0 186 82.5t79 181.5v584h161v-965
q-103 -133 -133 -195q-33 -62 -33 -120t31.5 -87.5t87.5 -29.5q61 0 117 33z" />
    <glyph glyph-name="Wcircumflex" unicode="&#x174;" horiz-adv-x="1830" 
d="M838 1896h168q57 -200 239 -264v-78q-109 20 -193 81.5t-130 138.5q-46 -76 -130.5 -138t-193.5 -82v78q180 63 240 264zM88 1364h180l262 -1122h5l305 1128h157l308 -1128h4l260 1122h172l-352 -1378h-170l-304 1097h-4l-307 -1097h-168z" />
    <glyph glyph-name="wcircumflex" unicode="&#x175;" horiz-adv-x="1423" 
d="M645 1522h150q31 -122 86 -198t143 -112v-77q-102 20 -183 89.5t-122 166.5q-39 -97 -120 -166.5t-183 -89.5v77q168 70 229 310zM55 965h164l205 -772h4l209 772h151l216 -772h4l202 772h158l-285 -971h-149l-221 756h-4l-220 -756h-149z" />
    <glyph glyph-name="Ycircumflex" unicode="&#x176;" horiz-adv-x="1179" 
d="M510 1880h170q56 -200 240 -264v-78q-110 20 -194.5 81.5t-129.5 137.5q-46 -76 -130.5 -137.5t-195.5 -81.5v78q183 63 240 264zM51 1364h191l354 -674l348 674h186l-454 -836v-528h-172v530z" />
    <glyph glyph-name="ycircumflex" unicode="&#x177;" horiz-adv-x="944" 
d="M408 1511h147q33 -122 88 -197.5t143 -111.5v-78q-102 20 -183 89t-122 165q-41 -96 -121.5 -165t-181.5 -89v78q166 69 230 309zM53 965h168l262 -787h2l252 787h164l-332 -963q-34 -90 -62.5 -145t-69.5 -98.5t-96.5 -62t-133.5 -18.5h-72v132h41q87 0 133.5 32.5
t71.5 106.5l14 45z" />
    <glyph glyph-name="Ydieresis" unicode="&#x178;" horiz-adv-x="1179" 
d="M332 1759h162v-186h-162v186zM698 1759h160v-186h-160v186zM51 1364h191l354 -674l348 674h186l-454 -836v-528h-172v530z" />
    <glyph glyph-name="Zacute" unicode="&#x179;" horiz-adv-x="1134" 
d="M895 1898l-295 -331h-115l213 331h197zM125 1364h919v-98l-725 -1114h711v-152h-940v98l733 1119h-698v147z" />
    <glyph glyph-name="zacute" unicode="&#x17a;" horiz-adv-x="890" 
d="M772 1530l-303 -377h-111l217 377h197zM109 965h704v-93l-522 -737h510v-135h-715v92l526 742h-503v131z" />
    <glyph glyph-name="Zdotaccent" unicode="&#x17b;" horiz-adv-x="1134" 
d="M485 1761h181v-180h-181v180zM125 1364h919v-98l-725 -1114h711v-152h-940v98l733 1119h-698v147z" />
    <glyph glyph-name="zdotaccent" unicode="&#x17c;" horiz-adv-x="890" 
d="M367 1350h180v-183h-180v183zM109 965h704v-93l-522 -737h510v-135h-715v92l526 742h-503v131z" />
    <glyph glyph-name="Zcaron" unicode="&#x17d;" horiz-adv-x="1134" 
d="M252 1915q109 -20 193 -81.5t130 -137.5q46 76 130.5 137.5t195.5 81.5v-78q-183 -65 -239 -264h-170q-56 197 -240 264v78zM125 1364h919v-98l-725 -1114h711v-152h-940v98l733 1119h-698v147z" />
    <glyph glyph-name="zcaron" unicode="&#x17e;" horiz-adv-x="890" 
d="M152 1544q103 -21 184 -90t121 -166q40 97 121 166t182 90v-80q-87 -35 -142 -110.5t-88 -198.5h-147q-33 124 -88 199t-143 110v80zM109 965h704v-93l-522 -737h510v-135h-715v92l526 742h-503v131z" />
    <glyph glyph-name="Aringacute" unicode="&#x1fa;" horiz-adv-x="1269" 
d="M987 2118l-295 -332h-114l210 332h199zM1020 0l-113 340h-553l-112 -340h-172l450 1317q-54 28 -83 75.5t-29 106.5q0 85 63 145t164 60t163 -59.5t62 -145.5q0 -59 -29 -106.5t-81 -73.5l450 -1319h-180zM635 1624q-63 0 -101 -36t-38 -89q0 -55 38 -91t101 -36t100 36
t37 91q0 53 -37 89t-100 36zM631 1163l-230 -684h459z" />
    <glyph glyph-name="aringacute" unicode="&#x1fb;" horiz-adv-x="997" 
d="M850 2025l-305 -376h-111l217 376h199zM492 1540q99 0 161 -59.5t62 -145.5t-62 -145.5t-161 -59.5q-100 0 -163 59.5t-63 145.5t63 145.5t163 59.5zM492 1462q-62 0 -100 -36.5t-38 -90.5t38 -90.5t100 -36.5q60 0 97.5 36.5t37.5 90.5t-37.5 90.5t-97.5 36.5zM688 176
q-115 -194 -330 -194q-123 0 -191.5 67t-68.5 187q0 87 36.5 148t119.5 101q133 67 430 95v79q0 197 -199 197q-95 0 -148.5 -47t-53.5 -129v-21h-148v23q0 137 92 223t265 86q174 0 261 -87t87 -247v-419q0 -83 22.5 -108.5t89.5 -27.5v-108h-55q-98 0 -148.5 39t-60.5 143
zM256 248q0 -69 37.5 -107.5t114.5 -38.5q106 0 191 80t85 178v119q-240 -24 -324 -67q-57 -30 -80.5 -69t-23.5 -95z" />
    <glyph glyph-name="AEacute" unicode="&#x1fc;" horiz-adv-x="1826" 
d="M1317 1898l-295 -331h-115l211 331h199zM-16 0l796 1364h951v-147h-682v-455h538v-141h-538v-474h684v-147h-856v344h-510l-199 -344h-184zM872 1221l-428 -744h433v744h-5z" />
    <glyph glyph-name="aeacute" unicode="&#x1fd;" horiz-adv-x="1564" 
d="M1102 1532l-305 -377h-111l217 377h199zM1468 293q0 -141 -99.5 -230.5t-272.5 -89.5q-142 0 -232.5 58.5t-130.5 163.5q-113 -220 -360 -220q-132 0 -203.5 67.5t-71.5 188.5q0 87 36.5 149t119.5 103q137 67 430 95v86q0 96 -48 144t-149 48q-96 0 -150 -47t-54 -131
v-21h-148v23q0 138 90.5 223.5t261.5 85.5q226 0 295 -160q103 162 305 162q188 0 285.5 -117.5t97.5 -310.5v-119h-628v-61q0 -127 62.5 -202t193.5 -75q104 0 163.5 54t59.5 137v6h147v-10zM842 571v-20h473v27q0 130 -57.5 205t-174.5 75q-115 0 -178 -77t-63 -210z
M256 244q0 -68 38.5 -107t115.5 -39q114 0 194 78.5t80 190.5v110q-238 -24 -324 -69q-57 -28 -80.5 -67.5t-23.5 -96.5z" />
    <glyph glyph-name="Oslashacute" unicode="&#x1fe;" horiz-adv-x="1327" 
d="M983 1907l-297 -330h-113l211 330h199zM664 -31q-190 0 -330 97l-113 -164l-90 59l121 184q-121 146 -121 383v308q0 260 143.5 409.5t391.5 149.5q190 0 327 -97l113 164l90 -59l-119 -182q121 -149 121 -385v-308q0 -261 -143 -410t-391 -149zM303 520q0 -142 51 -231
l549 878q-94 82 -237 82q-170 0 -266.5 -108t-96.5 -297v-324zM1026 844q0 141 -51 233l-549 -880q91 -82 238 -82q169 0 265.5 108t96.5 297v324z" />
    <glyph glyph-name="oslashacute" unicode="&#x1ff;" horiz-adv-x="1009" 
d="M821 1538l-305 -379h-108l215 379h198zM504 -29q-146 0 -248 76l-96 -131l-78 53l104 146q-90 114 -90 282v166q0 194 110.5 311t299.5 117q150 0 248 -73l96 131l78 -54l-103 -145q88 -111 88 -285v-168q0 -191 -112 -308.5t-297 -117.5zM252 381q0 -72 31 -143l389 565
q-69 59 -166 59q-118 0 -186 -77.5t-68 -202.5v-201zM758 582q0 81 -31 145l-387 -565q70 -60 166 -60q114 0 183 77.5t69 201.5v201z" />
    <glyph glyph-name="Scommaaccent" unicode="&#x218;" horiz-adv-x="1177" 
d="M598 1391q234 0 347.5 -109.5t113.5 -284.5v-53h-170v47q0 115 -70 185.5t-225 70.5q-130 0 -205.5 -61.5t-75.5 -161.5q0 -43 12.5 -75.5t34.5 -57t65.5 -47.5t91.5 -41.5t128 -44.5q118 -37 193 -71t131 -81t80 -107.5t24 -144.5q0 -179 -127.5 -280t-339.5 -101
q-242 0 -364.5 108t-122.5 294v65h172v-53q0 -129 79 -199.5t240 -70.5q134 0 212.5 59t78.5 168t-69 161.5t-273 117.5q-112 33 -184.5 65t-128 77.5t-80.5 106.5t-25 144q0 165 123.5 270t333.5 105zM506 -215h180v-174q0 -217 -240 -273v54q77 24 118 74t40 124h-98v195z
" />
    <glyph glyph-name="scommaaccent" unicode="&#x219;" horiz-adv-x="921" 
d="M467 -27q-187 0 -282 86.5t-95 229.5v37h143v-31q0 -91 60.5 -144t175.5 -53q97 0 151 41t54 113q0 67 -52 103t-190 71q-166 39 -243.5 103t-77.5 184q0 117 95 197.5t255 80.5q169 0 259.5 -81.5t90.5 -215.5v-32h-141v22q0 86 -54 134t-157 48q-90 0 -144.5 -41
t-54.5 -106q0 -66 55 -102t189 -70q168 -39 245.5 -102t77.5 -185q0 -129 -95.5 -208t-264.5 -79zM367 -215h180v-174q0 -217 -240 -273v54q77 24 118 74t40 124h-98v195z" />
    <glyph glyph-name="schwa" unicode="&#x259;" horiz-adv-x="976" 
d="M879 416q0 -197 -107 -320t-291 -123q-187 0 -287 118t-100 310v121h629v60q0 127 -62 201.5t-192 74.5q-107 0 -166 -53.5t-59 -136.5v-6h-148v10q0 140 101 229.5t272 89.5q203 0 306.5 -115t103.5 -311v-149zM481 106q116 0 179 78t63 211v23h-473v-31
q0 -130 57 -205.5t174 -75.5z" />
    <glyph glyph-name="circumflex" unicode="&#x2c6;" horiz-adv-x="1024" 
d="M438 1522h148q33 -123 88 -198.5t143 -111.5v-77q-102 20 -183 89t-122 165q-41 -96 -122 -165t-183 -89v77q88 36 143 111.5t88 198.5z" />
    <glyph glyph-name="caron" unicode="&#x2c7;" horiz-adv-x="1024" 
d="M207 1544q103 -21 184 -90t121 -166q40 97 121 166t184 90v-80q-88 -35 -143 -110t-88 -199h-148q-33 124 -88 199t-143 110v80z" />
    <glyph glyph-name="breve" unicode="&#x2d8;" horiz-adv-x="1024" 
d="M512 1268q97 0 141.5 36t44.5 111q0 30 -10 105h78q22 -83 22 -146q0 -116 -75.5 -175.5t-200.5 -59.5t-200.5 59.5t-75.5 175.5q0 64 22 146h78q-10 -75 -10 -105q0 -75 44.5 -111t141.5 -36z" />
    <glyph glyph-name="dotaccent" unicode="&#x2d9;" horiz-adv-x="1024" 
d="M422 1350h180v-183h-180v183z" />
    <glyph glyph-name="ring" unicode="&#x2da;" horiz-adv-x="1024" 
d="M512 1534q99 0 161 -59.5t62 -145.5t-62 -145.5t-161 -59.5t-161 59.5t-62 145.5t62 145.5t161 59.5zM512 1456q-62 0 -99.5 -36.5t-37.5 -90.5t37.5 -90.5t99.5 -36.5t99.5 36.5t37.5 90.5t-37.5 90.5t-99.5 36.5z" />
    <glyph glyph-name="ogonek" unicode="&#x2db;" horiz-adv-x="1021" 
d="M696 -399l33 -72q-72 -53 -182 -53q-100 0 -158.5 49.5t-58.5 132.5q0 56 28 117q21 42 65 93.5t132 139.5l84 -8q-109 -127 -150 -201q-28 -57 -28 -114q0 -58 31.5 -87.5t87.5 -29.5q57 0 116 33z" />
    <glyph glyph-name="tilde" unicode="&#x2dc;" horiz-adv-x="1024" 
d="M358 1473q33 0 61.5 -10t54.5 -33t39 -37.5t38 -46.5q50 -60 70 -75q24 -16 47 -16q32 0 53.5 24t21.5 75q0 41 -14 106h82q20 -70 20 -133q0 -91 -46 -141.5t-119 -50.5q-40 0 -76.5 19t-55.5 39t-49 56q-4 5 -20 24.5t-21.5 25.5t-19 19.5t-22.5 18.5t-21.5 10t-24.5 5
q-32 0 -53.5 -24t-21.5 -75q0 -40 14 -108h-80q-22 68 -22 133q0 92 46 143.5t119 51.5z" />
    <glyph glyph-name="hungarumlaut" unicode="&#x2dd;" horiz-adv-x="1024" 
d="M539 1530l-281 -377h-98l205 377h174zM862 1530l-280 -377h-99l205 377h174z" />
    <glyph glyph-name="commaaccent" unicode="&#x326;" horiz-adv-x="1024" 
d="M453 -209h180v-174q0 -216 -240 -272v53q76 24 117 74.5t41 124.5h-98v194z" />
    <glyph glyph-name="baht" unicode="&#xe3f;" horiz-adv-x="1245" 
d="M719 0h-23v-225h-135v225h-356v1364h358v225h135v-225h19q196 0 294.5 -87t98.5 -239v-53q0 -120 -59.5 -189.5t-176.5 -101.5v-4q126 -32 190 -103.5t64 -195.5v-65q0 -153 -102.5 -239.5t-306.5 -86.5zM371 1229v-479h299q133 0 203.5 57.5t70.5 165.5v51
q0 99 -66.5 152t-195.5 53h-311zM371 627v-492h327q131 0 197 54t66 153v59q0 108 -72.5 167t-214.5 59h-303z" />
    <glyph glyph-name="Wgrave" unicode="&#x1e80;" horiz-adv-x="1830" 
d="M565 1905h199l211 -332h-113zM88 1364h180l262 -1122h5l305 1128h157l308 -1128h4l260 1122h172l-352 -1378h-170l-304 1097h-4l-307 -1097h-168z" />
    <glyph glyph-name="wgrave" unicode="&#x1e81;" horiz-adv-x="1423" 
d="M354 1532h199l215 -379h-109zM55 965h164l205 -772h4l209 772h151l216 -772h4l202 772h158l-285 -971h-149l-221 756h-4l-220 -756h-149z" />
    <glyph glyph-name="Wacute" unicode="&#x1e82;" horiz-adv-x="1830" 
d="M1272 1905l-295 -332h-115l213 332h197zM88 1364h180l262 -1122h5l305 1128h157l308 -1128h4l260 1122h172l-352 -1378h-170l-304 1097h-4l-307 -1097h-168z" />
    <glyph glyph-name="wacute" unicode="&#x1e83;" horiz-adv-x="1423" 
d="M1073 1532l-305 -379h-109l215 379h199zM55 965h164l205 -772h4l209 772h151l216 -772h4l202 772h158l-285 -971h-149l-221 756h-4l-220 -756h-149z" />
    <glyph glyph-name="Wdieresis" unicode="&#x1e84;" horiz-adv-x="1830" 
d="M659 1776h160v-189h-160v189zM1024 1776h160v-189h-160v189zM88 1364h180l262 -1122h5l305 1128h157l308 -1128h4l260 1122h172l-352 -1378h-170l-304 1097h-4l-307 -1097h-168z" />
    <glyph glyph-name="wdieresis" unicode="&#x1e85;" horiz-adv-x="1423" 
d="M473 1356h160v-187h-160v187zM807 1356h160v-187h-160v187zM55 965h164l205 -772h4l209 772h151l216 -772h4l202 772h158l-285 -971h-149l-221 756h-4l-220 -756h-149z" />
    <glyph glyph-name="Ygrave" unicode="&#x1ef2;" horiz-adv-x="1179" 
d="M289 1888h198l213 -332h-114zM51 1364h191l354 -674l348 674h186l-454 -836v-528h-172v530z" />
    <glyph glyph-name="ygrave" unicode="&#x1ef3;" horiz-adv-x="944" 
d="M186 1520h199l215 -377h-108zM53 965h168l262 -787h2l252 787h164l-332 -963q-34 -90 -62.5 -145t-69.5 -98.5t-96.5 -62t-133.5 -18.5h-72v132h41q87 0 133.5 32.5t71.5 106.5l14 45z" />
    <glyph glyph-name="enspace" unicode="&#x2002;" horiz-adv-x="1024" 
 />
    <glyph glyph-name="emspace" unicode="&#x2003;" horiz-adv-x="2048" 
 />
    <glyph glyph-name="threeperemspace" unicode="&#x2004;" horiz-adv-x="681" 
 />
    <glyph glyph-name="fourperemspace" unicode="&#x2005;" horiz-adv-x="512" 
 />
    <glyph glyph-name="thinspace" unicode="&#x2009;" horiz-adv-x="272" 
 />
    <glyph glyph-name="hairspace" unicode="&#x200a;" horiz-adv-x="153" 
 />
    <glyph glyph-name="endash" unicode="&#x2013;" horiz-adv-x="1175" 
d="M150 688h876v-133h-876v133z" />
    <glyph glyph-name="emdash" unicode="&#x2014;" horiz-adv-x="1734" 
d="M156 688h1423v-133h-1423v133z" />
    <glyph glyph-name="quoteleft" unicode="&#x2018;" horiz-adv-x="436" 
d="M307 836h-190v168q0 166 61.5 248t196.5 120v-57q-91 -44 -122.5 -98t-31.5 -148h86v-233z" />
    <glyph glyph-name="quoteright" unicode="&#x2019;" horiz-adv-x="436" 
d="M129 1364h190v-168q0 -168 -61 -250t-195 -119v58q90 42 121 95.5t33 147.5h-88v236z" />
    <glyph glyph-name="quotesinglbase" unicode="&#x201a;" horiz-adv-x="423" 
d="M119 236h190v-168q0 -167 -61 -250t-195 -121v57q90 44 121 97.5t33 148.5h-88v236z" />
    <glyph glyph-name="quotedblleft" unicode="&#x201c;" horiz-adv-x="794" 
d="M664 836h-189v168q0 166 61 248t195 120v-57q-90 -44 -121.5 -97.5t-31.5 -148.5h86v-233zM307 836h-190v168q0 166 61.5 248t196.5 120v-57q-91 -44 -122.5 -98t-31.5 -148h86v-233z" />
    <glyph glyph-name="quotedblright" unicode="&#x201d;" horiz-adv-x="794" 
d="M131 1364h188v-168q0 -168 -61 -250t-195 -119v58q90 42 121 95.5t33 147.5h-86v236zM487 1364h189v-168q0 -168 -61 -250t-195 -119v58q90 43 121.5 96t31.5 147h-86v236z" />
    <glyph glyph-name="quotedblbase" unicode="&#x201e;" horiz-adv-x="782" 
d="M121 236h188v-168q0 -168 -61 -250t-195 -119v57q90 42 121 96t33 148h-86v236zM477 236h189v-168q0 -168 -61 -250t-195 -119v57q90 43 121.5 96.5t31.5 147.5h-86v236z" />
    <glyph glyph-name="dagger" unicode="&#x2020;" horiz-adv-x="940" 
d="M401 707q0 135 39 274q-105 -31 -297 -31q-30 0 -30 27v70q0 26 30 26q196 0 295 -31q-35 154 -35 291q0 12 7.5 21.5t21.5 9.5h74q14 0 21.5 -9.5t7.5 -21.5q0 -146 -33 -291q97 31 293 31q30 0 30 -26v-70q0 -27 -30 -27q-193 0 -295 31q37 -132 37 -274
q0 -229 -29 -471q-3 -31 -27 -31h-24q-24 0 -27 31q-29 283 -29 471z" />
    <glyph glyph-name="daggerdbl" unicode="&#x2021;" horiz-adv-x="940" 
d="M412 784q0 76 28 197q-105 -31 -297 -31q-30 0 -30 27v70q0 26 30 26q196 0 295 -31q-35 154 -35 291q0 12 7.5 21.5t21.5 9.5h74q14 0 21.5 -9.5t7.5 -21.5q0 -146 -33 -291q97 31 293 31q30 0 30 -26v-70q0 -27 -30 -27q-193 0 -295 31q28 -121 28 -197q0 -75 -28 -196
q99 30 295 30q30 0 30 -26v-70q0 -26 -30 -26q-199 0 -293 30q33 -145 33 -290q0 -12 -7.5 -21.5t-21.5 -9.5h-74q-14 0 -21.5 9.5t-7.5 21.5q0 136 35 290q-96 -30 -295 -30q-30 0 -30 26v70q0 26 30 26q195 0 297 -30q-28 121 -28 196z" />
    <glyph glyph-name="bullet" unicode="&#x2022;" horiz-adv-x="702" 
d="M596 682q0 -111 -68.5 -179.5t-175.5 -68.5q-109 0 -178.5 68.5t-69.5 179.5t69.5 179.5t178.5 68.5q107 0 175.5 -68.5t68.5 -179.5z" />
    <glyph glyph-name="ellipsis" unicode="&#x2026;" horiz-adv-x="1282" 
d="M119 236h186v-236h-186v236zM977 236h186v-236h-186v236zM549 236h186v-236h-186v236z" />
    <glyph glyph-name="guilsinglleft" unicode="&#x2039;" horiz-adv-x="737" 
d="M518 958h98q-35 -150 -112.5 -264t-208.5 -213q131 -97 208.5 -211.5t112.5 -263.5h-98q-99 275 -409 422v109q310 144 409 421z" />
    <glyph glyph-name="guilsinglright" unicode="&#x203a;" horiz-adv-x="737" 
d="M219 6h-98q35 148 113 263t208 214q-131 98 -208.5 212t-112.5 263h98q99 -276 410 -421v-109q-312 -148 -410 -422z" />
    <glyph glyph-name="fraction" unicode="&#x2044;" horiz-adv-x="284" 
d="M641 1364l-885 -1364h-112l882 1364h115z" />
    <glyph glyph-name="zero.sup" unicode="&#x2070;" 
d="M377 1440q149 0 232 -91.5t83 -254.5v-148q0 -164 -83 -256t-232 -92t-233.5 92t-84.5 256v148q0 163 84.5 254.5t233.5 91.5zM377 1327q-92 0 -139.5 -60t-47.5 -173v-150q0 -113 47.5 -173t139.5 -60q90 0 137 60t47 173v150q0 113 -47 173t-137 60z" />
    <glyph glyph-name="four.sup" unicode="&#x2074;" 
d="M426 1419h164v-518h117v-102h-117v-181h-123v181h-438v100zM467 901v416l-313 -416h313z" />
    <glyph glyph-name="five.sup" unicode="&#x2075;" 
d="M129 1419h530q-6 -68 -24.5 -90t-75.5 -22h-319l-21 -256q96 77 215 77q117 0 177.5 -60.5t60.5 -164.5v-41q0 -115 -76 -188.5t-217 -73.5q-149 0 -221 63.5t-72 165.5v19h123v-10q0 -61 43.5 -96t124.5 -35q75 0 120.5 41.5t45.5 113.5v31q0 64 -37 102.5t-113 38.5
q-105 0 -190 -82l-105 21z" />
    <glyph glyph-name="six.sup" unicode="&#x2076;" 
d="M379 600q-147 0 -225 77t-78 230v197q0 156 80 244t235 88q62 0 111.5 -13.5t80 -35.5t51 -51.5t28.5 -58.5t8 -60v-21h-125v10q0 51 -38.5 86t-113.5 35q-192 0 -192 -211v-94q75 90 223 90q123 0 190.5 -63.5t67.5 -161.5v-29q0 -113 -79 -185.5t-224 -72.5zM379 709
q79 0 126.5 39.5t47.5 107.5v16q0 66 -44 105t-126 39q-79 0 -129.5 -36t-50.5 -99v-21q0 -73 49 -112t127 -39z" />
    <glyph glyph-name="seven.sup" unicode="&#x2077;" 
d="M74 1419h618v-78q-151 -169 -226 -343.5t-93 -379.5h-144q14 185 92 350t234 332h-481v119z" />
    <glyph glyph-name="eight.sup" unicode="&#x2078;" 
d="M377 1440q142 0 220.5 -65t78.5 -167v-10q0 -58 -35 -104t-102 -72q72 -26 109.5 -74.5t37.5 -111.5v-11q0 -104 -81.5 -165.5t-227.5 -61.5q-147 0 -228 61.5t-81 165.5v11q0 63 37 111.5t108 74.5q-65 26 -100 72t-35 104v10q0 102 78 167t221 65zM377 1333
q-78 0 -125 -34t-47 -95v-18q0 -53 48.5 -86t123.5 -33q74 0 122 33t48 86v18q0 60 -47 94.5t-123 34.5zM377 705q82 0 131 35t49 96v16q0 57 -50 91t-130 34t-130 -34t-50 -91v-16q0 -61 49 -96t131 -35z" />
    <glyph glyph-name="nine.sup" unicode="&#x2079;" 
d="M377 1438q146 0 223.5 -78.5t77.5 -231.5v-196q0 -155 -80.5 -242.5t-239.5 -87.5q-76 0 -132.5 19.5t-87 52.5t-44.5 68.5t-14 74.5v19h123v-7q0 -52 37 -86t118 -34q195 0 195 213v86q-78 -88 -223 -88q-123 0 -189.5 62t-66.5 157v37q0 114 79 188t224 74zM377 1329
q-78 0 -126 -41t-48 -110v-27q0 -61 43.5 -99t124.5 -38q75 0 127.5 36.5t52.5 98.5v22q0 75 -48.5 116.5t-125.5 41.5z" />
    <glyph glyph-name="zero.inf" unicode="&#x2080;" 
d="M377 504q149 0 232 -91.5t83 -254.5v-148q0 -166 -83 -257t-232 -91q-150 0 -234 91.5t-84 256.5v148q0 163 84.5 254.5t233.5 91.5zM377 391q-92 0 -139.5 -60t-47.5 -173v-150q0 -113 47.5 -173t139.5 -60q90 0 137 60t47 173v150q0 113 -47 173t-137 60z" />
    <glyph glyph-name="one.inf" unicode="&#x2081;" horiz-adv-x="587" 
d="M305 494h94v-811h-135v596h-190v98h73q76 0 112 26t46 91z" />
    <glyph glyph-name="two.inf" unicode="&#x2082;" 
d="M662 -317h-582v45q0 132 54 205t216 157q120 61 156.5 94t36.5 88q0 60 -44 90.5t-114 30.5q-80 0 -127 -36.5t-47 -104.5v-39h-123v45q0 109 79 175.5t222 66.5q140 0 211.5 -62t71.5 -162q0 -47 -13.5 -82t-49.5 -68t-78.5 -59.5t-122.5 -68.5q-113 -57 -150.5 -96.5
t-38.5 -108.5h443v-110z" />
    <glyph glyph-name="three.inf" unicode="&#x2083;" 
d="M379 500q135 0 211 -61t76 -154v-17q0 -64 -43.5 -112.5t-122.5 -65.5q83 -19 126.5 -66.5t43.5 -119.5v-15q0 -96 -78.5 -160.5t-214.5 -64.5q-152 0 -226.5 65t-74.5 165v38h121v-32q0 -58 45 -93.5t131 -35.5q74 0 121 34t47 91v16q0 125 -189 125h-82v98h82
q95 0 141 34t46 89v16q0 56 -46 88.5t-120 32.5q-83 0 -128.5 -36.5t-45.5 -92.5v-33h-121v39q0 96 76 162t225 66z" />
    <glyph glyph-name="four.inf" unicode="&#x2084;" 
d="M426 483h164v-520h117v-102h-117v-178h-123v178h-438v100zM467 -37v418l-313 -418h313z" />
    <glyph glyph-name="five.inf" unicode="&#x2085;" 
d="M129 483h530q-6 -68 -24.5 -90t-75.5 -22h-319l-21 -256q97 78 215 78q116 0 177 -61.5t61 -164.5v-41q0 -115 -76 -188.5t-217 -73.5q-149 0 -221 64t-72 166v18h123v-10q0 -61 43.5 -96t124.5 -35q75 0 120.5 41.5t45.5 113.5v31q0 64 -37 101.5t-113 37.5
q-107 0 -190 -80l-105 21z" />
    <glyph glyph-name="six.inf" unicode="&#x2086;" 
d="M379 -336q-147 0 -225 77t-78 230v197q0 156 80 244t235 88q62 0 111.5 -13.5t80 -35.5t51 -51.5t28.5 -58.5t8 -60v-21h-125v10q0 51 -38.5 86t-113.5 35q-192 0 -192 -211v-94q75 90 223 90q123 0 190.5 -63.5t67.5 -161.5v-29q0 -113 -79 -185.5t-224 -72.5zM379 -227
q79 0 126.5 39.5t47.5 107.5v17q0 66 -44 104.5t-126 38.5q-79 0 -129.5 -36t-50.5 -99v-21q0 -73 49 -112t127 -39z" />
    <glyph glyph-name="seven.inf" unicode="&#x2087;" 
d="M74 483h618v-77q-151 -169 -226 -343.5t-93 -379.5h-144q14 185 92 350t234 332h-481v118z" />
    <glyph glyph-name="eight.inf" unicode="&#x2088;" 
d="M377 504q142 0 220.5 -65t78.5 -167v-10q0 -58 -35 -104t-102 -72q72 -26 109.5 -74.5t37.5 -111.5v-11q0 -104 -81.5 -165.5t-227.5 -61.5q-147 0 -228 61.5t-81 165.5v11q0 63 37 111.5t108 74.5q-65 26 -100 72t-35 104v10q0 102 78 167t221 65zM377 397
q-78 0 -125 -34t-47 -95v-18q0 -53 49 -87t123 -34t122 33.5t48 87.5v18q0 60 -47 94.5t-123 34.5zM377 -231q82 0 131 35t49 96v16q0 57 -50 91t-130 34t-130 -34t-50 -91v-16q0 -62 48.5 -96.5t131.5 -34.5z" />
    <glyph glyph-name="nine.inf" unicode="&#x2089;" 
d="M377 502q146 0 223.5 -78.5t77.5 -230.5v-197q0 -155 -80.5 -242.5t-239.5 -87.5q-76 0 -132.5 19.5t-87 52.5t-44.5 68.5t-14 74.5v19h123v-6q0 -53 37.5 -87t117.5 -34q195 0 195 213v86q-78 -88 -223 -88q-123 0 -189.5 62t-66.5 157v37q0 114 79 188t224 74zM377 393
q-78 0 -126 -41t-48 -110v-27q0 -61 43.5 -99t124.5 -38q75 0 127.5 36.5t52.5 98.5v23q0 75 -48.5 116t-125.5 41z" />
    <glyph glyph-name="colonmonetary" unicode="&#x20a1;" horiz-adv-x="1255" 
d="M655 -31q-88 0 -168 25l-41 -227h-106l49 268q-119 68 -184.5 193.5t-65.5 289.5v328q0 234 132 385.5t354 161.5l34 198h107l-37 -200q97 -9 174 -48l45 248h105l-56 -309q131 -113 131 -313v-82h-161v71q0 127 -80.5 210t-227.5 83q-162 0 -256 -110t-94 -283v-352
q0 -171 94.5 -282t255.5 -111q146 0 227 83.5t81 209.5v71h161v-82q0 -159 -92 -271.5t-264 -143.5l-39 -213h-104l37 202h-11z" />
    <glyph glyph-name="naira" unicode="&#x20a6;" horiz-adv-x="1570" 
d="M467 1110l2 -1110h-152v475h-245v105h245v194h-245v105h245v485h183l600 -1108h4l-2 1108h151v-485h246v-105h-246v-194h246v-105h-246v-475h-182l-600 1110h-4z" />
    <glyph glyph-name="rupee" unicode="&#x20a8;" horiz-adv-x="2107" 
d="M371 563v-563h-166v1364h487q209 0 313.5 -90.5t104.5 -263.5v-88q0 -130 -76.5 -222t-214.5 -122l330 -578h-182l-316 563h-280zM371 698h288q135 0 209 63t74 169v69q0 116 -65 171t-207 55h-299v-527zM1632 -27q-186 0 -280.5 86.5t-94.5 229.5v37h142v-31
q0 -91 60 -144t175 -53q98 0 152.5 41t54.5 113q0 68 -52 103.5t-192 70.5q-166 39 -243.5 103t-77.5 184q0 117 95 197.5t257 80.5q168 0 259 -82t91 -215v-32h-143v22q0 86 -54 134t-157 48q-89 0 -143 -41t-54 -106q0 -66 54.5 -102t189.5 -70q168 -39 245 -102t77 -185
q0 -129 -96 -208t-265 -79z" />
    <glyph glyph-name="won" unicode="&#x20a9;" horiz-adv-x="1837" 
d="M915 1141l-245 -1147h-187l-96 469h-315v106h293l-39 189h-254v106h233l-104 500h161l224 -1161h4l244 1165h178l241 -1165h4l230 1161h149l-104 -500h235v-106h-258l-41 -189h299v-106h-321l-98 -469h-187l-241 1147h-5z" />
    <glyph glyph-name="sheqel" unicode="&#x20aa;" horiz-adv-x="1429" 
d="M147 1038h459q183 0 266.5 -74.5t83.5 -232.5v-407h-116v374q0 102 -49 151.5t-168 49.5h-330v-899h-146v1038zM1298 1038v-727q0 -158 -83.5 -234.5t-258.5 -76.5h-452v715h114v-576h318q118 0 167.5 48.5t49.5 152.5v698h145z" />
    <glyph glyph-name="Euro" unicode="&#x20ac;" horiz-adv-x="1325" 
d="M1198 383q0 -175 -126 -294.5t-349 -119.5q-233 0 -370 136.5t-144 383.5h-146v101h146v184h-146v100h146q7 247 145.5 384t370.5 137q114 0 205.5 -33t149 -90.5t88 -131.5t30.5 -159v-25h-160v15q0 118 -80.5 199t-230.5 81q-165 0 -258.5 -99t-93.5 -278h510v-100
h-510v-184h510v-101h-510q3 -180 96 -278t256 -98q149 0 230 81t81 199v10h160v-20z" />
    <glyph glyph-name="peso" unicode="&#x20b1;" horiz-adv-x="1429" 
d="M457 510v-510h-168v881h-242v114h242v369h461q213 0 319.5 -97.5t106.5 -271.5h235v-114h-235q-2 -177 -109.5 -274t-321.5 -97h-288zM457 1229v-234h549q-6 234 -275 234h-274zM731 645q144 0 210.5 61.5t64.5 174.5h-549v-236h274z" />
    <glyph glyph-name="rupeeindia" unicode="&#x20b9;" horiz-adv-x="1236" 
d="M455 537h-109l680 -537h-235l-658 528v123h287q169 0 253.5 59t98.5 179h-641v112h641q-12 122 -87.5 180t-235.5 58h-318v125h1040v-125h-368q120 -85 135 -233h233v-123h-233q-14 -168 -136 -257t-347 -89z" />
    <glyph glyph-name="ruble" unicode="&#x20bd;" horiz-adv-x="1302" 
d="M1067 266h-582v-266h-168v266h-245v107h245v200h-245v107h245v684h459q209 0 313.5 -92t104.5 -262v-86q0 -351 -422 -351h-287v-200h582v-107zM485 1229v-549h273q144 0 207 59t63 181v77q0 114 -64.5 173t-205.5 59h-273z" />
    <glyph glyph-name="published" unicode="&#x2117;" horiz-adv-x="1757" 
d="M133 682q0 158 56 295.5t154.5 235.5t237 154t298.5 56t299 -56t236.5 -154t153.5 -235.5t56 -295.5t-56 -295.5t-153.5 -235.5t-236.5 -154t-299 -56t-298.5 56t-237 154t-154.5 235.5t-56 295.5zM1528 682q0 187 -81 336.5t-230 235t-338 85.5t-338 -85.5t-230.5 -235
t-81.5 -336.5t81.5 -336.5t230.5 -235t338 -85.5t338 85.5t230 235t81 336.5zM643 1036h291q132 0 191 -55.5t59 -175.5q0 -122 -61 -178t-195 -56h-164v-243h-121v708zM764 934v-260h145q90 0 122 29t32 100t-31 101t-119 30h-149z" />
    <glyph glyph-name="servicemark" unicode="&#x2120;" horiz-adv-x="1462" 
d="M330 1380q234 0 237 -204h-104q-2 57 -32.5 85.5t-102.5 28.5q-60 0 -94.5 -23.5t-34.5 -58.5q0 -36 30.5 -53.5t124.5 -44.5q122 -34 170.5 -71.5t48.5 -112.5q0 -85 -64.5 -133t-174.5 -48q-252 0 -252 216h106q0 -64 36.5 -94.5t111.5 -30.5q61 0 95 22.5t34 61.5
q0 40 -32.5 59.5t-123.5 42.5q-119 30 -168 68.5t-49 111.5q0 78 64 128t174 50zM713 1364h170l153 -451h4l154 451h164v-604h-103v485h-14l-166 -485h-88l-166 485h-14v-485h-94v604z" />
    <glyph glyph-name="trademark" unicode="&#x2122;" horiz-adv-x="1439" 
d="M59 1364h516v-98h-204v-504h-105v504h-207v98zM688 1364h170l156 -451h2l153 451h166v-604h-102v485h-14l-168 -485h-86l-166 485h-15v-485h-96v604z" />
    <glyph glyph-name="onethird" unicode="&#x2153;" horiz-adv-x="1638" 
d="M305 1376h94v-811h-135v596h-190v99h73q76 0 112 25.5t46 90.5zM1223 1364l-883 -1364h-115l883 1364h115zM1264 819q134 0 210 -62t76 -155v-16q0 -63 -44 -112t-122 -66q82 -17 126 -65.5t44 -119.5v-16q0 -96 -78 -159.5t-214 -63.5q-152 0 -226.5 63.5t-74.5 163.5
v39h120v-31q0 -59 45 -95t131 -36q74 0 120 34t46 93v16q0 123 -186 123h-82v99h82q95 0 140.5 33.5t45.5 88.5v17q0 57 -46 89t-120 32q-83 0 -128.5 -36.5t-45.5 -92.5v-33h-120v41q0 95 76.5 161t224.5 66z" />
    <glyph glyph-name="twothirds" unicode="&#x2154;" horiz-adv-x="1855" 
d="M662 565h-582v45q0 133 54 206t216 157q120 61 156.5 94t36.5 88q0 60 -44 90.5t-114 30.5q-80 0 -127 -36.5t-47 -104.5v-39h-123v45q0 109 79 175t222 66q140 0 211.5 -61.5t71.5 -161.5q0 -47 -13.5 -82t-49.5 -68t-78.5 -59.5t-122.5 -68.5q-113 -57 -150.5 -96
t-38.5 -107h443v-113zM1440 1364l-883 -1364h-115l883 1364h115zM1479 819q136 0 212 -62t76 -155v-16q0 -63 -43.5 -112t-121.5 -66q82 -17 126 -65.5t44 -119.5v-16q0 -96 -78.5 -159.5t-214.5 -63.5q-152 0 -226.5 63.5t-74.5 163.5v39h120v-31q0 -59 45 -95t130 -36
q75 0 121 34t46 93v16q0 123 -186 123h-82v99h82q94 0 139 33.5t45 88.5v17q0 57 -45 89t-120 32q-82 0 -128.5 -36.5t-46.5 -92.5v-33h-120v41q0 95 76.5 161t224.5 66z" />
    <glyph glyph-name="onefifth" unicode="&#x2155;" horiz-adv-x="1652" 
d="M305 1376h94v-811h-135v596h-190v99h73q76 0 112 25.5t46 90.5zM1223 1364l-883 -1364h-115l883 1364h115zM1030 801h529q-6 -68 -25 -90.5t-76 -22.5h-319l-21 -254q103 76 215 76q117 0 178.5 -60.5t61.5 -164.5v-41q0 -115 -77 -187.5t-218 -72.5q-150 0 -220.5 63
t-70.5 166v18h123v-12q0 -61 43 -96t123 -35q76 0 121 41.5t45 114.5v30q0 65 -36.5 103.5t-111.5 38.5q-107 0 -192 -82l-105 22z" />
    <glyph glyph-name="twofifths" unicode="&#x2156;" horiz-adv-x="1869" 
d="M662 565h-582v45q0 133 54 206t216 157q120 61 156.5 94t36.5 88q0 60 -44 90.5t-114 30.5q-80 0 -127 -36.5t-47 -104.5v-39h-123v45q0 109 79 175t222 66q140 0 211.5 -61.5t71.5 -161.5q0 -47 -13.5 -82t-49.5 -68t-78.5 -59.5t-122.5 -68.5q-113 -57 -150.5 -96
t-38.5 -107h443v-113zM1440 1364l-883 -1364h-115l883 1364h115zM1245 801h531q-6 -68 -25 -90.5t-76 -22.5h-319l-21 -254q99 76 215 76q117 0 177.5 -60.5t60.5 -164.5v-41q0 -115 -76 -187.5t-217 -72.5q-150 0 -221.5 63t-71.5 166v18h125v-12q0 -61 43 -96t123 -35
q75 0 120.5 42t45.5 114v30q0 65 -37 103.5t-113 38.5q-105 0 -190 -82l-105 22z" />
    <glyph glyph-name="threefifths" unicode="&#x2157;" horiz-adv-x="1835" 
d="M379 1382q135 0 211 -61t76 -154v-16q0 -64 -43.5 -112.5t-122.5 -65.5q83 -19 126.5 -67t43.5 -120v-14q0 -96 -78.5 -160.5t-214.5 -64.5q-152 0 -226.5 64.5t-74.5 164.5v39h121v-33q0 -58 45 -93.5t131 -35.5q74 0 121 34t47 91v17q0 125 -189 125h-82v98h82
q95 0 141 34t46 89v16q0 56 -46 88.5t-120 32.5q-83 0 -128.5 -36.5t-45.5 -92.5v-33h-121v39q0 96 76 161.5t225 65.5zM1407 1364l-885 -1364h-112l882 1364h115zM1212 801h529q-5 -67 -24.5 -90t-76.5 -23h-319l-18 -254q99 76 213 76q118 0 178.5 -60t60.5 -165v-41
q0 -115 -77 -187.5t-218 -72.5q-149 0 -220 63t-71 166v18h123v-12q0 -61 43 -96t123 -35q76 0 122 41.5t46 114.5v30q0 65 -37 103.5t-112 38.5q-109 0 -191 -82l-104 22z" />
    <glyph glyph-name="fourfifths" unicode="&#x2158;" horiz-adv-x="1861" 
d="M426 1366h164v-518h117v-103h-117v-180h-123v180h-438v101zM1432 1364l-883 -1364h-115l883 1364h115zM467 848v416l-313 -416h313zM1237 801h528q-5 -68 -23 -90.5t-75 -22.5h-321l-19 -254q99 76 215 76q117 0 177.5 -60.5t60.5 -164.5v-41q0 -115 -76.5 -187.5
t-216.5 -72.5q-150 0 -221.5 63t-71.5 166v18h123v-12q0 -61 43.5 -96t124.5 -35q75 0 120.5 42t45.5 114v30q0 65 -37 103.5t-113 38.5q-105 0 -190 -82l-105 22z" />
    <glyph glyph-name="onesixth" unicode="&#x2159;" horiz-adv-x="1622" 
d="M305 1376h94v-811h-135v596h-190v99h73q76 0 112 25.5t46 90.5zM1223 1364l-883 -1364h-115l883 1364h115zM1247 -18q-147 0 -225 77t-78 230v196q0 156 80.5 244t235.5 88q77 0 133.5 -20t86.5 -54t44 -70t14 -75v-20h-125v10q0 52 -38 87.5t-113 35.5q-193 0 -193 -213
v-95q75 91 223 91q123 0 190.5 -63t67.5 -161v-28q0 -114 -79 -187t-224 -73zM1247 90q78 0 126 40.5t48 109.5v16q0 65 -44.5 104t-125.5 39q-79 0 -129.5 -37t-50.5 -100v-20q0 -73 49 -112.5t127 -39.5z" />
    <glyph glyph-name="fivesixths" unicode="&#x215a;" horiz-adv-x="1806" 
d="M129 1366h530q-6 -68 -24.5 -90.5t-75.5 -22.5h-319l-21 -256q97 78 215 78q117 0 177.5 -60.5t60.5 -164.5v-41q0 -115 -76 -188.5t-217 -73.5q-149 0 -221 63.5t-72 165.5v19h123v-11q0 -61 43.5 -96t124.5 -35q75 0 120.5 42t45.5 114v31q0 64 -37 102.5t-113 38.5
q-105 0 -190 -82l-105 21zM1407 1364l-883 -1364h-114l882 1364h115zM1432 -18q-147 0 -225.5 77t-78.5 230v196q0 156 80.5 244t235.5 88q76 0 132.5 -20t86 -54t43.5 -70t14 -75v-20h-123v10q0 52 -38 87.5t-113 35.5q-193 0 -193 -213v-95q75 91 222 91q124 0 192 -63
t68 -161v-28q0 -114 -79.5 -187t-223.5 -73zM1432 90q78 0 126 40.5t48 109.5v16q0 65 -44.5 104t-125.5 39q-79 0 -130 -37t-51 -100v-20q0 -73 49.5 -112.5t127.5 -39.5z" />
    <glyph glyph-name="oneeighth" unicode="&#x215b;" horiz-adv-x="1642" 
d="M305 1376h94v-811h-135v596h-190v99h73q76 0 112 25.5t46 90.5zM1223 1364l-883 -1364h-115l883 1364h115zM1264 821q143 0 222 -64.5t79 -166.5v-8q0 -59 -36 -106t-102 -73q71 -26 108.5 -74t37.5 -112v-10q0 -104 -81 -165.5t-228 -61.5q-146 0 -227 61.5t-81 165.5
v10q0 64 37.5 112t108.5 74q-66 26 -100.5 72.5t-34.5 106.5v8q0 102 77.5 166.5t219.5 64.5zM1264 715q-76 0 -123 -34.5t-47 -94.5v-17q0 -53 48.5 -86.5t121.5 -33.5q74 0 123 33.5t49 86.5v17q0 61 -47 95t-125 34zM1264 86q84 0 132 35t48 96v16q0 57 -50 91t-130 34
q-79 0 -129 -34.5t-50 -90.5v-16q0 -61 48.5 -96t130.5 -35z" />
    <glyph glyph-name="threeeighths" unicode="&#x215c;" horiz-adv-x="1824" 
d="M379 1382q135 0 211 -61t76 -154v-16q0 -64 -43.5 -112.5t-122.5 -65.5q83 -19 126.5 -67t43.5 -120v-14q0 -96 -78.5 -160.5t-214.5 -64.5q-152 0 -226.5 64.5t-74.5 164.5v39h121v-33q0 -58 45 -93.5t131 -35.5q74 0 121 34t47 91v17q0 125 -189 125h-82v98h82
q95 0 141 34t46 89v16q0 56 -46 88.5t-120 32.5q-83 0 -128.5 -36.5t-45.5 -92.5v-33h-121v39q0 96 76 161.5t225 65.5zM1407 1364l-885 -1364h-112l882 1364h115zM1448 821q142 0 220.5 -64.5t78.5 -166.5v-8q0 -59 -35 -106t-102 -73q71 -26 109 -74.5t38 -111.5v-10
q0 -104 -81.5 -165.5t-227.5 -61.5q-147 0 -228 61.5t-81 165.5v10q0 64 37 112t108 74q-65 26 -100 73t-35 106v8q0 102 78 166.5t221 64.5zM1448 715q-78 0 -125 -34t-47 -95v-17q0 -53 49 -86.5t123 -33.5t122 33t48 87v17q0 60 -47 94.5t-123 34.5zM1448 86q82 0 131 35
t49 96v16q0 57 -50 91t-130 34t-130 -34t-50 -91v-16q0 -61 49 -96t131 -35z" />
    <glyph glyph-name="fiveeighths" unicode="&#x215d;" horiz-adv-x="1826" 
d="M129 1366h530q-6 -68 -24.5 -90.5t-75.5 -22.5h-319l-21 -256q97 78 215 78q117 0 177.5 -60.5t60.5 -164.5v-41q0 -115 -76 -188.5t-217 -73.5q-149 0 -221 63.5t-72 165.5v19h123v-11q0 -61 43.5 -96t124.5 -35q75 0 120.5 42t45.5 114v31q0 64 -37 102.5t-113 38.5
q-105 0 -190 -82l-105 21zM1407 1364l-883 -1364h-114l882 1364h115zM1448 821q143 0 222 -64.5t79 -166.5v-8q0 -59 -35.5 -106t-101.5 -73q71 -26 108 -74t37 -112v-10q0 -104 -81 -165.5t-228 -61.5q-146 0 -226.5 61.5t-80.5 165.5v10q0 64 37 112t108 74
q-67 26 -102 73t-35 106v8q0 102 78.5 166.5t220.5 64.5zM1448 715q-76 0 -123 -34.5t-47 -94.5v-17q0 -53 48.5 -86.5t121.5 -33.5q74 0 123 33.5t49 86.5v17q0 61 -47 95t-125 34zM1448 86q82 0 131 35t49 96v16q0 57 -50 91t-130 34q-79 0 -128.5 -34.5t-49.5 -90.5v-16
q0 -61 48 -96t130 -35z" />
    <glyph glyph-name="seveneighths" unicode="&#x215e;" horiz-adv-x="1660" 
d="M74 1366h618v-78q-151 -169 -226 -343.5t-93 -379.5h-144q14 185 92 350t234 332h-481v119zM1241 1364l-883 -1364h-114l882 1364h115zM1282 821q143 0 222 -64.5t79 -166.5v-8q0 -59 -35.5 -106t-101.5 -73q71 -26 108 -74t37 -112v-10q0 -104 -81 -165.5t-228 -61.5
q-146 0 -226.5 61.5t-80.5 165.5v10q0 64 37 112t108 74q-67 26 -102 73t-35 106v8q0 102 78.5 166.5t220.5 64.5zM1282 715q-76 0 -123 -34.5t-47 -94.5v-17q0 -53 48.5 -86.5t121.5 -33.5q74 0 123 33.5t49 86.5v17q0 61 -47 95t-125 34zM1282 86q84 0 132 35t48 96v16
q0 57 -50 91t-130 34q-79 0 -128.5 -34.5t-49.5 -90.5v-16q0 -61 48 -96t130 -35z" />
    <glyph glyph-name="minus" unicode="&#x2212;" horiz-adv-x="1126" 
d="M154 752h821v-140h-821v140z" />
    <glyph glyph-name="hcoslug" unicode="&#xe10b;" horiz-adv-x="1421" 
d="M1319 1434v-1639h-1217v1639h1217zM782 541q42 55 95 86q30 -52 88 -52q43 0 72.5 32t29.5 79t-29.5 77t-72.5 30q-70 0 -123 -78q-3 40 -30.5 59t-70.5 17q19 32 19 69q0 59 -52.5 105.5t-142.5 46.5q-99 0 -161 -52.5t-62 -121.5q0 -43 15 -75t49 -67
q-168 -57 -168 -186q0 -81 65 -136t158 -55q129 0 213 93q51 -52 89.5 -72.5t84.5 -20.5q68 0 114.5 53t49.5 140l-15 4q-34 -59 -88 -59q-30 0 -59 19.5t-68 64.5zM506 877q0 26 15 42.5t40 16.5q26 0 43 -21.5t17 -56.5q0 -46 -37 -102q-30 29 -42.5 42.5t-24 35
t-11.5 43.5zM639 700q61 42 86 70q23 -23 29 -49t-2 -52.5t-29 -62.5q-68 78 -84 94zM535 449q-46 0 -76.5 31.5t-30.5 78.5q0 49 33 82q72 -68 151 -168q-31 -24 -77 -24zM721 256v-106h12l8 16q10 -16 29 -16q17 0 25 13.5t8 29.5q0 18 -8.5 29t-22.5 11q-21 0 -27 -18v55
h-36v-14h12zM256 166v-14h61v14h-20v33h8q7 0 8.5 -3t3.5 -14h15v47h-15q-1 -8 -2 -10.5t-3 -4t-7 -1.5h-8v37h25q11 0 15 -5t7 -22h16v41h-104v-14h14v-84h-14zM586 254l-25 -4v-19h-14v-14h14v-41q0 -26 25 -26q22 0 28 26l-10 4q-3 -14 -10 -14q-8 0 -8 10v41h26v14h-26
v23zM356 193q0 -20 12 -31.5t31 -11.5t31 12t12 31q0 18 -12 29t-31 11t-31 -11t-12 -29zM618 180v-28h15l2 8q15 -10 27 -10q13 0 20.5 7.5t7.5 18.5q0 19 -24.5 25t-24.5 12q0 8 10 8q11 0 21 -14h14v26h-12l-4 -10q-7 10 -23 10q-13 0 -21 -7t-8 -17q0 -19 25 -26t25 -13
q0 -8 -11 -8q-12 0 -24 18h-15zM449 166v-14h45v14h-9v31q0 20 15 20q12 0 12 -14v-37h-8v-14h45v14h-12v39q0 28 -25 28q-20 0 -29 -22v20h-34v-14h12v-51h-12zM829 133q5 5 2.5 13t-12.5 8q-14 0 -14 -15q0 -18 22 -18q24 0 37 33l27 63h10v14h-35v-14h11l-17 -41l-18 41
h12v14h-51v-14h10q25 -47 33 -67q-3 -17 -17 -17zM416 193q0 -33 -17 -33q-16 0 -16 33q0 30 16 30q17 0 17 -30zM776 190q0 -26 -14 -26q-17 0 -17 26q0 27 17 27q14 0 14 -27zM565 14v-14h47v14h-10v52h29v-52h-10v-14h47v14h-13v107l-20 -4q-8 4 -19 4q-16 0 -27 -10
t-11 -29v-2h-15v-14h15v-52h-13zM961 55q0 -26 15.5 -41.5t43.5 -15.5q46 0 49 47h-16q-4 -33 -29 -33q-33 0 -33 45t29 45q12 0 18.5 -6.5t12.5 -25.5h16v45h-16l-2 -13q-15 15 -33 15q-22 0 -38.5 -17.5t-16.5 -44.5zM254 14v-14h59v14h-16v37h45v-37h-16v-14h59v14h-16
v84h16v15h-59v-15h16v-32h-45v32h16v15h-59v-15h16v-84h-16zM950 68h-37v-15h13q-2 -7 -13 -18q-4 4 -11.5 12.5t-12.5 13.5q22 9 22 25q0 10 -7.5 17.5t-20.5 7.5q-14 0 -24.5 -9t-10.5 -20q0 -13 12 -25q-26 -7 -26 -30q0 -29 36 -29q19 0 31 12q10 -12 25 -12q19 0 26 25
l-10 2q-3 -11 -8 -11t-12 11q12 16 18 28h10v15zM602 80v6q0 25 12 25l7 -2q-3 -3 -3 -7q0 -12 13 -12v-10h-29zM883 68q-13 13 -13 20q0 10 11 10q12 0 12 -12q0 -11 -10 -18zM506 37h53q3 45 -39 45q-17 0 -29 -12t-12 -31t11.5 -30t31.5 -11q30 0 37 29h-14
q-3 -15 -19 -15q-20 0 -20 25zM754 14v-14h53v14h-16v33q8 19 14 19v-3q0 -12 12 -12q14 0 14 15q0 16 -16 16q-15 0 -24 -23v21h-37v-14h12v-52h-12zM1075 41q0 -20 12 -31.5t31 -11.5t31 12t12 31t-12 30t-31 11t-31 -11t-12 -30zM387 41q0 -20 12 -31.5t31 -11.5t31 12
t12 31t-12 30t-31 11t-31 -11t-12 -30zM696 37h54q3 45 -39 45q-17 0 -29 -12t-12 -31t11.5 -30t31.5 -11q30 0 37 29h-15q-3 -15 -18 -15q-21 0 -21 25zM1135 41q0 -33 -17 -33q-16 0 -16 33q0 31 16 31q17 0 17 -31zM446 41q0 -33 -16 -33t-16 33q0 31 16 31t16 -31z
M696 47q0 25 15 25q14 0 14 -25h-29zM506 47q0 25 14 25q15 0 15 -25h-29zM895 18q-9 -6 -16 -6q-9 0 -15 6t-6 15q0 10 8 18q9 -9 29 -33zM1194 12q0 15 -14 15q-6 0 -10.5 -4.5t-4.5 -10.5q0 -14 15 -14q14 0 14 14z" />
    <glyph glyph-name="fi" unicode="&#xfb01;" horiz-adv-x="1142" 
d="M633 1417v-131h-66q-95 0 -137.5 -42t-42.5 -124v-155h242v-131h-242v-834h-160v834h-159v131h159v159q0 141 77.5 217t238.5 76h90zM815 1350h180v-183h-180v183zM823 965h162v-965h-162v965z" />
    <glyph glyph-name="fl" unicode="&#xfb02;" horiz-adv-x="1142" 
d="M633 1417v-131h-66q-95 0 -137.5 -42t-42.5 -124v-155h242v-131h-242v-834h-160v834h-159v131h159v159q0 141 77.5 217t238.5 76h90zM985 1417v-1417h-162v1417h162z" />
    <glyph glyph-name="NUL" horiz-adv-x="0" 
 />
    <glyph glyph-name="Q.alt" horiz-adv-x="1327" 
d="M1022 -197v-125h-96q-189 0 -265.5 56.5t-76.5 197.5v56q-211 25 -332 171t-121 376v307q0 254 143.5 403.5t389.5 149.5q247 0 389.5 -149.5t142.5 -403.5v-307q0 -230 -120 -376t-331 -171v-62q0 -73 47 -98t175 -25h55zM664 1249q-165 0 -262 -108t-97 -287v-332
q0 -179 97 -287t262 -108q166 0 263 107.5t97 287.5v332q0 180 -97 287.5t-263 107.5z" />
    <glyph glyph-name="Q.alt2" horiz-adv-x="1337" 
d="M1305 -25q-58 -26 -117 -26q-64 0 -113 24.5t-98 87.5q-136 -92 -313 -92q-245 0 -389 150.5t-144 404.5v314q0 256 143.5 406.5t389.5 150.5q247 0 389.5 -150.5t142.5 -406.5v-314q0 -217 -115 -364q39 -48 71.5 -64t74.5 -16q26 0 78 10v-115zM963 326l16 -31
q45 89 45 219v332q0 186 -96 294.5t-264 108.5q-167 0 -263 -109t-96 -294v-316q0 -132 51 -223q6 120 83 188t188 68q113 0 188 -58t148 -179zM453 281q0 -83 53.5 -127.5t157.5 -44.5q142 0 233 79l-29 52q-60 105 -116.5 152.5t-133.5 47.5q-76 0 -120.5 -47t-44.5 -112z
" />
    <glyph glyph-name="R.alt" horiz-adv-x="1249" 
d="M180 1364h504q211 0 315.5 -89.5t104.5 -252.5v-64q0 -132 -64 -206t-186 -105v-4q118 -27 169.5 -93t51.5 -200v-174q0 -50 20 -74.5t68 -35.5v-66h-96q-164 0 -164 168v176q0 122 -59.5 174.5t-206.5 52.5h-283v-571h-174v1364zM354 1221v-514h285q141 0 216 61.5
t75 175.5v62q0 215 -268 215h-308z" />
    <glyph glyph-name="t.alt" horiz-adv-x="665" 
d="M217 1174l160 45v-254h252v-131h-252v-424q0 -120 12.5 -184.5t47.5 -111t108 -94.5v-20h-201q-73 60 -100 133.5t-27 237.5v463h-156v131h156v209z" />
    <glyph glyph-name="Racute.alt" horiz-adv-x="1249" 
d="M926 1898l-295 -331h-115l213 331h197zM180 1364h504q211 0 315.5 -89.5t104.5 -252.5v-64q0 -132 -64 -206t-186 -105v-4q118 -27 169.5 -93t51.5 -200v-174q0 -50 20 -74.5t68 -35.5v-66h-96q-164 0 -164 168v176q0 122 -59.5 174.5t-206.5 52.5h-283v-571h-174v1364z
M354 1221v-514h285q141 0 216 61.5t75 175.5v62q0 215 -268 215h-308z" />
    <glyph glyph-name="Rcaron.alt" horiz-adv-x="1249" 
d="M283 1915q109 -20 193 -81.5t130 -137.5q46 76 130.5 137.5t195.5 81.5v-78q-184 -66 -240 -264h-170q-56 197 -239 264v78zM180 1364h504q211 0 315.5 -89.5t104.5 -252.5v-64q0 -132 -64 -206t-186 -105v-4q118 -27 169.5 -93t51.5 -200v-174q0 -50 20 -74.5t68 -35.5
v-66h-96q-164 0 -164 168v176q0 122 -59.5 174.5t-206.5 52.5h-283v-571h-174v1364zM354 1221v-514h285q141 0 216 61.5t75 175.5v62q0 215 -268 215h-308z" />
    <glyph glyph-name="Rcommaaccent.alt" horiz-adv-x="1249" 
d="M180 1364h504q211 0 315.5 -89.5t104.5 -252.5v-64q0 -132 -64 -206t-186 -105v-4q118 -27 169.5 -93t51.5 -200v-174q0 -50 20 -74.5t68 -35.5v-66h-96q-164 0 -164 168v176q0 122 -59.5 174.5t-206.5 52.5h-283v-571h-174v1364zM354 1221v-514h285q141 0 216 61.5
t75 175.5v62q0 215 -268 215h-308zM547 -199h180v-174q0 -216 -240 -272v53q76 24 117.5 74.5t40.5 124.5h-98v194z" />
    <glyph glyph-name="tcaron.alt" horiz-adv-x="665" 
d="M553 1454h152l-78 -352h-88zM217 1174l160 45v-254h252v-131h-252v-424q0 -120 12.5 -184.5t47.5 -111t108 -94.5v-20h-201q-73 60 -100 133.5t-27 237.5v463h-156v131h156v209z" />
    <glyph glyph-name="tcommaaccent.alt" horiz-adv-x="665" 
d="M217 1174l160 45v-254h252v-131h-252v-424q0 -120 12.5 -184.5t47.5 -111t108 -94.5v-20h-201q-73 60 -100 133.5t-27 237.5v463h-156v131h156v209zM274 -209h181v-174q0 -216 -240 -272v53q76 24 117 74.5t41 124.5h-99v194z" />
    <glyph glyph-name="one.alt" horiz-adv-x="950" 
d="M901 0h-774v139h313v934h-336v127h84q163 0 227.5 37t71.5 145h121v-1243h293v-139z" />
    <glyph glyph-name="one.alt2" horiz-adv-x="598" 
d="M215 1239q41 9 62 45.5t24 106.5h82v-1391h-168v1239z" />
    <glyph glyph-name="colon.alt" horiz-adv-x="446" 
d="M129 1157h190v-233h-190v233zM129 442h190v-235h-190v235z" />
    <glyph glyph-name="guillemotleft.cap" horiz-adv-x="1239" 
d="M516 1159h98q-35 -149 -112 -263.5t-207 -213.5q130 -97 207 -212t112 -265h-98q-98 277 -410 424v106q310 146 410 424zM1018 1159h98q-35 -150 -112.5 -264t-208.5 -213q131 -97 208.5 -212t112.5 -265h-98q-98 276 -410 424v106q311 148 410 424z" />
    <glyph glyph-name="guillemotright.cap" horiz-adv-x="1230" 
d="M715 205h-99q33 148 111 262.5t209 214.5q-131 98 -209 213t-111 264h99q95 -276 407 -424v-106q-311 -148 -407 -424zM221 205h-98q35 150 112.5 264t208.5 213q-131 97 -208.5 212t-112.5 265h98q98 -276 410 -424v-106q-311 -148 -410 -424z" />
    <glyph glyph-name="guilsinglleft.cap" horiz-adv-x="737" 
d="M518 1159h98q-35 -150 -112.5 -264t-208.5 -213q131 -97 208.5 -212t112.5 -265h-98q-98 276 -409 424v106q310 147 409 424z" />
    <glyph glyph-name="guilsinglright.cap" horiz-adv-x="737" 
d="M219 205h-98q35 149 113 264t208 213q-131 100 -208.5 214t-112.5 263h98q99 -276 410 -424v-106q-311 -148 -410 -424z" />
    <glyph glyph-name="hyphen.cap" horiz-adv-x="776" 
d="M117 750h540v-134h-540v134z" />
    <glyph glyph-name="endash.cap" horiz-adv-x="1175" 
d="M150 748h876v-132h-876v132z" />
    <glyph glyph-name="emdash.cap" horiz-adv-x="1734" 
d="M156 748h1423v-132h-1423v132z" />
    <glyph glyph-name="at.cap" horiz-adv-x="1603" 
d="M868 1456q131 0 240 -34t184 -91.5t126.5 -135t75.5 -163t24 -176.5q0 -151 -54.5 -277t-147 -197t-200.5 -71q-97 0 -152.5 51t-50.5 132q-94 -168 -235 -168q-100 0 -157.5 67.5t-57.5 190.5q0 79 25.5 163.5t70 156.5t114 118.5t148.5 46.5q69 0 117 -38t63 -105
l41 129h132l-123 -402q-77 -254 82 -254q109 0 196.5 132.5t87.5 324.5q0 228 -149 368t-400 140q-190 0 -341.5 -96.5t-236.5 -269.5t-85 -390q0 -280 160 -444t442 -164q140 0 269.5 47t215.5 115l54 -76q-96 -76 -240 -126t-299 -50q-322 0 -513.5 189t-191.5 507
q0 184 58.5 343t160.5 270t243.5 174t303.5 63zM844 965q-76 0 -134.5 -67.5t-85 -153t-26.5 -162.5q0 -76 31.5 -115t89.5 -39q61 0 114.5 58t81.5 151l56 192q-2 55 -35 95.5t-92 40.5z" />
    <glyph glyph-name="registered.large" horiz-adv-x="1757" 
d="M133 682q0 158 56 295.5t154.5 235.5t237 154t298.5 56t299 -56t236.5 -154t153.5 -235.5t56 -295.5t-56 -295.5t-153.5 -235.5t-236.5 -154t-299 -56t-298.5 56t-237 154t-154.5 235.5t-56 295.5zM1528 682q0 187 -81 336.5t-230 235t-338 85.5t-338 -85.5t-230.5 -235
t-81.5 -336.5t81.5 -336.5t230.5 -235t338 -85.5t338 85.5t230 235t81 336.5zM748 598v-270h-121v708h309q242 0 242 -219q0 -164 -150 -207l164 -282h-133l-154 270h-157zM748 934v-240h161q74 0 110 28.5t36 90.5t-32 91.5t-105 29.5h-170z" />
    <glyph glyph-name="registered.large_alt" horiz-adv-x="1757" 
d="M133 682q0 158 56 295.5t154.5 235.5t237 154t298.5 56t299 -56t236.5 -154t153.5 -235.5t56 -295.5t-56 -295.5t-153.5 -235.5t-236.5 -154t-299 -56t-298.5 56t-237 154t-154.5 235.5t-56 295.5zM1528 682q0 187 -81 336.5t-230 235t-338 85.5t-338 -85.5t-230.5 -235
t-81.5 -336.5t81.5 -336.5t230.5 -235t338 -85.5t338 85.5t230 235t81 336.5zM627 1036h315q234 0 234 -202q0 -83 -33.5 -124t-104.5 -59v-2q62 -12 90.5 -46t28.5 -97v-72q0 -28 10 -42.5t33 -22.5v-41h-78q-86 0 -86 90v82q0 52 -29.5 76t-101.5 24h-157v-272h-121v708z
M748 934v-240h159q77 0 112.5 29.5t35.5 93.5q0 62 -31 89.5t-104 27.5h-172z" />
    <glyph glyph-name="registered.alt" horiz-adv-x="1060" 
d="M530 1395q188 0 311.5 -123.5t123.5 -304.5t-123.5 -303.5t-311.5 -122.5q-189 0 -311.5 122t-122.5 304t122.5 305t311.5 123zM530 1327q-163 0 -262.5 -101t-99.5 -259t99.5 -259.5t262.5 -101.5t262 101.5t99 259.5t-99 259t-262 101zM369 1184h200q73 0 109.5 -32
t36.5 -91q0 -49 -20.5 -73.5t-63.5 -35.5q37 -9 54 -30t17 -60v-24q0 -19 6.5 -29.5t26.5 -17.5v-29h-61q-56 0 -56 59v37q0 60 -75 60h-90v-156h-84v422zM453 1114v-135h92q86 0 86 70q0 34 -18.5 49.5t-59.5 15.5h-100z" />
    <glyph glyph-name="R_p" horiz-adv-x="2217" 
d="M371 563v-563h-166v1364h487q209 0 313.5 -90.5t104.5 -263.5v-88q0 -130 -76.5 -222t-214.5 -122l330 -578h-182l-316 563h-280zM371 698h288q135 0 209 63t74 169v69q0 116 -65 171t-207 55h-299v-527zM1761 -23q-107 0 -176 47t-123 130v-471h-162v1282h136l12 -185
q37 64 76.5 106.5t102 71.5t140.5 29q157 0 249.5 -110t92.5 -285v-219q0 -175 -95 -285.5t-253 -110.5zM1718 106q109 0 169.5 78.5t60.5 198.5v199q0 120 -60.5 198t-169.5 78q-104 0 -181 -85t-77 -210v-162q0 -124 77.5 -209.5t180.5 -85.5z" />
    <glyph glyph-name="R_p.alt" horiz-adv-x="2263" 
d="M205 1364h489q211 0 314.5 -89.5t103.5 -252.5v-61q0 -132 -64 -207t-186 -107v-4q118 -25 171.5 -92t53.5 -201v-174q0 -50 20 -74.5t67 -35.5v-66h-93q-163 0 -163 168v180q0 122 -60.5 174.5t-210.5 52.5h-276v-575h-166v1364zM371 1225v-518h280q141 0 218 61.5
t77 175.5v64q0 217 -272 217h-303zM1343 965h138l12 -185q37 64 76.5 106.5t102 71.5t140.5 29q157 0 248.5 -110t91.5 -285v-219q0 -176 -94 -286t-252 -110q-107 0 -176 47t-123 130v-471h-164v1282zM1763 858q-104 0 -181 -85t-77 -210v-162q0 -124 77.5 -209.5
t180.5 -85.5q107 0 168.5 78.5t61.5 198.5v199q0 120 -60.5 198t-169.5 78z" />
    <glyph glyph-name="rupee.alt" horiz-adv-x="2148" 
d="M205 1364h489q211 0 314.5 -89.5t103.5 -252.5v-61q0 -132 -64 -207t-186 -107v-4q118 -25 171.5 -92t53.5 -201v-174q0 -50 20 -74.5t67 -35.5v-66h-93q-163 0 -163 168v180q0 122 -60.5 174.5t-210.5 52.5h-276v-575h-166v1364zM371 1225v-518h280q141 0 218 61.5
t77 175.5v64q0 217 -272 217h-303zM1673 -27q-187 0 -282 86.5t-95 229.5v37h144v-31q0 -91 60 -144t175 -53q98 0 152.5 41t54.5 113q0 67 -52.5 103t-191.5 71q-166 39 -243.5 103t-77.5 184q0 117 95 197.5t255 80.5q169 0 259.5 -81.5t90.5 -215.5v-32h-141v22
q0 86 -54 134t-157 48q-90 0 -144.5 -41t-54.5 -106q0 -66 55.5 -102t190.5 -70q167 -39 244.5 -102.5t77.5 -184.5q0 -129 -96 -208t-265 -79z" />
    <glyph glyph-name="rupeeindia.alt" horiz-adv-x="1249" 
d="M1030 66v-66h-94q-86 0 -129.5 40.5t-46.5 131.5l-2 80q-1 96 -31 151t-105 83t-208 28h-281v135h275q176 0 264 58.5t102 179.5h-643v114h645q-14 120 -93.5 179t-244.5 59h-307v125h1040v-125h-368q123 -79 141 -233h227v-125h-227q-35 -232 -301 -287v-4
q160 -24 223 -100t66 -228l2 -84q2 -51 22 -76.5t74 -35.5z" />
    <glyph glyph-name="onehalf.alt" horiz-adv-x="1867" 
d="M676 565h-578v105h234v487h-246v103h109q92 0 129 25t45 91h94v-706h213v-105zM1450 1364l-883 -1364h-114l882 1364h115zM1776 0h-582v45q0 133 54 206t216 157q121 62 157 95.5t36 88.5q0 59 -44 89t-114 30q-79 0 -126.5 -37t-47.5 -103v-41h-123v48q0 107 79.5 174
t221.5 67q140 0 211.5 -62t71.5 -163q0 -47 -13.5 -82t-49.5 -68.5t-79 -60t-122 -68.5q-114 -57 -151 -95t-38 -107h443v-113z" />
    <glyph glyph-name="onethird.alt" horiz-adv-x="1882" 
d="M688 565h-577v105h233v487h-246v103h111q91 0 127.5 25t44.5 91h94v-706h213v-105zM1462 1364l-882 -1364h-115l883 1364h114zM1507 819q136 0 212.5 -62t76.5 -155v-16q0 -63 -44 -112t-122 -66q82 -17 126 -65.5t44 -119.5v-16q0 -96 -78.5 -159.5t-214.5 -63.5
q-152 0 -226.5 63.5t-74.5 163.5v39h121v-31q0 -59 44.5 -95t129.5 -36q75 0 121.5 34t46.5 93v16q0 123 -186 123h-82v99h82q94 0 139 33.5t45 88.5v17q0 57 -45.5 89t-120.5 32q-82 0 -128 -36.5t-46 -92.5v-33h-121v41q0 95 76.5 161t224.5 66z" />
    <glyph glyph-name="onequarter.alt" horiz-adv-x="1777" 
d="M688 565h-577v105h233v487h-246v103h111q91 0 127.5 25t44.5 91h94v-706h213v-105zM1462 1364l-882 -1364h-115l883 1364h114zM1452 801h162v-518h117v-103h-117v-180h-121v180h-438v101zM1493 283v415l-315 -415h315z" />
    <glyph glyph-name="onefifth.alt" horiz-adv-x="1900" 
d="M688 565h-577v105h233v487h-246v103h111q91 0 127.5 25t44.5 91h94v-706h213v-105zM1462 1364l-882 -1364h-115l883 1364h114zM1276 801h530q-6 -68 -24.5 -90.5t-75.5 -22.5h-320l-20 -254q99 76 215 76q117 0 177.5 -60.5t60.5 -164.5v-41q0 -115 -76 -187.5
t-217 -72.5q-150 0 -220.5 63t-70.5 166v18h123v-12q0 -61 43 -96t123 -35q76 0 121 41.5t45 114.5v30q0 65 -37 103.5t-113 38.5q-105 0 -190 -82l-105 22z" />
    <glyph glyph-name="onesixth.alt" horiz-adv-x="1867" 
d="M688 565h-577v105h233v487h-246v103h111q91 0 127.5 25t44.5 91h94v-706h213v-105zM1462 1364l-882 -1364h-115l883 1364h114zM1493 -18q-147 0 -225 77t-78 230v196q0 156 80 244t235 88q76 0 132.5 -20t86.5 -54t44 -70t14 -75v-20h-123v10q0 52 -38.5 87.5
t-113.5 35.5q-192 0 -192 -213v-95q75 91 221 91q124 0 192 -63t68 -161v-28q0 -114 -79.5 -187t-223.5 -73zM1493 90q78 0 126 40.5t48 109.5v16q0 65 -44.5 104t-125.5 39q-79 0 -129.5 -37t-50.5 -100v-20q0 -73 49 -112.5t127 -39.5z" />
    <glyph glyph-name="oneeighth.alt" horiz-adv-x="1886" 
d="M688 565h-577v105h233v487h-246v103h111q91 0 127.5 25t44.5 91h94v-706h213v-105zM1462 1364l-882 -1364h-115l883 1364h114zM1509 821q143 0 221 -64.5t78 -166.5v-8q0 -59 -35 -106t-100 -73q71 -26 108.5 -74t37.5 -112v-10q0 -104 -81.5 -165.5t-228.5 -61.5
q-146 0 -226.5 61.5t-80.5 165.5v10q0 134 146 186q-67 26 -102.5 73t-35.5 106v8q0 102 78.5 166.5t220.5 64.5zM1509 715q-78 0 -124 -34t-46 -95v-17q0 -54 48 -87t122 -33t123 33.5t49 86.5v17q0 61 -47 95t-125 34zM1509 86q83 0 132 35t49 96v16q0 57 -50.5 91
t-130.5 34t-129 -34t-49 -91v-16q0 -61 48 -96t130 -35z" />
    <glyph glyph-name="one.sup_alt" 
d="M688 618h-577v105h233v487h-246v103h111q90 0 127 25.5t45 91.5h94v-707h213v-105z" />
    <glyph glyph-name="one.inf_alt" 
d="M688 -317h-577v104h233v487h-246v103h111q90 0 127 25.5t45 91.5h94v-707h213v-104z" />
    <glyph glyph-name="zero.tab" horiz-adv-x="1196" 
d="M598 1395q234 0 364 -149t130 -412v-302q0 -265 -130 -414t-364 -149q-233 0 -362.5 149t-129.5 414v304q0 263 129.5 411t362.5 148zM598 1253q-158 0 -243 -109t-85 -306v-310q0 -199 85 -307t243 -108q159 0 244.5 108t85.5 307v310q0 198 -85.5 306.5t-244.5 108.5z
" />
    <glyph glyph-name="one.tab" horiz-adv-x="1196" 
d="M621 1382h124v-1245h392v-137h-979v137h422v932h-445v129h189q160 0 224 38t73 146z" />
    <glyph glyph-name="two.tab" horiz-adv-x="1196" 
d="M623 1395q221 0 334.5 -102.5t113.5 -272.5q0 -58 -9.5 -103.5t-39 -86.5t-55.5 -69.5t-87.5 -67.5t-105.5 -63.5t-137 -74.5q-139 -72 -206 -126.5t-94.5 -117.5t-27.5 -164h750v-147h-926v76q0 153 35 247t124.5 174.5t272.5 182.5q111 59 168.5 94.5t100 75.5t56 77
t13.5 91q0 116 -77.5 173.5t-207.5 57.5q-139 0 -222 -66.5t-83 -191.5v-71h-159v77q0 180 125.5 289t343.5 109z" />
    <glyph glyph-name="three.tab" horiz-adv-x="1196" 
d="M604 1395q111 0 198.5 -29.5t142 -80t82.5 -115t28 -138.5v-28q0 -110 -69.5 -195t-197.5 -115q136 -30 204.5 -110t68.5 -199v-35q0 -164 -120 -272.5t-339 -108.5q-128 0 -222.5 30t-147.5 83t-78 118.5t-25 145.5v62h160v-54q0 -113 75.5 -176t229.5 -63
q140 0 219.5 62t79.5 181v33q0 234 -313 234h-146v131h146q154 0 231.5 63t77.5 170v25q0 116 -78.5 175.5t-216.5 59.5q-148 0 -225.5 -65.5t-77.5 -171.5v-56h-160v60q0 58 16 111.5t52 103t89.5 85.5t134.5 57.5t181 21.5z" />
    <glyph glyph-name="four.tab" horiz-adv-x="1196" 
d="M723 1364h209v-922h205v-135h-205v-307h-154v307h-708v121zM778 442v768l-538 -768h538z" />
    <glyph glyph-name="five.tab" horiz-adv-x="1196" 
d="M684 874q203 0 302 -106t99 -289v-73q0 -197 -121.5 -317t-351.5 -120q-125 0 -218 30t-147 84t-80 122.5t-26 152.5v13h158v-9q0 -120 79 -184.5t232 -64.5q140 0 225 72t85 216v66q0 129 -66 201.5t-205 72.5q-189 0 -354 -151l-131 31l51 743h846q-8 -90 -33.5 -118.5
t-109.5 -28.5h-562l-34 -482q159 139 362 139z" />
    <glyph glyph-name="six.tab" horiz-adv-x="1196" 
d="M602 -29q-234 0 -353.5 127t-119.5 359v413q0 241 126.5 383t369.5 142q95 0 171.5 -22.5t125 -58t81 -83t45.5 -94.5t13 -95v-49h-160v25q0 107 -71 171t-201 64q-166 0 -253 -95t-87 -286v-200q127 170 373 170q196 0 305.5 -105.5t109.5 -279.5v-56
q0 -191 -126 -310.5t-349 -119.5zM602 113q137 0 224 69.5t87 214.5v37q0 139 -80 210t-219 71q-136 0 -228.5 -69t-92.5 -195v-50q0 -143 87.5 -215.5t221.5 -72.5z" />
    <glyph glyph-name="seven.tab" horiz-adv-x="1196" 
d="M555 0h-180q24 315 156 608t405 606h-838v150h1018v-109q-265 -313 -397.5 -612t-163.5 -643z" />
    <glyph glyph-name="eight.tab" horiz-adv-x="1196" 
d="M600 1395q217 0 335 -106t118 -273v-21q0 -108 -57 -187t-167 -120q242 -88 242 -321v-23q0 -173 -124 -274t-347 -101q-224 0 -348.5 101t-124.5 274v23q0 117 64 198t184 123q-111 41 -170.5 120.5t-59.5 186.5v21q0 167 118.5 273t336.5 106zM600 1257
q-135 0 -214 -63t-79 -180v-31q0 -113 80.5 -175.5t212.5 -62.5q131 0 211 62.5t80 175.5v31q0 117 -78.5 180t-212.5 63zM600 106q142 0 224.5 64t82.5 184v27q0 120 -82.5 184t-224.5 64q-143 0 -226 -64t-83 -184v-25q0 -122 83 -186t226 -64z" />
    <glyph glyph-name="nine.tab" horiz-adv-x="1196" 
d="M592 1395q235 0 354 -127.5t119 -358.5v-411q0 -244 -126 -385.5t-372 -141.5q-94 0 -171 22t-125.5 57t-81.5 81.5t-46.5 92.5t-13.5 93v41h160v-20q0 -101 71.5 -163t202.5 -62q342 0 342 379v182q-124 -170 -370 -170q-199 0 -308.5 106t-109.5 277v78
q0 190 124.5 310t350.5 120zM592 1253q-52 0 -97 -9.5t-84.5 -31.5t-67.5 -54.5t-44 -81.5t-16 -111v-52q0 -143 78.5 -212.5t220.5 -69.5q87 0 158 28.5t117 89.5t46 146v61q0 150 -87.5 223.5t-223.5 73.5z" />
    <glyph glyph-name="dollar.tab" horiz-adv-x="1196" 
d="M1061 362q0 -159 -104 -258t-283 -116v-217h-137v217q-202 14 -304 119t-102 270v65h162v-53q0 -126 78 -197t235 -71q135 0 213 60t78 169q0 45 -13 79.5t-36 60.5t-66.5 49.5t-92.5 42.5t-126 43q-217 64 -314 146.5t-97 234.5q0 149 103.5 251t283.5 119v215h137v-217
q192 -18 282.5 -121t90.5 -260v-51h-162v47q0 113 -68 182.5t-221 69.5q-132 0 -207.5 -62t-75.5 -161q0 -52 17 -88.5t60 -67t99 -53.5t152 -53q111 -35 183 -67.5t128 -78t81.5 -106t25.5 -142.5z" />
    <glyph glyph-name="sterling.tab" horiz-adv-x="1196" 
d="M840 -31q-50 0 -96.5 13.5t-93 43t-75.5 52t-77 63.5q-36 -79 -99 -125.5t-143 -46.5q-103 0 -159 55t-56 144q0 87 58.5 145t160.5 58q76 0 166 -49q4 18 4 59q0 116 -57 244h-238v110h184q-69 157 -69 285q0 164 106.5 269.5t311.5 105.5q196 0 299.5 -101.5
t103.5 -281.5v-60h-151v41q0 129 -67 194.5t-187 65.5q-114 0 -185 -61.5t-71 -181.5q0 -52 12.5 -105.5t23 -80.5t37.5 -89h398v-110h-353q37 -98 37 -224q0 -85 -26 -153q46 -33 59 -42.5t52 -35t59.5 -34t51.5 -18t58 -9.5q35 0 60.5 9t47.5 32t33 67.5t11 110.5v86h145
v-90q0 -183 -68.5 -269t-207.5 -86zM152 166q0 -44 27.5 -71t78.5 -27q52 0 91.5 37.5t58.5 105.5q-80 57 -148 57q-52 0 -80 -28t-28 -74z" />
    <glyph glyph-name="Euro.tab" horiz-adv-x="1196" 
d="M1096 381q0 -116 -46.5 -207.5t-146.5 -148t-241 -56.5q-221 0 -345.5 134.5t-128.5 385.5h-141v101h139v184h-139v100h141q4 250 129.5 385.5t346.5 135.5q107 0 190.5 -32t135.5 -88.5t79 -130.5t27 -161v-27h-154v19q0 121 -69 199.5t-207 78.5q-156 0 -238 -97
t-82 -282h457v-100h-457v-184h457v-101h-457q1 -185 84 -281.5t236 -96.5q137 0 205.5 78.5t70.5 201.5v12h154v-22z" />
    <glyph glyph-name="yen.tab" horiz-adv-x="1196" 
d="M1057 252h-377v-252h-158v252h-385v106h385v166l-12 25h-373v104h318l-375 711h178l348 -686l342 686h172l-372 -711h309v-104h-365l-12 -25v-166h377v-106z" />
    <glyph glyph-name="cent.tab" horiz-adv-x="1196" 
d="M1012 522q0 -132 -85.5 -226t-242.5 -114v-194h-137v194q-173 20 -266 135.5t-93 300.5v127q0 183 94.5 299t264.5 138v192h137v-192q160 -17 244 -110t84 -228v-13h-154v7q0 87 -58.5 148t-178.5 61q-132 0 -200.5 -78.5t-68.5 -210.5v-152q0 -131 67.5 -209t196.5 -78
q119 0 180.5 61t61.5 146v4h154v-8z" />
    <glyph glyph-name="numbersign.tab" horiz-adv-x="1196" 
d="M649 0l56 377h-304l-55 -377h-123l56 377h-226v119h244l55 372h-246v119h263l57 377h123l-57 -377h303l57 377h123l-57 -377h227v-119h-244l-55 -372h244v-119h-263l-55 -377h-123zM420 496h303l55 372h-303z" />
    <glyph glyph-name="degree.tab" horiz-adv-x="1196" 
d="M598 1395q182 0 287.5 -105.5t105.5 -273.5q0 -169 -106.5 -275t-286.5 -106q-179 0 -285 105.5t-106 275.5q0 168 105 273.5t286 105.5zM598 1276q-121 0 -189.5 -69.5t-68.5 -190.5q0 -122 69.5 -192t188.5 -70q120 0 189 69.5t69 192.5q0 121 -68 190.5t-190 69.5z
" />
    <glyph glyph-name="percent.tab" horiz-adv-x="1796" 
d="M473 1393q135 0 213 -83t78 -218v-95q0 -133 -79.5 -216t-213.5 -83t-213.5 83t-79.5 216v95q0 134 79.5 217.5t215.5 83.5zM1524 1378l-1114 -1392h-138l1114 1392h138zM471 1282q-84 0 -126 -51t-42 -137v-99q0 -85 43.5 -136.5t126.5 -51.5q82 0 125 51.5t43 136.5v99
q0 86 -42.5 137t-127.5 51zM1323 -29q-133 0 -212 82.5t-79 216.5v95q0 135 78 218t213 83q136 0 214.5 -82.5t78.5 -218.5v-95q0 -133 -79.5 -216t-213.5 -83zM1323 82q84 0 127 50.5t43 135.5v99q0 87 -42.5 138.5t-127.5 51.5q-83 0 -125.5 -51.5t-42.5 -138.5v-99
q0 -85 43 -135.5t125 -50.5z" />
    <glyph glyph-name="quotedbl.tab" horiz-adv-x="1196" 
d="M369 1364h180l-182 -629h-109zM799 1364h180l-195 -629h-106z" />
    <glyph glyph-name="quotesingle.tab" horiz-adv-x="598" 
d="M285 1364h186l-180 -629h-109z" />
    <glyph glyph-name="period.tab" horiz-adv-x="598" 
d="M205 236h188v-236h-188v236z" />
    <glyph glyph-name="comma.tab" horiz-adv-x="598" 
d="M205 236h188v-168q0 -167 -61 -250t-195 -121v57q90 44 121 97.5t33 148.5h-86v236z" />
    <glyph glyph-name="colon.tab" horiz-adv-x="598" 
d="M205 950h188v-235h-188v235zM205 236h188v-236h-188v236z" />
    <glyph glyph-name="semicolon.tab" horiz-adv-x="598" 
d="M205 950h188v-235h-188v235zM205 236h188v-168q0 -167 -61 -250t-195 -121v57q90 44 121 97.5t33 148.5h-86v236z" />
    <glyph glyph-name="periodcentered.tab" horiz-adv-x="598" 
d="M205 801h188v-236h-188v236z" />
    <glyph glyph-name="slash.tab" horiz-adv-x="1196" 
d="M993 1559h150l-932 -1876h-148z" />
    <glyph glyph-name="bar.tab" horiz-adv-x="598" 
d="M231 1559h138v-1876h-138v1876z" />
    <glyph glyph-name="underscore.tab" horiz-adv-x="1196" 
d="M70 -201h1056v-116h-1056v116z" />
    <glyph glyph-name="plus.tab" horiz-adv-x="1196" 
d="M532 1110h136v-362h360v-132h-360v-364h-136v364h-364v132h364v362z" />
    <glyph glyph-name="minus.tab" horiz-adv-x="1196" 
d="M186 752h826v-140h-826v140z" />
    <glyph glyph-name="divide.tab" horiz-adv-x="1196" 
d="M512 1104h172v-170h-172v170zM180 748h838v-132h-838v132zM512 430h172v-170h-172v170z" />
    <glyph glyph-name="equal.tab" horiz-adv-x="1196" 
d="M193 954h813v-135h-813v135zM193 545h813v-135h-813v135z" />
    <glyph glyph-name="multiply.tab" horiz-adv-x="1196" 
d="M891 279l-293 305l-295 -308l-96 95l297 311l-297 309l98 94l293 -305l293 305l98 -92l-297 -311l297 -309z" />
    <glyph glyph-name="less.tab" horiz-adv-x="1196" 
d="M924 1137v-152l-596 -303l596 -303v-152l-758 389v134z" />
    <glyph glyph-name="greater.tab" horiz-adv-x="1196" 
d="M252 1137l758 -389v-134l-758 -387v152l598 303l-598 303v152z" />
    <glyph glyph-name="plusminus.tab" horiz-adv-x="1196" 
d="M532 1260h132v-349h344v-127h-344v-352h-132v352h-344v127h344v349zM188 260h822v-131h-822v131z" />
    <glyph glyph-name="onehalf.tab" horiz-adv-x="1796" 
d="M688 565h-577v105h233v487h-246v103h111q91 0 127.5 25t44.5 91h94v-706h213v-105zM1421 1364l-884 -1364h-113l883 1364h114zM1704 0h-582v45q0 133 53.5 206t215.5 157q120 62 156 95t36 89q0 59 -43.5 89t-112.5 30q-80 0 -128 -37t-48 -103v-41h-123v48
q0 107 80.5 174t221.5 67t212.5 -62t71.5 -163q0 -90 -55.5 -144t-210.5 -135q-113 -57 -149.5 -95t-36.5 -107h442v-113z" />
    <glyph glyph-name="onethird.tab" horiz-adv-x="1796" 
d="M688 565h-577v105h233v487h-246v103h111q91 0 127.5 25t44.5 91h94v-706h213v-105zM1421 1364l-884 -1364h-113l883 1364h114zM1419 819q135 0 212 -62t77 -155v-16q0 -63 -44 -112t-124 -66q84 -17 127 -65t43 -120v-16q0 -96 -77.5 -159.5t-215.5 -63.5
q-152 0 -226.5 63.5t-74.5 163.5v39h121v-31q0 -59 45.5 -95t130.5 -36q75 0 121.5 34t46.5 93v16q0 123 -186 123h-82v99h82q93 0 138.5 33.5t45.5 88.5v17q0 57 -46 89t-120 32q-83 0 -128.5 -36.5t-45.5 -92.5v-33h-121v41q0 95 76.5 161t224.5 66z" />
    <glyph glyph-name="twothirds.tab" horiz-adv-x="1796" 
d="M662 565h-582v45q0 133 54 206t216 157q120 61 156.5 94t36.5 88q0 60 -44 90.5t-114 30.5q-80 0 -127 -36.5t-47 -104.5v-39h-123v45q0 109 79 175t222 66q140 0 211.5 -61.5t71.5 -161.5q0 -47 -13.5 -82t-49.5 -68t-78.5 -59.5t-122.5 -68.5q-113 -57 -150.5 -96
t-38.5 -107h443v-113zM1405 1364l-883 -1364h-114l882 1364h115zM1419 819q135 0 212 -62t77 -155v-16q0 -63 -44 -112t-124 -66q84 -17 127 -65t43 -120v-16q0 -96 -77.5 -159.5t-215.5 -63.5q-152 0 -226.5 63.5t-74.5 163.5v39h121v-31q0 -59 45.5 -95t130.5 -36
q75 0 121.5 34t46.5 93v16q0 123 -186 123h-82v99h82q93 0 138.5 33.5t45.5 88.5v17q0 57 -46 89t-120 32q-83 0 -128.5 -36.5t-45.5 -92.5v-33h-121v41q0 95 76.5 161t224.5 66z" />
    <glyph glyph-name="onequarter.tab" horiz-adv-x="1796" 
d="M688 565h-577v105h233v487h-246v103h111q91 0 127.5 25t44.5 91h94v-706h213v-105zM1477 1364l-883 -1364h-115l883 1364h115zM1466 801h164v-518h117v-103h-117v-180h-121v180h-438v101zM1509 283v415l-315 -415h315z" />
    <glyph glyph-name="threequarters.tab" horiz-adv-x="1796" 
d="M379 1382q135 0 211 -61t76 -154v-16q0 -64 -43.5 -112.5t-122.5 -65.5q83 -19 126.5 -67t43.5 -120v-14q0 -96 -78.5 -160.5t-214.5 -64.5q-152 0 -226.5 64.5t-74.5 164.5v39h121v-33q0 -58 45 -93.5t131 -35.5q74 0 121 34t47 91v17q0 125 -189 125h-82v98h82
q95 0 141 34t46 89v16q0 56 -46 88.5t-120 32.5q-83 0 -128.5 -36.5t-45.5 -92.5v-33h-121v39q0 96 76 161.5t225 65.5zM1444 1364l-885 -1364h-113l883 1364h115zM1466 801h164v-518h117v-103h-117v-180h-121v180h-438v101zM1509 283v415l-315 -415h315z" />
    <glyph glyph-name="onefifth.tab" horiz-adv-x="1796" 
d="M688 565h-577v105h233v487h-246v103h111q91 0 127.5 25t44.5 91h94v-706h213v-105zM1419 1364l-882 -1364h-115l883 1364h114zM1171 801h529q-6 -68 -25 -90.5t-76 -22.5h-319l-20 -254q103 76 215 76q117 0 178 -60.5t61 -164.5v-41q0 -115 -77 -187.5t-218 -72.5
q-150 0 -220.5 63t-70.5 166v18h123v-12q0 -61 43 -96t123 -35q76 0 122 41.5t46 114.5v30q0 65 -37 103.5t-112 38.5q-108 0 -193 -82l-102 22z" />
    <glyph glyph-name="twofifths.tab" horiz-adv-x="1796" 
d="M662 565h-582v45q0 133 54 206t216 157q120 61 156.5 94t36.5 88q0 60 -44 90.5t-114 30.5q-80 0 -127 -36.5t-47 -104.5v-39h-123v45q0 109 79 175t222 66q140 0 211.5 -61.5t71.5 -161.5q0 -47 -13.5 -82t-49.5 -68t-78.5 -59.5t-122.5 -68.5q-113 -57 -150.5 -96
t-38.5 -107h443v-113zM1403 1364l-885 -1364h-112l882 1364h115zM1171 801h529q-6 -68 -25 -90.5t-76 -22.5h-319l-20 -254q103 76 215 76q117 0 178 -60.5t61 -164.5v-41q0 -115 -77 -187.5t-218 -72.5q-150 0 -220.5 63t-70.5 166v18h123v-12q0 -61 43 -96t123 -35
q76 0 122 41.5t46 114.5v30q0 65 -37 103.5t-112 38.5q-108 0 -193 -82l-102 22z" />
    <glyph glyph-name="threefifths.tab" horiz-adv-x="1796" 
d="M379 1382q135 0 211 -61t76 -154v-16q0 -64 -43.5 -112.5t-122.5 -65.5q83 -19 126.5 -67t43.5 -120v-14q0 -96 -78.5 -160.5t-214.5 -64.5q-152 0 -226.5 64.5t-74.5 164.5v39h121v-33q0 -58 45 -93.5t131 -35.5q74 0 121 34t47 91v17q0 125 -189 125h-82v98h82
q95 0 141 34t46 89v16q0 56 -46 88.5t-120 32.5q-83 0 -128.5 -36.5t-45.5 -92.5v-33h-121v39q0 96 76 161.5t225 65.5zM1391 1364l-883 -1364h-115l883 1364h115zM1171 801h529q-6 -68 -25 -90.5t-76 -22.5h-319l-20 -254q103 76 215 76q117 0 178 -60.5t61 -164.5v-41
q0 -115 -77 -187.5t-218 -72.5q-150 0 -220.5 63t-70.5 166v18h123v-12q0 -61 43 -96t123 -35q76 0 122 41.5t46 114.5v30q0 65 -37 103.5t-112 38.5q-108 0 -193 -82l-102 22z" />
    <glyph glyph-name="fourfifths.tab" horiz-adv-x="1796" 
d="M426 1366h164v-518h117v-103h-117v-180h-123v180h-438v101zM1395 1364l-883 -1364h-115l883 1364h115zM467 848v416l-313 -416h313zM1171 801h529q-6 -68 -25 -90.5t-76 -22.5h-319l-20 -254q103 76 215 76q117 0 178 -60.5t61 -164.5v-41q0 -115 -77 -187.5t-218 -72.5
q-150 0 -220.5 63t-70.5 166v18h123v-12q0 -61 43 -96t123 -35q76 0 122 41.5t46 114.5v30q0 65 -37 103.5t-112 38.5q-108 0 -193 -82l-102 22z" />
    <glyph glyph-name="onesixth.tab" horiz-adv-x="1796" 
d="M688 565h-577v105h233v487h-246v103h111q91 0 127.5 25t44.5 91h94v-706h213v-105zM1432 1364l-883 -1364h-115l883 1364h115zM1419 -18q-147 0 -225 77t-78 230v196q0 156 81 244t237 88q76 0 132.5 -20t86 -54t43.5 -70t14 -75v-20h-123v10q0 51 -38.5 87t-112.5 36
q-195 0 -195 -213v-95q81 91 223 91q123 0 190.5 -63t67.5 -161v-28q0 -114 -79 -187t-224 -73zM1419 90q78 0 126 40.5t48 109.5v16q0 65 -43.5 104t-124.5 39q-80 0 -130 -37t-50 -100v-20q0 -73 48 -112.5t126 -39.5z" />
    <glyph glyph-name="fivesixths.tab" horiz-adv-x="1796" 
d="M129 1366h530q-6 -68 -24.5 -90.5t-75.5 -22.5h-319l-21 -256q97 78 215 78q117 0 177.5 -60.5t60.5 -164.5v-41q0 -115 -76 -188.5t-217 -73.5q-149 0 -221 63.5t-72 165.5v19h123v-11q0 -61 43.5 -96t124.5 -35q75 0 120.5 42t45.5 114v31q0 64 -37 102.5t-113 38.5
q-105 0 -190 -82l-105 21zM1405 1364l-883 -1364h-114l882 1364h115zM1419 -18q-147 0 -225 77t-78 230v196q0 156 81 244t237 88q76 0 132.5 -20t86 -54t43.5 -70t14 -75v-20h-123v10q0 51 -38.5 87t-112.5 36q-195 0 -195 -213v-95q81 91 223 91q123 0 190.5 -63
t67.5 -161v-28q0 -114 -79 -187t-224 -73zM1419 90q78 0 126 40.5t48 109.5v16q0 65 -43.5 104t-124.5 39q-80 0 -130 -37t-50 -100v-20q0 -73 48 -112.5t126 -39.5z" />
    <glyph glyph-name="oneeighth.tab" horiz-adv-x="1796" 
d="M688 565h-577v105h233v487h-246v103h111q91 0 127.5 25t44.5 91h94v-706h213v-105zM1421 1364l-882 -1364h-115l883 1364h114zM1417 821q143 0 221 -64.5t78 -166.5v-8q0 -59 -35 -106t-100 -73q71 -26 108 -74t37 -112v-10q0 -104 -81.5 -165.5t-227.5 -61.5
t-226.5 61.5t-80.5 165.5v10q0 134 145 186q-67 26 -102 73t-35 106v8q0 102 78 166.5t221 64.5zM1417 715q-78 0 -124 -34t-46 -95v-17q0 -54 48 -87t122 -33t123 33.5t49 86.5v17q0 61 -47 95t-125 34zM1417 86q82 0 131 35t49 96v16q0 57 -50 91t-130 34t-130 -34
t-50 -91v-16q0 -61 49 -96t131 -35z" />
    <glyph glyph-name="threeeighths.tab" horiz-adv-x="1796" 
d="M379 1382q135 0 211 -61t76 -154v-16q0 -64 -43.5 -112.5t-122.5 -65.5q83 -19 126.5 -67t43.5 -120v-14q0 -96 -78.5 -160.5t-214.5 -64.5q-152 0 -226.5 64.5t-74.5 164.5v39h121v-33q0 -58 45 -93.5t131 -35.5q74 0 121 34t47 91v17q0 125 -189 125h-82v98h82
q95 0 141 34t46 89v16q0 56 -46 88.5t-120 32.5q-83 0 -128.5 -36.5t-45.5 -92.5v-33h-121v39q0 96 76 161.5t225 65.5zM1395 1364l-883 -1364h-115l883 1364h115zM1417 821q143 0 221 -64.5t78 -166.5v-8q0 -59 -35 -106t-100 -73q71 -26 108 -74t37 -112v-10
q0 -104 -81.5 -165.5t-227.5 -61.5t-226.5 61.5t-80.5 165.5v10q0 134 145 186q-67 26 -102 73t-35 106v8q0 102 78 166.5t221 64.5zM1417 715q-78 0 -124 -34t-46 -95v-17q0 -54 48 -87t122 -33t123 33.5t49 86.5v17q0 61 -47 95t-125 34zM1417 86q82 0 131 35t49 96v16
q0 57 -50 91t-130 34t-130 -34t-50 -91v-16q0 -61 49 -96t131 -35z" />
    <glyph glyph-name="fiveeighths.tab" horiz-adv-x="1796" 
d="M129 1366h530q-6 -68 -24.5 -90.5t-75.5 -22.5h-319l-21 -256q97 78 215 78q117 0 177.5 -60.5t60.5 -164.5v-41q0 -115 -76 -188.5t-217 -73.5q-149 0 -221 63.5t-72 165.5v19h123v-11q0 -61 43.5 -96t124.5 -35q75 0 120.5 42t45.5 114v31q0 64 -37 102.5t-113 38.5
q-105 0 -190 -82l-105 21zM1395 1364l-883 -1364h-115l883 1364h115zM1417 821q143 0 221 -64.5t78 -166.5v-8q0 -59 -35 -106t-100 -73q71 -26 108 -74t37 -112v-10q0 -104 -81.5 -165.5t-227.5 -61.5t-226.5 61.5t-80.5 165.5v10q0 134 145 186q-67 26 -102 73t-35 106v8
q0 102 78 166.5t221 64.5zM1417 715q-78 0 -124 -34t-46 -95v-17q0 -54 48 -87t122 -33t123 33.5t49 86.5v17q0 61 -47 95t-125 34zM1417 86q82 0 131 35t49 96v16q0 57 -50 91t-130 34t-130 -34t-50 -91v-16q0 -61 49 -96t131 -35z" />
    <glyph glyph-name="seveneighths.tab" horiz-adv-x="1796" 
d="M74 1366h618v-78q-151 -169 -226 -343.5t-93 -379.5h-144q14 185 92 350t234 332h-481v119zM1311 1364l-883 -1364h-115l883 1364h115zM1417 821q143 0 221 -64.5t78 -166.5v-8q0 -59 -35 -106t-100 -73q71 -26 108 -74t37 -112v-10q0 -104 -81.5 -165.5t-227.5 -61.5
t-226.5 61.5t-80.5 165.5v10q0 134 145 186q-67 26 -102 73t-35 106v8q0 102 78 166.5t221 64.5zM1417 715q-78 0 -124 -34t-46 -95v-17q0 -54 48 -87t122 -33t123 33.5t49 86.5v17q0 61 -47 95t-125 34zM1417 86q82 0 131 35t49 96v16q0 57 -50 91t-130 34t-130 -34
t-50 -91v-16q0 -61 49 -96t131 -35z" />
    <glyph glyph-name="i.dot" horiz-adv-x="473" 
d="M147 1350h181v-183h-181v183zM156 965h161v-965h-161v965z" />
    <glyph glyph-name="fraction.tab" horiz-adv-x="286" 
d="M641 1364l-883 -1364h-114l882 1364h115z" />
    <glyph glyph-name="zero.num" 
d="M377 1386q149 0 232 -91.5t83 -254.5v-147q0 -164 -83 -256t-232 -92t-233.5 92t-84.5 256v147q0 163 84.5 254.5t233.5 91.5zM377 1274q-92 0 -139.5 -60.5t-47.5 -173.5v-149q0 -113 47.5 -173.5t139.5 -60.5q90 0 137 60.5t47 173.5v149q0 113 -47 173.5t-137 60.5z
" />
    <glyph glyph-name="one.num" horiz-adv-x="587" 
d="M305 1376h94v-811h-135v596h-190v99h73q76 0 112 25.5t46 90.5z" />
    <glyph glyph-name="one.num_alt" 
d="M688 565h-577v105h233v487h-246v103h111q91 0 127.5 25t44.5 91h94v-706h213v-105z" />
    <glyph glyph-name="two.num" 
d="M662 565h-582v45q0 133 54 206t216 157q120 61 156.5 94t36.5 88q0 60 -44 90.5t-114 30.5q-80 0 -127 -36.5t-47 -104.5v-39h-123v45q0 109 79 175t222 66q140 0 211.5 -61.5t71.5 -161.5q0 -47 -13.5 -82t-49.5 -68t-78.5 -59.5t-122.5 -68.5q-113 -57 -150.5 -96
t-38.5 -107h443v-113z" />
    <glyph glyph-name="three.num" 
d="M379 1382q135 0 211 -61t76 -154v-16q0 -64 -43.5 -112.5t-122.5 -65.5q83 -19 126.5 -67t43.5 -120v-14q0 -96 -78.5 -160.5t-214.5 -64.5q-152 0 -226.5 64.5t-74.5 164.5v39h121v-33q0 -58 45 -93.5t131 -35.5q74 0 121 34t47 91v17q0 125 -189 125h-82v98h82
q95 0 141 34t46 89v16q0 56 -46 88.5t-120 32.5q-83 0 -128.5 -36.5t-45.5 -92.5v-33h-121v39q0 96 76 161.5t225 65.5z" />
    <glyph glyph-name="four.num" 
d="M426 1366h164v-518h117v-103h-117v-180h-123v180h-438v101zM467 848v416l-313 -416h313z" />
    <glyph glyph-name="five.num" 
d="M129 1366h530q-6 -68 -24.5 -90.5t-75.5 -22.5h-319l-21 -256q97 78 215 78q117 0 177.5 -60.5t60.5 -164.5v-41q0 -115 -76 -188.5t-217 -73.5q-149 0 -221 63.5t-72 165.5v19h123v-11q0 -61 43.5 -96t124.5 -35q75 0 120.5 42t45.5 114v31q0 64 -37 102.5t-113 38.5
q-105 0 -190 -82l-105 21z" />
    <glyph glyph-name="six.num" 
d="M379 547q-147 0 -225 77t-78 230v197q0 156 80 243.5t235 87.5q62 0 111.5 -13.5t80 -35.5t51 -51.5t28.5 -58.5t8 -60v-20h-125v10q0 51 -38.5 86t-113.5 35q-192 0 -192 -211v-94q75 90 223 90q123 0 190.5 -63.5t67.5 -161.5v-29q0 -113 -79 -185.5t-224 -72.5z
M379 655q79 0 126.5 40t47.5 108v16q0 66 -44 105t-126 39q-79 0 -129.5 -36.5t-50.5 -99.5v-20q0 -73 49 -112.5t127 -39.5z" />
    <glyph glyph-name="seven.num" 
d="M74 1366h618v-78q-151 -169 -226 -343.5t-93 -379.5h-144q14 185 92 350t234 332h-481v119z" />
    <glyph glyph-name="eight.num" 
d="M377 1386q142 0 220.5 -64.5t78.5 -166.5v-10q0 -58 -35 -104t-102 -72q72 -26 109.5 -75t37.5 -112v-10q0 -104 -81.5 -165.5t-227.5 -61.5q-147 0 -228 61.5t-81 165.5v10q0 63 37 112t108 75q-65 26 -100 72t-35 104v10q0 102 78 166.5t221 64.5zM377 1280
q-78 0 -125 -34t-47 -95v-18q0 -53 48.5 -86t123.5 -33q74 0 122 33t48 86v18q0 60 -47 94.5t-123 34.5zM377 651q82 0 131 35t49 96v17q0 57 -50 91t-130 34t-130 -34t-50 -91v-17q0 -61 49 -96t131 -35z" />
    <glyph glyph-name="nine.num" 
d="M377 1384q146 0 223.5 -78.5t77.5 -230.5v-196q0 -155 -80.5 -242.5t-239.5 -87.5q-76 0 -132.5 19.5t-87 52.5t-44.5 68.5t-14 74.5v18h123v-6q0 -53 37.5 -87t117.5 -34q195 0 195 213v86q-78 -88 -223 -88q-123 0 -189.5 62t-66.5 157v37q0 114 79 188t224 74z
M377 1276q-78 0 -126 -41.5t-48 -110.5v-26q0 -61 43.5 -99t124.5 -38q75 0 127.5 36.5t52.5 98.5v22q0 75 -48.5 116.5t-125.5 41.5z" />
    <glyph glyph-name="zero.den" 
d="M377 821q149 0 232 -91t83 -255v-147q0 -164 -83 -256t-232 -92t-233.5 92t-84.5 256v147q0 164 84 255t234 91zM377 709q-92 0 -139.5 -59.5t-47.5 -172.5v-151q0 -113 47.5 -173.5t139.5 -60.5q90 0 137 60.5t47 173.5v151q0 113 -47 172.5t-137 59.5z" />
    <glyph glyph-name="one.den" horiz-adv-x="587" 
d="M305 811h94v-811h-135v596h-190v98h73q76 0 112 26t46 91z" />
    <glyph glyph-name="one.den_alt" 
d="M688 0h-577v104h233v490h-246v100h111q90 0 127 26t45 93h94v-709h213v-104z" />
    <glyph glyph-name="two.den" 
d="M662 0h-582v45q0 133 54 206t216 157q120 63 156.5 96t36.5 88q0 59 -44 89t-114 30q-79 0 -126.5 -37t-47.5 -103v-41h-123v48q0 107 79.5 174t221.5 67q140 0 211.5 -62t71.5 -163q0 -47 -13.5 -82t-49.5 -68.5t-79 -60t-122 -68.5q-114 -57 -151 -95t-38 -107h443
v-113z" />
    <glyph glyph-name="three.den" 
d="M379 819q135 0 211 -62t76 -155v-16q0 -64 -43.5 -112.5t-122.5 -65.5q82 -17 126 -65.5t44 -119.5v-16q0 -96 -78.5 -159.5t-214.5 -63.5q-152 0 -226.5 63.5t-74.5 163.5v39h121v-31q0 -59 45 -95t131 -36q74 0 121 34t47 93v16q0 123 -189 123h-82v99h82
q95 0 141 33.5t46 88.5v17q0 57 -46 89t-120 32q-83 0 -128.5 -36.5t-45.5 -92.5v-33h-121v41q0 95 76.5 161t224.5 66z" />
    <glyph glyph-name="four.den" 
d="M426 801h164v-518h117v-103h-117v-180h-123v180h-438v101zM467 283v415l-313 -415h313z" />
    <glyph glyph-name="five.den" 
d="M129 801h530q-6 -68 -24.5 -90.5t-75.5 -22.5h-319l-21 -254q99 76 215 76q117 0 177.5 -60.5t60.5 -164.5v-41q0 -115 -76 -187.5t-217 -72.5q-150 0 -221.5 63t-71.5 166v18h123v-12q0 -61 43.5 -96t124.5 -35q75 0 120.5 42t45.5 114v30q0 65 -37 103.5t-113 38.5
q-105 0 -190 -82l-105 22z" />
    <glyph glyph-name="six.den" 
d="M379 -18q-147 0 -225 77t-78 230v196q0 156 80 244t235 88q62 0 111.5 -13.5t80 -35.5t51 -51.5t28.5 -58.5t8 -60v-20h-125v10q0 52 -38.5 87.5t-113.5 35.5q-192 0 -192 -213v-95q75 91 223 91q123 0 190.5 -63t67.5 -161v-28q0 -114 -79 -187t-224 -73zM379 90
q78 0 126 40.5t48 109.5v16q0 65 -44.5 104t-125.5 39q-79 0 -129.5 -37t-50.5 -100v-20q0 -73 49 -112.5t127 -39.5z" />
    <glyph glyph-name="seven.den" 
d="M74 801h618v-76q-151 -170 -226 -345t-93 -380h-144q14 186 92 351.5t234 332.5h-481v117z" />
    <glyph glyph-name="eight.den" 
d="M377 821q142 0 220.5 -64.5t78.5 -166.5v-8q0 -59 -35 -106t-102 -73q147 -53 147 -186v-10q0 -104 -81.5 -165.5t-227.5 -61.5q-147 0 -228 61.5t-81 165.5v10q0 64 37 112t108 74q-65 26 -100 73t-35 106v8q0 102 78 166.5t221 64.5zM377 715q-78 0 -125 -34t-47 -95
v-17q0 -53 49 -86.5t123 -33.5t122 33t48 87v17q0 60 -47 94.5t-123 34.5zM377 86q82 0 131 35t49 96v16q0 57 -50 91t-130 34t-130 -34t-50 -91v-16q0 -61 49 -96t131 -35z" />
    <glyph glyph-name="nine.den" 
d="M377 819q146 0 223.5 -78.5t77.5 -230.5v-197q0 -155 -80.5 -242t-239.5 -87q-76 0 -132.5 20t-87 53t-44.5 69t-14 75v16h123v-6q0 -51 37.5 -86t117.5 -35q195 0 195 213v86q-78 -88 -223 -88q-122 0 -189 62.5t-67 156.5v37q0 115 79 188.5t224 73.5zM377 711
q-79 0 -126.5 -41t-47.5 -111v-24q0 -61 44 -100.5t124 -39.5q75 0 127.5 36.5t52.5 98.5v25q0 74 -49 115t-125 41z" />
    <glyph glyph-name="caron.alt" horiz-adv-x="1024" 
d="M449 1460h149l-78 -352h-88z" />
    <glyph glyph-name="acute.cap" horiz-adv-x="1021" 
d="M717 1898l-297 -331h-113l211 331h199z" />
    <glyph glyph-name="hungarumlaut.cap" horiz-adv-x="1021" 
d="M535 1898l-275 -331h-100l198 331h177zM864 1898l-274 -331h-101l199 331h176z" />
    <glyph glyph-name="grave.cap" horiz-adv-x="1021" 
d="M307 1898h199l211 -331h-115z" />
    <glyph glyph-name="circumflex.cap" horiz-adv-x="1024" 
d="M428 1890h170q57 -201 240 -264v-78q-111 20 -195.5 81.5t-130.5 137.5q-45 -76 -129.5 -137.5t-194.5 -81.5v78q184 64 240 264z" />
    <glyph glyph-name="caron.cap" horiz-adv-x="1024" 
d="M188 1915q110 -20 194.5 -81.5t129.5 -137.5q45 76 129.5 137.5t194.5 81.5v-78q-184 -67 -240 -264h-168q-56 197 -240 264v78z" />
    <glyph glyph-name="breve.cap" horiz-adv-x="1024" 
d="M512 1677q207 0 207 127q0 29 -12 94h73q29 -71 29 -133q0 -102 -82.5 -157.5t-214.5 -55.5t-214.5 55.5t-82.5 157.5q0 62 29 133h73q-12 -65 -12 -94q0 -127 207 -127z" />
    <glyph glyph-name="tilde.cap" horiz-adv-x="1024" 
d="M344 1872q43 0 82 -18t61 -37t52 -52q4 -4 15.5 -16t15.5 -16.5t14.5 -14.5t15.5 -14t14.5 -12t16.5 -11t16 -7t17.5 -5.5t17.5 -1.5q37 0 56.5 25t19.5 71q0 41 -17 97h82q23 -62 23 -125q0 -85 -45 -136t-121 -51q-43 0 -82 17t-61.5 36.5t-51.5 51.5q-4 4 -15.5 16.5
t-15.5 17t-14 15t-15.5 14.5t-15 12t-16 11t-15.5 7t-18 5.5t-18 1.5q-37 0 -56.5 -25t-19.5 -71q0 -42 17 -98h-82q-23 67 -23 124q0 85 45 137t121 52z" />
    <glyph glyph-name="macron.cap" horiz-adv-x="1024" 
d="M201 1729h622v-113h-622v113z" />
    <glyph glyph-name="dieresis.cap" horiz-adv-x="1024" 
d="M250 1769h160v-188h-160v188zM614 1769h160v-188h-160v188z" />
    <glyph glyph-name="dotaccent.cap" horiz-adv-x="1024" 
d="M422 1761h180v-180h-180v180z" />
    <glyph glyph-name="ring.cap" horiz-adv-x="1024" 
d="M512 1948q101 0 164 -59.5t63 -145.5t-63 -145.5t-164 -59.5t-164 59.5t-63 145.5t63 145.5t164 59.5zM512 1870q-63 0 -101 -36.5t-38 -90.5t38 -89.5t101 -35.5t101 35.5t38 89.5t-38 90.5t-101 36.5z" />
    <glyph glyph-name="commaaccent.rot" horiz-adv-x="1024" 
d="M391 1167v176q0 107 61 176t179 95v-53q-76 -22 -117.5 -73.5t-40.5 -125.5h98v-195h-180z" />
    </font>
</defs>
</svg>
