<?xml version="1.0" standalone="no"?>
<!DOCTYPE svg PUBLIC "-//W3C//DTD SVG 1.1//EN" "http://www.w3.org/Graphics/SVG/1.1/DTD/svg11.dtd" >
<svg xmlns="http://www.w3.org/2000/svg" xmlns:xlink="http://www.w3.org/1999/xlink" version="1.1">
<metadata>
Created by FontForge 20201107 at Wed Jul 30 10:59:06 2025
 By 
Copyright (C) 2017 Hoefler &#38; Co. http://www.typography.com
</metadata>
<defs>
<font id="RingsideNarrow-Light" horiz-adv-x="753" >
  <font-face 
    font-family="Ringside Narrow Light"
    font-weight="300"
    font-stretch="semi-condensed"
    units-per-em="2048"
    panose-1="2 0 4 0 0 0 0 0 0 0"
    ascent="1638"
    descent="-410"
    x-height="958"
    cap-height="1364"
    bbox="-360 -657 2116 2101"
    underline-thickness="0"
    underline-position="0"
    unicode-range="U+0020-FB04"
  />
<missing-glyph horiz-adv-x="1024" 
d="M0 -410v2048h1024v-2048h-1024zM145 1536l367 -799l367 799h-734zM102 -156l353 770l-353 770v-1540zM922 1384l-353 -770l353 -770v1540zM512 492l-367 -799h734z" />
    <glyph glyph-name="f_f" unicode="ff" horiz-adv-x="1226" 
d="M530 1417h80v-108h-61q-100 0 -144.5 -44t-44.5 -132v-175h453v175q0 136 74 210t225 74h80v-108h-62q-100 0 -145 -44.5t-45 -131.5v-175h250v-106h-250v-852h-127v852h-453v-852h-129v852h-157v106h157v175q0 136 74.5 210t224.5 74z" />
    <glyph glyph-name="f_f_i" unicode="ffi" horiz-adv-x="1687" 
d="M1192 1417v-108h-62q-100 0 -145 -44.5t-45 -131.5v-175h250v-106h-250v-852h-127v852h-453v-852h-129v852h-157v106h157v175q0 136 74.5 210t224.5 74h80v-108h-61q-100 0 -144.5 -44t-44.5 -132v-175h453v175q0 136 74 210t225 74h80zM1384 1341h148v-165h-148v165z
M1395 958h127v-958h-127v958z" />
    <glyph glyph-name="f_f_l" unicode="ffl" horiz-adv-x="1687" 
d="M610 1417v-108h-61q-100 0 -144.5 -44t-44.5 -132v-175h453v175q0 136 74 210t225 74h80v-108h-62q-100 0 -145 -44.5t-45 -131.5v-175h250v-106h-250v-852h-127v852h-453v-852h-129v852h-157v106h157v175q0 136 74.5 210t224.5 74h80zM1395 1417h129v-1417h-129v1417z
" />
    <glyph glyph-name=".notdef" horiz-adv-x="1024" 
d="M0 -410v2048h1024v-2048h-1024zM145 1536l367 -799l367 799h-734zM102 -156l353 770l-353 770v-1540zM922 1384l-353 -770l353 -770v1540zM512 492l-367 -799h734z" />
    <glyph glyph-name=".null" horiz-adv-x="0" 
 />
    <glyph glyph-name="nonmarkingreturn" horiz-adv-x="682" 
 />
    <glyph glyph-name="space" unicode=" " horiz-adv-x="411" 
 />
    <glyph glyph-name="exclam" unicode="!" horiz-adv-x="491" 
d="M178 1364h135v-446l-45 -531h-47l-43 531v446zM164 211h162v-211h-162v211z" />
    <glyph glyph-name="quotedbl" unicode="&#x22;" horiz-adv-x="794" 
d="M207 1364h147l-166 -594h-86zM559 1364h146l-170 -594h-89z" />
    <glyph glyph-name="numbersign" unicode="#" horiz-adv-x="1466" 
d="M795 0l65 373h-364l-68 -373h-109l68 373h-295v104h314l73 410h-329v104h348l67 373h109l-68 -373h367l65 373h109l-68 -373h297v-104h-315l-74 -410h332v-104h-350l-68 -373h-106zM514 477h367l73 410h-366z" />
    <glyph glyph-name="dollar" unicode="$" horiz-adv-x="1175" 
d="M1036 356q0 -159 -103.5 -256.5t-279.5 -111.5v-224h-114v224q-198 13 -300 117t-102 268v67h133v-57q0 -134 82 -210.5t246 -76.5q139 0 222 66.5t83 185.5q0 59 -18.5 101t-65 75t-102.5 56t-154 55q-82 25 -140.5 48.5t-111 55.5t-84 70t-49.5 88.5t-18 114.5
q0 149 102.5 250t278.5 114v219h114v-219q189 -18 279 -121.5t90 -257.5v-55h-131v49q0 121 -72 198t-233 77q-136 0 -215.5 -68.5t-79.5 -177.5q0 -55 18 -94t62.5 -71t101.5 -56t152 -54q86 -28 144 -52t112 -57.5t85 -71.5t49.5 -90t18.5 -118z" />
    <glyph glyph-name="percent" unicode="%" horiz-adv-x="1601" 
d="M393 1393q133 0 206 -81t73 -212v-96q0 -131 -74 -212t-205 -81t-205.5 81.5t-74.5 211.5v96q0 131 74 212t206 81zM1393 1380l-1067 -1396h-119l1069 1396h117zM393 1298q-88 0 -131 -53.5t-43 -142.5v-101q0 -88 44 -141t130 -53t129 52.5t43 141.5v101q0 88 -42.5 142
t-129.5 54zM1206 -29q-131 0 -204.5 80t-73.5 211v96q0 132 73.5 213.5t206.5 81.5q132 0 205.5 -82t73.5 -213v-96q0 -130 -75 -210.5t-206 -80.5zM1208 66q86 0 129 53t43 141v100q0 90 -43 143.5t-131 53.5q-87 0 -129.5 -53.5t-42.5 -143.5v-100q0 -87 44 -140.5
t130 -53.5z" />
    <glyph glyph-name="ampersand" unicode="&#x26;" horiz-adv-x="1370" 
d="M1329 264q0 -151 -47 -223t-149 -72q-141 0 -304 172q-184 -172 -395 -172q-164 0 -260 97t-96 243q0 141 85.5 243t256.5 181q-50 95 -74 172.5t-24 159.5q0 66 21 124.5t60.5 105t102.5 73.5t141 27q145 0 226 -80.5t81 -196.5q0 -130 -86 -233t-288 -199
q109 -198 256 -375q147 174 233 447h111q-89 -308 -271 -529q135 -153 224 -153q55 0 77.5 47.5t22.5 171.5v53h96v-84zM444 1063q0 -137 88 -291q159 73 230.5 155t71.5 183q0 72 -46.5 125t-140.5 53q-103 0 -153 -64.5t-50 -160.5zM203 317q0 -118 70 -178.5t169 -60.5
q166 0 314 145q-141 163 -289 422q-127 -59 -195.5 -138.5t-68.5 -189.5z" />
    <glyph glyph-name="quotesingle" unicode="'" horiz-adv-x="446" 
d="M211 1364h145l-168 -594h-86z" />
    <glyph glyph-name="parenleft" unicode="(" horiz-adv-x="790" 
d="M715 1595l59 -67q-469 -348 -469 -907q0 -561 469 -906l-59 -69q-271 186 -407 435t-136 540t136 539.5t407 434.5z" />
    <glyph glyph-name="parenright" unicode=")" horiz-adv-x="790" 
d="M78 -354l-62 67q469 348 469 910q0 557 -469 905l62 67q270 -186 405 -434t135 -538q0 -292 -135 -540.5t-405 -436.5z" />
    <glyph glyph-name="asterisk" unicode="*" horiz-adv-x="866" 
d="M483 649q0 -33 -32 -33h-37q-33 0 -33 33q0 126 33 312q-138 -120 -250 -187q-29 -15 -45 12l-19 33q-16 27 11 45q115 67 286 127q-169 57 -286 125q-26 17 -11 45l19 33q17 28 45 12q115 -69 250 -184q-33 183 -33 309q0 33 33 33h37q32 0 32 -33q0 -143 -32 -309
q139 119 251 184q27 15 43 -12l19 -33q16 -30 -10 -45q-115 -67 -287 -125q173 -61 287 -127q28 -16 10 -45l-19 -33q-16 -27 -43 -12q-101 58 -251 187q32 -168 32 -312z" />
    <glyph glyph-name="plus" unicode="+" horiz-adv-x="1179" 
d="M535 1092h112v-357h361v-106h-361v-357h-112v357h-363v106h363v357z" />
    <glyph glyph-name="comma" unicode="," horiz-adv-x="415" 
d="M125 215h164v-152q0 -163 -56.5 -242t-185.5 -114v49q90 41 122 96t34 148h-78v215z" />
    <glyph glyph-name="hyphen" unicode="-" horiz-adv-x="776" 
d="M121 678h534v-109h-534v109z" />
    <glyph glyph-name="period" unicode="." horiz-adv-x="415" 
d="M125 215h164v-215h-164v215z" />
    <glyph glyph-name="slash" unicode="/" horiz-adv-x="837" 
d="M647 1556h115l-612 -1873h-115z" />
    <glyph glyph-name="zero" unicode="0" horiz-adv-x="1249" 
d="M625 1395q231 0 360 -148t129 -409v-312q0 -261 -129 -409t-360 -148t-360.5 148.5t-129.5 408.5v312q0 260 129.5 408.5t360.5 148.5zM625 1280q-171 0 -264 -114.5t-93 -321.5v-322q0 -207 93 -321.5t264 -114.5t263.5 114.5t92.5 321.5v322q0 207 -92.5 321.5
t-263.5 114.5z" />
    <glyph glyph-name="one" unicode="1" horiz-adv-x="729" 
d="M49 1110v90h72q145 0 206.5 36.5t73.5 147.5h99v-1384h-133v1110h-318z" />
    <glyph glyph-name="two" unicode="2" horiz-adv-x="1132" 
d="M594 1393q214 0 323 -100t109 -265q0 -68 -17.5 -122t-49.5 -96t-86.5 -83t-118.5 -79.5t-154 -88.5l-12 -6q-137 -74 -204.5 -131.5t-95.5 -126t-28 -176.5h754v-119h-893v76q0 146 34.5 237.5t123 171.5t266.5 181q214 117 280 185t66 177q0 123 -81.5 186.5
t-217.5 63.5q-147 0 -234.5 -73t-87.5 -206v-71h-127v76q0 174 120 281.5t331 107.5z" />
    <glyph glyph-name="three" unicode="3" horiz-adv-x="1140" 
d="M575 1395q107 0 191.5 -30t136 -81t78.5 -114t27 -134v-30q0 -109 -70 -195t-199 -117q135 -30 204 -111.5t69 -201.5v-33q0 -163 -114 -271t-325 -108q-101 0 -179.5 20.5t-128.5 55t-83 83t-46 100t-13 110.5v55h127v-51q0 -120 77 -188t242 -68q148 0 228 68.5
t80 197.5v31q0 120 -81.5 187t-254.5 67h-129v108h129q168 0 250.5 69t82.5 185v25q0 123 -82 188.5t-223 65.5q-154 0 -235.5 -71.5t-81.5 -184.5v-51h-127v55q0 54 14.5 104.5t48.5 99.5t84 85t128 58t175 22z" />
    <glyph glyph-name="four" unicode="4" horiz-adv-x="1159" 
d="M737 1364h158v-909h205v-113h-205v-342h-127v342h-702v100zM768 455v757l-555 -757h555z" />
    <glyph glyph-name="five" unicode="5" horiz-adv-x="1159" 
d="M651 874q197 0 295 -106t98 -285v-92q0 -90 -28 -166t-83 -133.5t-142.5 -90t-198.5 -32.5q-117 0 -205.5 29t-140.5 81t-77.5 119t-25.5 148v16h129v-14q0 -128 84 -195t236 -67q141 0 230 77.5t89 227.5v80q0 137 -68 214t-212 77q-113 0 -198 -42t-169 -122l-104 27
l53 739h805q-6 -72 -30.5 -95.5t-100.5 -23.5h-559l-39 -516q74 66 157.5 105.5t204.5 39.5z" />
    <glyph glyph-name="six" unicode="6" horiz-adv-x="1183" 
d="M600 -29q-229 0 -346 126.5t-117 351.5v425q0 241 124.5 381t367.5 140q91 0 164.5 -22.5t120 -58t77.5 -82t43.5 -91.5t12.5 -90v-47h-129v24q0 110 -76 181t-211 71q-363 0 -363 -412v-206q128 180 383 180q198 0 306 -109.5t108 -281.5v-54q0 -186 -120.5 -306
t-344.5 -120zM600 86q148 0 239 77.5t91 231.5v35q0 148 -83 225.5t-235 77.5q-143 0 -242.5 -75t-99.5 -209v-48q0 -104 46 -177t119 -105.5t165 -32.5z" />
    <glyph glyph-name="seven" unicode="7" horiz-adv-x="1044" 
d="M469 0h-141q24 305 154.5 611t369.5 634h-778v119h925v-96q-238 -324 -368.5 -628.5t-161.5 -639.5z" />
    <glyph glyph-name="eight" unicode="8" horiz-adv-x="1202" 
d="M602 1395q218 0 336.5 -106t118.5 -271v-21q0 -108 -58.5 -188t-171.5 -121q248 -89 248 -323v-23q0 -171 -125.5 -272t-347.5 -101q-223 0 -349 101t-126 272v23q0 234 248 323q-113 41 -171.5 121t-58.5 188v21q0 166 119 271.5t338 105.5zM602 1282q-150 0 -238 -68
t-88 -194v-27q0 -121 88.5 -188.5t237.5 -67.5q145 0 233.5 67.5t88.5 188.5v27q0 126 -87 194t-235 68zM602 82q157 0 248.5 67.5t91.5 196.5v25q0 128 -91.5 197t-248.5 69q-159 0 -251.5 -69t-92.5 -197v-25q0 -129 93 -196.5t251 -67.5z" />
    <glyph glyph-name="nine" unicode="9" horiz-adv-x="1183" 
d="M584 1395q229 0 346 -126.5t117 -350.5v-429q0 -238 -123.5 -378t-368.5 -140q-78 0 -143 15.5t-110 42t-78.5 60t-53 72t-28.5 75.5t-9 73v41h131v-22q0 -105 75 -173.5t214 -68.5q178 0 271.5 101.5t93.5 308.5v188q-131 -178 -386 -178q-197 0 -305 108.5t-108 284.5
v68q0 188 121.5 308t343.5 120zM584 1280q-67 0 -124.5 -17t-104.5 -52.5t-74 -98.5t-27 -147v-43q0 -157 84.5 -233.5t232.5 -76.5q90 0 166.5 30.5t127 97.5t50.5 159v55q0 84 -27 148t-74 102t-105 57t-125 19z" />
    <glyph glyph-name="colon" unicode=":" horiz-adv-x="436" 
d="M137 944h164v-215h-164v215zM137 215h164v-215h-164v215z" />
    <glyph glyph-name="semicolon" unicode=";" horiz-adv-x="436" 
d="M137 944h164v-215h-164v215zM137 215h164v-152q0 -163 -57 -242t-187 -114v49q91 41 123.5 96t32.5 148h-76v215z" />
    <glyph glyph-name="less" unicode="&#x3c;" horiz-adv-x="1081" 
d="M879 1122v-127l-611 -313l611 -313v-127l-742 385v110z" />
    <glyph glyph-name="equal" unicode="=" horiz-adv-x="1230" 
d="M199 936h833v-113h-833v113zM199 539h833v-113h-833v113z" />
    <glyph glyph-name="greater" unicode="&#x3e;" horiz-adv-x="1081" 
d="M203 242v127l612 313l-612 313v127l741 -385v-110z" />
    <glyph glyph-name="question" unicode="?" horiz-adv-x="1026" 
d="M940 1047q0 -118 -55.5 -202t-202.5 -177q-105 -68 -132.5 -118t-27.5 -157h-116q0 79 6.5 124t34 90t69 81.5t123.5 95.5q101 68 133.5 126t32.5 134q0 234 -283 234q-169 0 -241 -76t-72 -215v-63h-127v82q0 77 23 143.5t72 122.5t138 88.5t209 32.5q115 0 199 -29
t129.5 -79.5t66.5 -109.5t21 -128zM385 0v211h160v-211h-160z" />
    <glyph glyph-name="at" unicode="@" horiz-adv-x="1605" 
d="M872 1358q129 0 236.5 -33.5t181.5 -90t125 -133t74.5 -161t23.5 -174.5q0 -233 -118.5 -391t-276.5 -158q-93 0 -147.5 52t-46.5 132q-97 -168 -236 -168q-99 0 -156 67t-57 189q0 109 43 218t127 186.5t186 77.5q67 0 115.5 -39.5t63.5 -110.5l41 137h110l-119 -401
q-38 -123 -16 -189.5t102 -66.5q111 0 202 134.5t91 330.5q0 226 -148 367t-401 141q-189 0 -341 -97.5t-238 -273.5t-86 -397q0 -282 159 -445t439 -163q141 0 273.5 48t219.5 117l50 -67q-98 -78 -243.5 -130t-299.5 -52q-318 0 -505 186.5t-187 505.5q0 185 58.5 344.5
t160 270.5t241.5 174t299 63zM844 877q-58 0 -107.5 -38.5t-80.5 -98.5t-48.5 -127t-17.5 -128q0 -78 32.5 -119.5t94.5 -41.5q65 0 123 61t86 158l53 184q0 60 -34.5 105t-100.5 45z" />
    <glyph glyph-name="A" unicode="A" horiz-adv-x="1251" 
d="M1032 0l-123 365h-571l-125 -365h-137l479 1378h143l478 -1378h-144zM621 1194l-246 -717h495l-245 717h-4z" />
    <glyph glyph-name="B" unicode="B" horiz-adv-x="1216" 
d="M190 1364h478q200 0 301.5 -84t101.5 -238v-51q0 -124 -59 -194.5t-174 -102.5v-4q124 -30 188 -103t64 -200v-65q0 -153 -103 -237.5t-301 -84.5h-496v1364zM326 1249v-508h317q142 0 216.5 63t74.5 179v49q0 104 -70.5 160.5t-206.5 56.5h-331zM326 635v-520h350
q139 0 207.5 56.5t68.5 162.5v57q0 117 -76.5 180.5t-228.5 63.5h-321z" />
    <glyph glyph-name="C" unicode="C" horiz-adv-x="1247" 
d="M649 1395q222 0 343.5 -117.5t121.5 -296.5v-88h-133v74q0 135 -85 223t-245 88q-171 0 -271.5 -115.5t-100.5 -296.5v-368q0 -179 101 -295.5t271 -116.5q159 0 244.5 88t85.5 223v74h133v-88q0 -85 -30.5 -159.5t-87.5 -131.5t-147 -90t-202 -33q-233 0 -370.5 151.5
t-137.5 393.5v336q0 241 139 393t371 152z" />
    <glyph glyph-name="D" unicode="D" horiz-adv-x="1286" 
d="M190 1364h433q255 0 389.5 -146t134.5 -393v-288q0 -246 -135.5 -391.5t-388.5 -145.5h-433v1364zM328 1247v-1130h288q196 0 295 113t99 305v294q0 192 -100 305t-296 113h-286z" />
    <glyph glyph-name="E" unicode="E" horiz-adv-x="1120" 
d="M190 1364h830v-117h-692v-499h551v-115h-551v-516h696v-117h-834v1364z" />
    <glyph glyph-name="F" unicode="F" horiz-adv-x="1056" 
d="M190 1364h809v-117h-671v-520h528v-117h-528v-610h-138v1364z" />
    <glyph glyph-name="G" unicode="G" horiz-adv-x="1290" 
d="M655 1395q115 0 205.5 -34.5t146.5 -94t85.5 -136.5t29.5 -165v-39h-133v30q0 137 -86 229.5t-250 92.5q-177 0 -275.5 -116t-98.5 -304l-3 -348q0 -192 100 -308t267 -116q161 0 256.5 102t95.5 265v110h-329v113h462v-676h-79l-21 223q-122 -250 -405 -250
q-220 0 -352 148t-132 397v330q0 159 60.5 282t178.5 194t277 71z" />
    <glyph glyph-name="H" unicode="H" horiz-adv-x="1329" 
d="M190 1364h138v-614h673v614h138v-1364h-138v631h-673v-631h-138v1364z" />
    <glyph glyph-name="I" unicode="I" horiz-adv-x="540" 
d="M201 1364h137v-1364h-137v1364z" />
    <glyph glyph-name="J" unicode="J" horiz-adv-x="1085" 
d="M770 1364h137v-913q0 -231 -103 -355.5t-310 -124.5q-199 0 -298.5 106.5t-99.5 305.5v121h127v-111q0 -303 273 -303q143 0 208.5 90.5t65.5 263.5v920z" />
    <glyph glyph-name="K" unicode="K" horiz-adv-x="1175" 
d="M967 0q-332 502 -441 666l-198 -246v-420h-138v1364h138v-774l626 774h162l-498 -598l506 -766h-157z" />
    <glyph glyph-name="L" unicode="L" horiz-adv-x="1021" 
d="M190 1364h138v-1245h630v-119h-768v1364z" />
    <glyph glyph-name="M" unicode="M" horiz-adv-x="1656" 
d="M190 1364h201l436 -1165h4l437 1165h198v-1364h-131v1198h-4l-450 -1200h-109l-450 1200h-7v-1198h-125v1364z" />
    <glyph glyph-name="N" unicode="N" horiz-adv-x="1335" 
d="M190 1364h132l692 -1110h4v1110h127v-1364h-125l-698 1120h-5v-1120h-127v1364z" />
    <glyph glyph-name="O" unicode="O" horiz-adv-x="1320" 
d="M662 1395q241 0 380.5 -149.5t139.5 -403.5v-320q0 -254 -140.5 -403.5t-382.5 -149.5q-241 0 -380.5 149.5t-139.5 403.5v320q0 254 140.5 403.5t382.5 149.5zM662 1278q-179 0 -281 -116t-102 -312v-336q0 -196 101.5 -312t278.5 -116q179 0 282 116t103 312v336
q0 196 -102.5 312t-279.5 116z" />
    <glyph glyph-name="P" unicode="P" horiz-adv-x="1138" 
d="M190 1364h447q211 0 314.5 -94.5t103.5 -270.5v-92q0 -178 -104.5 -272t-317.5 -94h-305v-541h-138v1364zM328 1249v-594h297q155 0 224 65t69 195v78q0 126 -70.5 191t-222.5 65h-297z" />
    <glyph glyph-name="Q" unicode="Q" horiz-adv-x="1325" 
d="M1262 -29q-63 -24 -115 -24q-58 0 -104 24t-97 78q-122 -80 -287 -80q-240 0 -380 150t-140 401v324q0 251 140 401t380 150q241 0 382 -150t141 -401v-328q0 -246 -144 -393q44 -39 74.5 -53.5t67.5 -14.5q25 0 82 11v-95zM276 508q0 -189 104 -305.5t279 -116.5
q124 0 209 55l-206 238l83 70l205 -236q94 118 94 293v348q0 190 -104 307t-281 117q-175 0 -279 -117t-104 -307v-346z" />
    <glyph glyph-name="R" unicode="R" horiz-adv-x="1202" 
d="M328 582v-582h-138v1364h474q411 0 411 -346v-84q0 -131 -78 -222t-221 -118l342 -594h-151l-334 582h-305zM328 1249v-555h307q145 0 224 66t79 178v72q0 124 -69.5 181.5t-221.5 57.5h-319z" />
    <glyph glyph-name="S" unicode="S" horiz-adv-x="1161" 
d="M590 1391q117 0 205 -30.5t139.5 -84.5t76.5 -122t25 -150v-58h-137v51q0 59 -16 107.5t-51 88t-97.5 61.5t-148.5 22q-139 0 -220 -68.5t-81 -179.5q0 -57 17.5 -97t63.5 -72.5t103 -56.5t158 -57q116 -37 187.5 -69t128.5 -77.5t81.5 -106t24.5 -144.5
q0 -176 -123.5 -275.5t-327.5 -99.5q-236 0 -354.5 107.5t-118.5 288.5v67h137v-57q0 -138 83.5 -214.5t256.5 -76.5q142 0 225.5 66t83.5 184q0 62 -17 104t-63.5 76.5t-105 58.5t-164.5 58q-108 32 -178.5 63.5t-127 76t-82.5 105t-26 142.5q0 161 120.5 265t322.5 104z
" />
    <glyph glyph-name="T" unicode="T" horiz-adv-x="1114" 
d="M63 1364h986v-119h-422v-1245h-138v1245h-426v119z" />
    <glyph glyph-name="U" unicode="U" horiz-adv-x="1288" 
d="M176 1364h137v-918q0 -172 87 -263t245 -91t246 91t88 263v918h133v-918q0 -228 -122.5 -351.5t-346.5 -123.5q-223 0 -345 123.5t-122 351.5v918z" />
    <glyph glyph-name="V" unicode="V" horiz-adv-x="1245" 
d="M76 1364h147l400 -1178h4l401 1178h141l-485 -1380h-125z" />
    <glyph glyph-name="W" unicode="W" horiz-adv-x="1818" 
d="M98 1364h144l280 -1167h4l322 1173h127l323 -1173h5l280 1167h137l-358 -1380h-131l-322 1153h-4l-323 -1153h-131z" />
    <glyph glyph-name="X" unicode="X" horiz-adv-x="1200" 
d="M967 0l-373 594l-367 -594h-151l440 694l-428 670h158l360 -571l352 571h152l-426 -672l440 -692h-157z" />
    <glyph glyph-name="Y" unicode="Y" horiz-adv-x="1161" 
d="M57 1364h154l375 -700l368 700h150l-453 -832v-532h-137v532z" />
    <glyph glyph-name="Z" unicode="Z" horiz-adv-x="1122" 
d="M129 1364h899v-78l-754 -1167h740v-119h-918v78l760 1169h-727v117z" />
    <glyph glyph-name="bracketleft" unicode="[" horiz-adv-x="776" 
d="M227 1556h529v-98h-408v-1677h408v-98h-529v1873z" />
    <glyph glyph-name="backslash" unicode="\" horiz-adv-x="837" 
d="M76 1556h117l610 -1873h-115z" />
    <glyph glyph-name="bracketright" unicode="]" horiz-adv-x="776" 
d="M551 -317h-531v98h410v1679h-410v96h531v-1873z" />
    <glyph glyph-name="asciicircum" unicode="^" horiz-adv-x="1196" 
d="M1038 631h-129l-311 598l-309 -598h-129l383 733h112z" />
    <glyph glyph-name="underscore" unicode="_" horiz-adv-x="864" 
d="M-2 -217h868v-100h-868v100z" />
    <glyph glyph-name="grave" unicode="`" horiz-adv-x="1021" 
d="M317 1526h164l228 -371h-93z" />
    <glyph glyph-name="a" unicode="a" horiz-adv-x="985" 
d="M698 178q-122 -198 -333 -198q-124 0 -191.5 66.5t-67.5 184.5q0 174 158 252q137 67 430 95v84q0 210 -213 210q-103 0 -162 -50.5t-59 -139.5v-18h-119v20q0 132 90 215.5t254 83.5q166 0 250 -83t84 -238v-429q0 -93 23.5 -120t95.5 -27v-94h-45q-93 0 -141 40.5
t-54 145.5zM233 240q0 -156 162 -156q114 0 206.5 86t92.5 188v129q-255 -24 -350 -73q-61 -30 -86 -71.5t-25 -102.5z" />
    <glyph glyph-name="b" unicode="b" horiz-adv-x="1050" 
d="M160 1417h129v-635q54 94 126.5 146.5t184.5 52.5q158 0 250 -113t92 -284v-209q0 -171 -95 -284.5t-253 -113.5q-59 0 -108.5 16t-87 46.5t-64.5 63.5t-53 77l-15 -180h-106v1417zM567 872q-110 0 -194 -92t-84 -227v-147q0 -135 84 -227.5t194 -92.5q116 0 181 84.5
t65 214.5v188q0 130 -64.5 214.5t-181.5 84.5z" />
    <glyph glyph-name="c" unicode="c" horiz-adv-x="940" 
d="M496 84q80 0 135 33.5t77.5 82t22.5 107.5v6h121v-10q0 -139 -93.5 -234.5t-262.5 -95.5q-188 0 -289 115.5t-101 317.5v143q0 200 104 318t290 118q170 0 261 -94t91 -236v-12h-121v4q0 45 -12.5 83.5t-38 72t-72 52.5t-108.5 19q-131 0 -199 -84.5t-68 -232.5v-160
q0 -148 66.5 -230.5t196.5 -82.5z" />
    <glyph glyph-name="d" unicode="d" horiz-adv-x="1050" 
d="M762 1417h129v-1417h-107l-12 193q-55 -103 -130 -159.5t-191 -56.5q-157 0 -248.5 112.5t-91.5 287.5v205q0 174 94 286.5t252 112.5q110 0 181 -50t124 -138v624zM483 872q-116 0 -180.5 -84.5t-64.5 -214.5v-188q0 -130 64.5 -214.5t180.5 -84.5q111 0 195 91.5
t84 225.5v150q0 133 -84.5 226t-194.5 93z" />
    <glyph glyph-name="e" unicode="e" horiz-adv-x="962" 
d="M860 285q0 -139 -96.5 -225.5t-261.5 -86.5q-196 0 -297 114t-101 304v158q0 193 103.5 314.5t281.5 121.5q181 0 277 -116.5t96 -305.5v-114h-631v-68q0 -135 65.5 -216t205.5 -81q112 0 174.5 56t62.5 149v6h121v-10zM231 561v-18h506v30q0 136 -62.5 218.5
t-187.5 82.5q-122 0 -189 -85.5t-67 -227.5z" />
    <glyph glyph-name="f" unicode="f" horiz-adv-x="647" 
d="M610 1417v-108h-61q-100 0 -144.5 -44t-44.5 -132v-175h248v-106h-248v-852h-129v852h-157v106h157v175q0 136 74.5 210t224.5 74h80z" />
    <glyph glyph-name="g" unicode="g" horiz-adv-x="964" 
d="M924 -92q0 -113 -114.5 -177.5t-317.5 -64.5q-210 0 -320.5 56t-110.5 161q0 136 207 183v4q-149 47 -149 135q0 87 143 143q-62 39 -95.5 104t-33.5 142v80q0 131 96 217t252 86q65 0 133 -21q66 7 107 20.5t61 36t26 47t5 62.5h100q9 -38 9 -63q0 -72 -50 -108
t-155 -50q114 -79 114 -231v-78q0 -131 -95 -217t-255 -86q-69 0 -141 20q-107 -33 -107 -84q0 -42 78.5 -65t188.5 -23h14q410 0 410 -229zM481 389q107 0 167.5 56t60.5 145v88q0 88 -60.5 143.5t-167.5 55.5q-106 0 -165.5 -55.5t-59.5 -143.5v-88q0 -89 59.5 -145
t165.5 -56zM492 -242q153 0 233 37t80 105q0 65 -74.5 97t-232.5 32h-27q-145 0 -219 -37.5t-74 -100.5t79.5 -98t234.5 -35z" />
    <glyph glyph-name="h" unicode="h" horiz-adv-x="1046" 
d="M160 1417h129v-641q63 100 141 151.5t184 51.5q127 0 203 -82.5t76 -220.5v-676h-129v659q0 95 -49.5 151t-139.5 56q-116 0 -201 -89.5t-85 -196.5v-580h-129v1417z" />
    <glyph glyph-name="i" unicode="i" horiz-adv-x="458" 
d="M156 1341h147v-165h-147v165zM166 958h127v-958h-127v958z" />
    <glyph glyph-name="j" unicode="j" horiz-adv-x="466" 
d="M164 1341h147v-165h-147v165zM174 958h127v-991q0 -150 -69 -217t-218 -67h-30v104h10q102 0 141 43t39 137v991z" />
    <glyph glyph-name="k" unicode="k" horiz-adv-x="927" 
d="M160 1417h129v-1030l418 571h143l-291 -389l318 -569h-142l-262 467l-184 -244v-223h-129v1417z" />
    <glyph glyph-name="l" unicode="l" horiz-adv-x="458" 
d="M166 1417h127v-1417h-127v1417z" />
    <glyph glyph-name="m" unicode="m" horiz-adv-x="1611" 
d="M289 584v-584h-129v958h106l13 -196q64 108 140 162.5t185 54.5q100 0 167.5 -53t90.5 -148q62 99 139 150t185 51q127 0 200.5 -81.5t73.5 -219.5v-678h-129v662q0 94 -47 149t-133 55q-113 0 -195 -89t-82 -193v-584h-129v662q0 94 -46 149t-132 55q-113 0 -195.5 -89
t-82.5 -193z" />
    <glyph glyph-name="n" unicode="n" horiz-adv-x="1046" 
d="M160 958h106l13 -198q65 109 144 164t191 55q127 0 203 -82.5t76 -220.5v-676h-129v659q0 95 -49.5 151t-139.5 56q-116 0 -201 -89.5t-85 -196.5v-580h-129v958z" />
    <glyph glyph-name="o" unicode="o" horiz-adv-x="997" 
d="M500 985q181 0 287 -117t106 -303v-174q0 -184 -108.5 -301t-286.5 -117q-179 0 -286.5 116t-107.5 300v174q0 187 106.5 304.5t289.5 117.5zM500 874q-124 0 -195.5 -84t-71.5 -215v-196q0 -130 73 -212.5t194 -82.5q120 0 192 83t72 212v196q0 131 -70.5 215t-193.5 84
z" />
    <glyph glyph-name="p" unicode="p" horiz-adv-x="1050" 
d="M160 958h108l11 -194q28 50 56.5 86.5t66.5 67.5t88 47t110 16q159 0 250.5 -112.5t91.5 -286.5v-205q0 -174 -95 -287t-253 -113q-75 0 -135.5 28t-97 66t-72.5 95v-483h-129v1275zM567 872q-110 0 -194 -92t-84 -227v-147q0 -135 84 -227.5t194 -92.5q116 0 181 84.5
t65 214.5v188q0 130 -64.5 214.5t-181.5 84.5z" />
    <glyph glyph-name="q" unicode="q" horiz-adv-x="1050" 
d="M457 981q59 0 108.5 -16t87 -46.5t64.5 -63.5t53 -77l14 180h107v-1275h-129v493q-53 -94 -125.5 -146.5t-185.5 -52.5q-157 0 -249.5 113.5t-92.5 284.5v209q0 171 95 284t253 113zM483 872q-116 0 -180.5 -84.5t-64.5 -214.5v-188q0 -130 64.5 -214.5t180.5 -84.5
q110 0 194.5 92t84.5 225v150q0 133 -84.5 226t-194.5 93z" />
    <glyph glyph-name="r" unicode="r" horiz-adv-x="690" 
d="M160 958h106l13 -237q23 55 49.5 97t63 78t86 55.5t108.5 19.5q30 0 65 -6v-129q-46 8 -69 8q-121 0 -207 -92t-86 -213v-539h-129v958z" />
    <glyph glyph-name="s" unicode="s" horiz-adv-x="915" 
d="M465 -27q-180 0 -273.5 86t-93.5 226v39h119v-35q0 -98 63.5 -154.5t186.5 -56.5q104 0 162.5 44.5t58.5 125.5q0 74 -55 113.5t-197 72.5q-163 37 -239 99.5t-76 179.5q0 114 91.5 193t246.5 79q164 0 250 -81t86 -212v-30h-115v22q0 93 -57.5 145t-167.5 52
q-96 0 -154.5 -45.5t-58.5 -116.5q0 -73 57.5 -111.5t196.5 -72.5q164 -37 239.5 -99.5t75.5 -181.5q0 -127 -93 -204t-253 -77z" />
    <glyph glyph-name="t" unicode="t" horiz-adv-x="692" 
d="M68 958h155v211l127 41v-252h277v-106h-277v-547q0 -117 39.5 -159t142.5 -42h52v-106h-72q-150 0 -219.5 61.5t-69.5 219.5v573h-155v106z" />
    <glyph glyph-name="u" unicode="u" horiz-adv-x="1046" 
d="M154 958h129v-659q0 -95 49 -151t137 -56q116 0 201.5 90t85.5 197v579h129v-958h-107l-12 199q-63 -109 -142.5 -164t-191.5 -55q-128 0 -203 82t-75 221v675z" />
    <glyph glyph-name="v" unicode="v" horiz-adv-x="923" 
d="M51 958h135l277 -811h2l276 811h131l-346 -966h-129z" />
    <glyph glyph-name="w" unicode="w" horiz-adv-x="1396" 
d="M61 958h134l217 -802h4l221 802h125l227 -802h4l215 802h127l-284 -966h-119l-234 788h-4l-229 -788h-117z" />
    <glyph glyph-name="x" unicode="x" horiz-adv-x="897" 
d="M700 0l-258 401l-254 -401h-139l326 487l-318 471h148l248 -387l245 387h142l-320 -475l328 -483h-148z" />
    <glyph glyph-name="y" unicode="y" horiz-adv-x="923" 
d="M61 958h136l278 -817l268 817h134l-338 -970q-62 -167 -131.5 -236t-202.5 -69h-64v108h45q84 0 129 35.5t72 114.5l16 49z" />
    <glyph glyph-name="z" unicode="z" horiz-adv-x="880" 
d="M115 958h684v-77l-543 -772h530v-109h-694v78l547 772h-524v108z" />
    <glyph glyph-name="braceleft" unicode="{" horiz-adv-x="833" 
d="M694 1556h99v-94h-60q-180 0 -257 -48.5t-77 -151.5q0 -55 24 -116t53 -106t53 -102t24 -104q0 -160 -240 -213q240 -53 240 -213q0 -47 -24 -104t-53 -102t-53 -106t-24 -116q0 -104 77 -153.5t257 -49.5h60v-94h-99q-98 0 -174 17t-122.5 44.5t-76.5 66t-41.5 78
t-11.5 84.5q0 64 27 133.5t59 119t59 106t27 98.5q0 64 -78.5 101.5t-203.5 37.5h-37v103h37q125 0 203.5 37.5t78.5 101.5q0 42 -27 98.5t-59 106t-59 119t-27 133.5q0 44 11.5 83.5t41.5 78t76.5 65.5t122.5 44t174 17z" />
    <glyph glyph-name="bar" unicode="|" horiz-adv-x="716" 
d="M301 1556h115v-1873h-115v1873z" />
    <glyph glyph-name="braceright" unicode="}" horiz-adv-x="833" 
d="M39 1556h100q98 0 173.5 -17t122 -44t76 -65.5t41 -77.5t11.5 -84q0 -64 -26.5 -133.5t-58.5 -119t-58.5 -106t-26.5 -98.5q0 -64 78.5 -101.5t204.5 -37.5h37v-103h-37q-126 0 -204.5 -37.5t-78.5 -101.5q0 -42 26.5 -98.5t58.5 -106t58.5 -119t26.5 -133.5
q0 -45 -11.5 -84.5t-41 -78t-76 -66t-122 -44.5t-173.5 -17h-100v94h59q180 0 257 49.5t77 153.5q0 55 -24 116t-52.5 106t-52.5 102t-24 104q0 78 56.5 131.5t184.5 81.5q-128 28 -184.5 81.5t-56.5 131.5q0 47 24 104t52.5 102t52.5 106t24 116q0 103 -77 151.5t-257 48.5
h-59v94z" />
    <glyph glyph-name="asciitilde" unicode="~" horiz-adv-x="1323" 
d="M414 913q42 0 81 -14.5t77.5 -45.5t62.5 -55.5t63 -68.5q36 -42 53.5 -61.5t48 -47.5t57 -39.5t54.5 -11.5q49 0 79 38.5t30 117.5q0 84 -37 186h107q38 -83 38 -196q0 -116 -54.5 -190t-162.5 -74q-42 0 -81 14t-76.5 44.5t-61 54.5t-61.5 67q-81 92 -113 118
q-55 46 -106 46q-49 0 -79 -38.5t-30 -117.5q0 -94 39 -186h-106q-41 90 -41 198q0 115 54.5 188.5t164.5 73.5z" />
    <glyph glyph-name="asciitilde" unicode="&#x223c;" horiz-adv-x="1323" 
d="M414 913q42 0 81 -14.5t77.5 -45.5t62.5 -55.5t63 -68.5q36 -42 53.5 -61.5t48 -47.5t57 -39.5t54.5 -11.5q49 0 79 38.5t30 117.5q0 84 -37 186h107q38 -83 38 -196q0 -116 -54.5 -190t-162.5 -74q-42 0 -81 14t-76.5 44.5t-61 54.5t-61.5 67q-81 92 -113 118
q-55 46 -106 46q-49 0 -79 -38.5t-30 -117.5q0 -94 39 -186h-106q-41 90 -41 198q0 115 54.5 188.5t164.5 73.5z" />
    <glyph glyph-name="uni00A0" unicode="&#xa0;" horiz-adv-x="411" 
 />
    <glyph glyph-name="exclamdown" unicode="&#xa1;" horiz-adv-x="491" 
d="M326 1153h-160v211h160v-211zM313 0h-135v446l43 531h47l45 -531v-446z" />
    <glyph glyph-name="cent" unicode="&#xa2;" horiz-adv-x="983" 
d="M872 512q0 -81 -32.5 -149.5t-102.5 -117t-168 -59.5v-198h-114v198q-162 18 -248 131t-86 295v140q0 179 87.5 292.5t246.5 133.5v196h114v-194q76 -7 134.5 -36t95 -73.5t55 -100t18.5 -118.5v-12h-124v6q0 93 -56 157t-174 64q-130 0 -198 -82.5t-68 -224.5v-156
q0 -140 67 -223.5t195 -83.5q116 0 175 65t59 156v4h124v-10z" />
    <glyph glyph-name="sterling" unicode="&#xa3;" horiz-adv-x="1361" 
d="M1241 317q0 -181 -71 -264.5t-212 -83.5q-59 0 -115 13.5t-110 42t-90 52t-90 62.5q-104 -170 -277 -170q-101 0 -158 55t-57 140t59 141.5t161 56.5q99 0 223 -67q14 52 14 113q0 107 -57 221h-279v100h230q-78 152 -78 287q0 79 26.5 146t79 120t137.5 83t195 30
q211 0 320.5 -98.5t109.5 -278.5v-55h-127v41q0 138 -80 206t-225 68q-134 0 -217.5 -67t-83.5 -197q0 -55 14 -111t27 -86.5t41 -87.5h428v-100h-383q39 -100 39 -211q0 -92 -37 -182q4 -2 37.5 -24t39.5 -25.5t35.5 -22t40 -23t36 -18t40.5 -17.5t37 -11t41 -9t39 -2
q39 0 67.5 9t55 32.5t40 71.5t13.5 120v99h121v-99zM164 166q0 -44 31 -74.5t84 -30.5q60 0 109.5 35.5t82.5 98.5q-115 75 -195 75q-54 0 -83 -29.5t-29 -74.5z" />
    <glyph glyph-name="yen" unicode="&#xa5;" horiz-adv-x="1202" 
d="M1051 260h-383v-260h-127v260h-394v94h394v187l-9 14h-385v94h334l-391 715h148l370 -698l365 698h139l-385 -715h324v-94h-375l-8 -14v-187h383v-94z" />
    <glyph glyph-name="section" unicode="&#xa7;" horiz-adv-x="1189" 
d="M1024 -49q0 -130 -108.5 -213.5t-317.5 -83.5q-229 0 -343 95t-114 251v43h127v-37q0 -110 81.5 -176t252.5 -66q142 0 217.5 50.5t75.5 134.5q0 79 -69.5 125.5t-272.5 115.5q-77 27 -127.5 47t-102 45t-82 49t-56 54.5t-36 66.5t-10.5 80q0 97 73 168t210 113
q-128 56 -185 120t-57 163q0 130 107.5 214.5t304.5 84.5q216 0 326 -96.5t110 -251.5v-25h-125v20q0 107 -78.5 173.5t-236.5 66.5q-131 0 -205 -50.5t-74 -131.5q0 -80 67.5 -128t262.5 -114q92 -32 151 -56.5t114 -55t84.5 -62.5t47 -74t17.5 -94q0 -192 -283 -280
q134 -56 194 -120.5t60 -164.5zM629 287q5 -2 16.5 -6.5t16.5 -6.5q122 29 194 86.5t72 139.5t-76.5 134.5t-288.5 125.5q-5 2 -16.5 6t-16.5 6q-121 -28 -193.5 -85t-72.5 -138q0 -84 76.5 -136.5t288.5 -125.5z" />
    <glyph glyph-name="dieresis" unicode="&#xa8;" horiz-adv-x="1024" 
d="M283 1346h139v-170h-139v170zM602 1346h139v-170h-139v170z" />
    <glyph glyph-name="copyright" unicode="&#xa9;" horiz-adv-x="1767" 
d="M139 682q0 211 95.5 380.5t265.5 265t383 95.5t383.5 -95.5t266 -265t95.5 -380.5t-95.5 -380.5t-266 -265t-383.5 -95.5t-383 95.5t-265.5 265t-95.5 380.5zM1538 682q0 190 -82.5 341t-232.5 237t-340 86q-142 0 -264 -50t-207.5 -138t-134 -211t-48.5 -265t48.5 -265
t134 -211t207.5 -138t264 -50q190 0 340 86t232.5 237t82.5 341zM891 1049q130 0 197 -63t67 -169v-29h-104v21q0 65 -40 105t-120 40q-88 0 -134 -54t-46 -146v-144q0 -91 46.5 -145.5t133.5 -54.5q80 0 120 39.5t40 107.5v21h104v-31q0 -104 -68 -168t-198 -64
q-135 0 -211 80.5t-76 218.5v138q0 136 76.5 216.5t212.5 80.5z" />
    <glyph glyph-name="ordfeminine" unicode="&#xaa;" horiz-adv-x="870" 
d="M608 756q-43 -77 -116.5 -120.5t-174.5 -43.5q-107 0 -165 53t-58 146q0 129 131 194q102 50 377 86v45q0 82 -41 121t-137 39q-89 0 -137.5 -42t-48.5 -114v-10h-109v18q0 110 77.5 179t219.5 69q147 0 219 -67.5t72 -190.5v-344q0 -54 20.5 -73t79.5 -19v-80h-47
q-79 0 -117.5 33.5t-44.5 120.5zM209 801q0 -53 33 -84t100 -31q111 0 185.5 65t74.5 156v82q-231 -29 -315 -74q-78 -41 -78 -114z" />
    <glyph glyph-name="guillemotleft" unicode="&#xab;" horiz-adv-x="1226" 
d="M524 952h86q-39 -152 -120.5 -263.5t-221.5 -209.5q139 -98 221 -210t121 -263h-86q-96 275 -411 424v98q315 149 411 424zM1018 952h84q-39 -152 -120.5 -263.5t-221.5 -209.5q139 -98 221 -210t121 -263h-84q-99 277 -414 424v98q315 147 414 424z" />
    <glyph glyph-name="registered" unicode="&#xae;" horiz-adv-x="1060" 
d="M528 1395q187 0 310 -122.5t123 -301.5q0 -180 -122.5 -301t-310.5 -121q-186 0 -307 121t-121 301q0 179 121.5 301.5t306.5 122.5zM528 1329q-161 0 -259.5 -101t-98.5 -257t98.5 -257.5t259.5 -101.5q163 0 262 101.5t99 257.5t-99 257t-262 101zM451 924v-154h-78
v414h190q148 0 148 -129q0 -47 -23 -79t-65 -44l98 -162h-84l-92 154h-94zM451 1120v-135h98q84 0 84 70q0 65 -80 65h-102z" />
    <glyph glyph-name="macron" unicode="&#xaf;" horiz-adv-x="1024" 
d="M215 1309h594v-99h-594v99z" />
    <glyph glyph-name="degree" unicode="&#xb0;" horiz-adv-x="874" 
d="M436 1395q152 0 242 -95.5t90 -240.5q0 -143 -91.5 -237.5t-240.5 -94.5q-150 0 -241 94t-91 238q0 145 90 240.5t242 95.5zM436 1294q-100 0 -158.5 -64.5t-58.5 -170.5q0 -105 60 -169.5t157 -64.5q98 0 157.5 64t59.5 170q0 105 -59 170t-158 65z" />
    <glyph glyph-name="plusminus" unicode="&#xb1;" horiz-adv-x="1224" 
d="M557 1247h111v-350h356v-106h-356v-351h-111v351h-356v106h356v350zM201 252h825v-113h-825v113z" />
    <glyph glyph-name="two.sup" unicode="&#xb2;" 
d="M655 625h-567v43q0 130 52 200t212 154q127 64 166 99t39 93q0 63 -48.5 97.5t-121.5 34.5q-85 0 -136.5 -40t-51.5 -112v-39h-103v45q0 105 78.5 170.5t214.5 65.5q134 0 204.5 -61t70.5 -158q0 -38 -11 -69t-28 -54.5t-55 -50.5t-72.5 -46.5t-100.5 -54.5
q-119 -59 -156.5 -101.5t-37.5 -121.5h452v-94z" />
    <glyph glyph-name="three.sup" unicode="&#xb3;" 
d="M377 1436q130 0 204 -60.5t74 -152.5v-17q0 -63 -42 -112t-121 -66q82 -18 124.5 -66.5t42.5 -117.5v-17q0 -94 -75.5 -157.5t-208.5 -63.5q-148 0 -219.5 64t-71.5 159v35h100v-28q0 -63 48 -101.5t139 -38.5q78 0 129 36.5t51 98.5v15q0 137 -199 137h-84v84h84
q100 0 148.5 38t48.5 97v15q0 60 -49.5 94.5t-126.5 34.5q-88 0 -137.5 -39.5t-49.5 -98.5v-30h-102v36q0 89 74.5 155.5t218.5 66.5z" />
    <glyph glyph-name="acute" unicode="&#xb4;" horiz-adv-x="1021" 
d="M707 1526l-301 -371h-91l226 371h166z" />
    <glyph glyph-name="paragraph" unicode="&#xb6;" horiz-adv-x="1386" 
d="M1204 1364v-1681h-114v1566h-216v-1566h-114v692h-103q-130 1 -237 38.5t-176.5 103t-107.5 153t-38 188.5v21q0 209 150.5 347t408.5 138h547zM760 1249h-84q-163 0 -237 -88.5t-74 -267.5v-62q0 -176 74 -261t237 -85h84v764z" />
    <glyph glyph-name="periodcentered" unicode="&#xb7;" horiz-adv-x="415" 
d="M125 791h164v-216h-164v216z" />
    <glyph glyph-name="cedilla" unicode="&#xb8;" horiz-adv-x="1024" 
d="M748 -328q0 -91 -64 -140.5t-180 -49.5q-125 0 -236 51l27 66q100 -41 197 -41q153 0 153 114q0 46 -32 73.5t-97 27.5q-49 0 -115 -25l-34 53l163 222h86l-151 -193q54 14 92 14q88 0 139.5 -46.5t51.5 -125.5z" />
    <glyph glyph-name="one.sup" unicode="&#xb9;" horiz-adv-x="573" 
d="M303 1430h78v-805h-109v604h-196v80h69q78 0 114.5 26.5t43.5 94.5z" />
    <glyph glyph-name="ordmasculine" unicode="&#xba;" horiz-adv-x="851" 
d="M426 1376q156 0 244 -91t88 -241v-131q0 -150 -89.5 -241.5t-242.5 -91.5q-154 0 -243 91t-89 240v131q0 151 88 242.5t244 91.5zM426 1274q-103 0 -158 -61t-55 -162v-146q0 -101 56.5 -161t156.5 -60t156.5 60t56.5 161v146q0 101 -56 162t-157 61z" />
    <glyph glyph-name="guillemotright" unicode="&#xbb;" horiz-adv-x="1214" 
d="M690 6h-86q39 150 121 262.5t221 210.5q-139 99 -221 210.5t-121 262.5h86q99 -277 412 -424v-98q-313 -147 -412 -424zM209 6h-86q39 150 121 262.5t221 210.5q-139 99 -221 210.5t-121 262.5h86q99 -277 412 -424v-98q-313 -147 -412 -424z" />
    <glyph glyph-name="onequarter" unicode="&#xbc;" horiz-adv-x="1517" 
d="M303 1376h78v-805h-109v605h-196v79h69q78 0 114.5 26.5t43.5 94.5zM1214 1364l-899 -1364h-102l899 1364h102zM1208 795h138v-523h118v-88h-118v-184h-103v184h-444v86zM1243 272v435l-340 -435h340z" />
    <glyph glyph-name="onehalf" unicode="&#xbd;" horiz-adv-x="1624" 
d="M303 1376h78v-805h-109v605h-196v79h69q78 0 114.5 26.5t43.5 94.5zM1214 1364l-899 -1364h-102l899 1364h102zM1526 0h-570v45q0 130 52.5 199.5t214.5 152.5q126 64 164 100t38 93q0 64 -48 97.5t-122 33.5q-84 0 -135 -39.5t-51 -110.5v-39h-102v43q0 105 77.5 170.5
t212.5 65.5q136 0 206.5 -60t70.5 -157q0 -90 -55.5 -142.5t-210.5 -134.5q-118 -58 -157 -101t-40 -122h455v-94z" />
    <glyph glyph-name="threequarters" unicode="&#xbe;" horiz-adv-x="1712" 
d="M377 1382q130 0 204 -60.5t74 -152.5v-16q0 -63 -42 -112t-121 -66q82 -18 124.5 -66.5t42.5 -117.5v-17q0 -94 -75.5 -157.5t-208.5 -63.5q-148 0 -219.5 64t-71.5 159v35h100v-29q0 -62 48 -100.5t139 -38.5q78 0 129 36.5t51 98.5v15q0 137 -199 137h-84v84h84
q100 0 148.5 38t48.5 97v14q0 60 -49.5 94.5t-126.5 34.5q-88 0 -137.5 -39t-49.5 -98v-31h-102v37q0 89 74.5 155t218.5 66zM1409 1364l-899 -1364h-102l899 1364h102zM1403 795h137v-523h121v-88h-121v-184h-102v184h-445v86zM1438 272v435l-340 -435h340z" />
    <glyph glyph-name="questiondown" unicode="&#xbf;" horiz-adv-x="1026" 
d="M641 1364v-211h-160v211h160zM86 317q0 118 55.5 202t202.5 177q105 68 132.5 118t27.5 157h117q0 -103 -17 -159.5t-63 -105t-154 -126.5q-101 -68 -133.5 -126.5t-32.5 -134.5q0 -233 283 -233q169 0 241 76t72 215v63h127v-82q0 -77 -23 -143.5t-72 -122.5t-138 -88.5
t-209 -32.5q-115 0 -199 29t-129.5 79.5t-66.5 109.5t-21 128z" />
    <glyph glyph-name="Agrave" unicode="&#xc0;" horiz-adv-x="1251" 
d="M291 1911h164l217 -324h-92zM1032 0l-123 365h-571l-125 -365h-137l479 1378h143l478 -1378h-144zM621 1194l-246 -717h495l-245 717h-4z" />
    <glyph glyph-name="Aacute" unicode="&#xc1;" horiz-adv-x="1251" 
d="M961 1911l-289 -324h-92l217 324h164zM1032 0l-123 365h-571l-125 -365h-137l479 1378h143l478 -1378h-144zM621 1194l-246 -717h495l-245 717h-4z" />
    <glyph glyph-name="Acircumflex" unicode="&#xc2;" horiz-adv-x="1251" 
d="M557 1907h137q58 -202 246 -262v-72q-111 22 -191 84.5t-122 142.5q-45 -81 -124.5 -143t-191.5 -84v72q188 60 246 262zM1032 0l-123 365h-571l-125 -365h-137l479 1378h143l478 -1378h-144zM621 1194l-246 -717h495l-245 717h-4z" />
    <glyph glyph-name="Atilde" unicode="&#xc3;" horiz-adv-x="1251" 
d="M457 1886q45 0 84.5 -19t61.5 -40.5t52 -57.5q53 -60 76 -77q32 -23 66 -23q36 0 55.5 26t19.5 74q0 42 -18 105h76q22 -64 22 -121q0 -83 -42.5 -131.5t-114.5 -48.5q-44 0 -83.5 18t-61.5 38.5t-52 53.5q-5 5 -18.5 22t-19 23t-18 19t-20 18t-19 12.5t-23 10t-23.5 2.5
q-38 0 -58 -26t-20 -74q0 -42 18 -105h-75q-23 67 -23 121q0 83 43 131.5t115 48.5zM1032 0l-123 365h-571l-125 -365h-137l479 1378h143l478 -1378h-144zM621 1194l-246 -717h495l-245 717h-4z" />
    <glyph glyph-name="Adieresis" unicode="&#xc4;" horiz-adv-x="1251" 
d="M379 1778h139v-170h-139v170zM733 1778h139v-170h-139v170zM1032 0l-123 365h-571l-125 -365h-137l479 1378h143l478 -1378h-144zM621 1194l-246 -717h495l-245 717h-4z" />
    <glyph glyph-name="Aring" unicode="&#xc5;" horiz-adv-x="1251" 
d="M1032 0l-125 365h-569l-125 -365h-137l456 1315q-59 24 -91.5 72.5t-32.5 109.5q0 82 60 140.5t157 58.5q98 0 158.5 -58t60.5 -141q0 -60 -33.5 -108.5t-91.5 -73.5l457 -1315h-144zM625 1622q-62 0 -100 -35.5t-38 -89.5t38 -89.5t100 -35.5q63 0 100 35.5t37 89.5
t-37 89.5t-100 35.5zM623 1198l-246 -721h493z" />
    <glyph glyph-name="AE" unicode="&#xc6;" horiz-adv-x="1806" 
d="M-16 0l817 1364h907v-117h-694v-499h551v-115h-551v-516h696v-117h-831v367h-527l-217 -367h-151zM874 1245l-456 -768h461v768h-5z" />
    <glyph glyph-name="Ccedilla" unicode="&#xc7;" horiz-adv-x="1247" 
d="M864 -328q0 -91 -64.5 -140.5t-181.5 -49.5q-124 0 -235 51l29 66q100 -41 196 -41q152 0 152 114q0 46 -32 73.5t-97 27.5q-51 0 -113 -25l-37 53l127 170q-144 9 -251 81t-162.5 191.5t-55.5 270.5v336q0 241 139 393t371 152q222 0 343.5 -117.5t121.5 -296.5v-88
h-133v74q0 135 -85 223t-245 88q-171 0 -271.5 -115.5t-100.5 -296.5v-368q0 -179 101 -295.5t271 -116.5q159 0 244.5 88t85.5 223v74h133v-88q0 -169 -110 -284t-312 -128l-110 -141q47 14 90 14q88 0 140 -46.5t52 -125.5z" />
    <glyph glyph-name="Egrave" unicode="&#xc8;" horiz-adv-x="1120" 
d="M322 1898h163l217 -325h-92zM190 1364h830v-117h-692v-499h551v-115h-551v-516h696v-117h-834v1364z" />
    <glyph glyph-name="Eacute" unicode="&#xc9;" horiz-adv-x="1120" 
d="M905 1898l-289 -325h-94l217 325h166zM190 1364h830v-117h-692v-499h551v-115h-551v-516h696v-117h-834v1364z" />
    <glyph glyph-name="Ecircumflex" unicode="&#xca;" horiz-adv-x="1120" 
d="M537 1894h137q60 -202 246 -264v-71q-110 22 -190.5 85t-123.5 142q-45 -80 -124 -142.5t-189 -84.5v71q187 63 244 264zM190 1364h830v-117h-692v-499h551v-115h-551v-516h696v-117h-834v1364z" />
    <glyph glyph-name="Edieresis" unicode="&#xcb;" horiz-adv-x="1120" 
d="M358 1763h140v-170h-140v170zM713 1763h139v-170h-139v170zM190 1364h830v-117h-692v-499h551v-115h-551v-516h696v-117h-834v1364z" />
    <glyph glyph-name="Igrave" unicode="&#xcc;" horiz-adv-x="540" 
d="M-66 1898h166l217 -325h-94zM201 1364h137v-1364h-137v1364z" />
    <glyph glyph-name="Iacute" unicode="&#xcd;" horiz-adv-x="540" 
d="M606 1898l-289 -325h-94l217 325h166zM201 1364h137v-1364h-137v1364z" />
    <glyph glyph-name="Icircumflex" unicode="&#xce;" horiz-adv-x="540" 
d="M201 1894h137q60 -202 246 -264v-71q-110 22 -190.5 85t-123.5 142q-43 -79 -123 -142t-190 -85v71q187 63 244 264zM201 1364h137v-1364h-137v1364z" />
    <glyph glyph-name="Idieresis" unicode="&#xcf;" horiz-adv-x="540" 
d="M23 1763h139v-170h-139v170zM379 1763h137v-170h-137v170zM201 1364h137v-1364h-137v1364z" />
    <glyph glyph-name="Eth" unicode="&#xd0;" horiz-adv-x="1296" 
d="M1159 537q0 -245 -136 -391t-388 -146h-432v641h-160v96h160v627h432q254 0 389 -146t135 -393v-288zM340 117h289q194 0 293.5 112.5t99.5 302.5v297q0 193 -100 305.5t-295 112.5h-287v-510h387v-96h-387v-524z" />
    <glyph glyph-name="Ntilde" unicode="&#xd1;" horiz-adv-x="1335" 
d="M496 1872q45 0 84.5 -19.5t60 -39.5t51.5 -56q2 -3 13 -15t14 -15.5t12.5 -14t13.5 -14t13 -11.5t14.5 -11t14 -8.5t15.5 -7t15.5 -3.5t16.5 -2q36 0 55.5 26t19.5 74q0 51 -18 107h76q24 -58 24 -123q0 -82 -44 -131t-116 -49q-44 0 -83 18.5t-59.5 37.5t-51.5 54
q-6 6 -22.5 25.5t-23 26.5t-21 20.5t-24.5 19t-24 10.5t-28 5q-78 0 -78 -101q0 -46 20 -104h-78q-22 64 -22 123q0 81 44 129.5t116 48.5zM190 1364h132l692 -1110h4v1110h127v-1364h-125l-698 1120h-5v-1120h-127v1364z" />
    <glyph glyph-name="Ograve" unicode="&#xd2;" horiz-adv-x="1320" 
d="M375 1907h166l217 -324h-94zM662 1395q241 0 380.5 -149.5t139.5 -403.5v-320q0 -254 -140.5 -403.5t-382.5 -149.5q-241 0 -380.5 149.5t-139.5 403.5v320q0 254 140.5 403.5t382.5 149.5zM662 1278q-179 0 -281 -116t-102 -312v-336q0 -196 101.5 -312t278.5 -116
q179 0 282 116t103 312v336q0 196 -102.5 312t-279.5 116z" />
    <glyph glyph-name="Oacute" unicode="&#xd3;" horiz-adv-x="1320" 
d="M958 1907l-288 -324h-92l217 324h163zM662 1395q241 0 380.5 -149.5t139.5 -403.5v-320q0 -254 -140.5 -403.5t-382.5 -149.5q-241 0 -380.5 149.5t-139.5 403.5v320q0 254 140.5 403.5t382.5 149.5zM662 1278q-179 0 -281 -116t-102 -312v-336q0 -196 101.5 -312
t278.5 -116q179 0 282 116t103 312v336q0 196 -102.5 312t-279.5 116z" />
    <glyph glyph-name="Ocircumflex" unicode="&#xd4;" horiz-adv-x="1320" 
d="M592 1903h137q58 -203 246 -263v-71q-111 22 -191 84.5t-122 142.5q-45 -81 -124.5 -143t-191.5 -84v71q188 60 246 263zM662 1395q241 0 380.5 -149.5t139.5 -403.5v-320q0 -254 -140.5 -403.5t-382.5 -149.5q-241 0 -380.5 149.5t-139.5 403.5v320q0 254 140.5 403.5
t382.5 149.5zM662 1278q-179 0 -281 -116t-102 -312v-336q0 -196 101.5 -312t278.5 -116q179 0 282 116t103 312v336q0 196 -102.5 312t-279.5 116z" />
    <glyph glyph-name="Otilde" unicode="&#xd5;" horiz-adv-x="1320" 
d="M492 1882q64 0 108.5 -31t87.5 -86q54 -61 77 -78q32 -22 66 -22q37 0 56.5 26t19.5 74q0 42 -18 105h76q22 -64 22 -123q0 -82 -43 -130t-115 -48q-63 0 -107.5 29t-88.5 81q-5 5 -18.5 22t-19 23t-18 19t-20 18t-19 12.5t-23 10t-23.5 2.5q-38 0 -58 -26t-20 -74
q0 -42 18 -105h-76q-22 64 -22 121q0 82 43 131t115 49zM662 1395q241 0 380.5 -149.5t139.5 -403.5v-320q0 -254 -140.5 -403.5t-382.5 -149.5q-241 0 -380.5 149.5t-139.5 403.5v320q0 254 140.5 403.5t382.5 149.5zM662 1278q-179 0 -281 -116t-102 -312v-336
q0 -196 101.5 -312t278.5 -116q179 0 282 116t103 312v336q0 196 -102.5 312t-279.5 116z" />
    <glyph glyph-name="Odieresis" unicode="&#xd6;" horiz-adv-x="1320" 
d="M414 1772h139v-168h-139v168zM768 1772h139v-168h-139v168zM662 1395q241 0 380.5 -149.5t139.5 -403.5v-320q0 -254 -140.5 -403.5t-382.5 -149.5q-241 0 -380.5 149.5t-139.5 403.5v320q0 254 140.5 403.5t382.5 149.5zM662 1278q-179 0 -281 -116t-102 -312v-336
q0 -196 101.5 -312t278.5 -116q179 0 282 116t103 312v336q0 196 -102.5 312t-279.5 116z" />
    <glyph glyph-name="multiply" unicode="&#xd7;" horiz-adv-x="1167" 
d="M879 303l-295 299l-295 -299l-82 76l299 303l-299 301l82 78l295 -299l295 299l79 -76l-296 -303l296 -301z" />
    <glyph glyph-name="Oslash" unicode="&#xd8;" horiz-adv-x="1320" 
d="M659 -31q-191 0 -323 99l-113 -164l-80 51l119 184q-123 145 -123 383v320q0 254 140.5 403.5t382.5 149.5q188 0 323 -99l111 164l82 -51l-119 -184q123 -145 123 -383v-320q0 -254 -140.5 -403.5t-382.5 -149.5zM276 514q0 -151 64 -260l573 936q-97 88 -251 88
q-179 0 -282.5 -116t-103.5 -312v-336zM1044 850q0 152 -63 260l-573 -936q97 -88 251 -88q179 0 282 116t103 312v336z" />
    <glyph glyph-name="Ugrave" unicode="&#xd9;" horiz-adv-x="1288" 
d="M358 1886h166l217 -323h-94zM176 1364h137v-918q0 -172 87 -263t245 -91t246 91t88 263v918h133v-918q0 -228 -122.5 -351.5t-346.5 -123.5q-223 0 -345 123.5t-122 351.5v918z" />
    <glyph glyph-name="Uacute" unicode="&#xda;" horiz-adv-x="1288" 
d="M944 1886l-289 -323h-94l217 323h166zM176 1364h137v-918q0 -172 87 -263t245 -91t246 91t88 263v918h133v-918q0 -228 -122.5 -351.5t-346.5 -123.5q-223 0 -345 123.5t-122 351.5v918z" />
    <glyph glyph-name="Ucircumflex" unicode="&#xdb;" horiz-adv-x="1288" 
d="M575 1882h138q61 -203 245 -264v-70q-110 20 -190 83t-123 143q-45 -81 -124.5 -143.5t-188.5 -82.5v70q186 63 243 264zM176 1364h137v-918q0 -172 87 -263t245 -91t246 91t88 263v918h133v-918q0 -228 -122.5 -351.5t-346.5 -123.5q-223 0 -345 123.5t-122 351.5v918z
" />
    <glyph glyph-name="Udieresis" unicode="&#xdc;" horiz-adv-x="1288" 
d="M397 1751h140v-170h-140v170zM752 1751h139v-170h-139v170zM176 1364h137v-918q0 -172 87 -263t245 -91t246 91t88 263v918h133v-918q0 -228 -122.5 -351.5t-346.5 -123.5q-223 0 -345 123.5t-122 351.5v918z" />
    <glyph glyph-name="Yacute" unicode="&#xdd;" horiz-adv-x="1161" 
d="M883 1886l-289 -323h-92l217 323h164zM57 1364h154l375 -700l368 700h150l-453 -832v-532h-137v532z" />
    <glyph glyph-name="Thorn" unicode="&#xde;" horiz-adv-x="1163" 
d="M190 1364h140v-274h329q213 0 316.5 -93t103.5 -268v-92q0 -363 -424 -363h-327v-274h-138v1364zM328 977v-590h321q156 0 224.5 64t68.5 194v76q0 128 -70 192t-225 64h-319z" />
    <glyph glyph-name="germandbls" unicode="&#xdf;" horiz-adv-x="1042" 
d="M530 1427q167 0 258 -89t91 -240v-37q0 -120 -53.5 -190t-161.5 -95v-4q142 -32 210 -126t68 -226v-70q0 -167 -90.5 -262.5t-267.5 -95.5q-88 0 -152 18v99q67 -17 133 -17q119 0 181.5 66t62.5 192v72q0 125 -80 202.5t-248 84.5v98q140 6 205.5 67.5t65.5 182.5v37
q0 107 -56 168t-166 61q-118 0 -179.5 -72.5t-61.5 -212.5v-1038h-129v1030q0 191 97 294t273 103z" />
    <glyph glyph-name="agrave" unicode="&#xe0;" horiz-adv-x="985" 
d="M203 1532h164l227 -371h-92zM698 178q-122 -198 -333 -198q-124 0 -191.5 66.5t-67.5 184.5q0 174 158 252q137 67 430 95v84q0 210 -213 210q-103 0 -162 -50.5t-59 -139.5v-18h-119v20q0 132 90 215.5t254 83.5q166 0 250 -83t84 -238v-429q0 -93 23.5 -120t95.5 -27
v-94h-45q-93 0 -141 40.5t-54 145.5zM233 240q0 -156 162 -156q114 0 206.5 86t92.5 188v129q-255 -24 -350 -73q-61 -30 -86 -71.5t-25 -102.5z" />
    <glyph glyph-name="aacute" unicode="&#xe1;" horiz-adv-x="985" 
d="M786 1532l-301 -371h-90l226 371h165zM698 178q-122 -198 -333 -198q-124 0 -191.5 66.5t-67.5 184.5q0 174 158 252q137 67 430 95v84q0 210 -213 210q-103 0 -162 -50.5t-59 -139.5v-18h-119v20q0 132 90 215.5t254 83.5q166 0 250 -83t84 -238v-429q0 -93 23.5 -120
t95.5 -27v-94h-45q-93 0 -141 40.5t-54 145.5zM233 240q0 -156 162 -156q114 0 206.5 86t92.5 188v129q-255 -24 -350 -73q-61 -30 -86 -71.5t-25 -102.5z" />
    <glyph glyph-name="acircumflex" unicode="&#xe2;" horiz-adv-x="985" 
d="M422 1528h123q61 -239 233 -307v-74q-103 24 -180.5 95t-114.5 171q-37 -100 -114.5 -171t-180.5 -95v74q88 35 144.5 110t89.5 197zM698 178q-122 -198 -333 -198q-124 0 -191.5 66.5t-67.5 184.5q0 174 158 252q137 67 430 95v84q0 210 -213 210q-103 0 -162 -50.5
t-59 -139.5v-18h-119v20q0 132 90 215.5t254 83.5q166 0 250 -83t84 -238v-429q0 -93 23.5 -120t95.5 -27v-94h-45q-93 0 -141 40.5t-54 145.5zM233 240q0 -156 162 -156q114 0 206.5 86t92.5 188v129q-255 -24 -350 -73q-61 -30 -86 -71.5t-25 -102.5z" />
    <glyph glyph-name="atilde" unicode="&#xe3;" horiz-adv-x="985" 
d="M332 1473q33 0 60.5 -10.5t52 -33t38.5 -39t37 -47.5q25 -35 37.5 -50.5t35.5 -31.5t46 -16q32 0 54 25.5t22 77.5q0 41 -17 114h74q23 -80 23 -129q0 -90 -45 -138t-115 -48q-25 0 -49 8.5t-39.5 17.5t-37 31t-29 31.5t-29.5 36.5q-28 39 -39.5 53t-35 31.5t-46.5 17.5
q-34 0 -56 -24.5t-22 -77.5q0 -47 16 -113h-73q-23 81 -23 129q0 89 45.5 137t114.5 48zM698 178q-122 -198 -333 -198q-124 0 -191.5 66.5t-67.5 184.5q0 174 158 252q137 67 430 95v84q0 210 -213 210q-103 0 -162 -50.5t-59 -139.5v-18h-119v20q0 132 90 215.5t254 83.5
q166 0 250 -83t84 -238v-429q0 -93 23.5 -120t95.5 -27v-94h-45q-93 0 -141 40.5t-54 145.5zM233 240q0 -156 162 -156q114 0 206.5 86t92.5 188v129q-255 -24 -350 -73q-61 -30 -86 -71.5t-25 -102.5z" />
    <glyph glyph-name="adieresis" unicode="&#xe4;" horiz-adv-x="985" 
d="M254 1350h139v-168h-139v168zM573 1350h140v-168h-140v168zM698 178q-122 -198 -333 -198q-124 0 -191.5 66.5t-67.5 184.5q0 174 158 252q137 67 430 95v84q0 210 -213 210q-103 0 -162 -50.5t-59 -139.5v-18h-119v20q0 132 90 215.5t254 83.5q166 0 250 -83t84 -238
v-429q0 -93 23.5 -120t95.5 -27v-94h-45q-93 0 -141 40.5t-54 145.5zM233 240q0 -156 162 -156q114 0 206.5 86t92.5 188v129q-255 -24 -350 -73q-61 -30 -86 -71.5t-25 -102.5z" />
    <glyph glyph-name="aring" unicode="&#xe5;" horiz-adv-x="985" 
d="M483 1534q95 0 155 -58.5t60 -140.5q0 -84 -59.5 -141t-155.5 -57t-155.5 57t-59.5 141q0 82 60 140.5t155 58.5zM483 1460q-60 0 -97.5 -35.5t-37.5 -89.5t37.5 -89.5t97.5 -35.5t97.5 35.5t37.5 89.5t-37.5 89.5t-97.5 35.5zM698 178q-122 -198 -333 -198
q-124 0 -191.5 66.5t-67.5 184.5q0 174 158 252q137 67 430 95v84q0 210 -213 210q-103 0 -162 -50.5t-59 -139.5v-18h-119v20q0 132 90 215.5t254 83.5q166 0 250 -83t84 -238v-429q0 -93 23.5 -120t95.5 -27v-94h-45q-93 0 -141 40.5t-54 145.5zM233 240q0 -156 162 -156
q114 0 206.5 86t92.5 188v129q-255 -24 -350 -73q-61 -30 -86 -71.5t-25 -102.5z" />
    <glyph glyph-name="ae" unicode="&#xe6;" horiz-adv-x="1550" 
d="M1446 291q0 -141 -96.5 -229.5t-262.5 -88.5q-139 0 -228.5 61t-127.5 169q-109 -226 -358 -226q-128 0 -197.5 66.5t-69.5 185.5q0 87 37.5 148.5t120.5 103.5q135 66 430 94v91q0 105 -51.5 155.5t-159.5 50.5q-104 0 -163.5 -51t-59.5 -139v-20h-119v22
q0 132 90 215.5t252 83.5q230 0 293 -164q101 166 303 166q179 0 274 -117t95 -305v-114h-629v-68q0 -135 65.5 -216t205.5 -81q110 0 173.5 58t63.5 151v6h119v-8zM819 565v-22h504v30q0 137 -61.5 219t-186.5 82q-122 0 -189 -84t-67 -225zM233 236q0 -73 40.5 -114.5
t123.5 -41.5q122 0 209.5 85t87.5 206v114q-260 -28 -350 -73q-60 -30 -85.5 -72.5t-25.5 -103.5z" />
    <glyph glyph-name="ccedilla" unicode="&#xe7;" horiz-adv-x="940" 
d="M713 -328q0 -91 -64.5 -140.5t-181.5 -49.5q-127 0 -234 51l27 66q100 -41 197 -41q76 0 113.5 27.5t37.5 86.5q0 46 -31.5 73.5t-95.5 27.5q-48 0 -114 -25l-37 53l129 174q-170 10 -261.5 124.5t-91.5 306.5v143q0 200 104 318t290 118q170 0 261 -94t91 -236v-12h-121
v4q0 45 -12.5 83.5t-38 72t-72 52.5t-108.5 19q-131 0 -199 -84.5t-68 -232.5v-160q0 -148 66.5 -230.5t196.5 -82.5q80 0 135 33.5t77.5 82t22.5 107.5v6h121v-10q0 -128 -80.5 -221t-226.5 -107l-115 -145q47 14 90 14q89 0 141 -46t52 -126z" />
    <glyph glyph-name="egrave" unicode="&#xe8;" horiz-adv-x="962" 
d="M211 1532h164l227 -371h-92zM860 285q0 -139 -96.5 -225.5t-261.5 -86.5q-196 0 -297 114t-101 304v158q0 193 103.5 314.5t281.5 121.5q181 0 277 -116.5t96 -305.5v-114h-631v-68q0 -135 65.5 -216t205.5 -81q112 0 174.5 56t62.5 149v6h121v-10zM231 561v-18h506v30
q0 136 -62.5 218.5t-187.5 82.5q-122 0 -189 -85.5t-67 -227.5z" />
    <glyph glyph-name="eacute" unicode="&#xe9;" horiz-adv-x="962" 
d="M795 1532l-301 -371h-91l226 371h166zM860 285q0 -139 -96.5 -225.5t-261.5 -86.5q-196 0 -297 114t-101 304v158q0 193 103.5 314.5t281.5 121.5q181 0 277 -116.5t96 -305.5v-114h-631v-68q0 -135 65.5 -216t205.5 -81q112 0 174.5 56t62.5 149v6h121v-10zM231 561v-18
h506v30q0 136 -62.5 218.5t-187.5 82.5q-122 0 -189 -85.5t-67 -227.5z" />
    <glyph glyph-name="ecircumflex" unicode="&#xea;" horiz-adv-x="962" 
d="M430 1528h123q61 -239 233 -307v-74q-102 24 -179 95.5t-115 170.5q-38 -99 -115.5 -170.5t-179.5 -95.5v74q88 35 144 110t89 197zM860 285q0 -139 -96.5 -225.5t-261.5 -86.5q-196 0 -297 114t-101 304v158q0 193 103.5 314.5t281.5 121.5q181 0 277 -116.5t96 -305.5
v-114h-631v-68q0 -135 65.5 -216t205.5 -81q112 0 174.5 56t62.5 149v6h121v-10zM231 561v-18h506v30q0 136 -62.5 218.5t-187.5 82.5q-122 0 -189 -85.5t-67 -227.5z" />
    <glyph glyph-name="edieresis" unicode="&#xeb;" horiz-adv-x="962" 
d="M262 1352h139v-170h-139v170zM582 1352h139v-170h-139v170zM860 285q0 -139 -96.5 -225.5t-261.5 -86.5q-196 0 -297 114t-101 304v158q0 193 103.5 314.5t281.5 121.5q181 0 277 -116.5t96 -305.5v-114h-631v-68q0 -135 65.5 -216t205.5 -81q112 0 174.5 56t62.5 149v6
h121v-10zM231 561v-18h506v30q0 136 -62.5 218.5t-187.5 82.5q-122 0 -189 -85.5t-67 -227.5z" />
    <glyph glyph-name="igrave" unicode="&#xec;" horiz-adv-x="458" 
d="M-117 1526h166l225 -371h-92zM166 958h127v-958h-127v958z" />
    <glyph glyph-name="iacute" unicode="&#xed;" horiz-adv-x="458" 
d="M575 1526l-301 -371h-90l226 371h165zM166 958h127v-958h-127v958z" />
    <glyph glyph-name="icircumflex" unicode="&#xee;" horiz-adv-x="458" 
d="M168 1522h123q33 -122 89 -197.5t144 -110.5v-73q-102 24 -179.5 95.5t-115.5 170.5q-38 -99 -115.5 -170.5t-179.5 -95.5v73q173 68 234 308zM166 958h127v-958h-127v958z" />
    <glyph glyph-name="idieresis" unicode="&#xef;" horiz-adv-x="458" 
d="M0 1346h139v-170h-139v170zM319 1346h140v-170h-140v170zM166 958h127v-958h-127v958z" />
    <glyph glyph-name="eth" unicode="&#xf0;" horiz-adv-x="997" 
d="M893 403q0 -200 -106.5 -315t-290.5 -115q-179 0 -286.5 108.5t-107.5 299.5v178q0 191 102.5 299.5t270.5 108.5q97 0 174.5 -47.5t124.5 -128.5q-45 224 -184 397l-238 -98l-30 69l217 90q-90 94 -195 160v8h143q88 -63 150 -127l227 94l31 -69l-205 -84
q203 -252 203 -576v-252zM498 862q-123 0 -195 -77t-72 -212v-202q0 -135 72 -212t195 -77q121 0 193.5 77t72.5 212v202q0 133 -72 211t-194 78z" />
    <glyph glyph-name="ntilde" unicode="&#xf1;" horiz-adv-x="1046" 
d="M365 1489q43 0 81 -22t57.5 -44t49.5 -63q25 -35 38.5 -51t36 -31.5t44.5 -15.5q76 0 76 102q0 55 -17 113h76q20 -70 20 -127q0 -90 -44 -138.5t-113 -48.5q-31 0 -58.5 10t-51.5 31.5t-38.5 38t-36.5 45.5q-3 4 -11.5 15t-11.5 15.5t-11 14t-12 14t-11.5 12t-12.5 11
t-12 8.5t-13 7.5t-13.5 4t-14.5 1.5q-32 0 -53.5 -25.5t-21.5 -77.5q0 -57 16 -114h-74q-22 64 -22 129q0 90 44.5 138t113.5 48zM160 958h106l13 -198q65 109 144 164t191 55q127 0 203 -82.5t76 -220.5v-676h-129v659q0 95 -49.5 151t-139.5 56q-116 0 -201 -89.5
t-85 -196.5v-580h-129v958z" />
    <glyph glyph-name="ograve" unicode="&#xf2;" horiz-adv-x="997" 
d="M219 1532h164l227 -371h-92zM500 985q181 0 287 -117t106 -303v-174q0 -184 -108.5 -301t-286.5 -117q-179 0 -286.5 116t-107.5 300v174q0 187 106.5 304.5t289.5 117.5zM500 874q-124 0 -195.5 -84t-71.5 -215v-196q0 -130 73 -212.5t194 -82.5q120 0 192 83t72 212
v196q0 131 -70.5 215t-193.5 84z" />
    <glyph glyph-name="oacute" unicode="&#xf3;" horiz-adv-x="997" 
d="M803 1532l-301 -371h-90l225 371h166zM500 985q181 0 287 -117t106 -303v-174q0 -184 -108.5 -301t-286.5 -117q-179 0 -286.5 116t-107.5 300v174q0 187 106.5 304.5t289.5 117.5zM500 874q-124 0 -195.5 -84t-71.5 -215v-196q0 -130 73 -212.5t194 -82.5q120 0 192 83
t72 212v196q0 131 -70.5 215t-193.5 84z" />
    <glyph glyph-name="ocircumflex" unicode="&#xf4;" horiz-adv-x="997" 
d="M438 1528h123q61 -239 232 -305v-76q-101 24 -178.5 95.5t-114.5 170.5q-38 -99 -115.5 -170.5t-179.5 -95.5v76q88 33 144 108t89 197zM500 985q181 0 287 -117t106 -303v-174q0 -184 -108.5 -301t-286.5 -117q-179 0 -286.5 116t-107.5 300v174q0 187 106.5 304.5
t289.5 117.5zM500 874q-124 0 -195.5 -84t-71.5 -215v-196q0 -130 73 -212.5t194 -82.5q120 0 192 83t72 212v196q0 131 -70.5 215t-193.5 84z" />
    <glyph glyph-name="otilde" unicode="&#xf5;" horiz-adv-x="997" 
d="M348 1475q31 0 57.5 -9.5t50.5 -30.5t37 -35.5t36 -43.5q5 -7 8 -10q24 -35 37 -51.5t35 -32t44 -15.5q34 0 56 24.5t22 76.5q0 45 -16 114h73q23 -80 23 -129q0 -88 -45 -136t-115 -48q-25 0 -49 8.5t-39.5 17.5t-37 31t-29 31.5t-29.5 36.5q-3 4 -14 19t-14.5 19
t-13.5 16t-15 16.5t-14.5 12.5t-16.5 11t-16.5 5.5t-18.5 2.5q-32 0 -54 -25t-22 -77q0 -42 17 -115h-74q-23 81 -23 129q0 90 45 138.5t115 48.5zM500 985q181 0 287 -117t106 -303v-174q0 -184 -108.5 -301t-286.5 -117q-179 0 -286.5 116t-107.5 300v174
q0 187 106.5 304.5t289.5 117.5zM500 874q-124 0 -195.5 -84t-71.5 -215v-196q0 -130 73 -212.5t194 -82.5q120 0 192 83t72 212v196q0 131 -70.5 215t-193.5 84z" />
    <glyph glyph-name="odieresis" unicode="&#xf6;" horiz-adv-x="997" 
d="M270 1352h140v-170h-140v170zM590 1352h139v-170h-139v170zM500 985q181 0 287 -117t106 -303v-174q0 -184 -108.5 -301t-286.5 -117q-179 0 -286.5 116t-107.5 300v174q0 187 106.5 304.5t289.5 117.5zM500 874q-124 0 -195.5 -84t-71.5 -215v-196q0 -130 73 -212.5
t194 -82.5q120 0 192 83t72 212v196q0 131 -70.5 215t-193.5 84z" />
    <glyph glyph-name="divide" unicode="&#xf7;" horiz-adv-x="1206" 
d="M524 1083h158v-153h-158v153zM172 737h862v-110h-862v110zM524 434h158v-153h-158v153z" />
    <glyph glyph-name="oslash" unicode="&#xf8;" horiz-adv-x="997" 
d="M498 -27q-144 0 -242 76l-92 -131l-72 47l101 146q-89 112 -89 278v174q0 187 106.5 304.5t289.5 117.5q139 0 241 -76l95 131l69 -49l-100 -143q88 -114 88 -283v-174q0 -184 -108.5 -301t-286.5 -117zM231 379q0 -98 39 -166l404 600q-67 64 -174 64
q-126 0 -197.5 -84.5t-71.5 -217.5v-196zM768 575q0 94 -39 170l-405 -602q70 -61 176 -61q120 0 194 83.5t74 213.5v196z" />
    <glyph glyph-name="ugrave" unicode="&#xf9;" horiz-adv-x="1046" 
d="M240 1513h163l228 -370h-92zM154 958h129v-659q0 -95 49 -151t137 -56q116 0 201.5 90t85.5 197v579h129v-958h-107l-12 199q-63 -109 -142.5 -164t-191.5 -55q-128 0 -203 82t-75 221v675z" />
    <glyph glyph-name="uacute" unicode="&#xfa;" horiz-adv-x="1046" 
d="M823 1513l-301 -370h-90l225 370h166zM154 958h129v-659q0 -95 49 -151t137 -56q116 0 201.5 90t85.5 197v579h129v-958h-107l-12 199q-63 -109 -142.5 -164t-191.5 -55q-128 0 -203 82t-75 221v675z" />
    <glyph glyph-name="ucircumflex" unicode="&#xfb;" horiz-adv-x="1046" 
d="M459 1509h121q33 -121 89.5 -196.5t143.5 -108.5v-76q-101 24 -179 96.5t-114 170.5q-37 -99 -115.5 -171t-179.5 -96v76q88 33 144.5 108t89.5 197zM154 958h129v-659q0 -95 49 -151t137 -56q116 0 201.5 90t85.5 197v579h129v-958h-107l-12 199q-63 -109 -142.5 -164
t-191.5 -55q-128 0 -203 82t-75 221v675z" />
    <glyph glyph-name="udieresis" unicode="&#xfc;" horiz-adv-x="1046" 
d="M291 1333h139v-170h-139v170zM608 1333h140v-170h-140v170zM154 958h129v-659q0 -95 49 -151t137 -56q116 0 201.5 90t85.5 197v579h129v-958h-107l-12 199q-63 -109 -142.5 -164t-191.5 -55q-128 0 -203 82t-75 221v675z" />
    <glyph glyph-name="yacute" unicode="&#xfd;" horiz-adv-x="923" 
d="M776 1513l-299 -370h-92l227 370h164zM61 958h136l278 -817l268 817h134l-338 -970q-62 -167 -131.5 -236t-202.5 -69h-64v108h45q84 0 129 35.5t72 114.5l16 49z" />
    <glyph glyph-name="thorn" unicode="&#xfe;" horiz-adv-x="1050" 
d="M160 1417h127v-641q56 99 128 152t185 53q157 0 249.5 -113t92.5 -286v-205q0 -174 -95 -287t-253 -113q-75 0 -135.5 28t-97 66t-72.5 95v-483h-129v1734zM567 872q-110 0 -194 -92t-84 -227v-147q0 -135 84 -227.5t194 -92.5q116 0 181 84.5t65 214.5v188
q0 130 -64.5 214.5t-181.5 84.5z" />
    <glyph glyph-name="ydieresis" unicode="&#xff;" horiz-adv-x="923" 
d="M244 1333h139v-170h-139v170zM563 1333h139v-170h-139v170zM61 958h136l278 -817l268 817h134l-338 -970q-62 -167 -131.5 -236t-202.5 -69h-64v108h45q84 0 129 35.5t72 114.5l16 49z" />
    <glyph glyph-name="Amacron" unicode="&#x100;" horiz-adv-x="1251" 
d="M319 1741h613v-99h-613v99zM1032 0l-123 365h-571l-125 -365h-137l479 1378h143l478 -1378h-144zM621 1194l-246 -717h495l-245 717h-4z" />
    <glyph glyph-name="amacron" unicode="&#x101;" horiz-adv-x="985" 
d="M186 1315h594v-98h-594v98zM698 178q-122 -198 -333 -198q-124 0 -191.5 66.5t-67.5 184.5q0 174 158 252q137 67 430 95v84q0 210 -213 210q-103 0 -162 -50.5t-59 -139.5v-18h-119v20q0 132 90 215.5t254 83.5q166 0 250 -83t84 -238v-429q0 -93 23.5 -120t95.5 -27
v-94h-45q-93 0 -141 40.5t-54 145.5zM233 240q0 -156 162 -156q114 0 206.5 86t92.5 188v129q-255 -24 -350 -73q-61 -30 -86 -71.5t-25 -102.5z" />
    <glyph glyph-name="Abreve" unicode="&#x102;" horiz-adv-x="1251" 
d="M627 1679q204 0 204 129q0 48 -14 105h70q26 -70 26 -133q0 -99 -79 -152t-207 -53q-130 0 -209.5 53t-79.5 152q0 60 27 133h69q-14 -57 -14 -105q0 -129 207 -129zM1032 0l-123 365h-571l-125 -365h-137l479 1378h143l478 -1378h-144zM621 1194l-246 -717h495l-245 717
h-4z" />
    <glyph glyph-name="abreve" unicode="&#x103;" horiz-adv-x="985" 
d="M483 1255q98 0 142.5 37.5t44.5 112.5q0 37 -13 113h72q23 -74 23 -146q0 -111 -74.5 -167t-194.5 -56t-194 56t-74 167q0 72 23 146h71q-12 -71 -12 -113q0 -75 44 -112.5t142 -37.5zM698 178q-122 -198 -333 -198q-124 0 -191.5 66.5t-67.5 184.5q0 174 158 252
q137 67 430 95v84q0 210 -213 210q-103 0 -162 -50.5t-59 -139.5v-18h-119v20q0 132 90 215.5t254 83.5q166 0 250 -83t84 -238v-429q0 -93 23.5 -120t95.5 -27v-94h-45q-93 0 -141 40.5t-54 145.5zM233 240q0 -156 162 -156q114 0 206.5 86t92.5 188v129q-255 -24 -350 -73
q-61 -30 -86 -71.5t-25 -102.5z" />
    <glyph glyph-name="Aogonek" unicode="&#x104;" horiz-adv-x="1251" 
d="M1268 -467q-71 -51 -172 -51q-98 0 -154.5 50.5t-56.5 131.5q0 58 30 117q33 67 132 172l-140 412h-569l-125 -365h-137l479 1378h143l478 -1378q-118 -135 -152 -201q-31 -64 -31 -116q0 -59 32.5 -88t88.5 -29q62 0 121 33zM623 1198l-246 -721h491z" />
    <glyph glyph-name="aogonek" unicode="&#x105;" horiz-adv-x="985" 
d="M1032 -467q-71 -51 -174 -51q-98 0 -153.5 50.5t-55.5 131.5q0 54 29 117q43 84 172 213q-71 8 -108.5 50t-43.5 134q-122 -198 -333 -198q-124 0 -191.5 66.5t-67.5 184.5q0 174 158 252q137 67 430 95v84q0 210 -213 210q-103 0 -162 -50.5t-59 -139.5v-18h-119v20
q0 132 90 215.5t254 83.5q166 0 250 -83t84 -238v-429q0 -93 23.5 -120t95.5 -27v-94q-116 -127 -150 -193q-32 -57 -32 -116t32.5 -88t88.5 -29q64 0 120 33zM233 240q0 -156 162 -156q114 0 206.5 86t92.5 188v129q-255 -24 -350 -73q-61 -30 -86 -71.5t-25 -102.5z" />
    <glyph glyph-name="Cacute" unicode="&#x106;" horiz-adv-x="1247" 
d="M944 1907l-289 -324h-94l217 324h166zM649 1395q222 0 343.5 -117.5t121.5 -296.5v-88h-133v74q0 135 -85 223t-245 88q-171 0 -271.5 -115.5t-100.5 -296.5v-368q0 -179 101 -295.5t271 -116.5q159 0 244.5 88t85.5 223v74h133v-88q0 -85 -30.5 -159.5t-87.5 -131.5
t-147 -90t-202 -33q-233 0 -370.5 151.5t-137.5 393.5v336q0 241 139 393t371 152z" />
    <glyph glyph-name="cacute" unicode="&#x107;" horiz-adv-x="940" 
d="M797 1532l-299 -371h-92l227 371h164zM496 84q80 0 135 33.5t77.5 82t22.5 107.5v6h121v-10q0 -139 -93.5 -234.5t-262.5 -95.5q-188 0 -289 115.5t-101 317.5v143q0 200 104 318t290 118q170 0 261 -94t91 -236v-12h-121v4q0 45 -12.5 83.5t-38 72t-72 52.5t-108.5 19
q-131 0 -199 -84.5t-68 -232.5v-160q0 -148 66.5 -230.5t196.5 -82.5z" />
    <glyph glyph-name="Cdotaccent" unicode="&#x10a;" horiz-adv-x="1247" 
d="M571 1769h148v-165h-148v165zM649 1395q222 0 343.5 -117.5t121.5 -296.5v-88h-133v74q0 135 -85 223t-245 88q-171 0 -271.5 -115.5t-100.5 -296.5v-368q0 -179 101 -295.5t271 -116.5q159 0 244.5 88t85.5 223v74h133v-88q0 -85 -30.5 -159.5t-87.5 -131.5t-147 -90
t-202 -33q-233 0 -370.5 151.5t-137.5 393.5v336q0 241 139 393t371 152z" />
    <glyph glyph-name="cdotaccent" unicode="&#x10b;" horiz-adv-x="940" 
d="M420 1348h149v-166h-149v166zM496 84q80 0 135 33.5t77.5 82t22.5 107.5v6h121v-10q0 -139 -93.5 -234.5t-262.5 -95.5q-188 0 -289 115.5t-101 317.5v143q0 200 104 318t290 118q170 0 261 -94t91 -236v-12h-121v4q0 45 -12.5 83.5t-38 72t-72 52.5t-108.5 19
q-131 0 -199 -84.5t-68 -232.5v-160q0 -148 66.5 -230.5t196.5 -82.5z" />
    <glyph glyph-name="Ccaron" unicode="&#x10c;" horiz-adv-x="1247" 
d="M332 1927q110 -22 190 -85t123 -142q43 79 123 142t190 85v-72q-185 -62 -245 -264h-135q-60 201 -246 264v72zM649 1395q222 0 343.5 -117.5t121.5 -296.5v-88h-133v74q0 135 -85 223t-245 88q-171 0 -271.5 -115.5t-100.5 -296.5v-368q0 -179 101 -295.5t271 -116.5
q159 0 244.5 88t85.5 223v74h133v-88q0 -85 -30.5 -159.5t-87.5 -131.5t-147 -90t-202 -33q-233 0 -370.5 151.5t-137.5 393.5v336q0 241 139 393t371 152z" />
    <glyph glyph-name="ccaron" unicode="&#x10d;" horiz-adv-x="940" 
d="M201 1546q101 -24 178.5 -95.5t114.5 -170.5q37 99 115 170.5t179 95.5v-76q-88 -33 -144 -108t-89 -197h-123q-61 240 -231 305v76zM496 84q80 0 135 33.5t77.5 82t22.5 107.5v6h121v-10q0 -139 -93.5 -234.5t-262.5 -95.5q-188 0 -289 115.5t-101 317.5v143
q0 200 104 318t290 118q170 0 261 -94t91 -236v-12h-121v4q0 45 -12.5 83.5t-38 72t-72 52.5t-108.5 19q-131 0 -199 -84.5t-68 -232.5v-160q0 -148 66.5 -230.5t196.5 -82.5z" />
    <glyph glyph-name="Dcaron" unicode="&#x10e;" horiz-adv-x="1286" 
d="M305 1917q112 -22 191.5 -84t124.5 -143q43 80 122 142.5t191 84.5v-72q-188 -60 -246 -262h-137q-58 202 -246 262v72zM190 1364h433q255 0 389.5 -146t134.5 -393v-288q0 -246 -135.5 -391.5t-388.5 -145.5h-433v1364zM328 1247v-1130h288q196 0 295 113t99 305v294
q0 192 -100 305t-296 113h-286z" />
    <glyph glyph-name="dcaron" unicode="&#x10f;" horiz-adv-x="1050" 
d="M1063 1417h123l-64 -354h-75zM762 1417h129v-1417h-107l-12 193q-55 -103 -130 -159.5t-191 -56.5q-157 0 -248.5 112.5t-91.5 287.5v205q0 174 94 286.5t252 112.5q110 0 181 -50t124 -138v624zM483 872q-116 0 -180.5 -84.5t-64.5 -214.5v-188q0 -130 64.5 -214.5
t180.5 -84.5q111 0 195 91.5t84 225.5v150q0 133 -84.5 226t-194.5 93z" />
    <glyph glyph-name="Dcroat" unicode="&#x110;" horiz-adv-x="1296" 
d="M1159 537q0 -245 -136 -391t-388 -146h-432v641h-160v96h160v627h432q254 0 389 -146t135 -393v-288zM340 117h289q194 0 293.5 112.5t99.5 302.5v297q0 193 -100 305.5t-295 112.5h-287v-510h387v-96h-387v-524z" />
    <glyph glyph-name="dcroat" unicode="&#x111;" horiz-adv-x="1050" 
d="M772 193q-55 -103 -130 -159.5t-191 -56.5q-157 0 -248.5 112.5t-91.5 287.5v203q0 174 94 286.5t252 112.5q110 0 181 -50t124 -138v358h-299v82h299v186h129v-186h143v-82h-143v-1149h-107zM483 870q-116 0 -180.5 -84.5t-64.5 -214.5v-188q0 -129 64.5 -213t180.5 -84
q111 0 195 91.5t84 225.5v148q0 135 -84.5 227t-194.5 92z" />
    <glyph glyph-name="Emacron" unicode="&#x112;" horiz-adv-x="1120" 
d="M301 1726h610v-98h-610v98zM190 1364h830v-117h-692v-499h551v-115h-551v-516h696v-117h-834v1364z" />
    <glyph glyph-name="emacron" unicode="&#x113;" horiz-adv-x="962" 
d="M195 1315h593v-98h-593v98zM860 285q0 -139 -96.5 -225.5t-261.5 -86.5q-196 0 -297 114t-101 304v158q0 193 103.5 314.5t281.5 121.5q181 0 277 -116.5t96 -305.5v-114h-631v-68q0 -135 65.5 -216t205.5 -81q112 0 174.5 56t62.5 149v6h121v-10zM231 561v-18h506v30
q0 136 -62.5 218.5t-187.5 82.5q-122 0 -189 -85.5t-67 -227.5z" />
    <glyph glyph-name="Ebreve" unicode="&#x114;" horiz-adv-x="1120" 
d="M606 1665q207 0 207 129q0 39 -16 104h69q27 -73 27 -133q0 -98 -79.5 -151t-207.5 -53t-208.5 53t-80.5 151q0 50 27 133h70q-15 -61 -15 -104q0 -129 207 -129zM190 1364h830v-117h-692v-499h551v-115h-551v-516h696v-117h-834v1364z" />
    <glyph glyph-name="ebreve" unicode="&#x115;" horiz-adv-x="962" 
d="M492 1255q98 0 142 37.5t44 112.5q0 42 -12 113h71q23 -74 23 -146q0 -111 -74 -167t-194 -56t-194.5 56t-74.5 167q0 72 23 146h71q-12 -71 -12 -113q0 -75 44.5 -112.5t142.5 -37.5zM860 285q0 -139 -96.5 -225.5t-261.5 -86.5q-196 0 -297 114t-101 304v158
q0 193 103.5 314.5t281.5 121.5q181 0 277 -116.5t96 -305.5v-114h-631v-68q0 -135 65.5 -216t205.5 -81q112 0 174.5 56t62.5 149v6h121v-10zM231 561v-18h506v30q0 136 -62.5 218.5t-187.5 82.5q-122 0 -189 -85.5t-67 -227.5z" />
    <glyph glyph-name="Edotaccent" unicode="&#x116;" horiz-adv-x="1120" 
d="M532 1759h148v-166h-148v166zM190 1364h830v-117h-692v-499h551v-115h-551v-516h696v-117h-834v1364z" />
    <glyph glyph-name="edotaccent" unicode="&#x117;" horiz-adv-x="962" 
d="M418 1348h147v-166h-147v166zM860 285q0 -139 -96.5 -225.5t-261.5 -86.5q-196 0 -297 114t-101 304v158q0 193 103.5 314.5t281.5 121.5q181 0 277 -116.5t96 -305.5v-114h-631v-68q0 -135 65.5 -216t205.5 -81q112 0 174.5 56t62.5 149v6h121v-10zM231 561v-18h506v30
q0 136 -62.5 218.5t-187.5 82.5q-122 0 -189 -85.5t-67 -227.5z" />
    <glyph glyph-name="Eogonek" unicode="&#x118;" horiz-adv-x="1120" 
d="M1114 -467q-67 -51 -172 -51q-98 0 -153.5 50.5t-55.5 131.5q0 60 29 117q42 82 176 219h-748v1364h830v-117h-692v-499h551v-115h-551v-516h696v-117q-123 -140 -154 -201q-30 -61 -30 -116q0 -59 32.5 -88t88.5 -29q61 0 120 33z" />
    <glyph glyph-name="eogonek" unicode="&#x119;" horiz-adv-x="962" 
d="M889 -467q-71 -51 -172 -51q-98 0 -154.5 51.5t-56.5 134.5q0 65 31 135q48 90 127 199q-79 -29 -164 -29q-194 0 -295 114t-101 304v158q0 193 103.5 314.5t281.5 121.5q181 0 277 -117t96 -305v-114h-631v-68q0 -135 65.5 -216t205.5 -81q111 0 174 56.5t63 148.5v6
h121v-8q0 -91 -45 -164q-106 -166 -149 -254q-54 -108 -54 -180q0 -62 33 -92.5t90 -30.5q62 0 121 33zM231 561v-18h506v30q0 136 -62.5 218.5t-187.5 82.5q-122 0 -189 -85.5t-67 -227.5z" />
    <glyph glyph-name="Ecaron" unicode="&#x11a;" horiz-adv-x="1120" 
d="M293 1917q110 -22 189 -84t124 -143q42 80 122.5 142.5t191.5 84.5v-72q-184 -59 -246 -262h-137q-58 202 -244 262v72zM190 1364h830v-117h-692v-499h551v-115h-551v-516h696v-117h-834v1364z" />
    <glyph glyph-name="ecaron" unicode="&#x11b;" horiz-adv-x="962" 
d="M197 1546q102 -24 179.5 -95.5t115.5 -170.5q38 99 115 170.5t179 95.5v-76q-88 -33 -145 -108.5t-88 -196.5h-123q-33 122 -89 197t-144 108v76zM860 285q0 -139 -96.5 -225.5t-261.5 -86.5q-196 0 -297 114t-101 304v158q0 193 103.5 314.5t281.5 121.5
q181 0 277 -116.5t96 -305.5v-114h-631v-68q0 -135 65.5 -216t205.5 -81q112 0 174.5 56t62.5 149v6h121v-10zM231 561v-18h506v30q0 136 -62.5 218.5t-187.5 82.5q-122 0 -189 -85.5t-67 -227.5z" />
    <glyph glyph-name="Gbreve" unicode="&#x11e;" horiz-adv-x="1290" 
d="M645 1673q207 0 207 131q0 48 -14 103h67q29 -74 29 -131q0 -99 -80.5 -152t-208.5 -53t-207.5 53t-79.5 152q0 62 27 131h70q-17 -67 -17 -103q0 -131 207 -131zM655 1395q115 0 205.5 -34.5t146.5 -94t85.5 -136.5t29.5 -165v-39h-133v30q0 137 -86 229.5t-250 92.5
q-177 0 -275.5 -116t-98.5 -304l-3 -348q0 -192 100 -308t267 -116q161 0 256.5 102t95.5 265v110h-329v113h462v-676h-79l-21 223q-122 -250 -405 -250q-220 0 -352 148t-132 397v330q0 159 60.5 282t178.5 194t277 71z" />
    <glyph glyph-name="gbreve" unicode="&#x11f;" horiz-adv-x="964" 
d="M479 1270q98 0 142.5 37t44.5 112q0 37 -13 113h74q23 -86 23 -146q0 -111 -74.5 -167t-196.5 -56q-120 0 -194 56t-74 167q0 75 22 146h72q-12 -70 -12 -113q0 -75 44 -112t142 -37zM924 -92q0 -113 -114.5 -177.5t-317.5 -64.5q-210 0 -320.5 56t-110.5 161
q0 136 207 183v4q-149 47 -149 135q0 87 143 143q-62 39 -95.5 104t-33.5 142v80q0 131 96 217t252 86q65 0 133 -21q66 7 107 20.5t61 36t26 47t5 62.5h100q9 -38 9 -63q0 -72 -50 -108t-155 -50q114 -79 114 -231v-78q0 -131 -95 -217t-255 -86q-69 0 -141 20
q-107 -33 -107 -84q0 -42 78.5 -65t188.5 -23h14q410 0 410 -229zM481 389q107 0 167.5 56t60.5 145v88q0 88 -60.5 143.5t-167.5 55.5q-106 0 -165.5 -55.5t-59.5 -143.5v-88q0 -89 59.5 -145t165.5 -56zM492 -242q153 0 233 37t80 105q0 65 -74.5 97t-232.5 32h-27
q-145 0 -219 -37.5t-74 -100.5t79.5 -98t234.5 -35z" />
    <glyph glyph-name="Gdotaccent" unicode="&#x120;" horiz-adv-x="1290" 
d="M571 1769h148v-165h-148v165zM655 1395q115 0 205.5 -34.5t146.5 -94t85.5 -136.5t29.5 -165v-39h-133v30q0 137 -86 229.5t-250 92.5q-177 0 -275.5 -116t-98.5 -304l-3 -348q0 -192 100 -308t267 -116q161 0 256.5 102t95.5 265v110h-329v113h462v-676h-79l-21 223
q-122 -250 -405 -250q-220 0 -352 148t-132 397v330q0 159 60.5 282t178.5 194t277 71z" />
    <glyph glyph-name="gdotaccent" unicode="&#x121;" horiz-adv-x="964" 
d="M406 1362h147v-166h-147v166zM924 -92q0 -113 -114.5 -177.5t-317.5 -64.5q-210 0 -320.5 56t-110.5 161q0 136 207 183v4q-149 47 -149 135q0 87 143 143q-62 39 -95.5 104t-33.5 142v80q0 131 96 217t252 86q65 0 133 -21q66 7 107 20.5t61 36t26 47t5 62.5h100
q9 -38 9 -63q0 -72 -50 -108t-155 -50q114 -79 114 -231v-78q0 -131 -95 -217t-255 -86q-69 0 -141 20q-107 -33 -107 -84q0 -42 78.5 -65t188.5 -23h14q410 0 410 -229zM481 389q107 0 167.5 56t60.5 145v88q0 88 -60.5 143.5t-167.5 55.5q-106 0 -165.5 -55.5
t-59.5 -143.5v-88q0 -89 59.5 -145t165.5 -56zM492 -242q153 0 233 37t80 105q0 65 -74.5 97t-232.5 32h-27q-145 0 -219 -37.5t-74 -100.5t79.5 -98t234.5 -35z" />
    <glyph glyph-name="Gcommaaccent" unicode="&#x122;" horiz-adv-x="1290" 
d="M655 1395q115 0 205.5 -34.5t146.5 -94t85.5 -136.5t29.5 -165v-39h-133v30q0 137 -86 229.5t-250 92.5q-177 0 -275.5 -116t-98.5 -304l-3 -348q0 -192 100 -308t267 -116q161 0 256.5 102t95.5 265v110h-329v113h462v-676h-79l-21 223q-122 -250 -405 -250
q-220 0 -352 148t-132 397v330q0 159 60.5 282t178.5 194t277 71zM565 -227h160v-162q0 -213 -231 -268v49q162 48 159 196h-88v185z" />
    <glyph glyph-name="gcommaaccent" unicode="&#x123;" horiz-adv-x="964" 
d="M401 1194v162q0 213 232 268v-49q-160 -48 -160 -197h88v-184h-160zM924 -92q0 -113 -114.5 -177.5t-317.5 -64.5q-210 0 -320.5 56t-110.5 161q0 136 207 183v4q-149 47 -149 135q0 87 143 143q-62 39 -95.5 104t-33.5 142v80q0 131 96 217t252 86q65 0 133 -21
q66 7 107 20.5t61 36t26 47t5 62.5h100q9 -38 9 -63q0 -72 -50 -108t-155 -50q114 -79 114 -231v-78q0 -131 -95 -217t-255 -86q-69 0 -141 20q-107 -33 -107 -84q0 -42 78.5 -65t188.5 -23h14q410 0 410 -229zM481 389q107 0 167.5 56t60.5 145v88q0 88 -60.5 143.5
t-167.5 55.5q-106 0 -165.5 -55.5t-59.5 -143.5v-88q0 -89 59.5 -145t165.5 -56zM492 -242q153 0 233 37t80 105q0 65 -74.5 97t-232.5 32h-27q-145 0 -219 -37.5t-74 -100.5t79.5 -98t234.5 -35z" />
    <glyph glyph-name="Hbar" unicode="&#x126;" horiz-adv-x="1353" 
d="M340 629v-629h-137v1018h-160v94h160v252h137v-254h674v254h137v-252h158v-94h-158v-1018h-137v629h-674zM340 748h674v272h-674v-272z" />
    <glyph glyph-name="hbar" unicode="&#x127;" horiz-adv-x="1044" 
d="M289 580v-580h-129v1149h-142v82h142v186h129v-186h299v-82h-299v-373q63 100 140 150.5t185 50.5q127 0 202 -82.5t75 -220.5v-674h-127v659q0 95 -50.5 151t-138.5 56q-116 0 -201 -90t-85 -196z" />
    <glyph glyph-name="Imacron" unicode="&#x12a;" horiz-adv-x="540" 
d="M-35 1726h610v-98h-610v98zM201 1364h137v-1364h-137v1364z" />
    <glyph glyph-name="imacron" unicode="&#x12b;" horiz-adv-x="458" 
d="M-68 1309h594v-99h-594v99zM166 958h127v-958h-127v958z" />
    <glyph glyph-name="Ibreve" unicode="&#x12c;" horiz-adv-x="540" 
d="M270 1665q207 0 207 129q0 39 -16 104h69q27 -73 27 -133q0 -98 -79.5 -151t-207.5 -53t-208 53t-80 151q0 58 28 133h68q-15 -61 -15 -104q0 -129 207 -129zM201 1364h137v-1364h-137v1364z" />
    <glyph glyph-name="ibreve" unicode="&#x12d;" horiz-adv-x="458" 
d="M229 1251q98 0 142.5 36.5t44.5 111.5q0 36 -13 112h72q23 -74 23 -145q0 -111 -74.5 -167t-194.5 -56t-194 56t-74 167q0 71 23 145h71q-12 -71 -12 -112q0 -75 44 -111.5t142 -36.5zM166 958h127v-958h-127v958z" />
    <glyph glyph-name="Iogonek" unicode="&#x12e;" horiz-adv-x="540" 
d="M440 -467q-71 -51 -172 -51q-97 0 -154 49t-57 133q0 48 33 119q23 43 111 147v1434h137v-1364q-104 -134 -139 -199q-33 -62 -33 -123q0 -56 32 -85t85 -29q59 0 127 33z" />
    <glyph glyph-name="iogonek" unicode="&#x12f;" horiz-adv-x="458" 
d="M156 1341h147v-165h-147v165zM403 -467q-71 -51 -174 -51q-98 0 -154.5 50.5t-56.5 131.5q0 57 33 125q28 58 115 160v1009h127v-958q-107 -139 -133 -193q-33 -65 -33 -124t32.5 -88t88.5 -29q62 0 121 33z" />
    <glyph glyph-name="Idotaccent" unicode="&#x130;" horiz-adv-x="540" 
d="M197 1759h147v-166h-147v166zM201 1364h137v-1364h-137v1364z" />
    <glyph glyph-name="dotlessi" unicode="&#x131;" horiz-adv-x="458" 
d="M166 958h127v-958h-127v958z" />
    <glyph glyph-name="Kcommaaccent" unicode="&#x136;" horiz-adv-x="1175" 
d="M967 0q-332 502 -441 666l-198 -246v-420h-138v1364h138v-774l626 774h162l-498 -598l506 -766h-157zM545 -209h160v-162q0 -210 -232 -268v49q160 48 160 199h-88v182z" />
    <glyph glyph-name="kcommaaccent" unicode="&#x137;" horiz-adv-x="927" 
d="M160 1417h129v-1030l418 571h143l-291 -389l318 -569h-142l-262 467l-184 -244v-223h-129v1417zM412 -209h159v-162q0 -210 -231 -268v49q162 47 162 199h-90v182z" />
    <glyph glyph-name="Lacute" unicode="&#x139;" horiz-adv-x="1021" 
d="M596 1898l-289 -325h-94l217 325h166zM190 1364h138v-1245h630v-119h-768v1364z" />
    <glyph glyph-name="lacute" unicode="&#x13a;" horiz-adv-x="458" 
d="M575 1894l-301 -368h-90l226 368h165zM166 1417h127v-1417h-127v1417z" />
    <glyph glyph-name="Lcommaaccent" unicode="&#x13b;" horiz-adv-x="1021" 
d="M190 1364h138v-1245h630v-119h-768v1364zM479 -221h160v-160q0 -212 -229 -270v51q159 47 159 197h-90v182z" />
    <glyph glyph-name="lcommaaccent" unicode="&#x13c;" horiz-adv-x="458" 
d="M166 1417h127v-1417h-127v1417zM150 -221h159v-160q0 -212 -231 -270v51q160 48 160 197h-88v182z" />
    <glyph glyph-name="Lcaron" unicode="&#x13d;" horiz-adv-x="1021" 
d="M539 1364h125l-66 -354h-74zM190 1364h138v-1245h630v-119h-768v1364z" />
    <glyph glyph-name="lcaron" unicode="&#x13e;" horiz-adv-x="458" 
d="M467 1417h123l-64 -354h-75zM166 1417h127v-1417h-127v1417z" />
    <glyph glyph-name="Ldot" unicode="&#x13f;" horiz-adv-x="1021" 
d="M190 1364h138v-1245h630v-119h-768v1364zM702 768h140v-170h-140v170z" />
    <glyph glyph-name="ldot" unicode="&#x140;" horiz-adv-x="614" 
d="M166 1417h127v-1417h-127v1417zM467 768h139v-170h-139v170z" />
    <glyph glyph-name="Lslash" unicode="&#x141;" horiz-adv-x="1028" 
d="M965 119v-119h-766v543l-146 -82l-45 80l191 108v715h137v-637l346 195l47 -80l-393 -221v-502h629z" />
    <glyph glyph-name="lslash" unicode="&#x142;" horiz-adv-x="512" 
d="M524 834l-205 -129v-705h-129v623l-155 -99l-45 70l200 129v694h129v-614l160 100z" />
    <glyph glyph-name="Nacute" unicode="&#x143;" horiz-adv-x="1335" 
d="M963 1886l-289 -323h-94l217 323h166zM190 1364h132l692 -1110h4v1110h127v-1364h-125l-698 1120h-5v-1120h-127v1364z" />
    <glyph glyph-name="nacute" unicode="&#x144;" horiz-adv-x="1046" 
d="M821 1548l-301 -370h-92l227 370h166zM160 958h106l13 -198q65 109 144 164t191 55q127 0 203 -82.5t76 -220.5v-676h-129v659q0 95 -49.5 151t-139.5 56q-116 0 -201 -89.5t-85 -196.5v-580h-129v958z" />
    <glyph glyph-name="Ncommaaccent" unicode="&#x145;" horiz-adv-x="1335" 
d="M190 1364h132l692 -1110h4v1110h127v-1364h-125l-698 1120h-5v-1120h-127v1364zM586 -209h159v-162q0 -210 -229 -268v49q160 48 160 199h-90v182z" />
    <glyph glyph-name="ncommaaccent" unicode="&#x146;" horiz-adv-x="1046" 
d="M160 958h106l13 -198q65 109 144 164t191 55q127 0 203 -82.5t76 -220.5v-676h-129v659q0 95 -49.5 151t-139.5 56q-116 0 -201 -89.5t-85 -196.5v-580h-129v958zM436 -209h160v-162q0 -210 -231 -268v49q162 48 159 199h-88v182z" />
    <glyph glyph-name="Ncaron" unicode="&#x147;" horiz-adv-x="1335" 
d="M350 1905q111 -22 191.5 -85t122.5 -143q43 80 122.5 143t190.5 85v-72q-184 -60 -246 -262h-135q-62 202 -246 262v72zM190 1364h132l692 -1110h4v1110h127v-1364h-125l-698 1120h-5v-1120h-127v1364z" />
    <glyph glyph-name="ncaron" unicode="&#x148;" horiz-adv-x="1046" 
d="M223 1561q101 -24 178 -96t115 -171q37 99 115.5 171t179.5 96v-74q-88 -35 -144 -110t-89 -197h-121q-64 239 -234 307v74zM160 958h106l13 -198q65 109 144 164t191 55q127 0 203 -82.5t76 -220.5v-676h-129v659q0 95 -49.5 151t-139.5 56q-116 0 -201 -89.5
t-85 -196.5v-580h-129v958z" />
    <glyph glyph-name="Omacron" unicode="&#x14c;" horiz-adv-x="1320" 
d="M354 1737h613v-99h-613v99zM662 1395q241 0 380.5 -149.5t139.5 -403.5v-320q0 -254 -140.5 -403.5t-382.5 -149.5q-241 0 -380.5 149.5t-139.5 403.5v320q0 254 140.5 403.5t382.5 149.5zM662 1278q-179 0 -281 -116t-102 -312v-336q0 -196 101.5 -312t278.5 -116
q179 0 282 116t103 312v336q0 196 -102.5 312t-279.5 116z" />
    <glyph glyph-name="omacron" unicode="&#x14d;" horiz-adv-x="997" 
d="M201 1315h596v-98h-596v98zM500 985q181 0 287 -117t106 -303v-174q0 -184 -108.5 -301t-286.5 -117q-179 0 -286.5 116t-107.5 300v174q0 187 106.5 304.5t289.5 117.5zM500 874q-124 0 -195.5 -84t-71.5 -215v-196q0 -130 73 -212.5t194 -82.5q120 0 192 83t72 212v196
q0 131 -70.5 215t-193.5 84z" />
    <glyph glyph-name="Obreve" unicode="&#x14e;" horiz-adv-x="1320" 
d="M662 1675q204 0 204 129q0 48 -14 103h70q26 -67 26 -131q0 -99 -79 -152t-207 -53q-130 0 -209.5 53t-79.5 152q0 64 26 131h70q-14 -55 -14 -103q0 -129 207 -129zM662 1395q241 0 380.5 -149.5t139.5 -403.5v-320q0 -254 -140.5 -403.5t-382.5 -149.5
q-241 0 -380.5 149.5t-139.5 403.5v320q0 254 140.5 403.5t382.5 149.5zM662 1278q-179 0 -281 -116t-102 -312v-336q0 -196 101.5 -312t278.5 -116q179 0 282 116t103 312v336q0 196 -102.5 312t-279.5 116z" />
    <glyph glyph-name="obreve" unicode="&#x14f;" horiz-adv-x="997" 
d="M500 1257q97 0 141.5 37t44.5 111q0 41 -12 115h71q23 -77 23 -148q0 -111 -74 -167t-194 -56q-122 0 -196.5 56t-74.5 167q0 58 23 148h74q-13 -80 -13 -115q0 -74 44.5 -111t142.5 -37zM500 985q181 0 287 -117t106 -303v-174q0 -184 -108.5 -301t-286.5 -117
q-179 0 -286.5 116t-107.5 300v174q0 187 106.5 304.5t289.5 117.5zM500 874q-124 0 -195.5 -84t-71.5 -215v-196q0 -130 73 -212.5t194 -82.5q120 0 192 83t72 212v196q0 131 -70.5 215t-193.5 84z" />
    <glyph glyph-name="Ohungarumlaut" unicode="&#x150;" horiz-adv-x="1320" 
d="M801 1907l-273 -324h-82l203 324h152zM1120 1907l-272 -324h-82l203 324h151zM662 1395q241 0 380.5 -149.5t139.5 -403.5v-320q0 -254 -140.5 -403.5t-382.5 -149.5q-241 0 -380.5 149.5t-139.5 403.5v320q0 254 140.5 403.5t382.5 149.5zM662 1278q-179 0 -281 -116
t-102 -312v-336q0 -196 101.5 -312t278.5 -116q179 0 282 116t103 312v336q0 196 -102.5 312t-279.5 116z" />
    <glyph glyph-name="ohungarumlaut" unicode="&#x151;" horiz-adv-x="997" 
d="M664 1532l-279 -371h-82l211 371h150zM979 1532l-281 -371h-80l211 371h150zM500 985q181 0 287 -117t106 -303v-174q0 -184 -108.5 -301t-286.5 -117q-179 0 -286.5 116t-107.5 300v174q0 187 106.5 304.5t289.5 117.5zM500 874q-124 0 -195.5 -84t-71.5 -215v-196
q0 -130 73 -212.5t194 -82.5q120 0 192 83t72 212v196q0 131 -70.5 215t-193.5 84z" />
    <glyph glyph-name="OE" unicode="&#x152;" horiz-adv-x="1886" 
d="M1790 0h-1128q-254 0 -389.5 146.5t-135.5 392.5v288q0 245 136.5 391t390.5 146h1122v-117h-692v-499h551v-115h-551v-516h696v-117zM668 1247q-194 0 -294 -113t-100 -303v-296q0 -193 100.5 -305.5t295.5 -112.5h286v1130h-288z" />
    <glyph glyph-name="oe" unicode="&#x153;" horiz-adv-x="1622" 
d="M1157 -27q-123 0 -207.5 49t-126.5 138q-48 -88 -132.5 -137.5t-192.5 -49.5q-178 0 -286 116t-108 300v174q0 186 107 304t287 118q116 0 200 -51t131 -143q45 91 127.5 142.5t192.5 51.5q120 0 205.5 -56t125.5 -150t40 -216v-114h-631v-68q0 -135 66 -216t206 -81
q110 0 174 58t64 151v6h119v-8q0 -140 -98 -229t-263 -89zM889 561v-18h506v30q0 136 -62 218.5t-186 82.5q-123 0 -190.5 -85.5t-67.5 -227.5zM498 874q-123 0 -195 -84t-72 -215v-196q0 -129 73.5 -212t193.5 -83t192 83t72 212v196q0 131 -70.5 215t-193.5 84z" />
    <glyph glyph-name="Racute" unicode="&#x154;" horiz-adv-x="1202" 
d="M899 1898l-289 -325h-92l217 325h164zM328 582v-582h-138v1364h474q411 0 411 -346v-84q0 -131 -78 -222t-221 -118l342 -594h-151l-334 582h-305zM328 1249v-555h307q145 0 224 66t79 178v72q0 124 -69.5 181.5t-221.5 57.5h-319z" />
    <glyph glyph-name="racute" unicode="&#x155;" horiz-adv-x="690" 
d="M700 1528l-299 -371h-92l228 371h163zM160 958h106l13 -237q23 55 49.5 97t63 78t86 55.5t108.5 19.5q30 0 65 -6v-129q-46 8 -69 8q-121 0 -207 -92t-86 -213v-539h-129v958z" />
    <glyph glyph-name="Rcommaaccent" unicode="&#x156;" horiz-adv-x="1202" 
d="M328 582v-582h-138v1364h474q411 0 411 -346v-84q0 -131 -78 -222t-221 -118l342 -594h-151l-334 582h-305zM328 1249v-555h307q145 0 224 66t79 178v72q0 124 -69.5 181.5t-221.5 57.5h-319zM549 -209h160v-162q0 -210 -232 -268v49q162 47 162 199h-90v182z" />
    <glyph glyph-name="rcommaaccent" unicode="&#x157;" horiz-adv-x="690" 
d="M160 958h106l13 -237q23 55 49.5 97t63 78t86 55.5t108.5 19.5q30 0 65 -6v-129q-46 8 -69 8q-121 0 -207 -92t-86 -213v-539h-129v958zM145 -221h160v-160q0 -212 -231 -270v51q162 48 159 197h-88v182z" />
    <glyph glyph-name="Rcaron" unicode="&#x158;" horiz-adv-x="1202" 
d="M287 1917q112 -22 191 -84.5t122 -142.5q45 81 124 143t191 84v-72q-187 -60 -245 -262h-138q-58 202 -245 262v72zM328 582v-582h-138v1364h474q411 0 411 -346v-84q0 -131 -78 -222t-221 -118l342 -594h-151l-334 582h-305zM328 1249v-555h307q145 0 224 66t79 178v72
q0 124 -69.5 181.5t-221.5 57.5h-319z" />
    <glyph glyph-name="rcaron" unicode="&#x159;" horiz-adv-x="690" 
d="M102 1542q102 -24 179.5 -95.5t115.5 -170.5q38 99 115.5 170.5t179.5 95.5v-76q-88 -33 -144 -108t-89 -197h-123q-61 240 -234 305v76zM160 958h106l13 -237q23 55 49.5 97t63 78t86 55.5t108.5 19.5q30 0 65 -6v-129q-46 8 -69 8q-121 0 -207 -92t-86 -213v-539h-129
v958z" />
    <glyph glyph-name="Sacute" unicode="&#x15a;" horiz-adv-x="1161" 
d="M889 1905l-289 -324h-92l217 324h164zM590 1391q117 0 205 -30.5t139.5 -84.5t76.5 -122t25 -150v-58h-137v51q0 59 -16 107.5t-51 88t-97.5 61.5t-148.5 22q-139 0 -220 -68.5t-81 -179.5q0 -57 17.5 -97t63.5 -72.5t103 -56.5t158 -57q116 -37 187.5 -69t128.5 -77.5
t81.5 -106t24.5 -144.5q0 -176 -123.5 -275.5t-327.5 -99.5q-236 0 -354.5 107.5t-118.5 288.5v67h137v-57q0 -138 83.5 -214.5t256.5 -76.5q142 0 225.5 66t83.5 184q0 62 -17 104t-63.5 76.5t-105 58.5t-164.5 58q-108 32 -178.5 63.5t-127 76t-82.5 105t-26 142.5
q0 161 120.5 265t322.5 104z" />
    <glyph glyph-name="sacute" unicode="&#x15b;" horiz-adv-x="915" 
d="M758 1532l-299 -371h-92l227 371h164zM465 -27q-180 0 -273.5 86t-93.5 226v39h119v-35q0 -98 63.5 -154.5t186.5 -56.5q104 0 162.5 44.5t58.5 125.5q0 74 -55 113.5t-197 72.5q-163 37 -239 99.5t-76 179.5q0 114 91.5 193t246.5 79q164 0 250 -81t86 -212v-30h-115v22
q0 93 -57.5 145t-167.5 52q-96 0 -154.5 -45.5t-58.5 -116.5q0 -73 57.5 -111.5t196.5 -72.5q164 -37 239.5 -99.5t75.5 -181.5q0 -127 -93 -204t-253 -77z" />
    <glyph glyph-name="Scedilla" unicode="&#x15e;" horiz-adv-x="1161" 
d="M809 -328q0 -91 -64.5 -140.5t-181.5 -49.5q-126 0 -233 51l26 66q100 -41 197 -41q152 0 152 114q0 46 -31.5 73.5t-95.5 27.5q-49 0 -115 -25l-37 53l129 172q-214 10 -322 116.5t-108 279.5v67h137v-57q0 -138 83.5 -214.5t256.5 -76.5q142 0 225.5 66t83.5 184
q0 62 -17 104t-63.5 76.5t-105 58.5t-164.5 58q-108 32 -178.5 63.5t-127 76t-82.5 105t-26 142.5q0 161 120.5 265t322.5 104q117 0 205 -30.5t139.5 -84.5t76.5 -122t25 -150v-58h-137v51q0 59 -16 107.5t-51 88t-97.5 61.5t-148.5 22q-139 0 -220 -68.5t-81 -179.5
q0 -57 17.5 -97t63.5 -72.5t103 -56.5t158 -57q116 -37 187.5 -69t128.5 -77.5t81.5 -106t24.5 -144.5q0 -166 -111.5 -265t-298.5 -110l-113 -143q47 14 90 14q89 0 141 -46t52 -126z" />
    <glyph glyph-name="scedilla" unicode="&#x15f;" horiz-adv-x="915" 
d="M674 -328q0 -91 -64.5 -140.5t-181.5 -49.5q-126 0 -233 51l26 66q100 -41 197 -41q76 0 113.5 27.5t37.5 86.5q0 46 -31.5 73.5t-95.5 27.5q-48 0 -114 -25l-37 53l129 174q-157 10 -239.5 94.5t-82.5 215.5v39h119v-35q0 -98 63.5 -154.5t186.5 -56.5q104 0 162.5 44.5
t58.5 125.5q0 74 -55 113.5t-197 72.5q-163 37 -239 99.5t-76 179.5q0 114 91.5 193t246.5 79q164 0 250 -81t86 -212v-30h-115v22q0 93 -57.5 145t-167.5 52q-96 0 -154.5 -45.5t-58.5 -116.5q0 -73 57.5 -111.5t196.5 -72.5q164 -37 239.5 -99.5t75.5 -181.5
q0 -118 -81.5 -193.5t-223.5 -85.5l-115 -145q47 14 90 14q89 0 141 -46t52 -126z" />
    <glyph glyph-name="Scaron" unicode="&#x160;" horiz-adv-x="1161" 
d="M276 1923q110 -20 190.5 -83t123.5 -142q45 80 124 142.5t189 82.5v-70q-186 -63 -244 -264h-137q-62 203 -246 264v70zM590 1391q117 0 205 -30.5t139.5 -84.5t76.5 -122t25 -150v-58h-137v51q0 59 -16 107.5t-51 88t-97.5 61.5t-148.5 22q-139 0 -220 -68.5t-81 -179.5
q0 -57 17.5 -97t63.5 -72.5t103 -56.5t158 -57q116 -37 187.5 -69t128.5 -77.5t81.5 -106t24.5 -144.5q0 -176 -123.5 -275.5t-327.5 -99.5q-236 0 -354.5 107.5t-118.5 288.5v67h137v-57q0 -138 83.5 -214.5t256.5 -76.5q142 0 225.5 66t83.5 184q0 62 -17 104t-63.5 76.5
t-105 58.5t-164.5 58q-108 32 -178.5 63.5t-127 76t-82.5 105t-26 142.5q0 161 120.5 265t322.5 104z" />
    <glyph glyph-name="scaron" unicode="&#x161;" horiz-adv-x="915" 
d="M162 1546q101 -24 178.5 -95.5t114.5 -170.5q38 99 115.5 170.5t179.5 95.5v-76q-88 -33 -144.5 -108t-89.5 -197h-123q-61 240 -231 305v76zM465 -27q-180 0 -273.5 86t-93.5 226v39h119v-35q0 -98 63.5 -154.5t186.5 -56.5q104 0 162.5 44.5t58.5 125.5q0 74 -55 113.5
t-197 72.5q-163 37 -239 99.5t-76 179.5q0 114 91.5 193t246.5 79q164 0 250 -81t86 -212v-30h-115v22q0 93 -57.5 145t-167.5 52q-96 0 -154.5 -45.5t-58.5 -116.5q0 -73 57.5 -111.5t196.5 -72.5q164 -37 239.5 -99.5t75.5 -181.5q0 -127 -93 -204t-253 -77z" />
    <glyph glyph-name="Tcommaaccent" unicode="&#x162;" horiz-adv-x="1114" 
d="M63 1364h986v-119h-422v-1245h-138v1245h-426v119zM477 -221h160v-160q0 -212 -231 -270v51q161 47 161 197h-90v182z" />
    <glyph glyph-name="Tcommaaccent" unicode="&#x21a;" horiz-adv-x="1114" 
d="M63 1364h986v-119h-422v-1245h-138v1245h-426v119zM477 -221h160v-160q0 -212 -231 -270v51q161 47 161 197h-90v182z" />
    <glyph glyph-name="tcommaaccent" unicode="&#x163;" horiz-adv-x="692" 
d="M68 958h155v211l127 41v-252h277v-106h-277v-547q0 -117 39.5 -159t142.5 -42h52v-106h-72q-150 0 -219.5 61.5t-69.5 219.5v573h-155v106zM303 -223h160v-162q0 -210 -230 -268v49q160 48 160 198h-90v183z" />
    <glyph glyph-name="tcommaaccent" unicode="&#x21b;" horiz-adv-x="692" 
d="M68 958h155v211l127 41v-252h277v-106h-277v-547q0 -117 39.5 -159t142.5 -42h52v-106h-72q-150 0 -219.5 61.5t-69.5 219.5v573h-155v106zM303 -223h160v-162q0 -210 -230 -268v49q160 48 160 198h-90v183z" />
    <glyph glyph-name="Tcaron" unicode="&#x164;" horiz-adv-x="1114" 
d="M244 1917q112 -22 191 -84t124 -143q43 80 122 142.5t191 84.5v-72q-187 -60 -245 -262h-138q-58 202 -245 262v72zM63 1364h986v-119h-422v-1245h-138v1245h-426v119z" />
    <glyph glyph-name="tcaron" unicode="&#x165;" horiz-adv-x="692" 
d="M532 1456h123l-63 -354h-76zM68 958h155v211l127 41v-252h277v-106h-277v-547q0 -117 39.5 -159t142.5 -42h52v-106h-72q-150 0 -219.5 61.5t-69.5 219.5v573h-155v106z" />
    <glyph glyph-name="Umacron" unicode="&#x16a;" horiz-adv-x="1288" 
d="M340 1714h610v-98h-610v98zM176 1364h137v-918q0 -172 87 -263t245 -91t246 91t88 263v918h133v-918q0 -228 -122.5 -351.5t-346.5 -123.5q-223 0 -345 123.5t-122 351.5v918z" />
    <glyph glyph-name="umacron" unicode="&#x16b;" horiz-adv-x="1046" 
d="M221 1296h596v-98h-596v98zM154 958h129v-659q0 -95 49 -151t137 -56q116 0 201.5 90t85.5 197v579h129v-958h-107l-12 199q-63 -109 -142.5 -164t-191.5 -55q-128 0 -203 82t-75 221v675z" />
    <glyph glyph-name="Ubreve" unicode="&#x16c;" horiz-adv-x="1288" 
d="M645 1653q207 0 207 129q0 39 -16 104h69q27 -69 27 -133q0 -98 -79.5 -150.5t-207.5 -52.5q-129 0 -209 52.5t-80 150.5q0 64 27 133h70q-15 -61 -15 -104q0 -129 207 -129zM176 1364h137v-918q0 -172 87 -263t245 -91t246 91t88 263v918h133v-918q0 -228 -122.5 -351.5
t-346.5 -123.5q-223 0 -345 123.5t-122 351.5v918z" />
    <glyph glyph-name="ubreve" unicode="&#x16d;" horiz-adv-x="1046" 
d="M520 1239q97 0 141 36.5t44 110.5q0 48 -11 115h72q22 -86 22 -147q0 -111 -74 -167.5t-194 -56.5q-122 0 -196 56.5t-74 167.5q0 61 22 147h72q-10 -82 -10 -115q0 -74 43.5 -110.5t142.5 -36.5zM154 958h129v-659q0 -95 49 -151t137 -56q116 0 201.5 90t85.5 197v579
h129v-958h-107l-12 199q-63 -109 -142.5 -164t-191.5 -55q-128 0 -203 82t-75 221v675z" />
    <glyph glyph-name="Uring" unicode="&#x16e;" horiz-adv-x="1288" 
d="M645 1935q97 0 157 -58t60 -140q0 -84 -60 -141.5t-157 -57.5q-99 0 -159 57.5t-60 141.5q0 82 60.5 140t158.5 58zM645 1862q-63 0 -100 -35.5t-37 -89.5q0 -55 37 -91t100 -36q62 0 99.5 36t37.5 91q0 53 -38 89t-99 36zM176 1364h137v-918q0 -172 87 -263t245 -91
t246 91t88 263v918h133v-918q0 -228 -122.5 -351.5t-346.5 -123.5q-223 0 -345 123.5t-122 351.5v918z" />
    <glyph glyph-name="uring" unicode="&#x16f;" horiz-adv-x="1046" 
d="M520 1516q96 0 155.5 -57.5t59.5 -139.5q0 -84 -59.5 -142.5t-155.5 -58.5t-156.5 58.5t-60.5 142.5q0 82 60.5 139.5t156.5 57.5zM520 1444q-61 0 -98 -36t-37 -89q0 -55 36.5 -91t98.5 -36q61 0 98 36t37 91q0 52 -37.5 88.5t-97.5 36.5zM154 958h129v-659
q0 -95 49 -151t137 -56q116 0 201.5 90t85.5 197v579h129v-958h-107l-12 199q-63 -109 -142.5 -164t-191.5 -55q-128 0 -203 82t-75 221v675z" />
    <glyph glyph-name="Uhungarumlaut" unicode="&#x170;" horiz-adv-x="1288" 
d="M784 1886l-272 -323h-82l203 323h151zM1104 1886l-273 -323h-81l202 323h152zM176 1364h137v-918q0 -172 87 -263t245 -91t246 91t88 263v918h133v-918q0 -228 -122.5 -351.5t-346.5 -123.5q-223 0 -345 123.5t-122 351.5v918z" />
    <glyph glyph-name="uhungarumlaut" unicode="&#x171;" horiz-adv-x="1046" 
d="M684 1513l-278 -370h-82l211 370h149zM999 1513l-280 -370h-82l213 370h149zM154 958h129v-659q0 -95 49 -151t137 -56q116 0 201.5 90t85.5 197v579h129v-958h-107l-12 199q-63 -109 -142.5 -164t-191.5 -55q-128 0 -203 82t-75 221v675z" />
    <glyph glyph-name="Uogonek" unicode="&#x172;" horiz-adv-x="1288" 
d="M864 -467q-71 -51 -172 -51q-98 0 -154.5 50.5t-56.5 131.5q0 63 33 125q36 67 133 182h-4q-223 0 -345 123.5t-122 351.5v918h137v-918q0 -172 87 -263t245 -91t246 91t88 263v918h133v-918q0 -202 -98 -323t-279 -146q-84 -113 -112 -167q-33 -65 -33 -127
q0 -59 32.5 -88t88.5 -29q61 0 120 33z" />
    <glyph glyph-name="uogonek" unicode="&#x173;" horiz-adv-x="1046" 
d="M993 -467q-67 -51 -172 -51q-98 0 -154.5 50.5t-56.5 131.5q0 57 33 125q37 73 139 191l-16 219q-63 -109 -142.5 -164t-191.5 -55q-128 0 -203 82t-75 221v675h129v-659q0 -95 49 -151t137 -56q116 0 201.5 90t85.5 197v579h129v-958q-107 -139 -133 -193
q-33 -65 -33 -124t32.5 -88t88.5 -29q62 0 121 33z" />
    <glyph glyph-name="Wcircumflex" unicode="&#x174;" horiz-adv-x="1818" 
d="M846 1901h135q61 -202 246 -265v-69q-110 20 -190.5 83t-123.5 142q-43 -79 -123 -142t-190 -83v69q185 63 246 265zM98 1364h144l280 -1167h4l322 1173h127l323 -1173h5l280 1167h137l-358 -1380h-131l-322 1153h-4l-323 -1153h-131z" />
    <glyph glyph-name="wcircumflex" unicode="&#x175;" horiz-adv-x="1396" 
d="M645 1522h121q33 -121 89.5 -197t143.5 -111v-73q-101 24 -178.5 96t-113.5 170q-37 -98 -115.5 -170t-179.5 -96v73q87 35 143.5 111t89.5 197zM61 958h134l217 -802h4l221 802h125l227 -802h4l215 802h127l-284 -966h-119l-234 788h-4l-229 -788h-117z" />
    <glyph glyph-name="Ycircumflex" unicode="&#x176;" horiz-adv-x="1161" 
d="M516 1882h137q57 -201 246 -264v-70q-111 20 -190.5 82.5t-124.5 143.5q-43 -79 -123.5 -142.5t-190.5 -83.5v70q189 63 246 264zM57 1364h154l375 -700l368 700h150l-453 -832v-532h-137v532z" />
    <glyph glyph-name="ycircumflex" unicode="&#x177;" horiz-adv-x="923" 
d="M412 1509h123q33 -122 89 -197t144 -108v-76q-102 24 -179.5 96t-115.5 171q-38 -99 -115.5 -171t-179.5 -96v76q88 33 144.5 108t89.5 197zM61 958h136l278 -817l268 817h134l-338 -970q-62 -167 -131.5 -236t-202.5 -69h-64v108h45q84 0 129 35.5t72 114.5l16 49z" />
    <glyph glyph-name="Ydieresis" unicode="&#x178;" horiz-adv-x="1161" 
d="M338 1751h139v-170h-139v170zM692 1751h139v-170h-139v170zM57 1364h154l375 -700l368 700h150l-453 -832v-532h-137v532z" />
    <glyph glyph-name="Zacute" unicode="&#x179;" horiz-adv-x="1122" 
d="M868 1898l-288 -325h-93l218 325h163zM129 1364h899v-78l-754 -1167h740v-119h-918v78l760 1169h-727v117z" />
    <glyph glyph-name="zacute" unicode="&#x17a;" horiz-adv-x="880" 
d="M756 1526l-301 -371h-90l225 371h166zM115 958h684v-77l-543 -772h530v-109h-694v78l547 772h-524v108z" />
    <glyph glyph-name="Zdotaccent" unicode="&#x17b;" horiz-adv-x="1122" 
d="M496 1759h149v-166h-149v166zM129 1364h899v-78l-754 -1167h740v-119h-918v78l760 1169h-727v117z" />
    <glyph glyph-name="zdotaccent" unicode="&#x17c;" horiz-adv-x="880" 
d="M379 1341h147v-165h-147v165zM115 958h684v-77l-543 -772h530v-109h-694v78l547 772h-524v108z" />
    <glyph glyph-name="Zcaron" unicode="&#x17d;" horiz-adv-x="1122" 
d="M256 1917q112 -22 191 -84t124 -143q42 80 122.5 142.5t191.5 84.5v-72q-188 -60 -246 -262h-137q-58 202 -246 262v72zM129 1364h899v-78l-754 -1167h740v-119h-918v78l760 1169h-727v117z" />
    <glyph glyph-name="zcaron" unicode="&#x17e;" horiz-adv-x="880" 
d="M158 1540q102 -24 179.5 -95.5t115.5 -170.5q38 99 114.5 170.5t177.5 95.5v-74q-170 -68 -231 -307h-123q-33 122 -89 197t-144 110v74zM115 958h684v-77l-543 -772h530v-109h-694v78l547 772h-524v108z" />
    <glyph glyph-name="Aringacute" unicode="&#x1fa;" horiz-adv-x="1251" 
d="M961 2101l-289 -325h-92l217 325h164zM1032 0l-125 365h-569l-125 -365h-137l456 1315q-59 24 -91.5 72.5t-32.5 109.5q0 82 60 140.5t157 58.5q98 0 158.5 -58t60.5 -141q0 -60 -33.5 -108.5t-91.5 -73.5l457 -1315h-144zM625 1622q-62 0 -100 -35.5t-38 -89.5t38 -89.5
t100 -35.5q63 0 100 35.5t37 89.5t-37 89.5t-100 35.5zM623 1198l-246 -721h493z" />
    <glyph glyph-name="aringacute" unicode="&#x1fb;" horiz-adv-x="985" 
d="M827 2015l-299 -370h-92l228 370h163zM483 1534q95 0 155 -58.5t60 -140.5q0 -84 -59.5 -141t-155.5 -57t-155.5 57t-59.5 141q0 82 60 140.5t155 58.5zM483 1460q-60 0 -97.5 -35.5t-37.5 -89.5t37.5 -89.5t97.5 -35.5t97.5 35.5t37.5 89.5t-37.5 89.5t-97.5 35.5z
M698 178q-122 -198 -333 -198q-124 0 -191.5 66.5t-67.5 184.5q0 174 158 252q137 67 430 95v84q0 210 -213 210q-103 0 -162 -50.5t-59 -139.5v-18h-119v20q0 132 90 215.5t254 83.5q166 0 250 -83t84 -238v-429q0 -93 23.5 -120t95.5 -27v-94h-45q-93 0 -141 40.5
t-54 145.5zM233 240q0 -156 162 -156q114 0 206.5 86t92.5 188v129q-255 -24 -350 -73q-61 -30 -86 -71.5t-25 -102.5z" />
    <glyph glyph-name="AEacute" unicode="&#x1fc;" horiz-adv-x="1806" 
d="M1282 1898l-289 -325h-92l217 325h164zM-16 0l817 1364h907v-117h-694v-499h551v-115h-551v-516h696v-117h-831v367h-527l-217 -367h-151zM874 1245l-456 -768h461v768h-5z" />
    <glyph glyph-name="aeacute" unicode="&#x1fd;" horiz-adv-x="1550" 
d="M1081 1530l-301 -371h-90l225 371h166zM1446 291q0 -141 -96.5 -229.5t-262.5 -88.5q-139 0 -228.5 61t-127.5 169q-109 -226 -358 -226q-128 0 -197.5 66.5t-69.5 185.5q0 87 37.5 148.5t120.5 103.5q135 66 430 94v91q0 105 -51.5 155.5t-159.5 50.5q-104 0 -163.5 -51
t-59.5 -139v-20h-119v22q0 132 90 215.5t252 83.5q230 0 293 -164q101 166 303 166q179 0 274 -117t95 -305v-114h-629v-68q0 -135 65.5 -216t205.5 -81q110 0 173.5 58t63.5 151v6h119v-8zM819 565v-22h504v30q0 137 -61.5 219t-186.5 82q-122 0 -189 -84t-67 -225z
M233 236q0 -73 40.5 -114.5t123.5 -41.5q122 0 209.5 85t87.5 206v114q-260 -28 -350 -73q-60 -30 -85.5 -72.5t-25.5 -103.5z" />
    <glyph glyph-name="Oslashacute" unicode="&#x1fe;" horiz-adv-x="1320" 
d="M958 1907l-288 -324h-95l220 324h163zM659 -31q-191 0 -323 99l-113 -164l-80 51l119 184q-123 145 -123 383v320q0 254 140.5 403.5t382.5 149.5q188 0 323 -99l111 164l82 -51l-119 -184q123 -145 123 -383v-320q0 -254 -140.5 -403.5t-382.5 -149.5zM276 514
q0 -151 64 -260l573 936q-97 88 -251 88q-179 0 -282.5 -116t-103.5 -312v-336zM1044 850q0 152 -63 260l-573 -936q97 -88 251 -88q179 0 282 116t103 312v336z" />
    <glyph glyph-name="oslashacute" unicode="&#x1ff;" horiz-adv-x="997" 
d="M801 1532l-299 -371h-92l227 371h164zM498 -27q-144 0 -242 76l-92 -131l-72 47l101 146q-89 112 -89 278v174q0 187 106.5 304.5t289.5 117.5q139 0 241 -76l95 131l69 -49l-100 -143q88 -114 88 -283v-174q0 -184 -108.5 -301t-286.5 -117zM231 379q0 -98 39 -166
l404 600q-67 64 -174 64q-126 0 -197.5 -84.5t-71.5 -217.5v-196zM768 575q0 94 -39 170l-405 -602q70 -61 176 -61q120 0 194 83.5t74 213.5v196z" />
    <glyph glyph-name="Scommaaccent" unicode="&#x218;" horiz-adv-x="1161" 
d="M590 1391q117 0 205 -30.5t139.5 -84.5t76.5 -122t25 -150v-58h-137v51q0 59 -16 107.5t-51 88t-97.5 61.5t-148.5 22q-139 0 -220 -68.5t-81 -179.5q0 -57 17.5 -97t63.5 -72.5t103 -56.5t158 -57q116 -37 187.5 -69t128.5 -77.5t81.5 -106t24.5 -144.5
q0 -176 -123.5 -275.5t-327.5 -99.5q-236 0 -354.5 107.5t-118.5 288.5v67h137v-57q0 -138 83.5 -214.5t256.5 -76.5q142 0 225.5 66t83.5 184q0 62 -17 104t-63.5 76.5t-105 58.5t-164.5 58q-108 32 -178.5 63.5t-127 76t-82.5 105t-26 142.5q0 161 120.5 265t322.5 104z
M510 -227h160v-162q0 -213 -232 -268v49q163 49 160 196h-88v185z" />
    <glyph glyph-name="scommaaccent" unicode="&#x219;" horiz-adv-x="915" 
d="M465 -27q-180 0 -273.5 86t-93.5 226v39h119v-35q0 -98 63.5 -154.5t186.5 -56.5q104 0 162.5 44.5t58.5 125.5q0 74 -55 113.5t-197 72.5q-163 37 -239 99.5t-76 179.5q0 114 91.5 193t246.5 79q164 0 250 -81t86 -212v-30h-115v22q0 93 -57.5 145t-167.5 52
q-96 0 -154.5 -45.5t-58.5 -116.5q0 -73 57.5 -111.5t196.5 -72.5q164 -37 239.5 -99.5t75.5 -181.5q0 -127 -93 -204t-253 -77zM375 -227h160v-160q0 -213 -232 -268v49q163 49 160 196h-88v183z" />
    <glyph glyph-name="schwa" unicode="&#x259;" horiz-adv-x="962" 
d="M858 410q0 -193 -103 -315t-280 -122q-180 0 -276.5 117t-96.5 305v117h629v66q0 135 -65 215.5t-205 80.5q-112 0 -175 -57.5t-63 -150.5v-7h-119v11q0 138 98 226.5t261 88.5q196 0 295.5 -113.5t99.5 -304.5v-157zM475 84q122 0 189 85t67 228v23h-504v-35
q0 -138 61.5 -219.5t186.5 -81.5z" />
    <glyph glyph-name="circumflex" unicode="&#x2c6;" horiz-adv-x="1024" 
d="M451 1522h122q33 -122 89.5 -197.5t144.5 -110.5v-73q-102 24 -179.5 95.5t-115.5 170.5q-38 -99 -115.5 -170.5t-179.5 -95.5v73q88 35 144.5 110.5t89.5 197.5z" />
    <glyph glyph-name="caron" unicode="&#x2c7;" horiz-adv-x="1024" 
d="M217 1540q102 -24 179.5 -95.5t115.5 -170.5q38 99 115.5 170.5t179.5 95.5v-74q-88 -35 -144.5 -110t-89.5 -197h-122q-33 122 -89.5 197t-144.5 110v74z" />
    <glyph glyph-name="breve" unicode="&#x2d8;" horiz-adv-x="1024" 
d="M512 1249q98 0 142 37.5t44 112.5q0 41 -12 112h72q22 -71 22 -145q0 -111 -74 -167t-194 -56t-194 56t-74 167q0 74 22 145h72q-12 -71 -12 -112q0 -75 44 -112.5t142 -37.5z" />
    <glyph glyph-name="dotaccent" unicode="&#x2d9;" horiz-adv-x="1024" 
d="M438 1341h148v-165h-148v165z" />
    <glyph glyph-name="ring" unicode="&#x2da;" horiz-adv-x="1024" 
d="M512 1528q95 0 155 -58.5t60 -140.5t-60 -140.5t-155 -58.5t-155 58.5t-60 140.5t60 140.5t155 58.5zM512 1456q-60 0 -97.5 -36.5t-37.5 -90.5t37.5 -89.5t97.5 -35.5t97.5 35.5t37.5 89.5t-37.5 90.5t-97.5 36.5z" />
    <glyph glyph-name="ogonek" unicode="&#x2db;" horiz-adv-x="1021" 
d="M690 -401l33 -66q-67 -51 -172 -51q-98 0 -153.5 50.5t-55.5 131.5q0 60 29 117q42 82 184 227l78 -8q-123 -140 -154 -201q-30 -61 -30 -116q0 -59 32 -88t88 -29q62 0 121 33z" />
    <glyph glyph-name="tilde" unicode="&#x2dc;" horiz-adv-x="1024" 
d="M360 1466q33 0 61 -10.5t52.5 -32.5t39 -39t36.5 -47q25 -35 37.5 -50.5t35.5 -31.5t46 -16q32 0 53.5 25t21.5 77q0 46 -16 115h74q22 -64 22 -129q0 -90 -44.5 -138t-114.5 -48q-41 0 -78 21.5t-55.5 42.5t-49.5 61q-3 4 -12 15.5t-12 15.5t-11 14t-12 14l-11.5 11.5
t-12 11t-12 8.5t-13 7t-13 3.5t-14.5 1.5q-75 0 -75 -100q0 -55 14 -115h-74q-22 77 -22 129q0 89 45 136.5t114 47.5z" />
    <glyph glyph-name="hungarumlaut" unicode="&#x2dd;" horiz-adv-x="1024" 
d="M535 1526l-279 -371h-82l211 371h150zM850 1526l-281 -371h-80l211 371h150z" />
    <glyph glyph-name="commaaccent" unicode="&#x326;" horiz-adv-x="1021" 
d="M467 -221h160v-160q0 -212 -230 -270v51q160 48 160 197h-90v182z" />
    <glyph glyph-name="baht" unicode="&#xe3f;" horiz-adv-x="1226" 
d="M709 0h-33v-227h-111v227h-354v1364h356v227h111v-227h27q191 0 286.5 -86.5t95.5 -237.5v-51q0 -123 -59 -193t-176 -102v-4q126 -32 190 -104t64 -199v-65q0 -150 -100.5 -236t-296.5 -86zM344 1253v-514h313q144 0 219.5 63.5t75.5 180.5v49q0 106 -71.5 163.5
t-210.5 57.5h-326zM344 637v-526h344q142 0 212.5 58t70.5 165v57q0 118 -77.5 182t-231.5 64h-318z" />
    <glyph glyph-name="Wgrave" unicode="&#x1e80;" horiz-adv-x="1818" 
d="M575 1905h166l217 -324h-94zM98 1364h144l280 -1167h4l322 1173h127l323 -1173h5l280 1167h137l-358 -1380h-131l-322 1153h-4l-323 -1153h-131z" />
    <glyph glyph-name="wgrave" unicode="&#x1e81;" horiz-adv-x="1396" 
d="M354 1526h164l227 -371h-92zM61 958h134l217 -802h4l221 802h125l227 -802h4l215 802h127l-284 -966h-119l-234 788h-4l-229 -788h-117z" />
    <glyph glyph-name="Wacute" unicode="&#x1e82;" horiz-adv-x="1818" 
d="M1247 1905l-289 -324h-94l217 324h166zM98 1364h144l280 -1167h4l322 1173h127l323 -1173h5l280 1167h137l-358 -1380h-131l-322 1153h-4l-323 -1153h-131z" />
    <glyph glyph-name="wacute" unicode="&#x1e83;" horiz-adv-x="1396" 
d="M1044 1526l-299 -371h-92l228 371h163zM61 958h134l217 -802h4l221 802h125l227 -802h4l215 802h127l-284 -966h-119l-234 788h-4l-229 -788h-117z" />
    <glyph glyph-name="Wdieresis" unicode="&#x1e84;" horiz-adv-x="1818" 
d="M668 1769h137v-170h-137v170zM1022 1769h139v-170h-139v170zM98 1364h144l280 -1167h4l322 1173h127l323 -1173h5l280 1167h137l-358 -1380h-131l-322 1153h-4l-323 -1153h-131z" />
    <glyph glyph-name="wdieresis" unicode="&#x1e85;" horiz-adv-x="1396" 
d="M477 1346h139v-170h-139v170zM795 1346h139v-170h-139v170zM61 958h134l217 -802h4l221 802h125l227 -802h4l215 802h127l-284 -966h-119l-234 788h-4l-229 -788h-117z" />
    <glyph glyph-name="Ygrave" unicode="&#x1ef2;" horiz-adv-x="1161" 
d="M299 1886h164l219 -323h-94zM57 1364h154l375 -700l368 700h150l-453 -832v-532h-137v532z" />
    <glyph glyph-name="ygrave" unicode="&#x1ef3;" horiz-adv-x="923" 
d="M193 1513h165l226 -370h-92zM61 958h136l278 -817l268 817h134l-338 -970q-62 -167 -131.5 -236t-202.5 -69h-64v108h45q84 0 129 35.5t72 114.5l16 49z" />
    <glyph glyph-name="enspace" unicode="&#x2002;" horiz-adv-x="1024" 
 />
    <glyph glyph-name="emspace" unicode="&#x2003;" horiz-adv-x="2048" 
 />
    <glyph glyph-name="threeperemspace" unicode="&#x2004;" horiz-adv-x="681" 
 />
    <glyph glyph-name="fourperemspace" unicode="&#x2005;" horiz-adv-x="512" 
 />
    <glyph glyph-name="thinspace" unicode="&#x2009;" horiz-adv-x="272" 
 />
    <glyph glyph-name="hairspace" unicode="&#x200a;" horiz-adv-x="153" 
 />
    <glyph glyph-name="endash" unicode="&#x2013;" horiz-adv-x="1177" 
d="M154 676h870v-107h-870v107z" />
    <glyph glyph-name="emdash" unicode="&#x2014;" horiz-adv-x="1742" 
d="M162 676h1419v-107h-1419v107z" />
    <glyph glyph-name="quoteleft" unicode="&#x2018;" horiz-adv-x="430" 
d="M289 864h-164v150q0 163 57 243t187 115v-49q-91 -41 -123.5 -96t-32.5 -148h76v-215z" />
    <glyph glyph-name="quoteright" unicode="&#x2019;" horiz-adv-x="430" 
d="M139 1364h164v-150q0 -163 -57 -243t-185 -115v49q90 41 122 96t34 148h-78v215z" />
    <glyph glyph-name="quotesinglbase" unicode="&#x201a;" horiz-adv-x="415" 
d="M127 215h164v-152q0 -163 -57 -242t-187 -114v49q91 41 123.5 96t32.5 148h-76v215z" />
    <glyph glyph-name="quotedblleft" unicode="&#x201c;" horiz-adv-x="770" 
d="M631 864h-164v150q0 163 57 243t185 115v-49q-90 -41 -122 -96t-34 -148h78v-215zM289 864h-164v150q0 163 57 243t187 115v-49q-91 -41 -123.5 -96t-32.5 -148h76v-215z" />
    <glyph glyph-name="quotedblright" unicode="&#x201d;" horiz-adv-x="770" 
d="M139 1364h164v-150q0 -163 -57 -243t-185 -115v49q91 41 122.5 95.5t33.5 148.5h-78v215zM481 1364h164v-150q0 -163 -57 -243t-187 -115v49q91 41 123.5 96t34.5 148h-78v215z" />
    <glyph glyph-name="quotedblbase" unicode="&#x201e;" horiz-adv-x="755" 
d="M127 215h164v-149q0 -111 -26.5 -182.5t-78.5 -112.5t-139 -64v49q91 41 123.5 96.5t32.5 149.5h-76v213zM467 215h164v-149q0 -163 -57 -243.5t-185 -115.5v49q91 41 122.5 96t33.5 150h-78v213z" />
    <glyph glyph-name="dagger" unicode="&#x2020;" horiz-adv-x="935" 
d="M408 721q0 136 34 272q-49 -14 -138 -21t-154 -7q-31 0 -31 26v58q0 11 9.5 17.5t21.5 6.5q196 0 292 -29q-32 141 -32 291q0 11 7 20t21 9h60q14 0 21 -9t7 -20q0 -144 -30 -291q93 29 290 29q12 0 21.5 -6.5t9.5 -17.5v-58q0 -26 -31 -26q-65 0 -154 7t-138 21
q34 -136 34 -272q0 -243 -26 -488q-3 -28 -27 -28h-16q-22 0 -25 28q-26 245 -26 488z" />
    <glyph glyph-name="daggerdbl" unicode="&#x2021;" horiz-adv-x="935" 
d="M414 784q0 69 28 209q-49 -14 -138 -21t-154 -7q-31 0 -31 26v58q0 11 9.5 17.5t21.5 6.5q196 0 292 -29q-32 141 -32 291q0 11 7 20t21 9h60q14 0 21 -9t7 -20q0 -144 -30 -291q93 29 290 29q12 0 21.5 -6.5t9.5 -17.5v-58q0 -26 -31 -26q-65 0 -154 7t-138 21
q28 -140 28 -209q0 -72 -28 -209q49 14 138.5 21.5t153.5 7.5q31 0 31 -26v-58q0 -11 -9.5 -17.5t-21.5 -6.5q-200 0 -290 28q30 -147 30 -291q0 -11 -7 -19.5t-21 -8.5h-60q-14 0 -21 8.5t-7 19.5q0 150 32 291q-93 -28 -292 -28q-12 0 -21.5 6.5t-9.5 17.5v58q0 26 31 26
q64 0 153.5 -7.5t138.5 -21.5q-28 136 -28 209z" />
    <glyph glyph-name="bullet" unicode="&#x2022;" horiz-adv-x="698" 
d="M586 682q0 -107 -66.5 -173.5t-169.5 -66.5q-105 0 -172 66.5t-67 173.5t67 173.5t172 66.5q103 0 169.5 -66.5t66.5 -173.5z" />
    <glyph glyph-name="ellipsis" unicode="&#x2026;" horiz-adv-x="1255" 
d="M127 215h162v-215h-162v215zM967 215h161v-215h-161v215zM547 215h162v-215h-162v215z" />
    <glyph glyph-name="guilsinglleft" unicode="&#x2039;" horiz-adv-x="733" 
d="M528 952h84q-39 -152 -120.5 -263.5t-221.5 -209.5q139 -98 221 -210t121 -263h-84q-99 276 -413 424v98q314 148 413 424z" />
    <glyph glyph-name="guilsinglright" unicode="&#x203a;" horiz-adv-x="733" 
d="M207 6h-86q39 151 121 263t221 210q-140 98 -221.5 209.5t-120.5 263.5h86q96 -275 411 -424v-98q-315 -149 -411 -424z" />
    <glyph glyph-name="fraction" unicode="&#x2044;" horiz-adv-x="284" 
d="M643 1364l-899 -1364h-104l901 1364h102z" />
    <glyph glyph-name="zero.sup" unicode="&#x2070;" 
d="M377 1438q147 0 228 -90.5t81 -255.5v-142q0 -163 -81 -254.5t-228 -91.5t-228 91.5t-81 254.5v142q0 165 81 255.5t228 90.5zM377 1343q-98 0 -149.5 -64t-51.5 -183v-148q0 -121 51.5 -185.5t149.5 -64.5t149.5 64.5t51.5 185.5v148q0 119 -51.5 183t-149.5 64z" />
    <glyph glyph-name="four.sup" unicode="&#x2074;" 
d="M444 1419h138v-524h118v-88h-118v-182h-103v182h-444v88zM479 895v436l-340 -436h340z" />
    <glyph glyph-name="five.sup" unicode="&#x2075;" 
d="M135 1419h516q-5 -58 -22 -77t-70 -19h-332l-20 -274q103 79 217 79q119 0 179.5 -61.5t60.5 -165.5v-35q0 -113 -74.5 -186.5t-210.5 -73.5q-144 0 -214.5 63t-70.5 162v15h103v-10q0 -65 46.5 -102.5t133.5 -37.5q80 0 130 44t50 124v29q0 70 -39.5 110.5t-120.5 40.5
q-118 0 -204 -86l-89 21z" />
    <glyph glyph-name="six.sup" unicode="&#x2076;" 
d="M379 606q-142 0 -219.5 75.5t-77.5 223.5v203q0 152 79 239t232 87q74 0 129.5 -20t84 -52.5t42 -67.5t13.5 -73v-19h-105v8q0 56 -40.5 93.5t-121.5 37.5q-105 0 -156 -56.5t-51 -170.5v-96q74 94 230 94q124 0 191 -64t67 -161v-25q0 -110 -77.5 -183t-219.5 -73z
M379 698q85 0 136.5 43.5t51.5 116.5v16q0 71 -47 113.5t-135 42.5q-85 0 -140 -39.5t-55 -107.5v-21q0 -80 52.5 -122t136.5 -42z" />
    <glyph glyph-name="seven.sup" unicode="&#x2077;" 
d="M76 1419h610v-69q-152 -170 -229 -347.5t-95 -377.5h-118q28 369 325 694h-493v100z" />
    <glyph glyph-name="eight.sup" unicode="&#x2078;" 
d="M377 1438q137 0 215 -64t78 -164v-10q0 -58 -35 -104t-100 -72q69 -24 106 -72.5t37 -111.5v-11q0 -103 -80.5 -164t-220.5 -61q-141 0 -221 60.5t-80 164.5v11q0 63 37 111.5t106 72.5q-65 26 -100 72t-35 104v10q0 100 77.5 164t215.5 64zM377 1348q-85 0 -134.5 -36.5
t-49.5 -103.5v-16q0 -57 52 -93t132 -36t132 36t52 93v16q0 66 -50.5 103t-133.5 37zM377 694q88 0 141 38t53 104v14q0 61 -54 98t-140 37q-87 0 -141 -37t-54 -98v-14q0 -67 53 -104.5t142 -37.5z" />
    <glyph glyph-name="nine.sup" unicode="&#x2079;" 
d="M377 1436q141 0 218 -76.5t77 -224.5v-203q0 -151 -78.5 -237.5t-235.5 -86.5q-74 0 -129.5 19.5t-84.5 51.5t-42.5 66.5t-13.5 71.5v17h102v-5q0 -56 41 -93.5t125 -37.5q107 0 158 57t51 173v90q-80 -96 -229 -96q-121 0 -187.5 63.5t-66.5 157.5v33q0 112 77 186
t218 74zM377 1343q-85 0 -136 -43.5t-51 -119.5v-25q0 -66 47 -107.5t134 -41.5q79 0 135.5 39.5t56.5 105.5v23q0 83 -52 126t-134 43z" />
    <glyph glyph-name="zero.inf" unicode="&#x2080;" 
d="M377 498q147 0 228 -91.5t81 -254.5v-142q0 -165 -81 -255.5t-228 -90.5t-228 90.5t-81 255.5v142q0 163 81 254.5t228 91.5zM377 403q-98 0 -149.5 -64t-51.5 -183v-150q0 -119 51.5 -183.5t149.5 -64.5t149.5 64.5t51.5 183.5v150q0 119 -51.5 183t-149.5 64z" />
    <glyph glyph-name="one.inf" unicode="&#x2081;" horiz-adv-x="573" 
d="M303 489h78v-806h-109v606h-196v80h69q78 0 114.5 26t43.5 94z" />
    <glyph glyph-name="two.inf" unicode="&#x2082;" 
d="M655 -317h-567v45q0 130 52 200t212 154q127 64 166 99t39 93q0 63 -48 96t-122 33q-85 0 -136.5 -39t-51.5 -110v-39h-103v45q0 103 79 168.5t214 65.5q134 0 204.5 -60.5t70.5 -157.5q0 -38 -11 -69t-28 -54t-55 -50t-72.5 -46.5t-100.5 -54.5q-119 -59 -156.5 -101.5
t-37.5 -121.5h452v-96z" />
    <glyph glyph-name="three.inf" unicode="&#x2083;" 
d="M377 494q131 0 204.5 -60t73.5 -151v-17q0 -63 -42 -112t-121 -66q82 -18 124.5 -66.5t42.5 -117.5v-17q0 -95 -75.5 -158t-208.5 -63q-148 0 -219.5 64t-71.5 159v35h100v-28q0 -63 48 -101.5t139 -38.5q78 0 129 36.5t51 98.5v15q0 135 -199 135h-84v86h84q99 0 148 38
t49 95v16q0 60 -49.5 95t-126.5 35q-88 0 -137.5 -39.5t-49.5 -98.5v-30h-102v36q0 89 74.5 154.5t218.5 65.5z" />
    <glyph glyph-name="four.inf" unicode="&#x2084;" 
d="M444 477h138v-522h118v-88h-118v-184h-103v184h-444v88zM479 -45v434l-340 -434h340z" />
    <glyph glyph-name="five.inf" unicode="&#x2085;" 
d="M135 477h516q-5 -57 -22 -76.5t-70 -19.5h-332l-20 -272q103 79 217 79q119 0 179.5 -61.5t60.5 -165.5v-37q0 -111 -75 -184.5t-210 -73.5q-144 0 -214.5 63t-70.5 162v15h103v-10q0 -65 46.5 -102.5t133.5 -37.5q80 0 130 44t50 124v29q0 70 -39.5 110.5t-120.5 40.5
q-118 0 -204 -86l-89 21z" />
    <glyph glyph-name="six.inf" unicode="&#x2086;" 
d="M379 -334q-142 0 -219.5 75.5t-77.5 223.5v203q0 152 79 239t232 87q74 0 129.5 -20t84 -53t42 -68t13.5 -72v-19h-105v8q0 56 -40.5 93.5t-121.5 37.5q-105 0 -156 -56.5t-51 -170.5v-96q78 94 230 94q124 0 191 -64t67 -161v-27q0 -109 -78 -181.5t-219 -72.5z
M379 -242q85 0 136.5 43.5t51.5 116.5v16q0 70 -47 112t-135 42q-86 0 -140.5 -39t-54.5 -106v-21q0 -80 52.5 -122t136.5 -42z" />
    <glyph glyph-name="seven.inf" unicode="&#x2087;" 
d="M76 477h610v-67q-152 -172 -229 -349.5t-95 -377.5h-118q14 183 91.5 353t233.5 343h-493v98z" />
    <glyph glyph-name="eight.inf" unicode="&#x2088;" 
d="M377 498q137 0 215 -64.5t78 -165.5v-8q0 -58 -35 -105t-100 -71q70 -26 106.5 -74t36.5 -112v-9q0 -103 -80.5 -164t-220.5 -61q-141 0 -221 60.5t-80 164.5v9q0 64 36.5 112t106.5 74q-65 24 -100 71t-35 105v8q0 102 77.5 166t215.5 64zM377 408q-85 0 -134.5 -36.5
t-49.5 -103.5v-16q0 -58 52 -93.5t132 -35.5t132 35.5t52 93.5v16q0 66 -50.5 103t-133.5 37zM377 -246q88 0 141 38t53 104v14q0 61 -54 97t-140 36q-87 0 -141 -36t-54 -97v-14q0 -68 53 -105t142 -37z" />
    <glyph glyph-name="nine.inf" unicode="&#x2089;" 
d="M377 496q141 0 218 -76.5t77 -224.5v-203q0 -151 -78.5 -237.5t-235.5 -86.5q-74 0 -129.5 19.5t-84.5 51.5t-42.5 66.5t-13.5 71.5v17h102v-5q0 -56 41 -93.5t125 -37.5q107 0 158 56.5t51 171.5v92q-80 -96 -229 -96q-121 0 -187.5 63.5t-66.5 155.5v35q0 112 77 186
t218 74zM377 403q-85 0 -136 -43.5t-51 -119.5v-25q0 -66 47 -107.5t134 -41.5q80 0 136 39t56 106v22q0 82 -52 126t-134 44z" />
    <glyph glyph-name="colonmonetary" unicode="&#x20a1;" horiz-adv-x="1251" 
d="M651 -31q-84 0 -170 27l-41 -234h-96l47 273q-116 68 -180 193t-64 286v336q0 231 127.5 381t343.5 162l35 202h97l-35 -204q100 -9 180 -48l43 252h96l-53 -307q133 -115 133 -307v-88h-131v74q0 88 -34.5 157t-110.5 112.5t-183 43.5q-171 0 -270.5 -116t-99.5 -298
v-368q0 -181 100 -297.5t270 -116.5q158 0 243 89t85 224v74h131v-88q0 -153 -91 -263t-259 -140l-39 -218h-96l37 207h-15z" />
    <glyph glyph-name="naira" unicode="&#x20a6;" horiz-adv-x="1554" 
d="M446 1159v-1159h-120v485h-248v95h248v198h-248v94h248v492h149l629 -1157h4v1157h121v-492h250v-94h-250v-198h250v-95h-250v-485h-148l-630 1159h-5z" />
    <glyph glyph-name="rupee" unicode="&#x20a8;" horiz-adv-x="2074" 
d="M344 582v-582h-133v1364h459q411 0 411 -346v-84q0 -131 -78 -222t-221 -120l340 -592h-147l-332 582h-299zM344 692h301q144 0 222.5 67t78.5 181v70q0 125 -69 183t-222 58h-311v-559zM1606 -27q-179 0 -272 86t-93 226v39h117v-35q0 -98 64.5 -154.5t187.5 -56.5
q104 0 162.5 44.5t58.5 125.5q0 74 -55.5 113.5t-198.5 72.5q-162 37 -238.5 100t-76.5 179q0 114 91.5 193t245.5 79q165 0 251.5 -81t86.5 -212v-30h-116v22q0 93 -57 145t-167 52q-96 0 -155.5 -45.5t-59.5 -116.5q0 -73 58 -111t198 -73q164 -37 240 -99.5t76 -181.5
q0 -127 -93.5 -204t-254.5 -77z" />
    <glyph glyph-name="won" unicode="&#x20a9;" horiz-adv-x="1822" 
d="M907 1190l-260 -1196h-153l-101 479h-321v94h301l-41 195h-260v94h239l-106 508h131l239 -1204h5l260 1208h147l258 -1208h4l246 1204h123l-109 -508h242v-94h-262l-43 -195h305v-94h-326l-102 -479h-156l-256 1196h-4z" />
    <glyph glyph-name="sheqel" unicode="&#x20aa;" horiz-adv-x="1415" 
d="M154 1028h450q180 0 262 -76.5t82 -230.5v-414h-104v398q0 106 -53.5 158t-178.5 52h-340v-915h-118v1028zM1278 1028v-719q0 -154 -82.5 -231.5t-257.5 -77.5h-440v719h106v-608h324q125 0 178 52.5t53 160.5v704h119z" />
    <glyph glyph-name="Euro" unicode="&#x20ac;" horiz-adv-x="1312" 
d="M1180 373q0 -81 -30.5 -153t-87 -128.5t-146.5 -89.5t-201 -33q-228 0 -363 138t-139 385h-147v92h147v198h-147v92h147q4 245 140 383t364 138q111 0 200.5 -33t146 -89.5t86.5 -128.5t30 -153v-26h-129v14q0 126 -86 213.5t-246 87.5q-173 0 -273 -106t-100 -300h528
v-92h-528v-198h528v-92h-528v-3q0 -192 101 -298.5t272 -106.5q81 0 145.5 25t104.5 67.5t61 95.5t21 113v10h129v-22z" />
    <glyph glyph-name="peso" unicode="&#x20b1;" horiz-adv-x="1417" 
d="M434 524v-524h-135v895h-246v98h246v371h436q212 0 316 -96.5t104 -272.5v-2h244v-98h-244v-4q0 -177 -105 -272t-319 -95h-297zM434 1253v-260h586q-3 260 -295 260h-291zM727 635q154 0 223.5 66.5t69.5 195.5h-586v-262h293z" />
    <glyph glyph-name="rupeeindia" unicode="&#x20b9;" horiz-adv-x="1220" 
d="M440 551h-135l701 -551h-193l-678 543v106h289q180 0 270.5 63t102.5 193h-666v99h666q-11 129 -91.5 192.5t-248.5 63.5h-326v104h1024v-104h-369q130 -86 142 -254h227v-105h-227q-12 -171 -135.5 -260.5t-352.5 -89.5z" />
    <glyph glyph-name="ruble" unicode="&#x20bd;" horiz-adv-x="1286" 
d="M1051 270h-590v-270h-135v270h-248v95h248v213h-248v94h248v692h432q211 0 313.5 -91t102.5 -261v-86q0 -348 -420 -348h-293v-213h590v-95zM461 1253v-581h289q154 0 221 62t67 192v78q0 123 -70 186t-223 63h-284z" />
    <glyph glyph-name="published" unicode="&#x2117;" horiz-adv-x="1767" 
d="M139 682q0 211 95.5 380.5t265.5 265t383 95.5q160 0 299 -56t236.5 -153.5t153.5 -235.5t56 -296t-56 -296t-153.5 -235.5t-236.5 -153.5t-299 -56q-213 0 -383 95.5t-265.5 265t-95.5 380.5zM1538 682q0 190 -82.5 341t-232.5 237t-340 86q-142 0 -264 -50t-207.5 -138
t-134 -211t-48.5 -265t48.5 -265t134 -211t207.5 -138t264 -50q190 0 340 86t232.5 237t82.5 341zM653 1034h283q133 0 190.5 -53.5t57.5 -171.5q0 -120 -59.5 -174.5t-194.5 -54.5h-170v-250h-107v704zM760 946v-276h158q93 0 126 31t33 106t-31.5 107t-123.5 32h-162z" />
    <glyph glyph-name="servicemark" unicode="&#x2120;" horiz-adv-x="1454" 
d="M328 1378q233 0 233 -198h-92q0 58 -33.5 89t-109.5 31q-62 0 -99 -25t-37 -63t31.5 -56t128.5 -46q121 -33 169 -69.5t48 -110.5q0 -82 -63 -128t-170 -46q-248 0 -248 209h94q0 -131 156 -131q64 0 100.5 24t36.5 66t-34.5 63.5t-127.5 44.5q-116 28 -164.5 65
t-48.5 109q0 77 61.5 124.5t168.5 47.5zM715 1364h153l164 -461h2l164 461h150v-594h-93v490h-14l-176 -492h-76l-176 492h-14v-490h-84v594z" />
    <glyph glyph-name="trademark" unicode="&#x2122;" horiz-adv-x="1429" 
d="M61 1364h512v-86h-208v-508h-93v508h-211v86zM690 1364h154l164 -461h4l164 461h147v-594h-90v490h-16l-175 -492h-77l-174 492h-15v-490h-86v594z" />
    <glyph glyph-name="onethird" unicode="&#x2153;" horiz-adv-x="1626" 
d="M303 1376h78v-805h-109v605h-196v79h69q78 0 114.5 26.5t43.5 94.5zM1214 1364l-899 -1364h-102l899 1364h102zM1247 811q132 0 206.5 -60.5t74.5 -150.5v-16q0 -63 -43.5 -113t-122.5 -68q82 -19 125 -66.5t43 -117.5v-14q0 -95 -75.5 -158t-207.5 -63q-148 0 -220.5 63
t-72.5 158v37h103v-31q0 -61 48 -100t138 -39q78 0 128 37t50 100v14q0 135 -198 135h-84v86h84q101 0 149.5 37.5t48.5 96.5v16q0 60 -49.5 94.5t-128.5 34.5q-87 0 -135.5 -39.5t-48.5 -97.5v-33h-103v37q0 91 73.5 156t217.5 65z" />
    <glyph glyph-name="twothirds" unicode="&#x2154;" horiz-adv-x="1851" 
d="M655 571h-567v43q0 130 52 200.5t212 154.5q127 64 166 99t39 93q0 63 -48.5 97t-121.5 34q-85 0 -136.5 -39.5t-51.5 -111.5v-39h-103v45q0 105 78.5 170t214.5 65q134 0 204.5 -61t70.5 -158q0 -38 -11 -69t-28 -54t-55 -50t-72.5 -46.5t-100.5 -54.5
q-119 -59 -156.5 -101.5t-37.5 -121.5h452v-95zM1440 1364l-899 -1364h-103l899 1364h103zM1475 811q130 0 204 -60.5t74 -150.5v-16q0 -63 -43.5 -113t-122.5 -68q83 -18 125.5 -66t42.5 -118v-14q0 -95 -75 -158t-207 -63q-148 0 -220.5 63t-72.5 158v37h102v-31
q0 -61 48 -100t138 -39q79 0 130 37t51 100v14q0 63 -49 99t-152 36h-84v86h84q101 0 150 37.5t49 96.5v16q0 60 -50 94.5t-129 34.5q-87 0 -135.5 -39.5t-48.5 -97.5v-33h-102v37q0 91 74 156t219 65z" />
    <glyph glyph-name="onefifth" unicode="&#x2155;" horiz-adv-x="1640" 
d="M303 1376h78v-805h-109v605h-196v79h69q78 0 114.5 26.5t43.5 94.5zM1214 1364l-899 -1364h-102l899 1364h102zM1024 795h514q-5 -58 -22 -77.5t-70 -19.5h-332l-20 -274q100 80 219 80q118 0 178.5 -61t60.5 -164v-37q0 -112 -75 -185t-211 -73q-144 0 -214.5 62
t-70.5 161v16h102v-10q0 -66 47.5 -102.5t135.5 -36.5q80 0 129 44t49 124v26q0 71 -39.5 112.5t-120.5 41.5q-112 0 -205 -86l-86 18z" />
    <glyph glyph-name="twofifths" unicode="&#x2156;" horiz-adv-x="1865" 
d="M655 571h-567v43q0 130 52 200.5t212 154.5q127 64 166 99t39 93q0 63 -48.5 97t-121.5 34q-85 0 -136.5 -39.5t-51.5 -111.5v-39h-103v45q0 105 78.5 170t214.5 65q134 0 204.5 -61t70.5 -158q0 -38 -11 -69t-28 -54t-55 -50t-72.5 -46.5t-100.5 -54.5
q-119 -59 -156.5 -101.5t-37.5 -121.5h452v-95zM1440 1364l-899 -1364h-103l899 1364h103zM1249 795h514q-5 -58 -22 -77.5t-70 -19.5h-332l-20 -274q100 80 219 80q118 0 179 -61t61 -164v-37q0 -112 -75.5 -185t-211.5 -73q-144 0 -214.5 62t-70.5 161v16h103v-10
q0 -66 47.5 -102.5t134.5 -36.5q80 0 129 44t49 124v26q0 71 -39.5 112.5t-120.5 41.5q-111 0 -204 -86l-86 18z" />
    <glyph glyph-name="threefifths" unicode="&#x2157;" horiz-adv-x="1835" 
d="M377 1382q130 0 204 -60.5t74 -152.5v-16q0 -63 -42 -112t-121 -66q82 -18 124.5 -66.5t42.5 -117.5v-17q0 -94 -75.5 -157.5t-208.5 -63.5q-148 0 -219.5 64t-71.5 159v35h100v-29q0 -62 48 -100.5t139 -38.5q78 0 129 36.5t51 98.5v15q0 137 -199 137h-84v84h84
q100 0 148.5 38t48.5 97v14q0 60 -49.5 94.5t-126.5 34.5q-88 0 -137.5 -39t-49.5 -98v-31h-102v37q0 89 74.5 155t218.5 66zM1409 1364l-899 -1364h-102l899 1364h102zM1219 795h516q-6 -58 -24 -77.5t-69 -19.5h-333l-21 -274q100 80 219 80q118 0 179 -61t61 -164v-37
q0 -112 -75.5 -185t-211.5 -73q-144 0 -213 61.5t-69 161.5v16h102v-10q0 -66 46.5 -102.5t133.5 -36.5q80 0 129 44t49 124v26q0 71 -39 112.5t-120 41.5q-112 0 -205 -86l-86 18z" />
    <glyph glyph-name="fourfifths" unicode="&#x2158;" horiz-adv-x="1861" 
d="M444 1366h138v-524h118v-88h-118v-183h-103v183h-444v88zM1436 1364l-899 -1364h-105l901 1364h103zM479 842v436l-340 -436h340zM1245 795h514q-5 -58 -22 -77.5t-70 -19.5h-332l-20 -274q100 80 219 80q118 0 179 -61t61 -164v-37q0 -112 -75.5 -185t-211.5 -73
q-144 0 -214.5 62t-70.5 161v16h103v-10q0 -66 47 -102.5t133 -36.5q80 0 130 44t50 124v26q0 71 -39.5 112.5t-120.5 41.5q-112 0 -205 -86l-88 18z" />
    <glyph glyph-name="onesixth" unicode="&#x2159;" horiz-adv-x="1611" 
d="M303 1376h78v-805h-109v605h-196v79h69q78 0 114.5 26.5t43.5 94.5zM1214 1364l-899 -1364h-102l899 1364h102zM1237 -18q-142 0 -219.5 75.5t-77.5 225.5v200q0 152 79 239t232 87q74 0 129.5 -20t84 -52.5t42 -67.5t13.5 -73v-16h-105v8q0 55 -40.5 93t-121.5 38
q-206 0 -206 -230v-96q75 96 229 96q124 0 191 -64t67 -161v-26q0 -109 -78 -182.5t-219 -73.5zM1237 74q85 0 136.5 43.5t51.5 118.5v14q0 71 -47 113.5t-135 42.5q-85 0 -139.5 -39t-54.5 -107v-20q0 -80 52.5 -123t135.5 -43z" />
    <glyph glyph-name="fivesixths" unicode="&#x215a;" horiz-adv-x="1806" 
d="M135 1366h516q-5 -58 -22 -77t-70 -19h-332l-20 -275q48 37 98 58.5t119 21.5q119 0 179.5 -61.5t60.5 -165.5v-35q0 -113 -74.5 -186.5t-210.5 -73.5q-144 0 -214.5 63t-70.5 162v15h103v-11q0 -65 46.5 -102t133.5 -37q80 0 130 44t50 124v29q0 70 -39.5 110.5
t-120.5 40.5q-118 0 -204 -86l-89 21zM1411 1364l-901 -1364h-102l901 1364h102zM1432 -18q-142 0 -219.5 75.5t-77.5 225.5v200q0 152 79 239t232 87q74 0 129 -20t84 -52.5t42 -67.5t13 -73v-16h-102v8q0 54 -41 92.5t-121 38.5q-209 0 -209 -230v-96q80 96 232 96
q122 0 189 -64t67 -161v-26q0 -109 -77.5 -182.5t-219.5 -73.5zM1432 74q86 0 137 43.5t51 118.5v14q0 71 -47 113.5t-135 42.5q-84 0 -139.5 -39.5t-55.5 -106.5v-20q0 -80 53 -123t136 -43z" />
    <glyph glyph-name="oneeighth" unicode="&#x215b;" horiz-adv-x="1630" 
d="M303 1376h78v-805h-109v605h-196v79h69q78 0 114.5 26.5t43.5 94.5zM1214 1364l-899 -1364h-102l899 1364h102zM1253 813q139 0 216 -63t77 -164v-8q0 -58 -35 -105.5t-100 -71.5q69 -26 106 -75t37 -111v-10q0 -103 -79.5 -163t-221.5 -60t-221.5 60t-79.5 163v10
q0 62 37 111t107 75q-65 24 -100 71.5t-35 105.5v8q0 101 76.5 164t215.5 63zM1253 723q-84 0 -134 -36.5t-50 -102.5v-17q0 -57 52 -93t132 -36t132.5 36t52.5 93v17q0 66 -50.5 102.5t-134.5 36.5zM1253 72q89 0 142 37t53 104v14q0 59 -54.5 96t-140.5 37
q-87 0 -140.5 -36.5t-53.5 -96.5v-14q0 -68 53 -104.5t141 -36.5z" />
    <glyph glyph-name="threeeighths" unicode="&#x215c;" horiz-adv-x="1824" 
d="M377 1382q130 0 204 -60.5t74 -152.5v-16q0 -63 -42 -112t-121 -66q82 -18 124.5 -66.5t42.5 -117.5v-17q0 -94 -75.5 -157.5t-208.5 -63.5q-148 0 -219.5 64t-71.5 159v35h100v-29q0 -62 48 -100.5t139 -38.5q78 0 129 36.5t51 98.5v15q0 137 -199 137h-84v84h84
q100 0 148.5 38t48.5 97v14q0 60 -49.5 94.5t-126.5 34.5q-88 0 -137.5 -39t-49.5 -98v-31h-102v37q0 89 74.5 155t218.5 66zM1409 1364l-899 -1364h-102l899 1364h102zM1448 813q139 0 216 -63t77 -164v-8q0 -58 -35 -105.5t-100 -71.5q70 -26 107.5 -75t37.5 -111v-10
q0 -103 -80.5 -163t-222.5 -60t-221.5 60t-79.5 163v10q0 62 37 111t106 75q-65 24 -100 71.5t-35 105.5v8q0 101 77 164t216 63zM1448 723q-84 0 -134 -36.5t-50 -102.5v-17q0 -57 52 -93t132 -36t132 36t52 93v17q0 66 -50 102.5t-134 36.5zM1448 72q88 0 141 36.5
t53 104.5v14q0 60 -53.5 96.5t-140.5 36.5q-86 0 -140.5 -37t-54.5 -96v-14q0 -67 53 -104t142 -37z" />
    <glyph glyph-name="fiveeighths" unicode="&#x215d;" horiz-adv-x="1826" 
d="M135 1366h516q-5 -58 -22 -77t-70 -19h-332l-20 -275q48 37 98 58.5t119 21.5q119 0 179.5 -61.5t60.5 -165.5v-35q0 -113 -74.5 -186.5t-210.5 -73.5q-144 0 -214.5 63t-70.5 162v15h103v-11q0 -65 46.5 -102t133.5 -37q80 0 130 44t50 124v29q0 70 -39.5 110.5
t-120.5 40.5q-118 0 -204 -86l-89 21zM1411 1364l-901 -1364h-102l901 1364h102zM1448 813q139 0 216 -63t77 -164v-8q0 -58 -35 -105.5t-100 -71.5q70 -26 107.5 -75t37.5 -111v-10q0 -103 -80.5 -163t-222.5 -60q-140 0 -220.5 60t-80.5 163v10q0 63 37 111.5t108 74.5
q-66 24 -100.5 71t-34.5 106v8q0 101 77 164t214 63zM1448 723q-84 0 -134 -36.5t-50 -102.5v-17q0 -56 52.5 -92.5t131.5 -36.5q80 0 133 36t53 93v17q0 66 -51 102.5t-135 36.5zM1448 72q90 0 143.5 36.5t53.5 104.5v14q0 60 -55 96.5t-142 36.5q-85 0 -139 -36.5
t-54 -96.5v-14q0 -68 52.5 -104.5t140.5 -36.5z" />
    <glyph glyph-name="seveneighths" unicode="&#x215e;" horiz-adv-x="1656" 
d="M76 1366h610v-70q-152 -170 -229 -347.5t-95 -377.5h-118q28 370 325 695h-493v100zM1241 1364l-899 -1364h-102l899 1364h102zM1280 813q139 0 216 -63t77 -164v-8q0 -58 -35 -105.5t-100 -71.5q70 -26 107.5 -75t37.5 -111v-10q0 -103 -80.5 -163t-222.5 -60t-221.5 60
t-79.5 163v10q0 62 37 111t106 75q-65 24 -100 71.5t-35 105.5v8q0 101 77 164t216 63zM1280 723q-84 0 -134 -36.5t-50 -102.5v-17q0 -57 52 -93t132 -36t132 36t52 93v17q0 66 -50 102.5t-134 36.5zM1280 72q89 0 142 37t53 104v14q0 60 -54 96.5t-141 36.5t-141 -36.5
t-54 -96.5v-14q0 -67 53 -104t142 -37z" />
    <glyph glyph-name="minus" unicode="&#x2212;" horiz-adv-x="1161" 
d="M172 739h819v-114h-819v114z" />
    <glyph glyph-name="hcoslug" unicode="&#xe10b;" horiz-adv-x="1421" 
d="M1319 1434v-1639h-1217v1639h1217zM782 541q42 55 95 86q30 -52 88 -52q43 0 72.5 32t29.5 79t-29.5 77t-72.5 30q-70 0 -123 -78q-3 40 -30.5 59t-70.5 17q19 32 19 69q0 59 -52.5 105.5t-142.5 46.5q-99 0 -161 -52.5t-62 -121.5q0 -43 15 -75t49 -67
q-168 -57 -168 -186q0 -81 65 -136t158 -55q129 0 213 93q51 -52 89.5 -72.5t84.5 -20.5q68 0 114.5 53t49.5 140l-15 4q-34 -59 -88 -59q-30 0 -59 19.5t-68 64.5zM506 877q0 26 15 42.5t40 16.5q26 0 43 -21.5t17 -56.5q0 -46 -37 -102q-30 29 -42.5 42.5t-24 35
t-11.5 43.5zM639 700q61 42 86 70q23 -23 29 -49t-2 -52.5t-29 -62.5q-68 78 -84 94zM535 449q-46 0 -76.5 31.5t-30.5 78.5q0 49 33 82q72 -68 151 -168q-31 -24 -77 -24zM721 256v-106h12l8 16q10 -16 29 -16q17 0 25 13.5t8 29.5q0 18 -8.5 29t-22.5 11q-21 0 -27 -18v55
h-36v-14h12zM256 166v-14h61v14h-20v33h8q7 0 8.5 -3t3.5 -14h15v47h-15q-1 -8 -2 -10.5t-3 -4t-7 -1.5h-8v37h25q11 0 15 -5t7 -22h16v41h-104v-14h14v-84h-14zM586 254l-25 -4v-19h-14v-14h14v-41q0 -26 25 -26q22 0 28 26l-10 4q-3 -14 -10 -14q-8 0 -8 10v41h26v14h-26
v23zM356 193q0 -20 12 -31.5t31 -11.5t31 12t12 31q0 18 -12 29t-31 11t-31 -11t-12 -29zM618 180v-28h15l2 8q15 -10 27 -10q13 0 20.5 7.5t7.5 18.5q0 19 -24.5 25t-24.5 12q0 8 10 8q11 0 21 -14h14v26h-12l-4 -10q-7 10 -23 10q-13 0 -21 -7t-8 -17q0 -19 25 -26t25 -13
q0 -8 -11 -8q-12 0 -24 18h-15zM449 166v-14h45v14h-9v31q0 20 15 20q12 0 12 -14v-37h-8v-14h45v14h-12v39q0 28 -25 28q-20 0 -29 -22v20h-34v-14h12v-51h-12zM829 133q5 5 2.5 13t-12.5 8q-14 0 -14 -15q0 -18 22 -18q24 0 37 33l27 63h10v14h-35v-14h11l-17 -41l-18 41
h12v14h-51v-14h10q25 -47 33 -67q-3 -17 -17 -17zM416 193q0 -33 -17 -33q-16 0 -16 33q0 30 16 30q17 0 17 -30zM776 190q0 -26 -14 -26q-17 0 -17 26q0 27 17 27q14 0 14 -27zM565 14v-14h47v14h-10v52h29v-52h-10v-14h47v14h-13v107l-20 -4q-8 4 -19 4q-16 0 -27 -10
t-11 -29v-2h-15v-14h15v-52h-13zM961 55q0 -26 15.5 -41.5t43.5 -15.5q46 0 49 47h-16q-4 -33 -29 -33q-33 0 -33 45t29 45q12 0 18.5 -6.5t12.5 -25.5h16v45h-16l-2 -13q-15 15 -33 15q-22 0 -38.5 -17.5t-16.5 -44.5zM254 14v-14h59v14h-16v37h45v-37h-16v-14h59v14h-16
v84h16v15h-59v-15h16v-32h-45v32h16v15h-59v-15h16v-84h-16zM950 68h-37v-15h13q-2 -7 -13 -18q-4 4 -11.5 12.5t-12.5 13.5q22 9 22 25q0 10 -7.5 17.5t-20.5 7.5q-14 0 -24.5 -9t-10.5 -20q0 -13 12 -25q-26 -7 -26 -30q0 -29 36 -29q19 0 31 12q10 -12 25 -12q19 0 26 25
l-10 2q-3 -11 -8 -11t-12 11q12 16 18 28h10v15zM602 80v6q0 25 12 25l7 -2q-3 -3 -3 -7q0 -12 13 -12v-10h-29zM883 68q-13 13 -13 20q0 10 11 10q12 0 12 -12q0 -11 -10 -18zM506 37h53q3 45 -39 45q-17 0 -29 -12t-12 -31t11.5 -30t31.5 -11q30 0 37 29h-14
q-3 -15 -19 -15q-20 0 -20 25zM754 14v-14h53v14h-16v33q8 19 14 19v-3q0 -12 12 -12q14 0 14 15q0 16 -16 16q-15 0 -24 -23v21h-37v-14h12v-52h-12zM1075 41q0 -20 12 -31.5t31 -11.5t31 12t12 31t-12 30t-31 11t-31 -11t-12 -30zM387 41q0 -20 12 -31.5t31 -11.5t31 12
t12 31t-12 30t-31 11t-31 -11t-12 -30zM696 37h54q3 45 -39 45q-17 0 -29 -12t-12 -31t11.5 -30t31.5 -11q30 0 37 29h-15q-3 -15 -18 -15q-21 0 -21 25zM1135 41q0 -33 -17 -33q-16 0 -16 33q0 31 16 31q17 0 17 -31zM446 41q0 -33 -16 -33t-16 33q0 31 16 31t16 -31z
M696 47q0 25 15 25q14 0 14 -25h-29zM506 47q0 25 14 25q15 0 15 -25h-29zM895 18q-9 -6 -16 -6q-9 0 -15 6t-6 15q0 10 8 18q9 -9 29 -33zM1194 12q0 15 -14 15q-6 0 -10.5 -4.5t-4.5 -10.5q0 -14 15 -14q14 0 14 14z" />
    <glyph glyph-name="fi" unicode="&#xfb01;" horiz-adv-x="1105" 
d="M610 1417v-108h-61q-100 0 -144.5 -44t-44.5 -132v-175h248v-106h-248v-852h-129v852h-157v106h157v175q0 136 74.5 210t224.5 74h80zM803 1341h149v-165h-149v165zM813 958h129v-958h-129v958z" />
    <glyph glyph-name="fl" unicode="&#xfb02;" horiz-adv-x="1105" 
d="M610 1417v-108h-61q-100 0 -144.5 -44t-44.5 -132v-175h248v-106h-248v-852h-129v852h-157v106h157v175q0 136 74.5 210t224.5 74h80zM942 1417v-1417h-129v1417h129z" />
    <glyph glyph-name="NUL" horiz-adv-x="0" 
 />
    <glyph glyph-name="Q.alt" horiz-adv-x="1320" 
d="M1008 -215v-104h-93q-177 0 -248 51t-71 186v70q-213 20 -335 165t-122 375v320q0 249 140 398t380 149q241 0 382 -149t141 -398v-320q0 -230 -122 -375t-335 -165v-74q0 -77 44 -103t173 -26h66zM659 1278q-176 0 -279.5 -115.5t-103.5 -304.5v-340q0 -188 104 -304
t279 -116q176 0 279.5 116t103.5 304v340q0 189 -103 304.5t-280 115.5z" />
    <glyph glyph-name="Q.alt2" horiz-adv-x="1325" 
d="M1290 -29q-50 -24 -108 -24q-62 0 -110 26t-97 93q-130 -97 -316 -97q-240 0 -380 150t-140 401v324q0 251 140 401t380 150q241 0 382 -150t141 -401v-324q0 -227 -121 -373q40 -55 73 -73.5t74 -18.5q35 0 82 13v-97zM279 518q0 -167 75 -274v30q0 119 78 192t191 73
q62 0 112.5 -17.5t91.5 -53.5t71.5 -76t66.5 -101l18 -33q59 106 59 252v342q0 194 -102.5 311t-280.5 117q-175 0 -277.5 -117t-102.5 -311v-334zM442 262q0 -87 54.5 -133.5t162.5 -46.5q153 0 250 88l-32 61q-62 104 -120.5 152.5t-138.5 48.5q-82 0 -129 -50t-47 -120z
" />
    <glyph glyph-name="R.alt" horiz-adv-x="1236" 
d="M190 1364h476q211 0 312 -87.5t101 -248.5v-65q0 -133 -65 -208t-189 -106v-4q122 -25 175 -91.5t53 -205.5v-180q0 -44 21.5 -66t70.5 -28v-74h-64q-166 0 -166 162v182q0 133 -64.5 188.5t-227.5 55.5h-295v-588h-138v1364zM328 1249v-551h299q152 0 233.5 67t81.5 189
v62q0 233 -289 233h-325z" />
    <glyph glyph-name="t.alt" horiz-adv-x="645" 
d="M221 1169l129 41v-252h256v-106h-256v-428q0 -81 3.5 -129.5t12.5 -92.5t29 -73t49 -55.5t76 -55.5v-18h-168q-51 40 -77.5 79t-40 107.5t-13.5 182.5v483h-153v106h153v211z" />
    <glyph glyph-name="Racute.alt" horiz-adv-x="1236" 
d="M903 1898l-289 -325h-94l217 325h166zM190 1364h476q211 0 312 -87.5t101 -248.5v-65q0 -133 -65 -208t-189 -106v-4q122 -25 175 -91.5t53 -205.5v-180q0 -44 21.5 -66t70.5 -28v-74h-64q-166 0 -166 162v182q0 133 -64.5 188.5t-227.5 55.5h-295v-588h-138v1364z
M328 1249v-551h299q152 0 233.5 67t81.5 189v62q0 233 -289 233h-325z" />
    <glyph glyph-name="Rcaron.alt" horiz-adv-x="1236" 
d="M291 1917q111 -22 191 -84.5t122 -142.5q42 80 122.5 142.5t191.5 84.5v-72q-184 -59 -246 -262h-137q-58 202 -244 262v72zM190 1364h476q211 0 312 -87.5t101 -248.5v-65q0 -133 -65 -208t-189 -106v-4q122 -25 175 -91.5t53 -205.5v-180q0 -44 21.5 -66t70.5 -28v-74
h-64q-166 0 -166 162v182q0 133 -64.5 188.5t-227.5 55.5h-295v-588h-138v1364zM328 1249v-551h299q152 0 233.5 67t81.5 189v62q0 233 -289 233h-325z" />
    <glyph glyph-name="Rcommaaccent.alt" horiz-adv-x="1236" 
d="M190 1364h476q211 0 312 -87.5t101 -248.5v-65q0 -133 -65 -208t-189 -106v-4q122 -25 175 -91.5t53 -205.5v-180q0 -44 21.5 -66t70.5 -28v-74h-64q-166 0 -166 162v182q0 133 -64.5 188.5t-227.5 55.5h-295v-588h-138v1364zM328 1249v-551h299q152 0 233.5 67t81.5 189
v62q0 233 -289 233h-325zM551 -209h160v-162q0 -210 -232 -268v49q160 48 160 199h-88v182z" />
    <glyph glyph-name="tcaron.alt" horiz-adv-x="645" 
d="M535 1456h124l-65 -354h-74zM221 1169l129 41v-252h256v-106h-256v-428q0 -81 3.5 -129.5t12.5 -92.5t29 -73t49 -55.5t76 -55.5v-18h-168q-51 40 -77.5 79t-40 107.5t-13.5 182.5v483h-153v106h153v211z" />
    <glyph glyph-name="tcommaaccent.alt" horiz-adv-x="645" 
d="M221 1169l129 41v-252h256v-106h-256v-428q0 -81 3.5 -129.5t12.5 -92.5t29 -73t49 -55.5t76 -55.5v-18h-168q-51 40 -77.5 79t-40 107.5t-13.5 182.5v483h-153v106h153v211zM272 -221h162v-160q0 -212 -231 -270v51q159 47 159 197h-90v182z" />
    <glyph glyph-name="one.alt" horiz-adv-x="940" 
d="M889 0h-760v113h326v987h-349v100h78q169 0 234 36t71 148h99v-1271h301v-113z" />
    <glyph glyph-name="one.alt2" horiz-adv-x="585" 
d="M225 1247q67 22 72 150h61v-1397h-133v1247z" />
    <glyph glyph-name="colon.alt" horiz-adv-x="436" 
d="M137 1155h164v-215h-164v215zM137 424h164v-213h-164v213z" />
    <glyph glyph-name="guillemotleft.cap" horiz-adv-x="1226" 
d="M524 1155h86q-39 -152 -120.5 -263.5t-221.5 -209.5q140 -98 221.5 -209.5t120.5 -263.5h-86q-96 275 -411 424v98q315 149 411 424zM1018 1155h84q-39 -152 -120.5 -263.5t-221.5 -209.5q140 -98 221.5 -209.5t120.5 -263.5h-84q-99 277 -414 424v98q315 147 414 424z
" />
    <glyph glyph-name="guillemotright.cap" horiz-adv-x="1214" 
d="M690 209h-86q39 151 121 262.5t221 210.5q-139 99 -221 210.5t-121 262.5h86q99 -277 412 -424v-98q-313 -147 -412 -424zM209 209h-86q39 151 121 262.5t221 210.5q-139 99 -221 210.5t-121 262.5h86q99 -277 412 -424v-98q-313 -147 -412 -424z" />
    <glyph glyph-name="guilsinglleft.cap" horiz-adv-x="733" 
d="M528 1155h84q-39 -152 -120.5 -263.5t-221.5 -209.5q140 -98 221.5 -209.5t120.5 -263.5h-84q-99 276 -413 424v98q314 148 413 424z" />
    <glyph glyph-name="guilsinglright.cap" horiz-adv-x="733" 
d="M207 209h-86q39 152 120.5 263.5t221.5 209.5q-140 98 -221.5 209.5t-120.5 263.5h86q96 -275 411 -424v-98q-315 -149 -411 -424z" />
    <glyph glyph-name="hyphen.cap" horiz-adv-x="776" 
d="M121 737h534v-110h-534v110z" />
    <glyph glyph-name="endash.cap" horiz-adv-x="1177" 
d="M154 735h870v-106h-870v106z" />
    <glyph glyph-name="emdash.cap" horiz-adv-x="1742" 
d="M162 735h1419v-106h-1419v106z" />
    <glyph glyph-name="at.cap" horiz-adv-x="1605" 
d="M872 1454q129 0 236.5 -33.5t181.5 -90t125 -133t74.5 -161t23.5 -174.5q0 -232 -118.5 -389.5t-276.5 -157.5q-94 0 -148 51.5t-46 133.5q-96 -170 -236 -170q-99 0 -156 67t-57 189q0 109 43 218.5t127 186t186 76.5q67 0 115.5 -39t63.5 -110l41 137h110l-119 -402
q-38 -123 -16 -189.5t102 -66.5q111 0 202 135t91 330q0 226 -148 367t-401 141q-189 0 -341 -98t-238 -273t-86 -395q0 -284 159 -446t439 -162q142 0 274 47.5t219 116.5l50 -68q-98 -78 -243.5 -130t-299.5 -52q-318 0 -505 186.5t-187 505.5q0 185 58.5 344.5t160 270.5
t241.5 174t299 63zM844 973q-76 0 -136.5 -66t-89 -153t-28.5 -170q0 -79 32.5 -121.5t94.5 -42.5q65 0 123 61t86 158l53 184q0 60 -34.5 105t-100.5 45z" />
    <glyph glyph-name="registered.large" horiz-adv-x="1767" 
d="M139 682q0 211 95.5 380.5t265.5 265t383 95.5q160 0 299 -56t236.5 -153.5t153.5 -235.5t56 -296t-56 -296t-153.5 -235.5t-236.5 -153.5t-299 -56q-213 0 -383 95.5t-265.5 265t-95.5 380.5zM1538 682q0 190 -82.5 341t-232.5 237t-340 86q-142 0 -264 -50t-207.5 -138
t-134 -211t-48.5 -265t48.5 -265t134 -211t207.5 -138t264 -50q190 0 340 86t232.5 237t82.5 341zM745 604v-274h-106v704h297q242 0 242 -213q0 -166 -154 -205l170 -286h-117l-164 274h-168zM745 946v-254h170q79 0 116.5 30.5t37.5 96.5q0 64 -34.5 95.5t-110.5 31.5
h-179z" />
    <glyph glyph-name="registered.large_alt" horiz-adv-x="1767" 
d="M139 682q0 211 95.5 380.5t265.5 265t383 95.5q160 0 299 -56t236.5 -153.5t153.5 -235.5t56 -296t-56 -296t-153.5 -235.5t-236.5 -153.5t-299 -56q-213 0 -383 95.5t-265.5 265t-95.5 380.5zM1538 682q0 190 -82.5 341t-232.5 237t-340 86q-142 0 -264 -50t-207.5 -138
t-134 -211t-48.5 -265t48.5 -265t134 -211t207.5 -138t264 -50q190 0 340 86t232.5 237t82.5 341zM639 1034h305q120 0 177 -49.5t57 -148.5q0 -83 -34.5 -124t-107.5 -57v-2q65 -14 93 -47.5t28 -97.5v-78q0 -27 10 -40t35 -21v-39h-65q-86 0 -86 86v86q0 55 -31 79.5
t-109 24.5h-166v-276h-106v704zM745 946v-254h168q82 0 120 31t38 100q0 64 -34 93.5t-111 29.5h-181z" />
    <glyph glyph-name="registered.alt" horiz-adv-x="1060" 
d="M528 1395q187 0 310 -122.5t123 -301.5q0 -180 -122.5 -301t-310.5 -121q-186 0 -307 121t-121 301q0 179 121.5 301.5t306.5 122.5zM528 1329q-161 0 -259.5 -101t-98.5 -257t98.5 -257.5t259.5 -101.5q163 0 262 101.5t99 257.5t-99 257t-262 101zM373 1184h194
q144 0 144 -119q0 -48 -20.5 -73t-63.5 -34v-2q37 -9 53 -29t16 -59v-26q0 -19 7 -28t28 -15v-29h-57q-56 0 -56 57v39q0 62 -75 62h-92v-158h-78v414zM451 1120v-137h94q88 0 88 72q0 34 -19 49.5t-61 15.5h-102z" />
    <glyph glyph-name="R_p" horiz-adv-x="2177" 
d="M344 582v-582h-133v1364h459q411 0 411 -346v-84q0 -131 -78 -222t-221 -120l340 -592h-147l-332 582h-299zM344 692h301q144 0 222.5 67t78.5 181v70q0 125 -69 183t-222 58h-311v-559zM1718 -23q-110 0 -180.5 50.5t-124.5 138.5v-483h-129v1275h107l12 -194
q55 103 130 160t189 57q159 0 250.5 -112.5t91.5 -286.5v-207q0 -173 -94 -285.5t-252 -112.5zM1692 86q116 0 180.5 84t64.5 213v190q0 130 -64.5 214.5t-180.5 84.5q-110 0 -194.5 -92t-84.5 -227v-147q0 -135 84.5 -227.5t194.5 -92.5z" />
    <glyph glyph-name="R_p.alt" horiz-adv-x="2228" 
d="M211 1364h461q211 0 312 -87.5t101 -248.5v-65q0 -251 -254 -314v-4q123 -25 176.5 -92t53.5 -205v-180q0 -44 21.5 -66t70.5 -28v-74h-63q-166 0 -166 162v184q0 133 -64 188.5t-229 55.5h-287v-590h-133v1364zM344 1249v-551h291q152 0 233.5 66.5t81.5 189.5v64
q0 114 -69 172.5t-219 58.5h-318zM1333 958h107l12 -194q57 104 131.5 160.5t190.5 56.5q157 0 249.5 -113t92.5 -286v-207q0 -172 -95.5 -285t-253.5 -113q-110 0 -179.5 50t-125.5 139v-483h-129v1275zM1741 872q-110 0 -194.5 -92t-84.5 -227v-147q0 -135 84.5 -227.5
t194.5 -92.5q116 0 181 84.5t65 212.5v190q0 130 -64.5 214.5t-181.5 84.5z" />
    <glyph glyph-name="rupee.alt" horiz-adv-x="2119" 
d="M211 1364h461q211 0 312 -87.5t101 -248.5v-65q0 -251 -254 -314v-4q123 -25 176.5 -92t53.5 -205v-180q0 -44 21.5 -66t70.5 -28v-74h-63q-166 0 -166 162v184q0 133 -64 188.5t-229 55.5h-287v-590h-133v1364zM344 1249v-551h291q152 0 233.5 66.5t81.5 189.5v64
q0 114 -69 172.5t-219 58.5h-318zM1651 -27q-179 0 -272 86t-93 226v39h117v-35q0 -98 64 -154.5t186 -56.5q104 0 162.5 44.5t58.5 125.5q0 74 -55 113.5t-197 72.5q-162 37 -238.5 100t-76.5 179q0 114 92 193t246 79q164 0 250.5 -81.5t86.5 -211.5v-30h-116v22
q0 92 -57.5 144.5t-166.5 52.5q-96 0 -155.5 -45.5t-59.5 -116.5q0 -73 58 -111t196 -73q164 -37 240 -99.5t76 -181.5q0 -127 -92.5 -204t-253.5 -77z" />
    <glyph glyph-name="rupeeindia.alt" horiz-adv-x="1236" 
d="M1014 74v-74h-58q-86 0 -131.5 40t-46.5 128v82q-1 104 -33 163.5t-111.5 89t-221.5 29.5h-277v111h268q189 0 285.5 64.5t110.5 195.5h-668v98h668q-11 129 -97 194t-262 65h-309v104h1024v-104h-371q133 -83 148 -256h223v-105h-223q-27 -251 -307 -301v-6
q161 -21 223.5 -98.5t64.5 -235.5v-86q2 -46 24.5 -69t76.5 -29z" />
    <glyph glyph-name="onehalf.alt" horiz-adv-x="1873" 
d="M680 571h-576v86h246v514h-258v84h113q93 0 130.5 26.5t43.5 96.5h80v-721h221v-86zM1458 1364l-899 -1364h-102l899 1364h102zM1776 0h-568v45q0 130 52 199.5t213 152.5q127 65 165.5 100.5t38.5 92.5q0 64 -48 97.5t-122 33.5q-85 0 -136.5 -39.5t-51.5 -110.5v-39
h-102v43q0 105 78.5 170.5t213.5 65.5q134 0 204.5 -60t70.5 -157q0 -39 -11 -70t-28 -54.5t-54 -50.5t-73 -47.5t-100 -54.5q-118 -58 -156.5 -101t-38.5 -122h453v-94z" />
    <glyph glyph-name="onethird.alt" horiz-adv-x="1880" 
d="M686 571h-575v86h243v514h-258v84h115q93 0 130.5 26.5t43.5 96.5h80v-721h221v-86zM1464 1364l-901 -1364h-102l901 1364h102zM1505 811q130 0 204.5 -60.5t74.5 -150.5v-16q0 -63 -42.5 -113t-121.5 -68q82 -18 124 -66t42 -118v-14q0 -95 -75.5 -158t-207.5 -63
q-148 0 -220.5 63t-72.5 158v37h103v-31q0 -61 48 -100t138 -39q79 0 129.5 37t50.5 100v14q0 135 -200 135h-82v86h82q101 0 149.5 37.5t48.5 96.5v16q0 60 -49.5 94.5t-128.5 34.5q-87 0 -135.5 -39.5t-48.5 -97.5v-33h-103v37q0 91 74 156t219 65z" />
    <glyph glyph-name="onequarter.alt" horiz-adv-x="1773" 
d="M686 571h-575v86h243v514h-258v84h115q93 0 130.5 26.5t43.5 96.5h80v-721h221v-86zM1464 1364l-901 -1364h-102l901 1364h102zM1464 795h138v-523h120v-88h-120v-184h-103v184h-444v86zM1499 272v435l-340 -435h340z" />
    <glyph glyph-name="onefifth.alt" horiz-adv-x="1900" 
d="M686 571h-575v86h243v514h-258v84h115q93 0 130.5 26.5t43.5 96.5h80v-721h221v-86zM1464 1364l-901 -1364h-102l901 1364h102zM1282 795h516q-5 -58 -22 -77.5t-70 -19.5h-332l-20 -274q100 80 217 80q119 0 179 -60.5t60 -164.5v-37q0 -112 -74 -185t-210 -73
q-144 0 -214.5 62t-70.5 161v16h102v-10q0 -66 47 -102.5t134 -36.5q80 0 130 44t50 124v26q0 71 -39.5 112.5t-122.5 41.5q-113 0 -203 -86l-88 18z" />
    <glyph glyph-name="onesixth.alt" horiz-adv-x="1867" 
d="M686 571h-575v86h243v514h-258v84h115q93 0 130.5 26.5t43.5 96.5h80v-721h221v-86zM1464 1364l-901 -1364h-102l901 1364h102zM1493 -18q-142 0 -219.5 75.5t-77.5 225.5v200q0 152 79 239t232 87q74 0 129.5 -20t84 -52.5t42 -67.5t13.5 -73v-16h-103v8q0 54 -41 92.5
t-121 38.5q-208 0 -208 -230v-96q80 96 229 96q124 0 191 -64t67 -161v-26q0 -109 -77.5 -182.5t-219.5 -73.5zM1493 74q85 0 136.5 43.5t51.5 118.5v14q0 71 -47 113.5t-135 42.5q-85 0 -139.5 -39t-54.5 -107v-20q0 -80 52.5 -123t135.5 -43z" />
    <glyph glyph-name="oneeighth.alt" horiz-adv-x="1886" 
d="M686 571h-575v86h243v514h-258v84h115q93 0 130.5 26.5t43.5 96.5h80v-721h221v-86zM1464 1364l-901 -1364h-102l901 1364h102zM1509 813q139 0 216 -63t77 -164v-8q0 -58 -35 -105.5t-100 -71.5q70 -26 107.5 -75t37.5 -111v-10q0 -103 -80.5 -163t-222.5 -60t-221.5 60
t-79.5 163v10q0 62 37 111t107 75q-65 24 -100 71.5t-35 105.5v8q0 101 76.5 164t215.5 63zM1509 723q-84 0 -134 -36.5t-50 -102.5v-17q0 -57 52 -93t132 -36t133.5 36.5t53.5 92.5v17q0 66 -51.5 102.5t-135.5 36.5zM1509 72q89 0 142 37t53 104v14q0 60 -54 96.5
t-141 36.5q-85 0 -139.5 -36.5t-54.5 -96.5v-14q0 -68 53 -104.5t141 -36.5z" />
    <glyph glyph-name="one.sup_alt" 
d="M686 625h-575v86h243v514h-258v84h115q93 0 130.5 26.5t43.5 96.5h80v-721h221v-86z" />
    <glyph glyph-name="one.inf_alt" 
d="M686 -317h-575v88h243v514h-258v84h115q93 0 130.5 25.5t43.5 94.5h80v-718h221v-88z" />
    <glyph glyph-name="zero.tab" horiz-adv-x="1196" 
d="M600 1395q228 0 355.5 -150t127.5 -414v-299q0 -264 -127.5 -413.5t-355.5 -149.5q-229 0 -357 149.5t-128 413.5v302q0 263 128 412t357 149zM600 1280q-170 0 -262 -116t-92 -326v-310q0 -211 92 -327.5t262 -116.5q168 0 260 116.5t92 327.5v310q0 210 -92 326
t-260 116z" />
    <glyph glyph-name="one.tab" horiz-adv-x="1196" 
d="M627 1384h100v-1273h406v-111h-973v111h436v987h-457v100h185q166 0 231 37.5t72 148.5z" />
    <glyph glyph-name="two.tab" horiz-adv-x="1196" 
d="M623 1395q217 0 329.5 -99.5t112.5 -267.5q0 -83 -20.5 -141t-87.5 -115t-120 -89t-190 -106q-19 -11 -29 -16q-145 -75 -215.5 -134.5t-97 -128t-26.5 -181.5h774v-117h-912v76q0 112 16 185t65 142.5t130 128.5t221 138q119 64 180.5 101.5t106.5 79.5t58.5 80.5
t13.5 96.5q0 127 -85 188.5t-226 61.5q-148 0 -239 -72t-91 -207v-69h-129v76q0 175 125 282t336 107z" />
    <glyph glyph-name="three.tab" horiz-adv-x="1196" 
d="M602 1395q110 0 197 -29.5t140 -80t80.5 -114t27.5 -135.5v-28q0 -111 -69.5 -197t-199.5 -117q135 -30 204 -111.5t69 -201.5v-33q0 -79 -28.5 -147t-83 -120t-142 -82t-197.5 -30q-127 0 -219.5 29.5t-144 82.5t-75.5 116.5t-24 140.5v55h129v-51q0 -123 81.5 -190.5
t248.5 -67.5q149 0 235.5 69t86.5 199v31q0 119 -81 186.5t-253 67.5h-154v108h154q164 0 247.5 69.5t83.5 184.5v25q0 126 -86 191t-233 65q-160 0 -244 -71.5t-84 -186.5v-51h-129v55q0 55 15 106t50.5 99.5t87.5 84.5t132 57.5t178 21.5z" />
    <glyph glyph-name="four.tab" horiz-adv-x="1196" 
d="M752 1364h168v-936h210v-113h-210v-315h-123v315h-721v101zM797 428v805l-578 -805h578z" />
    <glyph glyph-name="five.tab" horiz-adv-x="1196" 
d="M674 874q204 0 303.5 -109t99.5 -292v-72q0 -194 -118 -313t-345 -119q-124 0 -215.5 29.5t-144.5 83t-78.5 121t-25.5 151.5v6h129v-6q0 -131 83.5 -200.5t251.5 -69.5q148 0 239 78t91 235v66q0 140 -70 219.5t-221 79.5q-203 0 -377 -164l-104 27l53 739h828
q-6 -71 -30.5 -94t-100.5 -23h-582l-41 -518q170 145 375 145z" />
    <glyph glyph-name="six.tab" horiz-adv-x="1196" 
d="M602 -29q-229 0 -347 126.5t-118 351.5v428q0 237 124 377.5t366 140.5q93 0 168 -22.5t122 -58t79 -82t44.5 -91.5t12.5 -90v-47h-129v24q0 113 -76.5 182.5t-216.5 69.5q-178 0 -271.5 -102t-93.5 -308v-211q128 181 387 181q196 0 307 -108t111 -283v-52
q0 -188 -124 -307t-345 -119zM602 84q146 0 240 76.5t94 232.5v37q0 150 -85 226.5t-235 76.5q-145 0 -245.5 -74.5t-100.5 -209.5v-50q0 -155 94.5 -235t237.5 -80z" />
    <glyph glyph-name="seven.tab" horiz-adv-x="1196" 
d="M532 0h-139q23 313 157 616.5t413 628.5h-861v119h1006v-96q-273 -316 -408.5 -621.5t-167.5 -646.5z" />
    <glyph glyph-name="eight.tab" horiz-adv-x="1196" 
d="M600 1395q211 0 326.5 -105.5t115.5 -271.5v-21q0 -108 -57 -188t-166 -121q242 -90 242 -326v-20q0 -171 -122.5 -272t-338.5 -101q-217 0 -340 101t-123 272v20q0 238 250 326q-112 41 -171.5 121t-59.5 188v21q0 166 116 271.5t328 105.5zM600 1282
q-144 0 -228.5 -67.5t-84.5 -194.5v-29q0 -121 85.5 -187.5t227.5 -66.5q141 0 227 67t86 187v29q0 127 -85.5 194.5t-227.5 67.5zM600 82q152 0 241 67.5t89 198.5v23q0 129 -89 197.5t-241 68.5q-153 0 -242.5 -68.5t-89.5 -197.5v-23q0 -131 89.5 -198.5t242.5 -67.5z
" />
    <glyph glyph-name="nine.tab" horiz-adv-x="1196" 
d="M592 1395q231 0 348 -126.5t117 -350.5v-429q0 -238 -123.5 -378t-368.5 -140q-114 0 -200.5 32.5t-134 84.5t-70.5 108.5t-23 114.5v37h129v-18q0 -108 77 -177t218 -69q367 0 367 412v190q-128 -180 -387 -180q-198 0 -308 108.5t-110 282.5v70q0 188 122 308t347 120z
M592 1280q-70 0 -128.5 -17t-105.5 -53t-73.5 -98t-26.5 -145v-45q0 -157 84.5 -233.5t235.5 -76.5q145 0 246.5 75t101.5 212v57q0 84 -27 147.5t-74.5 101.5t-106 56.5t-126.5 18.5z" />
    <glyph glyph-name="dollar.tab" horiz-adv-x="1196" 
d="M1051 356q0 -160 -105 -257t-284 -111v-224h-115v224q-204 13 -307 116.5t-103 268.5v67h131v-57q0 -135 84 -211t254 -76q143 0 228.5 66t85.5 184q0 48 -14 85.5t-38.5 65t-71 52.5t-96 44t-129.5 44q-106 31 -176 61t-126.5 73.5t-82.5 102.5t-26 138q0 149 103.5 250
t283.5 114v219h115v-219q100 -8 174.5 -41t117.5 -85t63.5 -114.5t20.5 -136.5v-57h-129v51q0 58 -15.5 105t-50.5 86.5t-97.5 61.5t-149.5 22q-142 0 -223.5 -69t-81.5 -177q0 -107 75 -163.5t267 -115.5q87 -27 147 -51.5t115 -57.5t87 -71t50.5 -90t18.5 -117z" />
    <glyph glyph-name="sterling.tab" horiz-adv-x="1196" 
d="M842 -31q-49 0 -95 14t-96 46t-77.5 52.5t-81.5 65.5q-34 -81 -95.5 -129.5t-142.5 -48.5q-100 0 -154.5 54.5t-54.5 140.5q0 85 57 141.5t156 56.5q80 0 172 -55q4 23 4 66q0 126 -61 262h-234v98h189q-35 79 -53.5 144t-18.5 143t25 144.5t74.5 118.5t130 82t184.5 30
q190 0 292.5 -99t102.5 -278v-55h-125v41q0 138 -72.5 207t-199.5 69q-126 0 -203.5 -67.5t-77.5 -198.5q0 -53 12.5 -106.5t25 -85.5t38.5 -89h416v-98h-375q45 -117 45 -250q0 -73 -21 -143q12 -9 43.5 -32.5t45.5 -33t41.5 -28.5t45 -27.5t41 -19.5t44.5 -15t42 -4
q35 0 61 9t50 32.5t36.5 71.5t12.5 120v99h119v-97q0 -181 -67.5 -264.5t-200.5 -83.5zM145 164q0 -46 29.5 -75.5t81.5 -29.5q55 0 95 40t59 110q-81 61 -152 61q-55 0 -84 -29t-29 -77z" />
    <glyph glyph-name="Euro.tab" horiz-adv-x="1196" 
d="M1090 371q0 -83 -27 -154.5t-79 -127.5t-135 -88t-187 -32q-220 0 -343.5 137t-123.5 386h-142v92h142v198h-142v92h142q4 250 128 385.5t341 135.5q207 0 316.5 -114t109.5 -288v-30h-125v18q0 130 -75 215.5t-224 85.5q-163 0 -252.5 -104t-89.5 -301v-3h479v-92h-479
v-198h479v-92h-479v-5q0 -196 90 -300.5t252 -104.5q147 0 222 85.5t77 215.5v12h125v-24z" />
    <glyph glyph-name="yen.tab" horiz-adv-x="1196" 
d="M1047 258h-381v-258h-127v258h-394v94h394v183l-11 20h-383v94h332l-387 715h146l370 -705l363 705h139l-383 -715h322v-94h-371l-10 -20v-183h381v-94z" />
    <glyph glyph-name="cent.tab" horiz-adv-x="1196" 
d="M1001 514q0 -82 -35.5 -151.5t-111 -118t-180.5 -58.5v-198h-115v198q-174 17 -267 130t-93 296v140q0 179 94.5 293t265.5 133v196h115v-194q159 -14 243 -106.5t84 -223.5v-8h-124v4q0 91 -62 156t-192 65q-144 0 -218.5 -83t-74.5 -224v-156q0 -140 74 -223.5
t214 -83.5q128 0 193.5 65.5t65.5 153.5v6h124v-8z" />
    <glyph glyph-name="numbersign.tab" horiz-adv-x="1196" 
d="M653 0l60 387h-320l-59 -387h-103l60 387h-236v100h250l60 390h-252v100h268l59 387h105l-60 -387h318l59 387h105l-60 -387h234v-100h-250l-60 -390h254v-100h-268l-59 -387h-105zM410 487h317l61 390h-319z" />
    <glyph glyph-name="degree.tab" horiz-adv-x="1196" 
d="M600 1395q176 0 279.5 -104.5t103.5 -268.5t-105 -268.5t-280 -104.5t-279 104t-104 269q0 164 103.5 268.5t281.5 104.5zM598 1294q-125 0 -196.5 -73.5t-71.5 -198.5q0 -126 73 -199t195 -73q124 0 197 72.5t73 199.5q0 125 -72.5 198.5t-197.5 73.5z" />
    <glyph glyph-name="percent.tab" horiz-adv-x="1796" 
d="M475 1393q131 0 207 -82t76 -213v-97q0 -131 -77.5 -212.5t-207.5 -81.5t-207.5 81.5t-77.5 212.5v97q0 130 77.5 212.5t209.5 82.5zM1511 1380l-1108 -1396h-118l1108 1396h118zM473 1298q-89 0 -133.5 -54.5t-44.5 -143.5v-101q0 -90 46 -144t134 -54q86 0 131 54
t45 144v101q0 89 -44.5 143.5t-133.5 54.5zM1321 -29q-130 0 -207.5 81t-77.5 212v98q0 130 77 212.5t208 82.5q132 0 209.5 -82.5t77.5 -212.5v-98q0 -129 -78.5 -211t-208.5 -82zM1321 66q88 0 134 54t46 142v103q0 89 -45.5 143.5t-134.5 54.5q-87 0 -132.5 -54.5
t-45.5 -143.5v-103q0 -88 46.5 -142t131.5 -54z" />
    <glyph glyph-name="quotedbl.tab" horiz-adv-x="1196" 
d="M385 1364h150l-175 -623h-88zM811 1364h150l-181 -623h-86z" />
    <glyph glyph-name="quotesingle.tab" horiz-adv-x="598" 
d="M305 1364h156l-174 -623h-90z" />
    <glyph glyph-name="period.tab" horiz-adv-x="598" 
d="M217 215h164v-215h-164v215z" />
    <glyph glyph-name="comma.tab" horiz-adv-x="598" 
d="M217 215h164v-152q0 -163 -57 -242t-187 -114v49q91 41 123.5 96t32.5 148h-76v215z" />
    <glyph glyph-name="colon.tab" horiz-adv-x="598" 
d="M217 944h164v-215h-164v215zM217 215h164v-215h-164v215z" />
    <glyph glyph-name="semicolon.tab" horiz-adv-x="598" 
d="M217 944h164v-215h-164v215zM217 215h164v-152q0 -163 -57 -242t-187 -114v49q91 41 123.5 96t32.5 148h-76v215z" />
    <glyph glyph-name="periodcentered.tab" horiz-adv-x="598" 
d="M217 791h164v-216h-164v216z" />
    <glyph glyph-name="slash.tab" horiz-adv-x="1196" 
d="M1020 1556h125l-959 -1873h-123z" />
    <glyph glyph-name="bar.tab" horiz-adv-x="598" 
d="M242 1556h114v-1873h-114v1873z" />
    <glyph glyph-name="underscore.tab" horiz-adv-x="1196" 
d="M72 -217h1052v-100h-1052v100z" />
    <glyph glyph-name="plus.tab" horiz-adv-x="1196" 
d="M545 1102h110v-367h365v-106h-365v-369h-110v369h-369v106h369v367z" />
    <glyph glyph-name="minus.tab" horiz-adv-x="1196" 
d="M193 739h813v-114h-813v114z" />
    <glyph glyph-name="divide.tab" horiz-adv-x="1196" 
d="M522 1090h154v-154h-154v154zM190 737h818v-110h-818v110zM522 428h154v-154h-154v154z" />
    <glyph glyph-name="equal.tab" horiz-adv-x="1196" 
d="M195 940h806v-113h-806v113zM195 537h806v-113h-806v113z" />
    <glyph glyph-name="multiply.tab" horiz-adv-x="1196" 
d="M891 293l-293 307l-293 -309l-82 78l299 313l-297 311l80 78l293 -309l293 309l82 -76l-297 -313l297 -313z" />
    <glyph glyph-name="less.tab" horiz-adv-x="1196" 
d="M911 1124v-125l-614 -317l614 -317v-125l-743 387v110z" />
    <glyph glyph-name="greater.tab" horiz-adv-x="1196" 
d="M262 1124l742 -387v-110l-742 -387v125l615 317l-615 317v125z" />
    <glyph glyph-name="plusminus.tab" horiz-adv-x="1196" 
d="M545 1257h108v-360h355v-104h-355v-363h-108v363h-357v104h357v360zM188 248h820v-111h-820v111z" />
    <glyph glyph-name="onehalf.tab" horiz-adv-x="1796" 
d="M686 571h-575v86h243v514h-258v84h115q93 0 130.5 26.5t43.5 96.5h80v-721h221v-86zM1425 1364l-901 -1364h-102l901 1364h102zM1696 0h-568v45q0 130 52 199.5t213 152.5q127 64 165.5 100t38.5 93q0 64 -48 97.5t-122 33.5q-84 0 -135 -39.5t-51 -110.5v-39h-102v43
q0 105 78 170.5t213 65.5q134 0 205 -60t71 -157q0 -48 -14 -83t-52.5 -68.5t-79.5 -58t-122 -67.5q-117 -58 -156 -101.5t-39 -121.5h453v-94z" />
    <glyph glyph-name="onethird.tab" horiz-adv-x="1796" 
d="M686 571h-575v86h243v514h-258v84h115q93 0 130.5 26.5t43.5 96.5h80v-721h221v-86zM1425 1364l-901 -1364h-102l901 1364h102zM1417 811q132 0 206.5 -60.5t74.5 -150.5v-16q0 -63 -43.5 -113t-122.5 -68q82 -19 125 -66.5t43 -117.5v-14q0 -95 -75.5 -158t-207.5 -63
q-150 0 -221.5 63t-71.5 158v37h103v-31q0 -61 47.5 -100t136.5 -39q80 0 130 37t50 100v14q0 135 -198 135h-84v86h84q100 0 149 37.5t49 96.5v16q0 60 -49.5 94.5t-128.5 34.5q-87 0 -136.5 -39.5t-49.5 -97.5v-33h-101v37q0 91 73.5 156t217.5 65z" />
    <glyph glyph-name="twothirds.tab" horiz-adv-x="1796" 
d="M655 571h-567v43q0 130 52 200.5t212 154.5q127 64 166 99t39 93q0 63 -48.5 97t-121.5 34q-85 0 -136.5 -39.5t-51.5 -111.5v-39h-103v45q0 105 78.5 170t214.5 65q134 0 204.5 -61t70.5 -158q0 -38 -11 -69t-28 -54t-55 -50t-72.5 -46.5t-100.5 -54.5
q-119 -59 -156.5 -101.5t-37.5 -121.5h452v-95zM1407 1364l-901 -1364h-103l902 1364h102zM1417 811q132 0 206.5 -60.5t74.5 -150.5v-16q0 -63 -43.5 -113t-122.5 -68q82 -19 125 -66.5t43 -117.5v-14q0 -95 -75.5 -158t-207.5 -63q-150 0 -221.5 63t-71.5 158v37h103v-31
q0 -61 47.5 -100t136.5 -39q80 0 130 37t50 100v14q0 135 -198 135h-84v86h84q100 0 149 37.5t49 96.5v16q0 60 -49.5 94.5t-128.5 34.5q-87 0 -136.5 -39.5t-49.5 -97.5v-33h-101v37q0 91 73.5 156t217.5 65z" />
    <glyph glyph-name="onequarter.tab" horiz-adv-x="1796" 
d="M686 571h-575v86h243v514h-258v84h115q93 0 130.5 26.5t43.5 96.5h80v-721h221v-86zM1485 1364l-901 -1364h-103l901 1364h103zM1487 795h135v-523h121v-88h-121v-184h-102v184h-445v86zM1520 272v435l-340 -435h340z" />
    <glyph glyph-name="threequarters.tab" horiz-adv-x="1796" 
d="M377 1382q130 0 204 -60.5t74 -152.5v-16q0 -63 -42 -112t-121 -66q82 -18 124.5 -66.5t42.5 -117.5v-17q0 -94 -75.5 -157.5t-208.5 -63.5q-148 0 -219.5 64t-71.5 159v35h100v-29q0 -62 48 -100.5t139 -38.5q78 0 129 36.5t51 98.5v15q0 137 -199 137h-84v84h84
q100 0 148.5 38t48.5 97v14q0 60 -49.5 94.5t-126.5 34.5q-88 0 -137.5 -39t-49.5 -98v-31h-102v37q0 89 74.5 155t218.5 66zM1444 1364l-901 -1364h-103l899 1364h105zM1487 795h135v-523h121v-88h-121v-184h-102v184h-445v86zM1520 272v435l-340 -435h340z" />
    <glyph glyph-name="onefifth.tab" horiz-adv-x="1796" 
d="M686 571h-575v86h243v514h-258v84h115q93 0 130.5 26.5t43.5 96.5h80v-721h221v-86zM1423 1364l-899 -1364h-102l899 1364h102zM1178 795h514q-5 -58 -22.5 -77.5t-70.5 -19.5h-331l-21 -274q100 80 219 80q118 0 179 -61t61 -164v-37q0 -112 -75.5 -185t-211.5 -73
q-144 0 -214 62t-70 161v16h102v-10q0 -66 47.5 -102.5t134.5 -36.5q80 0 129 44t49 124v26q0 71 -39 112.5t-120 41.5q-112 0 -205 -86l-86 18z" />
    <glyph glyph-name="twofifths.tab" horiz-adv-x="1796" 
d="M655 571h-567v43q0 130 52 200.5t212 154.5q127 64 166 99t39 93q0 63 -48.5 97t-121.5 34q-85 0 -136.5 -39.5t-51.5 -111.5v-39h-103v45q0 105 78.5 170t214.5 65q134 0 204.5 -61t70.5 -158q0 -38 -11 -69t-28 -54t-55 -50t-72.5 -46.5t-100.5 -54.5
q-119 -59 -156.5 -101.5t-37.5 -121.5h452v-95zM1405 1364l-899 -1364h-103l900 1364h102zM1178 795h514q-5 -58 -22.5 -77.5t-70.5 -19.5h-331l-21 -274q100 80 219 80q118 0 179 -61t61 -164v-37q0 -112 -75.5 -185t-211.5 -73q-144 0 -214 62t-70 161v16h102v-10
q0 -66 47.5 -102.5t134.5 -36.5q80 0 129 44t49 124v26q0 71 -39 112.5t-120 41.5q-112 0 -205 -86l-86 18z" />
    <glyph glyph-name="threefifths.tab" horiz-adv-x="1796" 
d="M377 1382q130 0 204 -60.5t74 -152.5v-16q0 -63 -42 -112t-121 -66q82 -18 124.5 -66.5t42.5 -117.5v-17q0 -94 -75.5 -157.5t-208.5 -63.5q-148 0 -219.5 64t-71.5 159v35h100v-29q0 -62 48 -100.5t139 -38.5q78 0 129 36.5t51 98.5v15q0 137 -199 137h-84v84h84
q100 0 148.5 38t48.5 97v14q0 60 -49.5 94.5t-126.5 34.5q-88 0 -137.5 -39t-49.5 -98v-31h-102v37q0 89 74.5 155t218.5 66zM1397 1364l-901 -1364h-103l901 1364h103zM1178 795h514q-5 -58 -22.5 -77.5t-70.5 -19.5h-331l-21 -274q100 80 219 80q118 0 179 -61t61 -164
v-37q0 -112 -75.5 -185t-211.5 -73q-144 0 -214 62t-70 161v16h102v-10q0 -66 47.5 -102.5t134.5 -36.5q80 0 129 44t49 124v26q0 71 -39 112.5t-120 41.5q-112 0 -205 -86l-86 18z" />
    <glyph glyph-name="fourfifths.tab" horiz-adv-x="1796" 
d="M444 1366h138v-524h118v-88h-118v-183h-103v183h-444v88zM1399 1364l-901 -1364h-103l901 1364h103zM479 842v436l-340 -436h340zM1178 795h514q-5 -58 -22.5 -77.5t-70.5 -19.5h-331l-21 -274q100 80 219 80q118 0 179 -61t61 -164v-37q0 -112 -75.5 -185t-211.5 -73
q-144 0 -214 62t-70 161v16h102v-10q0 -66 47.5 -102.5t134.5 -36.5q80 0 129 44t49 124v26q0 71 -39 112.5t-120 41.5q-112 0 -205 -86l-86 18z" />
    <glyph glyph-name="onesixth.tab" horiz-adv-x="1796" 
d="M686 571h-575v86h243v514h-258v84h115q93 0 130.5 26.5t43.5 96.5h80v-721h221v-86zM1434 1364l-902 -1364h-102l901 1364h103zM1419 -18q-142 0 -219.5 75.5t-77.5 225.5v200q0 152 79.5 239t232.5 87q74 0 129 -20t84 -52.5t42 -67.5t13 -73v-16h-103v8q0 54 -41 92.5
t-120 38.5q-209 0 -209 -230v-96q80 96 229 96q124 0 191 -64t67 -161v-26q0 -109 -77.5 -182.5t-219.5 -73.5zM1419 74q85 0 137 44t52 118v14q0 71 -47.5 113.5t-135.5 42.5q-85 0 -139.5 -39t-54.5 -107v-20q0 -80 52.5 -123t135.5 -43z" />
    <glyph glyph-name="fivesixths.tab" horiz-adv-x="1796" 
d="M135 1366h516q-5 -58 -22 -77t-70 -19h-332l-20 -275q48 37 98 58.5t119 21.5q119 0 179.5 -61.5t60.5 -165.5v-35q0 -113 -74.5 -186.5t-210.5 -73.5q-144 0 -214.5 63t-70.5 162v15h103v-11q0 -65 46.5 -102t133.5 -37q80 0 130 44t50 124v29q0 70 -39.5 110.5
t-120.5 40.5q-118 0 -204 -86l-89 21zM1407 1364l-901 -1364h-103l902 1364h102zM1419 -18q-142 0 -219.5 75.5t-77.5 225.5v200q0 152 79.5 239t232.5 87q74 0 129 -20t84 -52.5t42 -67.5t13 -73v-16h-103v8q0 54 -41 92.5t-120 38.5q-209 0 -209 -230v-96q80 96 229 96
q124 0 191 -64t67 -161v-26q0 -109 -77.5 -182.5t-219.5 -73.5zM1419 74q85 0 137 44t52 118v14q0 71 -47.5 113.5t-135.5 42.5q-85 0 -139.5 -39t-54.5 -107v-20q0 -80 52.5 -123t135.5 -43z" />
    <glyph glyph-name="oneeighth.tab" horiz-adv-x="1796" 
d="M686 571h-575v86h243v514h-258v84h115q93 0 130.5 26.5t43.5 96.5h80v-721h221v-86zM1425 1364l-899 -1364h-102l899 1364h102zM1417 813q139 0 216 -63t77 -164v-8q0 -58 -35 -105.5t-100 -71.5q70 -26 107.5 -75t37.5 -111v-10q0 -103 -80.5 -163t-222.5 -60t-221.5 60
t-79.5 163v10q0 62 37 111t107 75q-65 24 -100.5 71.5t-35.5 105.5v8q0 101 77 164t216 63zM1417 723q-84 0 -134 -36.5t-50 -102.5v-17q0 -57 52 -93t132 -36t133.5 36.5t53.5 92.5v17q0 66 -51.5 102.5t-135.5 36.5zM1417 72q89 0 142 37t53 104v14q0 60 -54 96.5
t-141 36.5q-85 0 -139.5 -36.5t-54.5 -96.5v-14q0 -68 53 -104.5t141 -36.5z" />
    <glyph glyph-name="threeeighths.tab" horiz-adv-x="1796" 
d="M377 1382q130 0 204 -60.5t74 -152.5v-16q0 -63 -42 -112t-121 -66q82 -18 124.5 -66.5t42.5 -117.5v-17q0 -94 -75.5 -157.5t-208.5 -63.5q-148 0 -219.5 64t-71.5 159v35h100v-29q0 -62 48 -100.5t139 -38.5q78 0 129 36.5t51 98.5v15q0 137 -199 137h-84v84h84
q100 0 148.5 38t48.5 97v14q0 60 -49.5 94.5t-126.5 34.5q-88 0 -137.5 -39t-49.5 -98v-31h-102v37q0 89 74.5 155t218.5 66zM1399 1364l-901 -1364h-103l901 1364h103zM1417 813q139 0 216 -63t77 -164v-8q0 -58 -35 -105.5t-100 -71.5q70 -26 107.5 -75t37.5 -111v-10
q0 -103 -80.5 -163t-222.5 -60t-221.5 60t-79.5 163v10q0 62 37 111t107 75q-65 24 -100.5 71.5t-35.5 105.5v8q0 101 77 164t216 63zM1417 723q-84 0 -134 -36.5t-50 -102.5v-17q0 -57 52 -93t132 -36t133.5 36.5t53.5 92.5v17q0 66 -51.5 102.5t-135.5 36.5zM1417 72
q89 0 142 37t53 104v14q0 60 -54 96.5t-141 36.5q-85 0 -139.5 -36.5t-54.5 -96.5v-14q0 -68 53 -104.5t141 -36.5z" />
    <glyph glyph-name="fiveeighths.tab" horiz-adv-x="1796" 
d="M135 1366h516q-5 -58 -22 -77t-70 -19h-332l-20 -275q48 37 98 58.5t119 21.5q119 0 179.5 -61.5t60.5 -165.5v-35q0 -113 -74.5 -186.5t-210.5 -73.5q-144 0 -214.5 63t-70.5 162v15h103v-11q0 -65 46.5 -102t133.5 -37q80 0 130 44t50 124v29q0 70 -39.5 110.5
t-120.5 40.5q-118 0 -204 -86l-89 21zM1399 1364l-901 -1364h-103l901 1364h103zM1417 813q139 0 216 -63t77 -164v-8q0 -58 -35 -105.5t-100 -71.5q70 -26 107.5 -75t37.5 -111v-10q0 -103 -80.5 -163t-222.5 -60t-221.5 60t-79.5 163v10q0 62 37 111t107 75
q-65 24 -100.5 71.5t-35.5 105.5v8q0 101 77 164t216 63zM1417 723q-84 0 -134 -36.5t-50 -102.5v-17q0 -57 52 -93t132 -36t133.5 36.5t53.5 92.5v17q0 66 -51.5 102.5t-135.5 36.5zM1417 72q89 0 142 37t53 104v14q0 60 -54 96.5t-141 36.5q-85 0 -139.5 -36.5
t-54.5 -96.5v-14q0 -68 53 -104.5t141 -36.5z" />
    <glyph glyph-name="seveneighths.tab" horiz-adv-x="1796" 
d="M76 1366h610v-70q-152 -170 -229 -347.5t-95 -377.5h-118q28 370 325 695h-493v100zM1311 1364l-899 -1364h-103l899 1364h103zM1417 813q139 0 216 -63t77 -164v-8q0 -58 -35 -105.5t-100 -71.5q70 -26 107.5 -75t37.5 -111v-10q0 -103 -80.5 -163t-222.5 -60t-221.5 60
t-79.5 163v10q0 62 37 111t107 75q-65 24 -100.5 71.5t-35.5 105.5v8q0 101 77 164t216 63zM1417 723q-84 0 -134 -36.5t-50 -102.5v-17q0 -57 52 -93t132 -36t133.5 36.5t53.5 92.5v17q0 66 -51.5 102.5t-135.5 36.5zM1417 72q89 0 142 37t53 104v14q0 60 -54 96.5
t-141 36.5q-85 0 -139.5 -36.5t-54.5 -96.5v-14q0 -68 53 -104.5t141 -36.5z" />
    <glyph glyph-name="i.dot" horiz-adv-x="458" 
d="M156 1341h147v-165h-147v165zM166 958h127v-958h-127v958z" />
    <glyph glyph-name="fraction.tab" horiz-adv-x="286" 
d="M645 1364l-901 -1364h-102l901 1364h102z" />
    <glyph glyph-name="zero.num" 
d="M377 1384q147 0 228 -90.5t81 -255.5v-141q0 -163 -81 -254.5t-228 -91.5t-228 91.5t-81 254.5v141q0 165 81 255.5t228 90.5zM377 1290q-98 0 -149.5 -64.5t-51.5 -183.5v-147q0 -121 51.5 -185.5t149.5 -64.5t149.5 64.5t51.5 185.5v147q0 119 -51.5 183.5t-149.5 64.5
z" />
    <glyph glyph-name="one.num" horiz-adv-x="573" 
d="M303 1376h78v-805h-109v605h-196v79h69q78 0 114.5 26.5t43.5 94.5z" />
    <glyph glyph-name="one.num_alt" 
d="M686 571h-575v86h243v514h-258v84h115q93 0 130.5 26.5t43.5 96.5h80v-721h221v-86z" />
    <glyph glyph-name="two.num" 
d="M655 571h-567v43q0 130 52 200.5t212 154.5q127 64 166 99t39 93q0 63 -48.5 97t-121.5 34q-85 0 -136.5 -39.5t-51.5 -111.5v-39h-103v45q0 105 78.5 170t214.5 65q134 0 204.5 -61t70.5 -158q0 -38 -11 -69t-28 -54t-55 -50t-72.5 -46.5t-100.5 -54.5
q-119 -59 -156.5 -101.5t-37.5 -121.5h452v-95z" />
    <glyph glyph-name="three.num" 
d="M377 1382q130 0 204 -60.5t74 -152.5v-16q0 -63 -42 -112t-121 -66q82 -18 124.5 -66.5t42.5 -117.5v-17q0 -94 -75.5 -157.5t-208.5 -63.5q-148 0 -219.5 64t-71.5 159v35h100v-29q0 -62 48 -100.5t139 -38.5q78 0 129 36.5t51 98.5v15q0 137 -199 137h-84v84h84
q100 0 148.5 38t48.5 97v14q0 60 -49.5 94.5t-126.5 34.5q-88 0 -137.5 -39t-49.5 -98v-31h-102v37q0 89 74.5 155t218.5 66z" />
    <glyph glyph-name="four.num" 
d="M444 1366h138v-524h118v-88h-118v-183h-103v183h-444v88zM479 842v436l-340 -436h340z" />
    <glyph glyph-name="five.num" 
d="M135 1366h516q-5 -58 -22 -77t-70 -19h-332l-20 -275q48 37 98 58.5t119 21.5q119 0 179.5 -61.5t60.5 -165.5v-35q0 -113 -74.5 -186.5t-210.5 -73.5q-144 0 -214.5 63t-70.5 162v15h103v-11q0 -65 46.5 -102t133.5 -37q80 0 130 44t50 124v29q0 70 -39.5 110.5
t-120.5 40.5q-118 0 -204 -86l-89 21z" />
    <glyph glyph-name="six.num" 
d="M379 553q-142 0 -219.5 75.5t-77.5 223.5v203q0 152 79 238.5t232 86.5q74 0 129.5 -20t84 -52.5t42 -67.5t13.5 -73v-18h-105v8q0 56 -40.5 93.5t-121.5 37.5q-105 0 -156 -56.5t-51 -170.5v-96q74 94 230 94q124 0 191 -64t67 -161v-25q0 -110 -77.5 -183t-219.5 -73z
M379 645q85 0 136.5 43.5t51.5 116.5v16q0 71 -47 113.5t-135 42.5q-85 0 -140 -40t-55 -108v-20q0 -80 52.5 -122t136.5 -42z" />
    <glyph glyph-name="seven.num" 
d="M76 1366h610v-70q-152 -170 -229 -347.5t-95 -377.5h-118q28 370 325 695h-493v100z" />
    <glyph glyph-name="eight.num" 
d="M377 1384q137 0 215 -63.5t78 -163.5v-10q0 -58 -35 -104t-100 -72q69 -24 106 -73t37 -112v-10q0 -103 -80.5 -164t-220.5 -61q-141 0 -221 60.5t-80 164.5v10q0 63 37 112t106 73q-65 26 -100 72t-35 104v10q0 100 77.5 163.5t215.5 63.5zM377 1294q-85 0 -134.5 -36.5
t-49.5 -102.5v-16q0 -57 52 -93t132 -36t132 36t52 93v16q0 66 -50 102.5t-134 36.5zM377 641q88 0 141 37.5t53 103.5v15q0 61 -54 98t-140 37q-87 0 -141 -37t-54 -98v-15q0 -67 53 -104t142 -37z" />
    <glyph glyph-name="nine.num" 
d="M377 1382q141 0 218 -76.5t77 -224.5v-202q0 -151 -78.5 -237.5t-235.5 -86.5q-74 0 -129.5 19.5t-84.5 51.5t-42.5 66.5t-13.5 71.5v16h102v-4q0 -56 41 -93.5t125 -37.5q107 0 158 56.5t51 172.5v91q-81 -97 -229 -97q-121 0 -187.5 64t-66.5 158v32q0 112 77 186
t218 74zM377 1290q-85 0 -136 -44t-51 -120v-24q0 -66 47 -108t134 -42q79 0 135.5 40t56.5 106v22q0 83 -52 126.5t-134 43.5z" />
    <glyph glyph-name="zero.den" 
d="M377 815q147 0 228 -91.5t81 -254.5v-141q0 -165 -81 -256.5t-228 -91.5t-228 91.5t-81 256.5v141q0 163 81 254.5t228 91.5zM377 719q-98 0 -149.5 -64t-51.5 -184v-147q0 -120 51.5 -184t149.5 -64t149.5 64t51.5 184v147q0 120 -51.5 184t-149.5 64z" />
    <glyph glyph-name="one.den" horiz-adv-x="573" 
d="M303 805h78v-805h-109v604h-196v82h69q77 0 114 26t44 93z" />
    <glyph glyph-name="one.den_alt" 
d="M686 0h-575v88h243v514h-258v84h115q93 0 130.5 26t43.5 95h80v-719h221v-88z" />
    <glyph glyph-name="two.den" 
d="M655 0h-567v45q0 130 52 199.5t212 152.5q127 65 166 100.5t39 92.5q0 64 -48 97.5t-122 33.5q-85 0 -136.5 -39.5t-51.5 -110.5v-39h-103v43q0 105 78.5 170.5t214.5 65.5q134 0 204.5 -60t70.5 -157q0 -38 -11 -69.5t-28.5 -55t-54.5 -50.5t-72.5 -47.5t-100.5 -54.5
q-118 -57 -156 -100.5t-38 -122.5h452v-94z" />
    <glyph glyph-name="three.den" 
d="M377 811q130 0 204 -60.5t74 -150.5v-16q0 -63 -42 -113t-121 -68q82 -19 124.5 -66.5t42.5 -117.5v-14q0 -95 -75.5 -158t-208.5 -63q-148 0 -219.5 63t-71.5 158v37h100v-31q0 -61 48.5 -100t138.5 -39q79 0 129.5 37t50.5 100v14q0 135 -199 135h-84v86h84
q100 0 148.5 37.5t48.5 96.5v16q0 60 -49.5 94.5t-126.5 34.5q-87 0 -137 -39.5t-50 -97.5v-33h-102v37q0 91 74 156t219 65z" />
    <glyph glyph-name="four.den" 
d="M444 795h138v-523h118v-88h-118v-184h-103v184h-444v86zM479 272v435l-340 -435h340z" />
    <glyph glyph-name="five.den" 
d="M135 795h516q-5 -58 -22 -77.5t-70 -19.5h-332l-20 -274q100 80 217 80q119 0 179.5 -60.5t60.5 -164.5v-37q0 -112 -74.5 -185t-210.5 -73q-144 0 -214.5 62t-70.5 161v16h103v-10q0 -66 46.5 -102.5t133.5 -36.5q80 0 130 44t50 124v26q0 71 -39.5 112.5t-120.5 41.5
q-114 0 -204 -86l-89 18z" />
    <glyph glyph-name="six.den" 
d="M379 -18q-142 0 -219.5 75.5t-77.5 225.5v200q0 152 79 239t232 87q74 0 129.5 -20t84 -52.5t42 -67.5t13.5 -73v-16h-105v8q0 55 -40.5 93t-121.5 38q-207 0 -207 -230v-96q75 96 230 96q124 0 191 -64t67 -161v-26q0 -109 -78 -182.5t-219 -73.5zM379 74
q85 0 136.5 43.5t51.5 118.5v14q0 71 -47 113.5t-135 42.5q-85 0 -140 -39.5t-55 -106.5v-20q0 -80 53 -123t136 -43z" />
    <glyph glyph-name="seven.den" 
d="M76 795h610v-68q-152 -172 -229 -349.5t-95 -377.5h-118q14 183 91.5 353t233.5 343h-493v99z" />
    <glyph glyph-name="eight.den" 
d="M377 813q138 0 215.5 -63t77.5 -164v-8q0 -58 -35 -105.5t-100 -71.5q69 -26 106 -75t37 -111v-10q0 -103 -80.5 -163t-220.5 -60q-142 0 -221.5 60t-79.5 163v10q0 62 37 111t106 75q-65 24 -100 71.5t-35 105.5v8q0 101 77 164t216 63zM377 723q-85 0 -134.5 -36.5
t-49.5 -102.5v-17q0 -57 52 -93t132 -36t132 36t52 93v17q0 66 -50 102.5t-134 36.5zM377 72q88 0 141 36.5t53 104.5v14q0 60 -54.5 96.5t-139.5 36.5q-87 0 -141 -36.5t-54 -96.5v-14q0 -68 52.5 -104.5t142.5 -36.5z" />
    <glyph glyph-name="nine.den" 
d="M377 813q141 0 218 -77t77 -226v-203q0 -151 -78.5 -237t-235.5 -86q-75 0 -130 19.5t-84 52t-42.5 67.5t-13.5 72v16h102v-6q0 -56 41 -92.5t125 -36.5q107 0 158 56t51 171v90q-79 -94 -229 -94q-121 0 -187.5 63.5t-66.5 155.5v35q0 112 77 186t218 74zM377 721
q-85 0 -136 -45t-51 -121v-25q0 -65 47 -106t134 -41q79 0 135.5 38.5t56.5 104.5v23q0 83 -52 127.5t-134 44.5z" />
    <glyph glyph-name="caron.alt" horiz-adv-x="1024" 
d="M459 1460h125l-66 -352h-74z" />
    <glyph glyph-name="acute.cap" horiz-adv-x="1024" 
d="M702 1898l-288 -325h-92l217 325h163z" />
    <glyph glyph-name="hungarumlaut.cap" horiz-adv-x="1024" 
d="M528 1898l-272 -325h-82l203 325h151zM848 1898l-273 -325h-79l200 325h152z" />
    <glyph glyph-name="grave.cap" horiz-adv-x="1024" 
d="M322 1898h163l217 -325h-92z" />
    <glyph glyph-name="circumflex.cap" horiz-adv-x="1024" 
d="M444 1894h138q57 -201 243 -264v-71q-110 22 -190 85t-123 142q-43 -79 -123 -142t-190 -85v71q184 61 245 264z" />
    <glyph glyph-name="caron.cap" horiz-adv-x="1024" 
d="M199 1917q111 -22 191 -84.5t122 -142.5q42 80 122 142.5t191 84.5v-72q-183 -59 -245 -262h-136q-62 203 -245 262v72z" />
    <glyph glyph-name="breve.cap" horiz-adv-x="1024" 
d="M512 1665q207 0 207 129q0 35 -14 104h67q29 -78 29 -133q0 -99 -80 -151.5t-209 -52.5t-209 52.5t-80 151.5q0 55 29 133h67q-14 -69 -14 -104q0 -129 207 -129z" />
    <glyph glyph-name="tilde.cap" horiz-adv-x="1024" 
d="M344 1872q45 0 84.5 -19.5t60.5 -39.5t52 -56q3 -4 14.5 -17t15 -17t14 -15t15.5 -15t14.5 -12t16 -11t15.5 -7.5t18 -6t18 -1.5q37 0 57.5 26.5t20.5 73.5q0 42 -21 107h76q25 -60 25 -123q0 -82 -44 -131t-116 -49q-43 0 -82 18t-61 38.5t-52 53.5q-4 5 -18.5 22
t-19.5 23t-17.5 19t-20.5 18t-19.5 12.5t-23 10t-24.5 2.5q-37 0 -57.5 -26t-20.5 -75q0 -43 21 -104h-76q-25 60 -25 123q0 81 44 129.5t116 48.5z" />
    <glyph glyph-name="macron.cap" horiz-adv-x="1024" 
d="M207 1726h610v-98h-610v98z" />
    <glyph glyph-name="dieresis.cap" horiz-adv-x="1024" 
d="M264 1763h139v-170h-139v170zM621 1763h139v-170h-139v170z" />
    <glyph glyph-name="dotaccent.cap" horiz-adv-x="1024" 
d="M438 1759h148v-166h-148v166z" />
    <glyph glyph-name="ring.cap" horiz-adv-x="1024" 
d="M512 1948q98 0 157.5 -58t59.5 -141q0 -85 -59.5 -143t-157.5 -58q-97 0 -157 58.5t-60 142.5q0 81 60.5 140t156.5 59zM512 1874q-63 0 -100 -36t-37 -89q0 -55 37 -91t100 -36t100 36t37 91q0 53 -37 89t-100 36z" />
    <glyph glyph-name="commaaccent.rot" horiz-adv-x="1021" 
d="M395 1176v159q0 213 232 271v-52q-160 -48 -160 -196h88v-182h-160z" />
    </font>
</defs>
</svg>
