<?xml version="1.0" standalone="no"?>
<!DOCTYPE svg PUBLIC "-//W3C//DTD SVG 1.1//EN" "http://www.w3.org/Graphics/SVG/1.1/DTD/svg11.dtd" >
<svg xmlns="http://www.w3.org/2000/svg" xmlns:xlink="http://www.w3.org/1999/xlink" version="1.1">
<metadata>
Created by FontForge 20201107 at Wed Jul 30 10:59:06 2025
 By 
Copyright (C) 2017 Hoefler &#38; Co. http://www.typography.com
</metadata>
<defs>
<font id="RingsideNarrow-Thin" horiz-adv-x="753" >
  <font-face 
    font-family="Ringside Narrow Thin"
    font-weight="250"
    font-stretch="semi-condensed"
    units-per-em="2048"
    panose-1="2 0 2 0 0 0 0 0 0 0"
    ascent="1638"
    descent="-410"
    x-height="952"
    cap-height="1364"
    bbox="-362 -653 2079 2085"
    underline-thickness="0"
    underline-position="0"
    unicode-range="U+0020-FB04"
  />
<missing-glyph horiz-adv-x="1024" 
d="M0 -410v2048h1024v-2048h-1024zM145 1536l367 -799l367 799h-734zM102 -156l353 770l-353 770v-1540zM922 1384l-353 -770l353 -770v1540zM512 492l-367 -799h734z" />
    <glyph glyph-name="f_f" unicode="ff" horiz-adv-x="1193" 
d="M522 1417h68v-88h-58q-104 0 -151 -47t-47 -139v-191h469v187q0 133 70.5 205.5t213.5 72.5h68v-88h-55q-106 0 -153.5 -47t-47.5 -139v-191h256v-86h-256v-866h-96v866h-469v-866h-96v866h-160v86h160v187q0 133 70.5 205.5t213.5 72.5z" />
    <glyph glyph-name="f_f_i" unicode="ffi" horiz-adv-x="1640" 
d="M1155 1417v-88h-55q-106 0 -153.5 -47t-47.5 -139v-191h256v-86h-256v-866h-96v866h-469v-866h-96v866h-160v86h160v187q0 133 70.5 205.5t213.5 72.5h68v-88h-58q-104 0 -151 -47t-47 -139v-191h469v187q0 133 70.5 205.5t213.5 72.5h68zM1358 1335h119v-153h-119v153z
M1368 952h98v-952h-98v952z" />
    <glyph glyph-name="f_f_l" unicode="ffl" horiz-adv-x="1640" 
d="M590 1417v-88h-58q-104 0 -151 -47t-47 -139v-191h469v187q0 133 70.5 205.5t213.5 72.5h68v-88h-55q-106 0 -153.5 -47t-47.5 -139v-191h256v-86h-256v-866h-96v866h-469v-866h-96v866h-160v86h160v187q0 133 70.5 205.5t213.5 72.5h68zM1368 1417h98v-1417h-98v1417z
" />
    <glyph glyph-name=".notdef" horiz-adv-x="1024" 
d="M0 -410v2048h1024v-2048h-1024zM145 1536l367 -799l367 799h-734zM102 -156l353 770l-353 770v-1540zM922 1384l-353 -770l353 -770v1540zM512 492l-367 -799h734z" />
    <glyph glyph-name=".null" horiz-adv-x="0" 
 />
    <glyph glyph-name="nonmarkingreturn" horiz-adv-x="682" 
 />
    <glyph glyph-name="space" unicode=" " horiz-adv-x="417" 
 />
    <glyph glyph-name="exclam" unicode="!" horiz-adv-x="485" 
d="M190 1364h105v-457l-33 -526h-39l-33 526v457zM172 197h141v-197h-141v197z" />
    <glyph glyph-name="quotedbl" unicode="&#x22;" horiz-adv-x="772" 
d="M217 1364h119l-158 -588h-67zM551 1364h119l-158 -588h-68z" />
    <glyph glyph-name="numbersign" unicode="#" horiz-adv-x="1460" 
d="M801 0l67 383h-383l-67 -383h-88l67 383h-303v84h320l75 430h-337v84h354l67 383h89l-70 -383h383l69 383h86l-67 -383h305v-84h-319l-78 -430h340v-84h-355l-69 -383h-86zM500 467h383l78 430h-383z" />
    <glyph glyph-name="dollar" unicode="$" horiz-adv-x="1165" 
d="M1020 350q0 -159 -104 -255.5t-277 -108.5v-226h-94v226q-196 12 -298 116t-102 267v69h103v-63q0 -142 87 -222.5t261 -80.5q145 0 232 71.5t87 198.5q0 52 -14.5 91.5t-39 68.5t-71 55t-95.5 45.5t-128 44.5q-101 30 -167.5 59.5t-122.5 72.5t-82.5 101.5t-26.5 137.5
q0 147 101.5 246.5t275.5 111.5v223h94v-223q98 -7 171 -39.5t114.5 -84t61.5 -113.5t20 -135v-60h-101v53q0 61 -16 111.5t-51.5 92.5t-100 65.5t-153.5 23.5q-144 0 -229 -74t-85 -192q0 -59 19 -102t65 -76.5t104.5 -58t155.5 -54.5q83 -27 139 -50t111 -56t86.5 -70
t50.5 -89t19 -118z" />
    <glyph glyph-name="percent" unicode="%" horiz-adv-x="1581" 
d="M391 1395q128 0 199.5 -81t71.5 -210v-96q0 -127 -73 -208t-200 -81q-126 0 -198 81t-72 208v96q0 128 71.5 209.5t200.5 81.5zM1372 1382l-1063 -1400h-100l1063 1400h100zM389 1313q-91 0 -135.5 -57t-44.5 -150v-100q0 -93 46 -149t136 -56q89 0 134.5 56t45.5 149
v100q0 93 -45.5 150t-136.5 57zM1190 -31q-127 0 -198.5 80.5t-71.5 208.5v96q0 128 71 209.5t199 81.5t200 -82t72 -209v-96q0 -126 -73 -207.5t-199 -81.5zM1190 51q90 0 136 56.5t46 148.5v100q0 93 -45.5 150t-136.5 57t-135.5 -57t-44.5 -150v-100q0 -92 45.5 -148.5
t134.5 -56.5z" />
    <glyph glyph-name="ampersand" unicode="&#x26;" horiz-adv-x="1351" 
d="M1305 262q0 -154 -45.5 -223.5t-141.5 -69.5q-135 0 -303 187q-184 -187 -395 -187q-156 0 -248 95t-92 237q0 146 88 248.5t258 181.5q-96 184 -96 338q0 64 19.5 121.5t56.5 103.5t97 73.5t136 27.5q139 0 216 -78.5t77 -192.5q0 -131 -88.5 -234.5t-292.5 -203.5
q119 -222 268 -397q159 189 254 471h88q-100 -314 -284 -537q148 -170 239 -170q57 0 81 51.5t24 184.5v51h84v-78zM424 1069q0 -148 88 -311q171 79 248.5 166t77.5 196q0 76 -49.5 133.5t-149.5 57.5q-109 0 -162 -69.5t-53 -172.5zM176 307q0 -125 74 -189.5t176 -64.5
q176 0 332 166q-131 152 -293 440q-136 -61 -212.5 -145.5t-76.5 -206.5z" />
    <glyph glyph-name="quotesingle" unicode="'" horiz-adv-x="438" 
d="M217 1364h119l-158 -588h-67z" />
    <glyph glyph-name="parenleft" unicode="(" horiz-adv-x="792" 
d="M727 1593l47 -59q-489 -339 -489 -913t489 -910l-47 -61q-274 180 -411.5 428.5t-137.5 542.5t137.5 542t411.5 430z" />
    <glyph glyph-name="parenright" unicode=")" horiz-adv-x="792" 
d="M66 -350l-48 59q490 340 490 914q0 572 -490 909l48 61q274 -181 411 -429.5t137 -540.5q0 -294 -137 -543t-411 -430z" />
    <glyph glyph-name="asterisk" unicode="*" horiz-adv-x="862" 
d="M475 657q0 -30 -31 -30h-28q-33 0 -33 30q0 123 33 314q-155 -129 -254 -185q-28 -16 -43 13l-15 24q-16 25 11 43q113 64 286 129q-171 61 -286 129q-10 5 -14.5 16t3.5 27l15 25q14 28 43 12q109 -64 254 -184q-33 191 -33 311q0 13 8.5 23t24.5 10h28q31 0 31 -33
q0 -132 -31 -311q151 126 254 184q29 16 43 -12l15 -25q8 -16 3.5 -27t-14.5 -16q-112 -67 -288 -129q173 -63 288 -129q27 -18 11 -43l-15 -24q-15 -29 -43 -13q-106 61 -254 185q31 -179 31 -314z" />
    <glyph glyph-name="plus" unicode="+" horiz-adv-x="1206" 
d="M559 1087h90v-362h369v-86h-369v-365h-90v365h-371v86h371v362z" />
    <glyph glyph-name="comma" unicode="," horiz-adv-x="405" 
d="M133 197h139v-134q0 -160 -53 -238.5t-176 -109.5v43q90 36 123 92.5t35 149.5h-68v197z" />
    <glyph glyph-name="hyphen" unicode="-" horiz-adv-x="778" 
d="M125 668h528v-86h-528v86z" />
    <glyph glyph-name="period" unicode="." horiz-adv-x="405" 
d="M133 197h139v-197h-139v197z" />
    <glyph glyph-name="slash" unicode="/" horiz-adv-x="843" 
d="M666 1556h92l-621 -1871h-94z" />
    <glyph glyph-name="zero" unicode="0" horiz-adv-x="1245" 
d="M623 1395q227 0 353 -148t126 -409v-310q0 -262 -125.5 -410.5t-353.5 -148.5t-354 148.5t-126 410.5v310q0 261 126 409t354 148zM623 1307q-180 0 -278.5 -121.5t-98.5 -339.5v-326q0 -219 98 -341t279 -122q180 0 278 121.5t98 341.5v326q0 218 -98 339.5t-278 121.5z
" />
    <glyph glyph-name="one" unicode="1" horiz-adv-x="720" 
d="M49 1133v67h74q148 0 211 37t74 152h75v-1389h-102v1133h-332z" />
    <glyph glyph-name="two" unicode="2" horiz-adv-x="1124" 
d="M588 1393q209 0 316.5 -98t107.5 -259q0 -48 -10.5 -89.5t-22 -72t-45 -65.5t-54 -55t-77.5 -56t-86 -53t-106 -61q-29 -16 -44 -25q-207 -112 -272.5 -203.5t-65.5 -265.5h770v-90h-872v76q0 85 10.5 145.5t36 116t75 105t120 99t178.5 111.5q155 84 228.5 138.5
t103.5 109.5t30 135q0 133 -88 201t-231 68q-157 0 -249.5 -77.5t-92.5 -219.5v-70h-98v74q0 169 118 275t320 106z" />
    <glyph glyph-name="three" unicode="3" horiz-adv-x="1128" 
d="M569 1395q104 0 186 -30t132 -81t76 -114t26 -132v-30q0 -110 -69 -196.5t-197 -117.5q134 -32 201 -113.5t67 -201.5v-33q0 -162 -109 -269.5t-315 -107.5q-99 0 -176 20.5t-125.5 54t-80 81t-44 97.5t-12.5 108v53h98v-51q0 -129 81.5 -202t254.5 -73q156 0 242 75
t86 214v31q0 127 -86 198.5t-268 71.5h-131v88h131q175 0 262.5 75t87.5 200v22q0 133 -86.5 204t-235.5 71q-162 0 -248 -77t-86 -198v-51h-100v53q0 52 14 101t47 97t81.5 83.5t125 57.5t170.5 22z" />
    <glyph glyph-name="four" unicode="4" horiz-adv-x="1142" 
d="M758 1364h114v-924h211v-88h-211v-352h-98v352h-706v78zM774 440v795l-588 -795h588z" />
    <glyph glyph-name="five" unicode="5" horiz-adv-x="1153" 
d="M639 872q197 0 293 -107.5t96 -287.5v-90q0 -87 -27 -162t-80 -132.5t-138 -90.5t-193 -33q-115 0 -200.5 28.5t-136 80t-75 117t-24.5 145.5v12h98v-12q0 -138 89 -210.5t249 -72.5q149 0 243.5 84t94.5 244v82q0 149 -72 232t-223 83q-120 0 -209.5 -45t-177.5 -131
l-78 25l51 733h785q-5 -55 -27.5 -72.5t-93.5 -17.5h-574l-41 -551q75 67 161 108t210 41z" />
    <glyph glyph-name="six" unicode="6" horiz-adv-x="1177" 
d="M598 -29q-224 0 -338.5 125.5t-114.5 345.5v443q0 235 121.5 372.5t360.5 137.5q89 0 161 -22.5t116.5 -57.5t74 -81t41.5 -90t12 -87v-41h-100v20q0 116 -80 193.5t-223 77.5q-383 0 -383 -439v-219q125 189 395 189q196 0 303 -112.5t107 -285.5v-47
q0 -87 -28.5 -162.5t-83 -134t-142.5 -92t-199 -33.5zM598 59q75 0 138 20t111 59t74.5 104t26.5 149v33q0 159 -88 242.5t-248 83.5q-97 0 -178 -33t-133.5 -104t-52.5 -167v-49q0 -111 49 -189t126.5 -113.5t174.5 -35.5z" />
    <glyph glyph-name="seven" unicode="7" horiz-adv-x="1032" 
d="M446 0h-104q45 595 528 1274h-794v90h909v-84q-241 -328 -374.5 -638t-164.5 -642z" />
    <glyph glyph-name="eight" unicode="8" horiz-adv-x="1193" 
d="M598 1395q212 0 328 -104.5t116 -268.5v-23q0 -109 -58 -189.5t-169 -121.5q117 -43 181.5 -124.5t64.5 -201.5v-22q0 -170 -124 -270.5t-339 -100.5q-216 0 -339.5 100.5t-123.5 270.5v22q0 238 246 326q-111 41 -169 121.5t-58 189.5v23q0 164 116 268.5t328 104.5z
M598 1307q-158 0 -251 -72t-93 -209v-27q0 -128 93.5 -199t250.5 -71q155 0 248.5 71t93.5 199v27q0 137 -92.5 209t-249.5 72zM598 57q165 0 262.5 71.5t97.5 211.5v25q0 137 -96.5 209.5t-263.5 72.5q-168 0 -265 -72.5t-97 -209.5v-25q0 -140 98 -211.5t264 -71.5z" />
    <glyph glyph-name="nine" unicode="9" horiz-adv-x="1177" 
d="M582 1395q223 0 336.5 -126t113.5 -345v-443q0 -113 -28.5 -204.5t-86 -160.5t-151 -107t-217.5 -38q-89 0 -161.5 22.5t-117 57.5t-75 80.5t-42.5 88.5t-12 85v35h103v-21q0 -112 79.5 -186t223.5 -74q385 0 385 439v198q-124 -188 -393 -188q-196 0 -304 111.5
t-108 287.5v62q0 186 118.5 306t336.5 120zM582 1307q-71 0 -131.5 -18t-111 -56t-79.5 -105.5t-29 -158.5v-41q0 -170 89.5 -251t246.5 -81q69 0 133 19t116.5 55.5t84 96t31.5 134.5v53q0 92 -29.5 162t-80 110.5t-111 60.5t-129.5 20z" />
    <glyph glyph-name="colon" unicode=":" horiz-adv-x="428" 
d="M143 938h140v-197h-140v197zM143 197h140v-197h-140v197z" />
    <glyph glyph-name="semicolon" unicode=";" horiz-adv-x="428" 
d="M143 938h140v-197h-140v197zM143 197h140v-134q0 -160 -53 -238.5t-175 -109.5v43q90 36 123 92.5t33 149.5h-68v197z" />
    <glyph glyph-name="less" unicode="&#x3c;" horiz-adv-x="1099" 
d="M883 1112v-100l-635 -330l635 -330v-100l-736 383v94z" />
    <glyph glyph-name="equal" unicode="=" horiz-adv-x="1263" 
d="M217 924h830v-93h-830v93zM217 532h830v-94h-830v94z" />
    <glyph glyph-name="greater" unicode="&#x3e;" horiz-adv-x="1099" 
d="M217 252v100l637 330l-637 330v100l735 -383v-94z" />
    <glyph glyph-name="question" unicode="?" horiz-adv-x="1011" 
d="M920 1051q0 -118 -55.5 -202t-200.5 -179q-104 -70 -132 -121.5t-28 -159.5h-90q0 102 16 156t61.5 102.5t155.5 128.5q105 71 137.5 133t32.5 144q0 252 -299 252q-178 0 -254 -81.5t-76 -228.5v-63h-98v82q0 76 22.5 141t70 120t133 86.5t200.5 31.5q112 0 193.5 -29
t126 -79.5t64.5 -108.5t20 -125zM389 0v197h139v-197h-139z" />
    <glyph glyph-name="at" unicode="@" horiz-adv-x="1609" 
d="M877 1352q159 0 283.5 -49.5t199.5 -133.5t113 -186.5t38 -216.5q0 -119 -33.5 -223.5t-88.5 -174.5t-125.5 -110.5t-143.5 -40.5q-91 0 -143 51t-45 133q-96 -170 -236 -170q-96 0 -152.5 67t-56.5 187q0 110 44 219t127 184t182 75q66 0 114.5 -40.5t61.5 -113.5
l45 143h92l-121 -399q-36 -121 -12 -190.5t106 -69.5q54 0 107.5 36t96 97.5t69 151.5t26.5 190q0 223 -147 364.5t-401 141.5q-141 0 -265 -58t-213 -159.5t-140.5 -246.5t-51.5 -312q0 -286 158 -447.5t438 -161.5q143 0 278 49t222 119l45 -63q-95 -78 -242.5 -131
t-302.5 -53q-313 0 -497.5 184t-184.5 504q0 185 59 345t160.5 271t240.5 174.5t296 63.5zM846 879q-59 0 -110 -38t-84 -97t-51.5 -128t-18.5 -135q0 -82 34 -126t99 -44q68 0 130 63.5t91 164.5l51 178q2 65 -34.5 113.5t-106.5 48.5z" />
    <glyph glyph-name="A" unicode="A" horiz-adv-x="1234" 
d="M1042 0l-133 385h-587l-134 -385h-106l483 1378h105l483 -1378h-111zM612 1225l-260 -750h527l-263 750h-4z" />
    <glyph glyph-name="B" unicode="B" horiz-adv-x="1206" 
d="M201 1364h448q203 0 304.5 -83.5t101.5 -238.5v-49q0 -125 -59.5 -196t-176.5 -103v-4q127 -30 191.5 -103.5t64.5 -203.5v-64q0 -152 -103 -235.5t-304 -83.5h-467v1364zM305 1274v-543h326q155 0 236 68t81 194v45q0 114 -76 175t-225 61h-342zM305 645v-555h363
q152 0 227.5 61.5t75.5 174.5v55q0 126 -84 195t-250 69h-332z" />
    <glyph glyph-name="C" unicode="C" horiz-adv-x="1239" 
d="M645 1395q110 0 197.5 -32.5t143 -88.5t85 -128.5t29.5 -154.5v-92h-103v76q0 143 -89.5 237.5t-260.5 94.5q-181 0 -288 -123t-107 -312v-380q0 -189 108 -312t287 -123q87 0 155 26.5t110 73t63.5 105.5t21.5 127v76h103v-92q0 -82 -30 -154.5t-86 -128.5t-144 -88.5
t-197 -32.5q-226 0 -361 151.5t-135 387.5v348q0 236 136 387.5t362 151.5z" />
    <glyph glyph-name="D" unicode="D" horiz-adv-x="1275" 
d="M201 1364h413q251 0 383.5 -146.5t132.5 -392.5v-288q0 -160 -57.5 -279.5t-175.5 -188.5t-285 -69h-411v1364zM305 1274v-1184h307q205 0 309.5 119t104.5 321v304q0 201 -105.5 320.5t-312.5 119.5h-303z" />
    <glyph glyph-name="E" unicode="E" horiz-adv-x="1110" 
d="M201 1364h809v-90h-705v-539h561v-90h-561v-555h707v-90h-811v1364z" />
    <glyph glyph-name="F" unicode="F" horiz-adv-x="1046" 
d="M201 1364h786v-90h-682v-557h539v-90h-539v-627h-104v1364z" />
    <glyph glyph-name="G" unicode="G" horiz-adv-x="1284" 
d="M651 1395q114 0 203 -35t143.5 -95t82.5 -135t28 -161v-35h-100v31q0 68 -22 128t-64 108.5t-112.5 77t-160.5 28.5q-187 0 -292 -123.5t-105 -321.5v-356q0 -202 104.5 -323.5t282.5 -121.5q170 0 271.5 109t101.5 281v122h-348v95h448v-668h-68l-16 227
q-117 -254 -403 -254q-218 0 -348 147.5t-130 395.5v336q0 157 59.5 279.5t175 193t269.5 70.5z" />
    <glyph glyph-name="H" unicode="H" horiz-adv-x="1320" 
d="M201 1364h104v-629h711v629h104v-1364h-104v645h-711v-645h-104v1364z" />
    <glyph glyph-name="I" unicode="I" horiz-adv-x="526" 
d="M211 1364h104v-1364h-104v1364z" />
    <glyph glyph-name="J" unicode="J" horiz-adv-x="1075" 
d="M784 1364h105v-918q0 -226 -100 -349.5t-300 -123.5q-193 0 -290 104t-97 298v123h99v-111q0 -326 291 -326q152 0 222 98t70 287v918z" />
    <glyph glyph-name="K" unicode="K" horiz-adv-x="1157" 
d="M981 0q-365 530 -469 684l-207 -250v-434h-104v1364h104v-795l664 795h127l-518 -600l524 -764h-121z" />
    <glyph glyph-name="L" unicode="L" horiz-adv-x="1013" 
d="M201 1364h104v-1274h643v-90h-747v1364z" />
    <glyph glyph-name="M" unicode="M" horiz-adv-x="1640" 
d="M201 1364h153l463 -1212h4l465 1212h154v-1364h-103v1233h-4l-473 -1235h-84l-475 1235h-4v-1233h-96v1364z" />
    <glyph glyph-name="N" unicode="N" horiz-adv-x="1325" 
d="M201 1364h96l727 -1159h4v1159h98v-1364h-90l-735 1169h-4v-1169h-96v1364z" />
    <glyph glyph-name="O" unicode="O" horiz-adv-x="1314" 
d="M657 1395q236 0 373 -149.5t137 -399.5v-328q0 -250 -137 -399.5t-373 -149.5t-373 149.5t-137 399.5v328q0 250 137 399.5t373 149.5zM657 1307q-186 0 -295.5 -124.5t-109.5 -326.5v-348q0 -202 109 -326.5t296 -124.5q186 0 296 124.5t110 326.5v348q0 202 -110 326.5
t-296 124.5z" />
    <glyph glyph-name="P" unicode="P" horiz-adv-x="1126" 
d="M201 1364h422q411 0 411 -358v-88q0 -361 -418 -361h-311v-557h-104v1364zM305 1274v-627h316q164 0 236.5 69t72.5 208v77q0 135 -74.5 204t-237.5 69h-313z" />
    <glyph glyph-name="Q" unicode="Q" horiz-adv-x="1316" 
d="M1243 -33q-55 -22 -104 -22q-58 0 -102 24t-95 80q-122 -80 -285 -80q-234 0 -372 150.5t-138 394.5v334q0 246 138 396.5t372 150.5t371 -150.5t137 -396.5v-334q0 -260 -151 -405q46 -45 76.5 -60.5t66.5 -15.5q39 0 86 12v-78zM252 504q0 -197 110 -322t295 -125
q129 0 224 64l-222 252l72 57l217 -250q113 119 113 324v356q0 196 -110.5 321.5t-293.5 125.5q-185 0 -295 -125t-110 -322v-356z" />
    <glyph glyph-name="R" unicode="R" horiz-adv-x="1187" 
d="M305 598v-598h-104v1364h446q406 0 406 -340v-80q0 -131 -81 -221.5t-231 -114.5l355 -608h-117l-346 598h-328zM305 1274v-588h322q151 0 236 71.5t85 190.5v72q0 132 -73.5 193t-233.5 61h-336z" />
    <glyph glyph-name="S" unicode="S" horiz-adv-x="1146" 
d="M582 1393q115 0 200.5 -31t135 -85t73 -121t23.5 -146v-60h-105v54q0 63 -16.5 114t-53 94t-102.5 67t-157 24q-148 0 -235 -74.5t-87 -194.5q0 -50 13.5 -87.5t38 -66t70.5 -54t97 -45.5t133 -46q112 -36 180.5 -67t126.5 -76.5t83.5 -106t25.5 -143.5
q0 -173 -118.5 -272t-315.5 -99q-229 0 -345 107.5t-116 286.5v67h105v-61q0 -146 88 -228t270 -82q150 0 239 71.5t89 201.5q0 66 -18.5 111t-66.5 81t-108.5 61.5t-165.5 59.5q-84 26 -142 48.5t-112 55t-85.5 70t-50.5 89.5t-19 118q0 159 116.5 262t311.5 103z" />
    <glyph glyph-name="T" unicode="T" horiz-adv-x="1097" 
d="M66 1364h966v-90h-430v-1274h-104v1274h-432v90z" />
    <glyph glyph-name="U" unicode="U" horiz-adv-x="1282" 
d="M184 1364h105v-928q0 -181 92.5 -277t259.5 -96t259.5 96t92.5 277v928h105v-930q0 -221 -121.5 -341t-337.5 -120q-214 0 -334.5 120t-120.5 341v930z" />
    <glyph glyph-name="V" unicode="V" horiz-adv-x="1232" 
d="M82 1364h111l423 -1221h5l421 1221h109l-492 -1382h-88z" />
    <glyph glyph-name="W" unicode="W" horiz-adv-x="1808" 
d="M106 1364h111l297 -1208h4l338 1214h96l340 -1214h4l299 1208h107l-365 -1382h-98l-336 1204h-4l-340 -1204h-96z" />
    <glyph glyph-name="X" unicode="X" horiz-adv-x="1183" 
d="M981 0l-395 612l-383 -612h-119l444 694l-430 670h119l381 -592l371 592h118l-430 -674l443 -690h-119z" />
    <glyph glyph-name="Y" unicode="Y" horiz-adv-x="1144" 
d="M63 1364h119l396 -727l387 727h114l-452 -829v-535h-105v535z" />
    <glyph glyph-name="Z" unicode="Z" horiz-adv-x="1112" 
d="M133 1364h881v-61l-781 -1213h764v-90h-897v61l787 1213h-754v90z" />
    <glyph glyph-name="bracketleft" unicode="[" horiz-adv-x="782" 
d="M242 1556h520v-79h-422v-1715h422v-77h-520v1871z" />
    <glyph glyph-name="backslash" unicode="\" horiz-adv-x="843" 
d="M86 1556h92l623 -1871h-92z" />
    <glyph glyph-name="bracketright" unicode="]" horiz-adv-x="782" 
d="M541 -315h-521v79h424v1715h-424v77h521v-1871z" />
    <glyph glyph-name="asciicircum" unicode="^" horiz-adv-x="1214" 
d="M1038 637h-106l-326 620l-325 -620h-105l385 727h92z" />
    <glyph glyph-name="underscore" unicode="_" horiz-adv-x="856" 
d="M-2 -231h862v-84h-862v84z" />
    <glyph glyph-name="grave" unicode="`" horiz-adv-x="1021" 
d="M326 1522h135l235 -365h-73z" />
    <glyph glyph-name="a" unicode="a" horiz-adv-x="974" 
d="M705 180q-118 -200 -336 -200q-122 0 -188 66t-66 183q0 173 159 252q130 65 431 94v87q0 227 -228 227q-109 0 -173 -54.5t-64 -148.5v-20h-93v22q0 129 88 209t246 80t238 -80t80 -231v-435q0 -103 24.5 -132t100.5 -29v-78h-33q-89 0 -135.5 41.5t-50.5 146.5z
M213 231q0 -165 172 -165q120 0 220 92t100 198v140q-274 -28 -375 -80q-64 -31 -90.5 -76t-26.5 -109z" />
    <glyph glyph-name="b" unicode="b" horiz-adv-x="1038" 
d="M170 1417h96v-651q54 98 127.5 152.5t188.5 54.5q106 0 185 -54.5t118 -144t39 -199.5v-198q0 -170 -95.5 -285t-253.5 -115q-114 0 -187 56t-128 155l-12 -188h-78v1417zM565 887q-118 0 -208.5 -99.5t-90.5 -242.5v-137q0 -143 91 -242.5t208 -99.5q123 0 191.5 91
t68.5 228v182q0 137 -68.5 228.5t-191.5 91.5z" />
    <glyph glyph-name="c" unicode="c" horiz-adv-x="927" 
d="M492 61q65 0 114.5 20.5t78 55t42.5 74.5t14 84v6h93v-8q0 -84 -38 -155.5t-118 -118t-189 -46.5q-183 0 -279.5 113.5t-96.5 312.5v150q0 196 100 312t281 116q165 0 252.5 -92t87.5 -228v-8h-93v6q0 45 -13 85t-40 75t-76.5 55.5t-115.5 20.5q-142 0 -214.5 -89.5
t-72.5 -248.5v-160q0 -156 72.5 -244t210.5 -88z" />
    <glyph glyph-name="d" unicode="d" horiz-adv-x="1038" 
d="M772 1417h96v-1417h-77l-11 201q-58 -108 -132 -166t-191 -58q-159 0 -250.5 114t-91.5 288v194q0 172 94.5 286t253.5 114q111 0 182.5 -52t126.5 -145v641zM473 885q-123 0 -191.5 -90.5t-68.5 -227.5v-182q0 -137 68.5 -228t191.5 -91q118 0 208.5 99.5t90.5 242.5
v135q0 144 -90.5 243t-208.5 99z" />
    <glyph glyph-name="e" unicode="e" horiz-adv-x="950" 
d="M840 281q0 -137 -94 -222.5t-250 -85.5q-190 0 -286.5 112t-96.5 298v166q0 189 99.5 308.5t270.5 119.5q174 0 266.5 -114.5t92.5 -299.5v-110h-633v-74q0 -143 69.5 -230.5t217.5 -87.5q116 0 184 60.5t68 161.5v8h92v-10zM209 555v-20h536v32q0 145 -66 234.5
t-198 89.5q-129 0 -200.5 -93t-71.5 -243z" />
    <glyph glyph-name="f" unicode="f" horiz-adv-x="628" 
d="M590 1417v-88h-58q-104 0 -151 -47t-47 -139v-191h256v-86h-256v-866h-96v866h-160v86h160v187q0 133 70.5 205.5t213.5 72.5h68z" />
    <glyph glyph-name="g" unicode="g" horiz-adv-x="948" 
d="M903 -98q0 -109 -111.5 -171.5t-308.5 -62.5q-201 0 -309 56.5t-108 162.5q0 137 208 187v4q-73 23 -110 54.5t-37 78.5q0 42 33 74.5t104 60.5q-123 85 -123 240v88q0 127 92 213t242 86q62 0 127 -21q71 6 115.5 18.5t65 34.5t26.5 46t4 63h82q6 -35 6 -57
q0 -70 -50.5 -106t-152.5 -50q111 -76 111 -227v-88q0 -127 -91 -213t-245 -86q-73 0 -137 22q-117 -36 -117 -88q0 -46 85 -71t194 -25h2q202 0 302.5 -57.5t100.5 -165.5zM473 371q114 0 179 59.5t65 153.5v94q0 91 -65 150t-179 59q-111 0 -175.5 -59t-64.5 -150v-94
q0 -93 64.5 -153t175.5 -60zM485 -252q157 0 241.5 40t84.5 112q0 141 -324 141h-24q-151 0 -227 -41t-76 -106q0 -69 81.5 -107.5t243.5 -38.5z" />
    <glyph glyph-name="h" unicode="h" horiz-adv-x="1032" 
d="M170 1417h96v-655q65 105 143.5 158t186.5 53q126 0 200 -82t74 -219v-672h-98v666q0 99 -53 158t-146 59q-122 0 -214.5 -97t-92.5 -208v-578h-96v1417z" />
    <glyph glyph-name="i" unicode="i" horiz-adv-x="444" 
d="M164 1335h119v-153h-119v153zM174 952h96v-952h-96v952z" />
    <glyph glyph-name="j" unicode="j" horiz-adv-x="452" 
d="M172 1335h119v-153h-119v153zM182 952h99v-993q0 -146 -65.5 -210t-203.5 -64h-22v86h10q102 0 142 44t40 142v995z" />
    <glyph glyph-name="k" unicode="k" horiz-adv-x="905" 
d="M170 1417h96v-1055l443 590h112l-297 -387l324 -565h-109l-276 483l-197 -254v-229h-96v1417z" />
    <glyph glyph-name="l" unicode="l" horiz-adv-x="444" 
d="M174 1417h96v-1417h-96v1417z" />
    <glyph glyph-name="m" unicode="m" horiz-adv-x="1597" 
d="M266 580v-580h-96v952h78l10 -202q65 112 142 167.5t186 55.5q100 0 167 -55t89 -152q61 102 139 154.5t184 52.5q125 0 198 -81t73 -218v-674h-97v666q0 100 -49.5 158.5t-140.5 58.5q-120 0 -208.5 -95.5t-88.5 -207.5v-580h-98v666q0 100 -49.5 158.5t-139.5 58.5
q-120 0 -209.5 -95.5t-89.5 -207.5z" />
    <glyph glyph-name="n" unicode="n" horiz-adv-x="1032" 
d="M170 952h78l10 -204q66 113 146 169t192 56q126 0 200 -82t74 -219v-672h-98v666q0 99 -53 158t-146 59q-122 0 -214.5 -97t-92.5 -208v-578h-96v952z" />
    <glyph glyph-name="o" unicode="o" horiz-adv-x="987" 
d="M494 977q176 0 278 -116t102 -296v-180q0 -177 -105.5 -294.5t-276.5 -117.5q-173 0 -277 116.5t-104 293.5v182q0 179 103 295.5t280 116.5zM494 891q-133 0 -209 -90.5t-76 -229.5v-192q0 -139 78 -228.5t207 -89.5q127 0 204.5 89.5t77.5 228.5v192q0 139 -76 229.5
t-206 90.5z" />
    <glyph glyph-name="p" unicode="p" horiz-adv-x="1038" 
d="M170 952h78l10 -202q57 108 132 165.5t192 57.5q159 0 250.5 -114t91.5 -286v-194q0 -172 -95 -287t-254 -115q-111 0 -182.5 53t-126.5 146v-491h-96v1267zM565 887q-118 0 -208.5 -99.5t-90.5 -242.5v-137q0 -143 91 -242.5t208 -99.5q123 0 191.5 91t68.5 228v182
q0 137 -68.5 228.5t-191.5 91.5z" />
    <glyph glyph-name="q" unicode="q" horiz-adv-x="1038" 
d="M463 973q60 0 109.5 -16t87 -46.5t65 -65.5t53.5 -81l13 188h77v-1267h-96v501q-54 -99 -127 -154t-188 -55q-106 0 -185 55t-118 145t-39 200v198q0 170 95 284t253 114zM473 885q-123 0 -191.5 -90.5t-68.5 -227.5v-182q0 -137 68.5 -228t191.5 -91q118 0 208.5 99.5
t90.5 242.5v135q0 144 -90.5 243t-208.5 99z" />
    <glyph glyph-name="r" unicode="r" horiz-adv-x="675" 
d="M170 952h78l10 -243q23 55 49.5 97.5t63.5 80.5t87 58t111 20q22 0 66 -7v-98q-35 6 -64 6q-125 0 -215 -98t-90 -225v-543h-96v952z" />
    <glyph glyph-name="s" unicode="s" horiz-adv-x="909" 
d="M463 -25q-174 0 -265.5 85t-91.5 221v38h95v-36q0 -103 67.5 -163.5t196.5 -60.5q109 0 172 48t63 139q0 79 -57.5 121t-204.5 75q-159 36 -234 97t-75 176q0 109 89 185.5t237 76.5q160 0 242.5 -79.5t82.5 -207.5v-31h-92v27q0 98 -59.5 152.5t-175.5 54.5
q-102 0 -166 -49.5t-64 -126.5q0 -78 61.5 -120t202.5 -75q161 -37 234.5 -97.5t73.5 -176.5q0 -125 -89.5 -199t-242.5 -74z" />
    <glyph glyph-name="t" unicode="t" horiz-adv-x="677" 
d="M74 952h155v215l99 35v-250h282v-86h-282v-571q0 -125 40.5 -168t147.5 -43h51v-86h-61q-70 0 -118 11.5t-85.5 41t-55.5 84t-18 135.5v596h-155v86z" />
    <glyph glyph-name="u" unicode="u" horiz-adv-x="1032" 
d="M162 952h98v-665q0 -99 53 -159t146 -60q122 0 214.5 98t92.5 211v575h96v-952h-78l-10 205q-66 -113 -146 -169t-192 -56q-126 0 -200 82t-74 219v671z" />
    <glyph glyph-name="v" unicode="v" horiz-adv-x="905" 
d="M55 952h105l293 -837h2l290 837h103l-348 -960h-94z" />
    <glyph glyph-name="w" unicode="w" horiz-adv-x="1374" 
d="M70 952h100l229 -831h4l234 831h98l240 -831h4l225 831h101l-285 -960h-88l-246 819h-4l-242 -819h-88z" />
    <glyph glyph-name="x" unicode="x" horiz-adv-x="878" 
d="M709 0l-273 414l-270 -414h-109l330 483l-321 469h114l262 -401l263 401h108l-321 -471l329 -481h-112z" />
    <glyph glyph-name="y" unicode="y" horiz-adv-x="905" 
d="M510 -27q-30 -79 -57 -129t-63 -88t-81 -54.5t-106 -16.5h-56v92h48q83 0 126.5 36t73.5 121l17 52l-342 966h102l293 -843l285 843h102z" />
    <glyph glyph-name="z" unicode="z" horiz-adv-x="872" 
d="M121 952h665v-63l-565 -803h553v-86h-676v63l566 805h-543v84z" />
    <glyph glyph-name="braceleft" unicode="{" horiz-adv-x="829" 
d="M786 -240v-75h-86q-98 0 -174 17t-122.5 44t-76 65.5t-40.5 77.5t-11 84q0 53 18 108.5t44 101.5t52.5 89t44.5 86t18 78q0 63 -82.5 101t-208.5 38h-33v91h33q126 0 208.5 38t82.5 103q0 35 -18 77.5t-44.5 85t-52.5 88.5t-44 101.5t-18 108.5q0 45 11 84t40.5 77.5
t76 65.5t122.5 44t174 17h86v-75h-55q-186 0 -267 -51t-81 -162q0 -58 25 -120.5t55 -108.5t55 -104t25 -108q0 -155 -230 -206q230 -51 230 -207q0 -50 -25 -108t-55 -104t-55 -108.5t-25 -120.5q0 -111 81 -162t267 -51h55z" />
    <glyph glyph-name="bar" unicode="|" horiz-adv-x="722" 
d="M315 1556h93v-1871h-93v1871z" />
    <glyph glyph-name="braceright" unicode="}" horiz-adv-x="829" 
d="M553 -27q0 -45 -11.5 -84t-41 -77.5t-76 -65.5t-123 -44t-174.5 -17h-84v75h53q188 0 269 51t81 162q0 58 -25 120.5t-54.5 108.5t-54.5 104t-25 108q0 157 229 207q-229 50 -229 206q0 50 25 108t54.5 104t54.5 108.5t25 120.5q0 111 -81 162t-269 51h-53v75h84
q98 0 174.5 -17t123 -44t76 -65.5t41 -77.5t11.5 -84q0 -65 -27.5 -135.5t-60.5 -120t-60.5 -106.5t-27.5 -99q0 -65 81.5 -103t207.5 -38h32v-91h-32q-126 0 -207.5 -38t-81.5 -101q0 -42 27.5 -99.5t60.5 -107.5t60.5 -120.5t27.5 -135.5z" />
    <glyph glyph-name="asciitilde" unicode="~" horiz-adv-x="1351" 
d="M424 907q42 0 82 -15t78 -47t63.5 -59t63.5 -71q37 -45 55 -64.5t49 -48.5t59 -41t58 -12q49 0 80.5 40.5t31.5 123.5q0 49 -12.5 106.5t-25.5 87.5h92q39 -98 39 -194q0 -114 -53 -185t-156 -71q-42 0 -81.5 15t-77.5 46.5t-62.5 56.5t-63.5 70q-36 44 -55 65.5
t-50 50.5t-59.5 41.5t-58.5 12.5q-51 0 -83 -40.5t-32 -123.5q0 -48 13.5 -105t27.5 -89h-92q-39 85 -39 196q0 113 53 183.5t156 70.5z" />
    <glyph glyph-name="asciitilde" unicode="&#x223c;" horiz-adv-x="1351" 
d="M424 907q42 0 82 -15t78 -47t63.5 -59t63.5 -71q37 -45 55 -64.5t49 -48.5t59 -41t58 -12q49 0 80.5 40.5t31.5 123.5q0 49 -12.5 106.5t-25.5 87.5h92q39 -98 39 -194q0 -114 -53 -185t-156 -71q-42 0 -81.5 15t-77.5 46.5t-62.5 56.5t-63.5 70q-36 44 -55 65.5
t-50 50.5t-59.5 41.5t-58.5 12.5q-51 0 -83 -40.5t-32 -123.5q0 -48 13.5 -105t27.5 -89h-92q-39 85 -39 196q0 113 53 183.5t156 70.5z" />
    <glyph glyph-name="uni00A0" unicode="&#xa0;" horiz-adv-x="417" 
 />
    <glyph glyph-name="exclamdown" unicode="&#xa1;" horiz-adv-x="485" 
d="M313 1167h-141v197h141v-197zM295 0h-105v457l33 526h39l33 -526v-457z" />
    <glyph glyph-name="cent" unicode="&#xa2;" horiz-adv-x="968" 
d="M852 506q0 -121 -78.5 -212.5t-220.5 -105.5v-200h-94v200q-161 15 -247.5 127t-86.5 293v148q0 177 88 290t246 128v200h94v-198q146 -11 222.5 -101t76.5 -217v-8h-96v4q0 43 -13 82.5t-40 73.5t-76.5 54.5t-114.5 20.5q-141 0 -213 -86.5t-72 -238.5v-156
q0 -149 72 -237t209 -88q123 0 185.5 69t62.5 160v6h96v-8z" />
    <glyph glyph-name="sterling" unicode="&#xa3;" horiz-adv-x="1351" 
d="M1221 311q0 -180 -69 -261t-200 -81q-58 0 -113 13.5t-111 43.5t-89.5 51.5t-91.5 63.5q-43 -77 -112 -124.5t-159 -47.5q-98 0 -154 55t-56 136q0 83 56.5 138.5t153.5 55.5q101 0 230 -75q14 68 14 122q0 116 -61 238h-275v86h234q-37 75 -57.5 142t-20.5 151
q0 78 25.5 145t76 119.5t133 82.5t189.5 30q201 0 309.5 -97.5t108.5 -273.5v-53h-99v41q0 150 -85.5 222.5t-237.5 72.5q-140 0 -229 -73t-89 -214q0 -58 15 -117t27 -87t42 -91h437v-86h-396q49 -120 49 -236q0 -87 -30 -178q7 -5 43 -29.5t45.5 -31t41.5 -27t46.5 -27.5
t43 -20.5t47.5 -18.5t44 -9.5t49 -4.5q29 0 52.5 5t48 20.5t40.5 42t26.5 72.5t10.5 108v107h97v-101zM160 162q0 -45 31.5 -77t87.5 -32q64 0 114 37.5t82 102.5q-116 77 -199 77q-57 0 -86.5 -30.5t-29.5 -77.5z" />
    <glyph glyph-name="yen" unicode="&#xa5;" horiz-adv-x="1193" 
d="M1038 264h-387v-264h-98v264h-399v82h399v199l-10 16h-389v82h344l-398 721h115l389 -721l381 721h113l-393 -721h333v-82h-379l-8 -16v-199h387v-82z" />
    <glyph glyph-name="section" unicode="&#xa7;" horiz-adv-x="1179" 
d="M1004 -55q0 -127 -107 -209t-305 -82q-221 0 -333 94.5t-112 245.5v45h97v-41q0 -117 86 -186.5t264 -69.5q150 0 229.5 54t79.5 145q0 85 -72.5 136t-273.5 118q-66 25 -108 41.5t-90.5 38.5t-77 41t-58 43.5t-44.5 50.5t-24.5 58.5t-9.5 70.5q0 101 77.5 172t221.5 110
q-135 57 -195.5 120t-60.5 163q0 125 104.5 208t291.5 83q210 0 317 -95t107 -245v-29h-97v25q0 114 -82 185t-247 71q-138 0 -215.5 -54.5t-77.5 -144.5q0 -86 70 -138t264 -116q66 -24 108.5 -41t90.5 -39t77 -41t57.5 -43.5t43.5 -50.5t24.5 -58.5t9.5 -70.5
q0 -198 -299 -283q141 -55 205 -118.5t64 -163.5zM598 276q21 -6 39 -12q135 28 216 88.5t81 149.5q0 87 -75.5 142t-278.5 128q-18 6 -39 12q-134 -28 -214.5 -88.5t-80.5 -148.5q0 -87 75 -142.5t277 -128.5z" />
    <glyph glyph-name="dieresis" unicode="&#xa8;" horiz-adv-x="1024" 
d="M301 1335h119v-153h-119v153zM604 1335h119v-153h-119v153z" />
    <glyph glyph-name="copyright" unicode="&#xa9;" horiz-adv-x="1775" 
d="M145 682q0 213 95.5 382.5t265 264t381.5 94.5q160 0 298 -55.5t236 -152.5t153.5 -235t55.5 -298t-55.5 -298t-153.5 -235t-236 -152.5t-298 -55.5q-212 0 -381.5 94.5t-265 264t-95.5 382.5zM1546 682q0 193 -83 345t-233.5 237.5t-342.5 85.5q-191 0 -341.5 -85.5
t-233.5 -238t-83 -344.5t83 -344.5t233.5 -239t341.5 -86.5q192 0 342.5 86.5t233.5 239t83 344.5zM895 1049q128 0 193 -62.5t65 -165.5v-28h-92v18q0 70 -41.5 112t-124.5 42q-92 0 -140 -55.5t-48 -151.5v-152q0 -95 49 -152t139 -57q83 0 124.5 42.5t41.5 113.5v22h92
v-30q0 -104 -65.5 -167t-194.5 -63q-133 0 -208 80t-75 217v142q0 135 75.5 215t209.5 80z" />
    <glyph glyph-name="ordfeminine" unicode="&#xaa;" horiz-adv-x="864" 
d="M618 768q-43 -78 -117.5 -123t-176.5 -45q-108 0 -165 52t-57 143q0 127 134 194q96 51 378 88v47q0 88 -44 129t-148 41q-94 0 -147.5 -46t-53.5 -122v-8h-84v19q0 106 75.5 171.5t211.5 65.5q140 0 209 -63.5t69 -182.5v-354q0 -58 22.5 -78t84.5 -20v-66h-37
q-74 0 -112.5 34.5t-41.5 123.5zM193 801q0 -56 33.5 -88.5t105.5 -32.5q119 0 200.5 72t81.5 168v81q-257 -35 -335 -77q-48 -23 -67 -53t-19 -70z" />
    <glyph glyph-name="guillemotleft" unicode="&#xab;" horiz-adv-x="1214" 
d="M535 944h71q-44 -153 -129 -262t-233 -207q148 -96 233 -205.5t129 -263.5h-71q-99 275 -418 424v92q317 144 418 422zM1018 944h72q-44 -153 -129 -262t-234 -207q148 -96 233.5 -206t129.5 -263h-72q-99 275 -418 424v92q317 144 418 422z" />
    <glyph glyph-name="registered" unicode="&#xae;" horiz-adv-x="1060" 
d="M528 1395q185 0 306.5 -121.5t121.5 -298.5q0 -179 -121 -299.5t-307 -120.5q-184 0 -304 120.5t-120 299.5q0 177 120 298.5t304 121.5zM528 1329q-160 0 -258 -99.5t-98 -254.5q0 -156 98 -257.5t258 -101.5q163 0 261 101t98 258q0 155 -98 254.5t-261 99.5zM449 930
v-154h-70v410h182q144 0 144 -125q0 -47 -23.5 -79t-65.5 -44l101 -162h-78l-96 154h-94zM449 1126v-137h100q86 0 86 70q0 67 -82 67h-104z" />
    <glyph glyph-name="macron" unicode="&#xaf;" horiz-adv-x="1024" 
d="M221 1300h582v-83h-582v83z" />
    <glyph glyph-name="degree" unicode="&#xb0;" horiz-adv-x="868" 
d="M434 1395q145 0 232.5 -94.5t87.5 -233.5q0 -138 -88.5 -231t-231.5 -93q-144 0 -231.5 92.5t-87.5 231.5t87 233.5t232 94.5zM434 1311q-103 0 -164 -67.5t-61 -176.5q0 -108 62.5 -175t162.5 -67t162.5 67t62.5 175t-61.5 176t-163.5 68z" />
    <glyph glyph-name="plusminus" unicode="&#xb1;" horiz-adv-x="1263" 
d="M588 1247h88v-362h368v-86h-368v-363h-88v363h-371v86h371v362zM217 238h830v-95h-830v95z" />
    <glyph glyph-name="two.sup" unicode="&#xb2;" 
d="M649 629h-555v45q0 125 50.5 192.5t209.5 151.5q133 66 174 103.5t41 97.5q0 67 -52 103t-130 36q-89 0 -144 -41.5t-55 -116.5v-39h-84v43q0 101 77 165.5t206 64.5q130 0 200 -59t70 -154q0 -33 -6 -58.5t-24 -49.5t-34.5 -41t-54.5 -40.5t-65 -38.5t-84 -45
q-124 -60 -164.5 -106t-40.5 -135h465v-78z" />
    <glyph glyph-name="three.sup" unicode="&#xb3;" 
d="M375 1434q127 0 199.5 -59.5t72.5 -149.5v-17q0 -61 -42.5 -110.5t-121.5 -67.5q81 -18 123.5 -67t42.5 -117v-15q0 -94 -72.5 -156.5t-201.5 -62.5q-146 0 -215.5 62.5t-69.5 154.5v33h84v-28q0 -65 50.5 -106.5t146.5 -41.5q82 0 136 39.5t54 105.5v13q0 68 -51 107.5
t-160 39.5h-86v74h86q107 0 159 40.5t52 102.5v15q0 63 -53 100t-137 37q-91 0 -143 -42t-52 -104v-28h-84v33q0 85 72 150t211 65z" />
    <glyph glyph-name="acute" unicode="&#xb4;" horiz-adv-x="1021" 
d="M696 1522l-297 -365h-73l235 365h135z" />
    <glyph glyph-name="paragraph" unicode="&#xb6;" horiz-adv-x="1370" 
d="M1182 1364v-1679h-101v1589h-225v-1589h-100v700h-103q-127 1 -232 39t-173.5 103t-106 151.5t-37.5 185.5v19q0 206 148.5 343.5t400.5 137.5h529zM756 1274h-84q-172 0 -251 -93t-79 -284v-55q0 -188 78.5 -277.5t251.5 -89.5h84v799z" />
    <glyph glyph-name="periodcentered" unicode="&#xb7;" horiz-adv-x="405" 
d="M133 780h139v-196h-139v196z" />
    <glyph glyph-name="cedilla" unicode="&#xb8;" horiz-adv-x="1024" 
d="M739 -328q0 -88 -61.5 -136t-175.5 -48q-121 0 -228 51l27 62q97 -43 201 -43q155 0 155 116q0 47 -33.5 75t-99.5 28q-50 0 -116 -25l-35 49l164 222h79l-151 -195q35 14 90 14q85 0 134.5 -45.5t49.5 -124.5z" />
    <glyph glyph-name="one.sup" unicode="&#xb9;" horiz-adv-x="561" 
d="M303 1430h64v-801h-91v612h-200v66h69q78 0 114.5 26t43.5 97z" />
    <glyph glyph-name="ordmasculine" unicode="&#xba;" horiz-adv-x="839" 
d="M420 1376q150 0 234.5 -90t84.5 -233v-140q0 -144 -86.5 -233.5t-234.5 -89.5q-147 0 -233.5 89.5t-86.5 231.5v140q0 144 86 234.5t236 90.5zM418 1292q-110 0 -169 -65t-59 -174v-142q0 -109 60.5 -173t167.5 -64q109 0 170 64t61 173v142q0 109 -60 174t-171 65z" />
    <glyph glyph-name="guillemotright" unicode="&#xbb;" horiz-adv-x="1202" 
d="M668 6h-74q44 154 129 263.5t233 205.5q-148 98 -233 207t-129 262h74q101 -278 415 -422v-92q-316 -149 -415 -424zM197 6h-74q44 154 129 263.5t233 205.5q-148 98 -233 207t-129 262h74q101 -278 415 -422v-92q-316 -149 -415 -424z" />
    <glyph glyph-name="onequarter" unicode="&#xbc;" horiz-adv-x="1503" 
d="M303 1376h64v-801h-91v613h-200v65h69q78 0 114.5 26t43.5 97zM1208 1364l-917 -1364h-92l917 1364h92zM1212 788h111v-526h123v-74h-123v-188h-84v188h-451v74zM1239 262v453l-362 -453h362z" />
    <glyph glyph-name="onehalf" unicode="&#xbd;" horiz-adv-x="1613" 
d="M303 1376h64v-801h-91v613h-200v65h69q78 0 114.5 26t43.5 97zM1208 1364l-917 -1364h-92l917 1364h92zM1509 0h-557v45q0 125 51 192.5t211 151.5q132 66 172.5 103.5t40.5 97.5q0 67 -51.5 103t-128.5 36q-89 0 -143.5 -41.5t-54.5 -116.5v-39h-84v43q0 101 76.5 165.5
t205.5 64.5q130 0 199.5 -59t69.5 -154q0 -28 -6.5 -52t-14.5 -42.5t-28.5 -38.5t-36 -33t-51.5 -34t-59 -34t-73 -39q-124 -59 -163.5 -105.5t-39.5 -135.5h465v-78z" />
    <glyph glyph-name="threequarters" unicode="&#xbe;" horiz-adv-x="1710" 
d="M375 1380q127 0 199.5 -59.5t72.5 -149.5v-16q0 -61 -42.5 -110.5t-121.5 -67.5q81 -18 123.5 -67t42.5 -117v-15q0 -94 -72.5 -156.5t-201.5 -62.5q-146 0 -215.5 62.5t-69.5 154.5v33h84v-29q0 -65 50.5 -106t146.5 -41q82 0 136 39.5t54 105.5v13q0 68 -51 107.5
t-160 39.5h-86v74h86q107 0 159 40.5t52 102.5v14q0 63 -53.5 100.5t-136.5 37.5q-91 0 -143 -41.5t-52 -104.5v-28h-84v32q0 85 72 150t211 65zM1413 1364l-915 -1364h-92l915 1364h92zM1417 788h113v-526h123v-74h-123v-188h-84v188h-451v74zM1446 262v453l-363 -453h363z
" />
    <glyph glyph-name="questiondown" unicode="&#xbf;" horiz-adv-x="1011" 
d="M625 1364v-197h-140v197h140zM94 313q0 118 55 202t201 179q104 70 131 121t27 160h92q0 -102 -16 -156t-61.5 -102.5t-155.5 -128.5q-56 -38 -92 -73.5t-52 -71t-21 -64t-5 -68.5q0 -252 299 -252q176 0 252.5 81.5t76.5 228.5v63h99v-82q0 -60 -13.5 -113.5t-45.5 -103
t-80 -85t-122 -56.5t-167 -21q-90 0 -161 19.5t-115.5 52t-73.5 77.5t-40.5 92.5t-11.5 100.5z" />
    <glyph glyph-name="Agrave" unicode="&#xc0;" horiz-adv-x="1234" 
d="M299 1913h133l221 -318h-73zM1042 0l-133 385h-587l-134 -385h-106l483 1378h105l483 -1378h-111zM612 1225l-260 -750h527l-263 750h-4z" />
    <glyph glyph-name="Aacute" unicode="&#xc1;" horiz-adv-x="1234" 
d="M936 1913l-283 -318h-73l223 318h133zM1042 0l-133 385h-587l-134 -385h-106l483 1378h105l483 -1378h-111zM612 1225l-260 -750h527l-263 750h-4z" />
    <glyph glyph-name="Acircumflex" unicode="&#xc2;" horiz-adv-x="1234" 
d="M563 1913h109q59 -205 250 -262v-66q-111 21 -187.5 85.5t-118.5 148.5q-40 -83 -116 -147.5t-187 -86.5v66q191 57 250 262zM1042 0l-133 385h-587l-134 -385h-106l483 1378h105l483 -1378h-111zM612 1225l-260 -750h527l-263 750h-4z" />
    <glyph glyph-name="Atilde" unicode="&#xc3;" horiz-adv-x="1234" 
d="M449 1888q47 0 87 -20.5t61 -42.5t50 -60q51 -63 74 -80q31 -24 65 -24q78 0 78 102q0 51 -20 113h71q23 -67 23 -119q0 -79 -42 -125.5t-110 -46.5q-45 0 -84.5 19.5t-60 39.5t-51.5 56q-51 68 -74 86q-32 26 -67 26q-78 0 -78 -102q0 -51 20 -113h-72q-22 64 -22 119
q0 79 42 125.5t110 46.5zM1042 0l-133 385h-587l-134 -385h-106l483 1378h105l483 -1378h-111zM612 1225l-260 -750h527l-263 750h-4z" />
    <glyph glyph-name="Adieresis" unicode="&#xc4;" horiz-adv-x="1234" 
d="M385 1772h119v-152h-119v152zM731 1772h119v-152h-119v152zM1042 0l-133 385h-587l-134 -385h-106l483 1378h105l483 -1378h-111zM612 1225l-260 -750h527l-263 750h-4z" />
    <glyph glyph-name="Aring" unicode="&#xc5;" horiz-adv-x="1234" 
d="M1042 0l-133 385h-587l-134 -385h-106l461 1315q-64 20 -99.5 68.5t-35.5 111.5q0 81 57 137t151 56t152.5 -56t58.5 -137q0 -61 -36.5 -110.5t-98.5 -69.5l461 -1315h-111zM616 1620q-62 0 -98.5 -35.5t-36.5 -89.5t36.5 -89.5t98.5 -35.5t100 35.5t38 89.5t-38 89.5
t-100 35.5zM614 1231l-262 -756h527z" />
    <glyph glyph-name="AE" unicode="&#xc6;" horiz-adv-x="1787" 
d="M-14 0l835 1364h867v-90h-705v-539h563v-90h-563v-555h707v-90h-811v385h-541l-236 -385h-116zM874 1268l-481 -793h486v793h-5z" />
    <glyph glyph-name="Ccedilla" unicode="&#xc7;" horiz-adv-x="1239" 
d="M852 -328q0 -88 -62 -136t-176 -48q-121 0 -225 51l27 62q94 -43 198 -43q156 0 156 116q0 46 -33 74.5t-98 28.5q-55 0 -117 -25l-35 49l123 170q-212 10 -337.5 159.5t-125.5 377.5v348q0 236 136 387.5t362 151.5q110 0 197.5 -32.5t143 -88.5t85 -128.5t29.5 -154.5
v-92h-103v76q0 143 -89.5 237.5t-260.5 94.5q-181 0 -288 -123t-107 -312v-380q0 -189 108 -312t287 -123q87 0 155 26.5t110 73t63.5 105.5t21.5 127v76h103v-92q0 -161 -108 -275t-302 -127l-112 -143q35 14 90 14q86 0 135 -45t49 -125z" />
    <glyph glyph-name="Egrave" unicode="&#xc8;" horiz-adv-x="1110" 
d="M340 1898h133l221 -317h-73zM201 1364h809v-90h-705v-539h561v-90h-561v-555h707v-90h-811v1364z" />
    <glyph glyph-name="Eacute" unicode="&#xc9;" horiz-adv-x="1110" 
d="M883 1898l-281 -317h-74l222 317h133zM201 1364h809v-90h-705v-539h561v-90h-561v-555h707v-90h-811v1364z" />
    <glyph glyph-name="Ecircumflex" unicode="&#xca;" horiz-adv-x="1110" 
d="M551 1898h106q61 -205 252 -262v-65q-111 22 -187 85.5t-118 147.5q-40 -83 -116 -147t-187 -86v65q192 57 250 262zM201 1364h809v-90h-705v-539h561v-90h-561v-555h707v-90h-811v1364z" />
    <glyph glyph-name="Edieresis" unicode="&#xcb;" horiz-adv-x="1110" 
d="M373 1757h119v-153h-119v153zM717 1757h121v-153h-121v153zM201 1364h809v-90h-705v-539h561v-90h-561v-555h707v-90h-811v1364z" />
    <glyph glyph-name="Igrave" unicode="&#xcc;" horiz-adv-x="526" 
d="M-55 1898h133l223 -317h-74zM211 1364h104v-1364h-104v1364z" />
    <glyph glyph-name="Iacute" unicode="&#xcd;" horiz-adv-x="526" 
d="M582 1898l-281 -317h-74l222 317h133zM211 1364h104v-1364h-104v1364z" />
    <glyph glyph-name="Icircumflex" unicode="&#xce;" horiz-adv-x="526" 
d="M209 1898h106q61 -205 252 -262v-65q-111 22 -187 85.5t-118 147.5q-40 -83 -116 -147t-187 -86v65q192 57 250 262zM211 1364h104v-1364h-104v1364z" />
    <glyph glyph-name="Idieresis" unicode="&#xcf;" horiz-adv-x="526" 
d="M31 1757h119v-153h-119v153zM377 1757h119v-153h-119v153zM211 1364h104v-1364h-104v1364z" />
    <glyph glyph-name="Eth" unicode="&#xd0;" horiz-adv-x="1288" 
d="M1145 537q0 -160 -57.5 -279.5t-175.5 -188.5t-285 -69h-412v649h-160v82h160v633h414q251 0 383.5 -146.5t132.5 -392.5v-288zM319 90h306q206 0 310.5 119t104.5 321v304q0 202 -105 321t-312 119h-304v-543h412v-82h-412v-559z" />
    <glyph glyph-name="Ntilde" unicode="&#xd1;" horiz-adv-x="1325" 
d="M489 1872q67 0 111.5 -32.5t87.5 -90.5q30 -37 43.5 -52.5t40.5 -32.5t55 -17q78 0 78 100q0 53 -20 115h69q25 -60 25 -121q0 -77 -42 -123.5t-110 -46.5q-45 0 -84 18.5t-60.5 39.5t-51.5 57q-51 65 -73 83q-33 27 -69 27q-77 0 -77 -102q0 -51 20 -113h-72
q-22 64 -22 121q0 78 41.5 124t109.5 46zM201 1364h96l727 -1159h4v1159h98v-1364h-90l-735 1169h-4v-1169h-96v1364z" />
    <glyph glyph-name="Ograve" unicode="&#xd2;" horiz-adv-x="1314" 
d="M391 1907h133l224 -318h-74zM657 1395q236 0 373 -149.5t137 -399.5v-328q0 -250 -137 -399.5t-373 -149.5t-373 149.5t-137 399.5v328q0 250 137 399.5t373 149.5zM657 1307q-186 0 -295.5 -124.5t-109.5 -326.5v-348q0 -202 109 -326.5t296 -124.5q186 0 296 124.5
t110 326.5v348q0 202 -110 326.5t-296 124.5z" />
    <glyph glyph-name="Oacute" unicode="&#xd3;" horiz-adv-x="1314" 
d="M936 1907l-283 -318h-73l223 318h133zM657 1395q236 0 373 -149.5t137 -399.5v-328q0 -250 -137 -399.5t-373 -149.5t-373 149.5t-137 399.5v328q0 250 137 399.5t373 149.5zM657 1307q-186 0 -295.5 -124.5t-109.5 -326.5v-348q0 -202 109 -326.5t296 -124.5
q186 0 296 124.5t110 326.5v348q0 202 -110 326.5t-296 124.5z" />
    <glyph glyph-name="Ocircumflex" unicode="&#xd4;" horiz-adv-x="1314" 
d="M604 1907h107q63 -206 250 -262v-66q-111 22 -186.5 86.5t-117.5 149.5q-42 -85 -118 -149.5t-187 -86.5v66q189 56 252 262zM657 1395q236 0 373 -149.5t137 -399.5v-328q0 -250 -137 -399.5t-373 -149.5t-373 149.5t-137 399.5v328q0 250 137 399.5t373 149.5z
M657 1307q-186 0 -295.5 -124.5t-109.5 -326.5v-348q0 -202 109 -326.5t296 -124.5q186 0 296 124.5t110 326.5v348q0 202 -110 326.5t-296 124.5z" />
    <glyph glyph-name="Otilde" unicode="&#xd5;" horiz-adv-x="1314" 
d="M489 1882q46 0 85.5 -20.5t61 -42.5t50.5 -60q30 -37 44 -53t41 -33.5t54 -17.5q78 0 78 102q0 51 -20 113h71q25 -60 25 -119q0 -79 -43 -125.5t-111 -46.5q-44 0 -83 19.5t-60 40t-51 57.5q-4 5 -18.5 23t-19.5 23.5t-17.5 19t-20 19t-19.5 13t-24 10t-25 2.5
q-77 0 -77 -102q0 -51 20 -113h-70q-24 58 -24 119q0 79 42 125.5t111 46.5zM657 1395q236 0 373 -149.5t137 -399.5v-328q0 -250 -137 -399.5t-373 -149.5t-373 149.5t-137 399.5v328q0 250 137 399.5t373 149.5zM657 1307q-186 0 -295.5 -124.5t-109.5 -326.5v-348
q0 -202 109 -326.5t296 -124.5q186 0 296 124.5t110 326.5v348q0 202 -110 326.5t-296 124.5z" />
    <glyph glyph-name="Odieresis" unicode="&#xd6;" horiz-adv-x="1314" 
d="M424 1767h121v-153h-121v153zM770 1767h119v-153h-119v153zM657 1395q236 0 373 -149.5t137 -399.5v-328q0 -250 -137 -399.5t-373 -149.5t-373 149.5t-137 399.5v328q0 250 137 399.5t373 149.5zM657 1307q-186 0 -295.5 -124.5t-109.5 -326.5v-348q0 -202 109 -326.5
t296 -124.5q186 0 296 124.5t110 326.5v348q0 202 -110 326.5t-296 124.5z" />
    <glyph glyph-name="multiply" unicode="&#xd7;" horiz-adv-x="1189" 
d="M895 311l-301 307l-299 -307l-66 60l303 311l-303 307l66 62l299 -306l301 308l66 -62l-304 -309l304 -309z" />
    <glyph glyph-name="Oslash" unicode="&#xd8;" horiz-adv-x="1314" 
d="M657 -31q-188 0 -319 101l-111 -166l-73 45l118 186q-125 143 -125 383v328q0 250 137 399.5t373 149.5q185 0 320 -101l110 166l72 -45l-117 -184q125 -150 125 -385v-328q0 -250 -137 -399.5t-373 -149.5zM252 508q0 -170 78 -283l594 987q-109 95 -267 95
q-186 0 -295.5 -124.5t-109.5 -326.5v-348zM1063 856q0 170 -78 283l-594 -987q109 -95 266 -95q186 0 296 124.5t110 326.5v348z" />
    <glyph glyph-name="Ugrave" unicode="&#xd9;" horiz-adv-x="1282" 
d="M375 1884h133l223 -317h-74zM184 1364h105v-928q0 -181 92.5 -277t259.5 -96t259.5 96t92.5 277v928h105v-930q0 -221 -121.5 -341t-337.5 -120q-214 0 -334.5 120t-120.5 341v930z" />
    <glyph glyph-name="Uacute" unicode="&#xda;" horiz-adv-x="1282" 
d="M920 1884l-281 -317h-76l223 317h134zM184 1364h105v-928q0 -181 92.5 -277t259.5 -96t259.5 96t92.5 277v928h105v-930q0 -221 -121.5 -341t-337.5 -120q-214 0 -334.5 120t-120.5 341v930z" />
    <glyph glyph-name="Ucircumflex" unicode="&#xdb;" horiz-adv-x="1282" 
d="M588 1884h106q63 -206 250 -262v-66q-110 21 -185.5 85.5t-117.5 148.5q-42 -84 -117.5 -148.5t-185.5 -85.5v66q187 56 250 262zM184 1364h105v-928q0 -181 92.5 -277t259.5 -96t259.5 96t92.5 277v928h105v-930q0 -221 -121.5 -341t-337.5 -120q-214 0 -334.5 120
t-120.5 341v930z" />
    <glyph glyph-name="Udieresis" unicode="&#xdc;" horiz-adv-x="1282" 
d="M410 1743h118v-152h-118v152zM754 1743h118v-152h-118v152zM184 1364h105v-928q0 -181 92.5 -277t259.5 -96t259.5 96t92.5 277v928h105v-930q0 -221 -121.5 -341t-337.5 -120q-214 0 -334.5 120t-120.5 341v930z" />
    <glyph glyph-name="Yacute" unicode="&#xdd;" horiz-adv-x="1144" 
d="M854 1884l-283 -317h-73l221 317h135zM63 1364h119l396 -727l387 727h114l-452 -829v-535h-105v535z" />
    <glyph glyph-name="Thorn" unicode="&#xde;" horiz-adv-x="1150" 
d="M201 1364h104v-283h344q412 0 412 -354v-88q0 -177 -101.5 -267.5t-316.5 -90.5h-338v-281h-104v1364zM305 993v-622h342q165 0 237 67.5t72 206.5v78q0 134 -74 202t-237 68h-340z" />
    <glyph glyph-name="germandbls" unicode="&#xdf;" horiz-adv-x="1024" 
d="M522 1427q162 0 248 -87.5t86 -237.5v-35q0 -126 -56 -195.5t-167 -93.5v-4q147 -32 217 -128t70 -230v-66q0 -166 -89 -262t-264 -96q-76 0 -151 20v84q80 -18 151 -18q123 0 188.5 70t65.5 202v64q0 130 -85 212.5t-263 92.5v86q285 9 285 260v37q0 111 -59.5 175
t-176.5 64q-124 0 -190 -75.5t-66 -223.5v-1042h-96v1036q0 188 92.5 289.5t259.5 101.5z" />
    <glyph glyph-name="agrave" unicode="&#xe0;" horiz-adv-x="974" 
d="M209 1526h135l236 -363h-76zM705 180q-118 -200 -336 -200q-122 0 -188 66t-66 183q0 173 159 252q130 65 431 94v87q0 227 -228 227q-109 0 -173 -54.5t-64 -148.5v-20h-93v22q0 129 88 209t246 80t238 -80t80 -231v-435q0 -103 24.5 -132t100.5 -29v-78h-33
q-89 0 -135.5 41.5t-50.5 146.5zM213 231q0 -165 172 -165q120 0 220 92t100 198v140q-274 -28 -375 -80q-64 -31 -90.5 -76t-26.5 -109z" />
    <glyph glyph-name="aacute" unicode="&#xe1;" horiz-adv-x="974" 
d="M768 1526l-297 -363h-74l236 363h135zM705 180q-118 -200 -336 -200q-122 0 -188 66t-66 183q0 173 159 252q130 65 431 94v87q0 227 -228 227q-109 0 -173 -54.5t-64 -148.5v-20h-93v22q0 129 88 209t246 80t238 -80t80 -231v-435q0 -103 24.5 -132t100.5 -29v-78h-33
q-89 0 -135.5 41.5t-50.5 146.5zM213 231q0 -165 172 -165q120 0 220 92t100 198v140q-274 -28 -375 -80q-64 -31 -90.5 -76t-26.5 -109z" />
    <glyph glyph-name="acircumflex" unicode="&#xe2;" horiz-adv-x="974" 
d="M426 1526h100q62 -237 236 -303v-70q-102 27 -176 100t-109 174q-34 -100 -109.5 -173.5t-177.5 -100.5v70q174 66 236 303zM705 180q-118 -200 -336 -200q-122 0 -188 66t-66 183q0 173 159 252q130 65 431 94v87q0 227 -228 227q-109 0 -173 -54.5t-64 -148.5v-20h-93
v22q0 129 88 209t246 80t238 -80t80 -231v-435q0 -103 24.5 -132t100.5 -29v-78h-33q-89 0 -135.5 41.5t-50.5 146.5zM213 231q0 -165 172 -165q120 0 220 92t100 198v140q-274 -28 -375 -80q-64 -31 -90.5 -76t-26.5 -109z" />
    <glyph glyph-name="atilde" unicode="&#xe3;" horiz-adv-x="974" 
d="M326 1466q33 0 60 -10t51 -33.5t36.5 -39t36.5 -48.5q24 -36 37.5 -53.5t36 -34t45.5 -16.5q35 0 56.5 25t21.5 79t-17 121h68q22 -77 22 -125q0 -88 -43.5 -133t-109.5 -45q-32 0 -59 10.5t-52.5 35.5t-37.5 39.5t-38 49.5q-47 68 -69 85q-23 18 -47 18q-34 0 -56 -26
t-22 -81q0 -50 18 -121h-67q-23 67 -23 125q0 89 43 133.5t109 44.5zM705 180q-118 -200 -336 -200q-122 0 -188 66t-66 183q0 173 159 252q130 65 431 94v87q0 227 -228 227q-109 0 -173 -54.5t-64 -148.5v-20h-93v22q0 129 88 209t246 80t238 -80t80 -231v-435
q0 -103 24.5 -132t100.5 -29v-78h-33q-89 0 -135.5 41.5t-50.5 146.5zM213 231q0 -165 172 -165q120 0 220 92t100 198v140q-274 -28 -375 -80q-64 -31 -90.5 -76t-26.5 -109z" />
    <glyph glyph-name="adieresis" unicode="&#xe4;" horiz-adv-x="974" 
d="M264 1339h119v-153h-119v153zM569 1339h119v-153h-119v153zM705 180q-118 -200 -336 -200q-122 0 -188 66t-66 183q0 173 159 252q130 65 431 94v87q0 227 -228 227q-109 0 -173 -54.5t-64 -148.5v-20h-93v22q0 129 88 209t246 80t238 -80t80 -231v-435q0 -103 24.5 -132
t100.5 -29v-78h-33q-89 0 -135.5 41.5t-50.5 146.5zM213 231q0 -165 172 -165q120 0 220 92t100 198v140q-274 -28 -375 -80q-64 -31 -90.5 -76t-26.5 -109z" />
    <glyph glyph-name="aring" unicode="&#xe5;" horiz-adv-x="974" 
d="M477 1528q91 0 149 -57t58 -136q0 -80 -57.5 -136t-149.5 -56q-93 0 -151 56t-58 136q0 79 58.5 136t150.5 57zM477 1460q-60 0 -97.5 -36.5t-37.5 -88.5q0 -54 37.5 -89.5t97.5 -35.5q59 0 96 36t37 89q0 52 -37 88.5t-96 36.5zM705 180q-118 -200 -336 -200
q-122 0 -188 66t-66 183q0 173 159 252q130 65 431 94v87q0 227 -228 227q-109 0 -173 -54.5t-64 -148.5v-20h-93v22q0 129 88 209t246 80t238 -80t80 -231v-435q0 -103 24.5 -132t100.5 -29v-78h-33q-89 0 -135.5 41.5t-50.5 146.5zM213 231q0 -165 172 -165q120 0 220 92
t100 198v140q-274 -28 -375 -80q-64 -31 -90.5 -76t-26.5 -109z" />
    <glyph glyph-name="ae" unicode="&#xe6;" horiz-adv-x="1538" 
d="M1427 287q0 -139 -94 -226.5t-252 -87.5q-139 0 -227 63.5t-125 174.5q-50 -116 -141.5 -175t-214.5 -59t-190.5 66.5t-67.5 183.5q0 173 159 252q134 66 428 94v95q0 113 -54 167t-169 54q-110 0 -174.5 -54.5t-64.5 -148.5v-20h-93v22q0 128 88.5 208.5t245.5 80.5
q229 0 291 -168q44 80 119.5 124t177.5 44q175 0 268 -114.5t93 -299.5v-110h-633v-74q0 -69 15.5 -124.5t48 -100t89 -69t133.5 -24.5q115 0 182.5 63.5t67.5 164.5v6h94v-8zM797 559v-24h536v32q0 145 -66 234.5t-198 89.5q-129 0 -200.5 -91t-71.5 -241zM213 229
q0 -166 172 -166q129 0 223 91.5t94 220.5v117q-270 -25 -372 -76q-63 -33 -90 -78t-27 -109z" />
    <glyph glyph-name="ccedilla" unicode="&#xe7;" horiz-adv-x="927" 
d="M700 -328q0 -88 -61.5 -136t-175.5 -48q-120 0 -227 51l26 62q97 -43 201 -43q155 0 155 116q0 47 -33.5 75t-99.5 28q-50 0 -116 -25l-35 49l127 174q-169 7 -258.5 119.5t-89.5 304.5v150q0 196 100 312t281 116q165 0 252.5 -92t87.5 -228v-8h-93v6q0 45 -13 85
t-40 75t-76.5 55.5t-115.5 20.5q-142 0 -214.5 -89.5t-72.5 -248.5v-160q0 -156 72.5 -244t210.5 -88q65 0 114.5 20.5t78 55t42.5 74.5t14 84v6h93v-8q0 -120 -77 -211t-216 -105l-115 -149q35 14 90 14q85 0 134.5 -45.5t49.5 -124.5z" />
    <glyph glyph-name="egrave" unicode="&#xe8;" horiz-adv-x="950" 
d="M217 1528h135l236 -365h-74zM840 281q0 -137 -94 -222.5t-250 -85.5q-190 0 -286.5 112t-96.5 298v166q0 189 99.5 308.5t270.5 119.5q174 0 266.5 -114.5t92.5 -299.5v-110h-633v-74q0 -143 69.5 -230.5t217.5 -87.5q116 0 184 60.5t68 161.5v8h92v-10zM209 555v-20h536
v32q0 145 -66 234.5t-198 89.5q-129 0 -200.5 -93t-71.5 -243z" />
    <glyph glyph-name="eacute" unicode="&#xe9;" horiz-adv-x="950" 
d="M776 1528l-295 -365h-75l235 365h135zM840 281q0 -137 -94 -222.5t-250 -85.5q-190 0 -286.5 112t-96.5 298v166q0 189 99.5 308.5t270.5 119.5q174 0 266.5 -114.5t92.5 -299.5v-110h-633v-74q0 -143 69.5 -230.5t217.5 -87.5q116 0 184 60.5t68 161.5v8h92v-10z
M209 555v-20h536v32q0 145 -66 234.5t-198 89.5q-129 0 -200.5 -93t-71.5 -243z" />
    <glyph glyph-name="ecircumflex" unicode="&#xea;" horiz-adv-x="950" 
d="M436 1528h99q33 -121 89.5 -195.5t145.5 -109.5v-70q-101 27 -176 100.5t-109 173.5q-34 -100 -108.5 -173.5t-175.5 -100.5v70q172 69 235 305zM840 281q0 -137 -94 -222.5t-250 -85.5q-190 0 -286.5 112t-96.5 298v166q0 189 99.5 308.5t270.5 119.5
q174 0 266.5 -114.5t92.5 -299.5v-110h-633v-74q0 -143 69.5 -230.5t217.5 -87.5q116 0 184 60.5t68 161.5v8h92v-10zM209 555v-20h536v32q0 145 -66 234.5t-198 89.5q-129 0 -200.5 -93t-71.5 -243z" />
    <glyph glyph-name="edieresis" unicode="&#xeb;" horiz-adv-x="950" 
d="M274 1339h119v-151h-119v151zM578 1339h118v-151h-118v151zM840 281q0 -137 -94 -222.5t-250 -85.5q-190 0 -286.5 112t-96.5 298v166q0 189 99.5 308.5t270.5 119.5q174 0 266.5 -114.5t92.5 -299.5v-110h-633v-74q0 -143 69.5 -230.5t217.5 -87.5q116 0 184 60.5
t68 161.5v8h92v-10zM209 555v-20h536v32q0 145 -66 234.5t-198 89.5q-129 0 -200.5 -93t-71.5 -243z" />
    <glyph glyph-name="igrave" unicode="&#xec;" horiz-adv-x="444" 
d="M-113 1522h136l235 -365h-74zM174 952h96v-952h-96v952z" />
    <glyph glyph-name="iacute" unicode="&#xed;" horiz-adv-x="444" 
d="M555 1522l-297 -365h-74l236 365h135zM174 952h96v-952h-96v952z" />
    <glyph glyph-name="icircumflex" unicode="&#xee;" horiz-adv-x="444" 
d="M174 1522h98q61 -236 236 -305v-70q-102 29 -176.5 102t-108.5 174q-34 -101 -108.5 -174t-175.5 -102v70q171 69 235 305zM174 952h96v-952h-96v952z" />
    <glyph glyph-name="idieresis" unicode="&#xef;" horiz-adv-x="444" 
d="M10 1335h121v-153h-121v153zM315 1335h119v-153h-119v153zM174 952h96v-952h-96v952z" />
    <glyph glyph-name="eth" unicode="&#xf0;" horiz-adv-x="985" 
d="M877 395q0 -196 -104.5 -309t-280.5 -113q-173 0 -278 108t-105 294v184q0 184 103 291.5t271 107.5q102 0 182 -52.5t121 -137.5q-41 239 -196 428l-242 -102l-29 61l224 94q-83 89 -193 162v6h113q92 -64 158 -133l229 96l29 -61l-209 -90q207 -252 207 -576v-258z
M492 870q-131 0 -208 -81t-77 -224v-196q0 -145 77 -226.5t208 -81.5q130 0 207 81.5t77 226.5v196q0 141 -76.5 223t-207.5 82z" />
    <glyph glyph-name="ntilde" unicode="&#xf1;" horiz-adv-x="1032" 
d="M358 1483q33 0 60.5 -10.5t51.5 -33.5t37.5 -39.5t35.5 -47.5q18 -27 28.5 -41t27 -32t32 -26t33.5 -8q33 0 54 26t21 81q0 58 -16 118h68q22 -73 22 -122q0 -89 -43 -135t-108 -46q-33 0 -60 10.5t-53.5 36t-37.5 39.5t-38 50q-33 50 -59 76t-58 26q-34 0 -55.5 -25.5
t-21.5 -79.5q0 -52 18 -120h-68q-22 64 -22 125q0 88 42.5 133t108.5 45zM170 952h78l10 -204q66 113 146 169t192 56q126 0 200 -82t74 -219v-672h-98v666q0 99 -53 158t-146 59q-122 0 -214.5 -97t-92.5 -208v-578h-96v952z" />
    <glyph glyph-name="ograve" unicode="&#xf2;" horiz-adv-x="987" 
d="M225 1528h135l236 -365h-74zM494 977q176 0 278 -116t102 -296v-180q0 -177 -105.5 -294.5t-276.5 -117.5q-173 0 -277 116.5t-104 293.5v182q0 179 103 295.5t280 116.5zM494 891q-133 0 -209 -90.5t-76 -229.5v-192q0 -139 78 -228.5t207 -89.5q127 0 204.5 89.5
t77.5 228.5v192q0 139 -76 229.5t-206 90.5z" />
    <glyph glyph-name="oacute" unicode="&#xf3;" horiz-adv-x="987" 
d="M784 1528l-295 -365h-75l235 365h135zM494 977q176 0 278 -116t102 -296v-180q0 -177 -105.5 -294.5t-276.5 -117.5q-173 0 -277 116.5t-104 293.5v182q0 179 103 295.5t280 116.5zM494 891q-133 0 -209 -90.5t-76 -229.5v-192q0 -139 78 -228.5t207 -89.5
q127 0 204.5 89.5t77.5 228.5v192q0 139 -76 229.5t-206 90.5z" />
    <glyph glyph-name="ocircumflex" unicode="&#xf4;" horiz-adv-x="987" 
d="M444 1528h99q63 -236 235 -305v-70q-101 27 -175.5 100.5t-108.5 173.5q-34 -100 -109 -173.5t-176 -100.5v70q172 69 235 305zM494 977q176 0 278 -116t102 -296v-180q0 -177 -105.5 -294.5t-276.5 -117.5q-173 0 -277 116.5t-104 293.5v182q0 179 103 295.5t280 116.5z
M494 891q-133 0 -209 -90.5t-76 -229.5v-192q0 -139 78 -228.5t207 -89.5q127 0 204.5 89.5t77.5 228.5v192q0 139 -76 229.5t-206 90.5z" />
    <glyph glyph-name="otilde" unicode="&#xf5;" horiz-adv-x="987" 
d="M342 1468q33 0 60.5 -10.5t51.5 -34t37.5 -39.5t36.5 -49q24 -36 37.5 -53.5t36 -34t45.5 -16.5q34 0 56 25.5t22 78.5t-18 121h67q23 -67 23 -125q0 -88 -43 -133t-109 -45q-33 0 -60 10.5t-52 35t-37.5 40t-36.5 49.5q-20 29 -28.5 40t-25.5 30t-32 26t-33 7
q-33 0 -54.5 -25.5t-21.5 -79.5q0 -57 17 -121h-68q-23 76 -23 125q0 87 43.5 132.5t108.5 45.5zM494 977q176 0 278 -116t102 -296v-180q0 -177 -105.5 -294.5t-276.5 -117.5q-173 0 -277 116.5t-104 293.5v182q0 179 103 295.5t280 116.5zM494 891q-133 0 -209 -90.5
t-76 -229.5v-192q0 -139 78 -228.5t207 -89.5q127 0 204.5 89.5t77.5 228.5v192q0 139 -76 229.5t-206 90.5z" />
    <glyph glyph-name="odieresis" unicode="&#xf6;" horiz-adv-x="987" 
d="M283 1339h118v-151h-118v151zM586 1339h119v-151h-119v151zM494 977q176 0 278 -116t102 -296v-180q0 -177 -105.5 -294.5t-276.5 -117.5q-173 0 -277 116.5t-104 293.5v182q0 179 103 295.5t280 116.5zM494 891q-133 0 -209 -90.5t-76 -229.5v-192q0 -139 78 -228.5
t207 -89.5q127 0 204.5 89.5t77.5 228.5v192q0 139 -76 229.5t-206 90.5z" />
    <glyph glyph-name="divide" unicode="&#xf7;" horiz-adv-x="1234" 
d="M549 1071h137v-141h-137v141zM188 729h859v-94h-859v94zM549 434h137v-139h-137v139z" />
    <glyph glyph-name="oslash" unicode="&#xf8;" horiz-adv-x="987" 
d="M492 -27q-139 0 -236 78l-90 -129l-64 41l97 146q-88 115 -88 274v182q0 179 103 295.5t280 116.5q142 0 237 -76l88 129l64 -41l-97 -145q88 -111 88 -279v-180q0 -177 -105.5 -294.5t-276.5 -117.5zM209 379q0 -105 49 -186l420 630q-74 68 -184 68q-133 0 -209 -90.5
t-76 -229.5v-192zM776 571q0 112 -47 189l-420 -633q76 -66 185 -66q127 0 204.5 89.5t77.5 228.5v192z" />
    <glyph glyph-name="ugrave" unicode="&#xf9;" horiz-adv-x="1032" 
d="M246 1507h133l235 -362h-73zM162 952h98v-665q0 -99 53 -159t146 -60q122 0 214.5 98t92.5 211v575h96v-952h-78l-10 205q-66 -113 -146 -169t-192 -56q-126 0 -200 82t-74 219v671z" />
    <glyph glyph-name="uacute" unicode="&#xfa;" horiz-adv-x="1032" 
d="M805 1507l-297 -362h-74l236 362h135zM162 952h98v-665q0 -99 53 -159t146 -60q122 0 214.5 98t92.5 211v575h96v-952h-78l-10 205q-66 -113 -146 -169t-192 -56q-126 0 -200 82t-74 219v671z" />
    <glyph glyph-name="ucircumflex" unicode="&#xfb;" horiz-adv-x="1032" 
d="M463 1507h98q65 -237 236 -303v-69q-101 27 -176 100.5t-109 173.5q-34 -100 -109 -173.5t-176 -100.5v69q174 66 236 303zM162 952h98v-665q0 -99 53 -159t146 -60q122 0 214.5 98t92.5 211v575h96v-952h-78l-10 205q-66 -113 -146 -169t-192 -56q-126 0 -200 82
t-74 219v671z" />
    <glyph glyph-name="udieresis" unicode="&#xfc;" horiz-adv-x="1032" 
d="M301 1321h119v-154h-119v154zM604 1321h121v-154h-121v154zM162 952h98v-665q0 -99 53 -159t146 -60q122 0 214.5 98t92.5 211v575h96v-952h-78l-10 205q-66 -113 -146 -169t-192 -56q-126 0 -200 82t-74 219v671z" />
    <glyph glyph-name="yacute" unicode="&#xfd;" horiz-adv-x="905" 
d="M756 1507l-295 -362h-76l236 362h135zM510 -27q-30 -79 -57 -129t-63 -88t-81 -54.5t-106 -16.5h-56v92h48q83 0 126.5 36t73.5 121l17 52l-342 966h102l293 -843l285 843h102z" />
    <glyph glyph-name="thorn" unicode="&#xfe;" horiz-adv-x="1038" 
d="M170 1417h94v-657q55 102 129 157.5t189 55.5q159 0 250.5 -114t91.5 -286v-194q0 -172 -95 -287t-254 -115q-111 0 -182.5 53t-126.5 146v-491h-96v1732zM565 887q-118 0 -208.5 -99.5t-90.5 -242.5v-137q0 -143 91 -242.5t208 -99.5q123 0 191.5 91t68.5 228v182
q0 137 -68.5 228.5t-191.5 91.5z" />
    <glyph glyph-name="ydieresis" unicode="&#xff;" horiz-adv-x="905" 
d="M254 1321h119v-154h-119v154zM557 1321h119v-154h-119v154zM510 -27q-30 -79 -57 -129t-63 -88t-81 -54.5t-106 -16.5h-56v92h48q83 0 126.5 36t73.5 121l17 52l-342 966h102l293 -843l285 843h102z" />
    <glyph glyph-name="Amacron" unicode="&#x100;" horiz-adv-x="1234" 
d="M317 1739h601v-84h-601v84zM1042 0l-133 385h-587l-134 -385h-106l483 1378h105l483 -1378h-111zM612 1225l-260 -750h527l-263 750h-4z" />
    <glyph glyph-name="amacron" unicode="&#x101;" horiz-adv-x="974" 
d="M184 1307h584v-84h-584v84zM705 180q-118 -200 -336 -200q-122 0 -188 66t-66 183q0 173 159 252q130 65 431 94v87q0 227 -228 227q-109 0 -173 -54.5t-64 -148.5v-20h-93v22q0 129 88 209t246 80t238 -80t80 -231v-435q0 -103 24.5 -132t100.5 -29v-78h-33
q-89 0 -135.5 41.5t-50.5 146.5zM213 231q0 -165 172 -165q120 0 220 92t100 198v140q-274 -28 -375 -80q-64 -31 -90.5 -76t-26.5 -109z" />
    <glyph glyph-name="Abreve" unicode="&#x102;" horiz-adv-x="1234" 
d="M616 1667q207 0 207 133q0 52 -16 113h63q27 -73 27 -133q0 -95 -78 -145t-203 -50q-124 0 -202 50t-78 145q0 55 29 133h63q-18 -68 -18 -113q0 -133 206 -133zM1042 0l-133 385h-587l-134 -385h-106l483 1378h105l483 -1378h-111zM612 1225l-260 -750h527l-263 750h-4z
" />
    <glyph glyph-name="abreve" unicode="&#x103;" horiz-adv-x="974" 
d="M477 1239q99 0 142 37.5t43 114.5q0 38 -13 118h66q22 -74 22 -145q0 -107 -72.5 -159t-187.5 -52q-117 0 -189.5 52t-72.5 159q0 68 23 145h65q-12 -77 -12 -118q0 -77 43 -114.5t143 -37.5zM705 180q-118 -200 -336 -200q-122 0 -188 66t-66 183q0 173 159 252
q130 65 431 94v87q0 227 -228 227q-109 0 -173 -54.5t-64 -148.5v-20h-93v22q0 129 88 209t246 80t238 -80t80 -231v-435q0 -103 24.5 -132t100.5 -29v-78h-33q-89 0 -135.5 41.5t-50.5 146.5zM213 231q0 -165 172 -165q120 0 220 92t100 198v140q-274 -28 -375 -80
q-64 -31 -90.5 -76t-26.5 -109z" />
    <glyph glyph-name="Aogonek" unicode="&#x104;" horiz-adv-x="1234" 
d="M1245 -465q-63 -47 -162 -47q-96 0 -150 50t-54 130q0 60 30 121q41 77 142 186l-144 410h-585l-134 -385h-106l483 1378h105l483 -1378q-124 -139 -156 -201q-32 -66 -32 -118q0 -59 32.5 -88t89.5 -29q65 0 127 33zM614 1231l-262 -756h525z" />
    <glyph glyph-name="aogonek" unicode="&#x105;" horiz-adv-x="974" 
d="M1018 -465q-63 -47 -162 -47q-96 0 -150.5 50t-54.5 130q0 57 31 121q40 76 160 207q-65 8 -99.5 51t-37.5 133q-118 -200 -336 -200q-122 0 -188 66t-66 183q0 173 159 252q130 65 431 94v87q0 227 -228 227q-109 0 -173 -54.5t-64 -148.5v-20h-93v22q0 129 88 209
t246 80t238 -80t80 -231v-435q0 -103 24.5 -132t100.5 -29v-78q-122 -131 -154 -193q-33 -68 -33 -118q0 -59 33 -88t90 -29q66 0 125 33zM213 231q0 -165 172 -165q120 0 220 92t100 198v140q-274 -28 -375 -80q-64 -31 -90.5 -76t-26.5 -109z" />
    <glyph glyph-name="Cacute" unicode="&#x106;" horiz-adv-x="1239" 
d="M924 1907l-283 -318h-74l224 318h133zM645 1395q110 0 197.5 -32.5t143 -88.5t85 -128.5t29.5 -154.5v-92h-103v76q0 143 -89.5 237.5t-260.5 94.5q-181 0 -288 -123t-107 -312v-380q0 -189 108 -312t287 -123q87 0 155 26.5t110 73t63.5 105.5t21.5 127v76h103v-92
q0 -82 -30 -154.5t-86 -128.5t-144 -88.5t-197 -32.5q-226 0 -361 151.5t-135 387.5v348q0 236 136 387.5t362 151.5z" />
    <glyph glyph-name="cacute" unicode="&#x107;" horiz-adv-x="927" 
d="M782 1528l-295 -365h-75l235 365h135zM492 61q65 0 114.5 20.5t78 55t42.5 74.5t14 84v6h93v-8q0 -84 -38 -155.5t-118 -118t-189 -46.5q-183 0 -279.5 113.5t-96.5 312.5v150q0 196 100 312t281 116q165 0 252.5 -92t87.5 -228v-8h-93v6q0 45 -13 85t-40 75t-76.5 55.5
t-115.5 20.5q-142 0 -214.5 -89.5t-72.5 -248.5v-160q0 -156 72.5 -244t210.5 -88z" />
    <glyph glyph-name="Cdotaccent" unicode="&#x10a;" horiz-adv-x="1239" 
d="M584 1767h121v-153h-121v153zM645 1395q110 0 197.5 -32.5t143 -88.5t85 -128.5t29.5 -154.5v-92h-103v76q0 143 -89.5 237.5t-260.5 94.5q-181 0 -288 -123t-107 -312v-380q0 -189 108 -312t287 -123q87 0 155 26.5t110 73t63.5 105.5t21.5 127v76h103v-92
q0 -82 -30 -154.5t-86 -128.5t-144 -88.5t-197 -32.5q-226 0 -361 151.5t-135 387.5v348q0 236 136 387.5t362 151.5z" />
    <glyph glyph-name="cdotaccent" unicode="&#x10b;" horiz-adv-x="927" 
d="M432 1339h119v-151h-119v151zM492 61q65 0 114.5 20.5t78 55t42.5 74.5t14 84v6h93v-8q0 -84 -38 -155.5t-118 -118t-189 -46.5q-183 0 -279.5 113.5t-96.5 312.5v150q0 196 100 312t281 116q165 0 252.5 -92t87.5 -228v-8h-93v6q0 45 -13 85t-40 75t-76.5 55.5
t-115.5 20.5q-142 0 -214.5 -89.5t-72.5 -248.5v-160q0 -156 72.5 -244t210.5 -88z" />
    <glyph glyph-name="Ccaron" unicode="&#x10c;" horiz-adv-x="1239" 
d="M340 1927q111 -22 187 -86t116 -147q42 84 118 147.5t187 85.5v-65q-192 -57 -250 -263h-108q-58 206 -250 263v65zM645 1395q110 0 197.5 -32.5t143 -88.5t85 -128.5t29.5 -154.5v-92h-103v76q0 143 -89.5 237.5t-260.5 94.5q-181 0 -288 -123t-107 -312v-380
q0 -189 108 -312t287 -123q87 0 155 26.5t110 73t63.5 105.5t21.5 127v76h103v-92q0 -82 -30 -154.5t-86 -128.5t-144 -88.5t-197 -32.5q-226 0 -361 151.5t-135 387.5v348q0 236 136 387.5t362 151.5z" />
    <glyph glyph-name="ccaron" unicode="&#x10d;" horiz-adv-x="927" 
d="M207 1542q101 -27 176 -101t109 -175q34 102 108.5 175.5t175.5 100.5v-69q-170 -68 -235 -306h-99q-65 238 -235 306v69zM492 61q65 0 114.5 20.5t78 55t42.5 74.5t14 84v6h93v-8q0 -84 -38 -155.5t-118 -118t-189 -46.5q-183 0 -279.5 113.5t-96.5 312.5v150
q0 196 100 312t281 116q165 0 252.5 -92t87.5 -228v-8h-93v6q0 45 -13 85t-40 75t-76.5 55.5t-115.5 20.5q-142 0 -214.5 -89.5t-72.5 -248.5v-160q0 -156 72.5 -244t210.5 -88z" />
    <glyph glyph-name="Dcaron" unicode="&#x10e;" horiz-adv-x="1275" 
d="M313 1919q111 -21 186 -85t117 -148q42 83 118.5 147t187.5 86v-66q-189 -56 -252 -262h-107q-63 206 -250 262v66zM201 1364h413q251 0 383.5 -146.5t132.5 -392.5v-288q0 -160 -57.5 -279.5t-175.5 -188.5t-285 -69h-411v1364zM305 1274v-1184h307q205 0 309.5 119
t104.5 321v304q0 201 -105.5 320.5t-312.5 119.5h-303z" />
    <glyph glyph-name="dcaron" unicode="&#x10f;" horiz-adv-x="1038" 
d="M1049 1417h98l-53 -356h-62zM772 1417h96v-1417h-77l-11 201q-58 -108 -132 -166t-191 -58q-159 0 -250.5 114t-91.5 288v194q0 172 94.5 286t253.5 114q111 0 182.5 -52t126.5 -145v641zM473 885q-123 0 -191.5 -90.5t-68.5 -227.5v-182q0 -137 68.5 -228t191.5 -91
q118 0 208.5 99.5t90.5 242.5v135q0 144 -90.5 243t-208.5 99z" />
    <glyph glyph-name="Dcroat" unicode="&#x110;" horiz-adv-x="1288" 
d="M1145 537q0 -160 -57.5 -279.5t-175.5 -188.5t-285 -69h-412v649h-160v82h160v633h414q251 0 383.5 -146.5t132.5 -392.5v-288zM319 90h306q206 0 310.5 119t104.5 321v304q0 202 -105 321t-312 119h-304v-543h412v-82h-412v-559z" />
    <glyph glyph-name="dcroat" unicode="&#x111;" horiz-adv-x="1038" 
d="M780 201q-58 -108 -132 -166t-191 -58q-159 0 -250.5 114t-91.5 288v194q0 172 94.5 286t253.5 114q111 0 182.5 -52t126.5 -145v379h-305v72h305v190h96v-190h144v-72h-144v-1155h-77zM473 885q-123 0 -191.5 -90.5t-68.5 -227.5v-182q0 -137 68.5 -228t191.5 -91
q118 0 208.5 99.5t90.5 242.5v135q0 144 -90.5 243t-208.5 99z" />
    <glyph glyph-name="Emacron" unicode="&#x112;" horiz-adv-x="1110" 
d="M305 1724h600v-84h-600v84zM201 1364h809v-90h-705v-539h561v-90h-561v-555h707v-90h-811v1364z" />
    <glyph glyph-name="emacron" unicode="&#x113;" horiz-adv-x="950" 
d="M195 1307h581v-84h-581v84zM840 281q0 -137 -94 -222.5t-250 -85.5q-190 0 -286.5 112t-96.5 298v166q0 189 99.5 308.5t270.5 119.5q174 0 266.5 -114.5t92.5 -299.5v-110h-633v-74q0 -143 69.5 -230.5t217.5 -87.5q116 0 184 60.5t68 161.5v8h92v-10zM209 555v-20h536
v32q0 145 -66 234.5t-198 89.5q-129 0 -200.5 -93t-71.5 -243z" />
    <glyph glyph-name="Ebreve" unicode="&#x114;" horiz-adv-x="1110" 
d="M604 1653q207 0 207 133q0 49 -16 112h63q27 -76 27 -133q0 -94 -78.5 -144t-202.5 -50t-202 49.5t-78 144.5q0 54 28 133h64q-19 -75 -19 -112q0 -133 207 -133zM201 1364h809v-90h-705v-539h561v-90h-561v-555h707v-90h-811v1364z" />
    <glyph glyph-name="ebreve" unicode="&#x115;" horiz-adv-x="950" 
d="M485 1239q99 0 143 38t44 114q0 45 -15 118h68q23 -90 23 -145q0 -105 -74 -158t-189 -53q-116 0 -189 53t-73 158q0 55 23 145h67q-14 -69 -14 -118q0 -76 44 -114t142 -38zM840 281q0 -137 -94 -222.5t-250 -85.5q-190 0 -286.5 112t-96.5 298v166q0 189 99.5 308.5
t270.5 119.5q174 0 266.5 -114.5t92.5 -299.5v-110h-633v-74q0 -143 69.5 -230.5t217.5 -87.5q116 0 184 60.5t68 161.5v8h92v-10zM209 555v-20h536v32q0 145 -66 234.5t-198 89.5q-129 0 -200.5 -93t-71.5 -243z" />
    <glyph glyph-name="Edotaccent" unicode="&#x116;" horiz-adv-x="1110" 
d="M545 1757h119v-153h-119v153zM201 1364h809v-90h-705v-539h561v-90h-561v-555h707v-90h-811v1364z" />
    <glyph glyph-name="edotaccent" unicode="&#x117;" horiz-adv-x="950" 
d="M426 1339h119v-151h-119v151zM840 281q0 -137 -94 -222.5t-250 -85.5q-190 0 -286.5 112t-96.5 298v166q0 189 99.5 308.5t270.5 119.5q174 0 266.5 -114.5t92.5 -299.5v-110h-633v-74q0 -143 69.5 -230.5t217.5 -87.5q116 0 184 60.5t68 161.5v8h92v-10zM209 555v-20
h536v32q0 145 -66 234.5t-198 89.5q-129 0 -200.5 -93t-71.5 -243z" />
    <glyph glyph-name="Eogonek" unicode="&#x118;" horiz-adv-x="1110" 
d="M1104 -465q-66 -47 -164 -47q-96 0 -149.5 50t-53.5 130q0 57 31 121q40 78 164 211h-731v1364h809v-90h-705v-539h561v-90h-561v-555h707v-90q-125 -136 -158 -201q-31 -64 -31 -118q0 -59 33 -88t90 -29q66 0 125 33z" />
    <glyph glyph-name="eogonek" unicode="&#x119;" horiz-adv-x="950" 
d="M872 -465q-66 -47 -163 -47q-96 0 -150.5 51t-54.5 133q0 71 33 138q34 77 114 192q-76 -29 -157 -29q-189 0 -285 112t-96 298v166q0 189 99.5 308.5t270.5 119.5q174 0 266.5 -114.5t92.5 -299.5v-110h-633v-74q0 -143 69.5 -230.5t217.5 -87.5q116 0 184 61.5
t68 162.5v6h92v-8q0 -93 -45 -166q-120 -188 -160 -269q-45 -90 -45 -161q0 -62 33.5 -92.5t89.5 -30.5q68 0 127 33zM209 555v-20h536v32q0 145 -66 234.5t-198 89.5q-129 0 -200.5 -93t-71.5 -243z" />
    <glyph glyph-name="Ecaron" unicode="&#x11a;" horiz-adv-x="1110" 
d="M301 1919q111 -22 187 -86t116 -147q42 84 118 147.5t187 85.5v-66q-189 -56 -252 -262h-106q-59 205 -250 262v66zM201 1364h809v-90h-705v-539h561v-90h-561v-555h707v-90h-811v1364z" />
    <glyph glyph-name="ecaron" unicode="&#x11b;" horiz-adv-x="950" 
d="M201 1542q101 -27 175.5 -100.5t108.5 -175.5q34 101 109 175t176 101v-69q-170 -67 -235 -306h-99q-65 238 -235 306v69zM840 281q0 -137 -94 -222.5t-250 -85.5q-190 0 -286.5 112t-96.5 298v166q0 189 99.5 308.5t270.5 119.5q174 0 266.5 -114.5t92.5 -299.5v-110
h-633v-74q0 -143 69.5 -230.5t217.5 -87.5q116 0 184 60.5t68 161.5v8h92v-10zM209 555v-20h536v32q0 145 -66 234.5t-198 89.5q-129 0 -200.5 -93t-71.5 -243z" />
    <glyph glyph-name="Gbreve" unicode="&#x11e;" horiz-adv-x="1284" 
d="M641 1661q207 0 207 133q0 38 -17 113h62q29 -69 29 -131q0 -96 -78.5 -146.5t-202.5 -50.5t-202.5 50.5t-78.5 146.5q0 62 29 131h62q-17 -75 -17 -113q0 -66 53.5 -99.5t153.5 -33.5zM651 1395q114 0 203 -35t143.5 -95t82.5 -135t28 -161v-35h-100v31q0 68 -22 128
t-64 108.5t-112.5 77t-160.5 28.5q-187 0 -292 -123.5t-105 -321.5v-356q0 -202 104.5 -323.5t282.5 -121.5q170 0 271.5 109t101.5 281v122h-348v95h448v-668h-68l-16 227q-117 -254 -403 -254q-218 0 -348 147.5t-130 395.5v336q0 157 59.5 279.5t175 193t269.5 70.5z" />
    <glyph glyph-name="gbreve" unicode="&#x11f;" horiz-adv-x="948" 
d="M473 1253q98 0 142 38t44 114q0 50 -14 121h68q22 -86 22 -146q0 -107 -73.5 -160t-188.5 -53q-116 0 -189 53t-73 160q0 60 22 146h68q-14 -71 -14 -121q0 -76 44 -114t142 -38zM903 -98q0 -109 -111.5 -171.5t-308.5 -62.5q-201 0 -309 56.5t-108 162.5q0 137 208 187
v4q-73 23 -110 54.5t-37 78.5q0 42 33 74.5t104 60.5q-123 85 -123 240v88q0 127 92 213t242 86q62 0 127 -21q71 6 115.5 18.5t65 34.5t26.5 46t4 63h82q6 -35 6 -57q0 -70 -50.5 -106t-152.5 -50q111 -76 111 -227v-88q0 -127 -91 -213t-245 -86q-73 0 -137 22
q-117 -36 -117 -88q0 -46 85 -71t194 -25h2q202 0 302.5 -57.5t100.5 -165.5zM473 371q114 0 179 59.5t65 153.5v94q0 91 -65 150t-179 59q-111 0 -175.5 -59t-64.5 -150v-94q0 -93 64.5 -153t175.5 -60zM485 -252q157 0 241.5 40t84.5 112q0 141 -324 141h-24
q-151 0 -227 -41t-76 -106q0 -69 81.5 -107.5t243.5 -38.5z" />
    <glyph glyph-name="Gdotaccent" unicode="&#x120;" horiz-adv-x="1284" 
d="M582 1767h118v-153h-118v153zM651 1395q114 0 203 -35t143.5 -95t82.5 -135t28 -161v-35h-100v31q0 68 -22 128t-64 108.5t-112.5 77t-160.5 28.5q-187 0 -292 -123.5t-105 -321.5v-356q0 -202 104.5 -323.5t282.5 -121.5q170 0 271.5 109t101.5 281v122h-348v95h448
v-668h-68l-16 227q-117 -254 -403 -254q-218 0 -348 147.5t-130 395.5v336q0 157 59.5 279.5t175 193t269.5 70.5z" />
    <glyph glyph-name="gdotaccent" unicode="&#x121;" horiz-adv-x="948" 
d="M414 1356h118v-154h-118v154zM903 -98q0 -109 -111.5 -171.5t-308.5 -62.5q-201 0 -309 56.5t-108 162.5q0 137 208 187v4q-73 23 -110 54.5t-37 78.5q0 42 33 74.5t104 60.5q-123 85 -123 240v88q0 127 92 213t242 86q62 0 127 -21q71 6 115.5 18.5t65 34.5t26.5 46
t4 63h82q6 -35 6 -57q0 -70 -50.5 -106t-152.5 -50q111 -76 111 -227v-88q0 -127 -91 -213t-245 -86q-73 0 -137 22q-117 -36 -117 -88q0 -46 85 -71t194 -25h2q202 0 302.5 -57.5t100.5 -165.5zM473 371q114 0 179 59.5t65 153.5v94q0 91 -65 150t-179 59
q-111 0 -175.5 -59t-64.5 -150v-94q0 -93 64.5 -153t175.5 -60zM485 -252q157 0 241.5 40t84.5 112q0 141 -324 141h-24q-151 0 -227 -41t-76 -106q0 -69 81.5 -107.5t243.5 -38.5z" />
    <glyph glyph-name="Gcommaaccent" unicode="&#x122;" horiz-adv-x="1284" 
d="M651 1395q114 0 203 -35t143.5 -95t82.5 -135t28 -161v-35h-100v31q0 68 -22 128t-64 108.5t-112.5 77t-160.5 28.5q-187 0 -292 -123.5t-105 -321.5v-356q0 -202 104.5 -323.5t282.5 -121.5q170 0 271.5 109t101.5 281v122h-348v95h448v-668h-68l-16 227
q-117 -254 -403 -254q-218 0 -348 147.5t-130 395.5v336q0 157 59.5 279.5t175 193t269.5 70.5zM569 -240h142v-147q0 -106 -54.5 -171.5t-169.5 -94.5v45q162 49 162 196h-80v172z" />
    <glyph glyph-name="gcommaaccent" unicode="&#x123;" horiz-adv-x="948" 
d="M406 1202v148q0 106 54 171.5t169 94.5v-45q-162 -46 -162 -197h80v-172h-141zM903 -98q0 -109 -111.5 -171.5t-308.5 -62.5q-201 0 -309 56.5t-108 162.5q0 137 208 187v4q-73 23 -110 54.5t-37 78.5q0 42 33 74.5t104 60.5q-123 85 -123 240v88q0 127 92 213t242 86
q62 0 127 -21q71 6 115.5 18.5t65 34.5t26.5 46t4 63h82q6 -35 6 -57q0 -70 -50.5 -106t-152.5 -50q111 -76 111 -227v-88q0 -127 -91 -213t-245 -86q-73 0 -137 22q-117 -36 -117 -88q0 -46 85 -71t194 -25h2q202 0 302.5 -57.5t100.5 -165.5zM473 371q114 0 179 59.5
t65 153.5v94q0 91 -65 150t-179 59q-111 0 -175.5 -59t-64.5 -150v-94q0 -93 64.5 -153t175.5 -60zM485 -252q157 0 241.5 40t84.5 112q0 141 -324 141h-24q-151 0 -227 -41t-76 -106q0 -69 81.5 -107.5t243.5 -38.5z" />
    <glyph glyph-name="Hbar" unicode="&#x126;" horiz-adv-x="1349" 
d="M319 645v-645h-104v1018h-160v84h160v262h104v-262h711v262h105v-262h159v-84h-159v-1018h-105v645h-711zM319 735h711v285h-711v-285z" />
    <glyph glyph-name="hbar" unicode="&#x127;" horiz-adv-x="1032" 
d="M266 578v-578h-96v1155h-143v72h143v190h96v-190h305v-72h-305v-393q65 105 143.5 158t186.5 53q126 0 200 -82t74 -219v-672h-98v666q0 99 -53 158t-146 59q-122 0 -214.5 -97t-92.5 -208z" />
    <glyph glyph-name="Imacron" unicode="&#x12a;" horiz-adv-x="526" 
d="M-37 1724h600v-84h-600v84zM211 1364h104v-1364h-104v1364z" />
    <glyph glyph-name="imacron" unicode="&#x12b;" horiz-adv-x="444" 
d="M-70 1300h584v-83h-584v83zM174 952h96v-952h-96v952z" />
    <glyph glyph-name="Ibreve" unicode="&#x12c;" horiz-adv-x="526" 
d="M262 1653q207 0 207 133q0 49 -16 112h63q27 -76 27 -133q0 -95 -77.5 -144.5t-203.5 -49.5q-124 0 -202 49.5t-78 144.5q0 54 28 133h64q-19 -75 -19 -112q0 -133 207 -133zM211 1364h104v-1364h-104v1364z" />
    <glyph glyph-name="ibreve" unicode="&#x12d;" horiz-adv-x="444" 
d="M223 1233q98 0 141.5 37.5t43.5 113.5q0 38 -13 121h66q22 -74 22 -145q0 -107 -72.5 -160t-187.5 -53q-116 0 -189 53t-73 160q0 68 23 145h65q-12 -77 -12 -121q0 -76 43.5 -113.5t142.5 -37.5zM174 952h96v-952h-96v952z" />
    <glyph glyph-name="Iogonek" unicode="&#x12e;" horiz-adv-x="526" 
d="M420 -465q-63 -47 -162 -47q-95 0 -150 48.5t-55 131.5q0 56 35 121q26 52 123 168v1407h104v-1364q-119 -154 -141 -199q-35 -61 -35 -127q0 -55 33 -84.5t86 -29.5q65 0 131 37z" />
    <glyph glyph-name="iogonek" unicode="&#x12f;" horiz-adv-x="444" 
d="M164 1335h119v-153h-119v153zM383 -465q-63 -47 -162 -47q-96 0 -150.5 50t-54.5 130q0 59 33 127q39 76 125 182v975h96v-952q-104 -134 -133 -193q-35 -68 -35 -126q0 -59 33.5 -88t89.5 -29q65 0 127 33z" />
    <glyph glyph-name="Idotaccent" unicode="&#x130;" horiz-adv-x="526" 
d="M203 1757h121v-153h-121v153zM211 1364h104v-1364h-104v1364z" />
    <glyph glyph-name="dotlessi" unicode="&#x131;" horiz-adv-x="444" 
d="M174 952h96v-952h-96v952z" />
    <glyph glyph-name="Kcommaaccent" unicode="&#x136;" horiz-adv-x="1157" 
d="M981 0q-365 530 -469 684l-207 -250v-434h-104v1364h104v-795l664 795h127l-518 -600l524 -764h-121zM547 -219h141v-148q0 -106 -54 -171.5t-169 -94.5v45q164 49 164 197h-82v172z" />
    <glyph glyph-name="kcommaaccent" unicode="&#x137;" horiz-adv-x="905" 
d="M170 1417h96v-1055l443 590h112l-297 -387l324 -565h-109l-276 483l-197 -254v-229h-96v1417zM410 -219h141v-148q0 -106 -54 -171.5t-169 -94.5v45q161 49 161 197h-79v172z" />
    <glyph glyph-name="Lacute" unicode="&#x139;" horiz-adv-x="1013" 
d="M571 1898l-282 -317h-74l223 317h133zM201 1364h104v-1274h643v-90h-747v1364z" />
    <glyph glyph-name="lacute" unicode="&#x13a;" horiz-adv-x="444" 
d="M555 1892l-297 -364h-74l236 364h135zM174 1417h96v-1417h-96v1417z" />
    <glyph glyph-name="Lcommaaccent" unicode="&#x13b;" horiz-adv-x="1013" 
d="M201 1364h104v-1274h643v-90h-747v1364zM487 -233h142v-148q0 -105 -54 -170t-169 -96v47q161 46 161 194h-80v173z" />
    <glyph glyph-name="lcommaaccent" unicode="&#x13c;" horiz-adv-x="444" 
d="M174 1417h96v-1417h-96v1417zM152 -233h141v-148q0 -105 -55 -170t-170 -96v47q163 46 163 194h-79v173z" />
    <glyph glyph-name="Lcaron" unicode="&#x13d;" horiz-adv-x="1013" 
d="M524 1364h101l-54 -356h-61zM201 1364h104v-1274h643v-90h-747v1364z" />
    <glyph glyph-name="lcaron" unicode="&#x13e;" horiz-adv-x="444" 
d="M451 1417h98l-53 -356h-62zM174 1417h96v-1417h-96v1417z" />
    <glyph glyph-name="Ldot" unicode="&#x13f;" horiz-adv-x="1013" 
d="M201 1364h104v-1274h643v-90h-747v1364zM698 741h121v-151h-121v151z" />
    <glyph glyph-name="ldot" unicode="&#x140;" horiz-adv-x="587" 
d="M174 1417h96v-1417h-96v1417zM457 756h118v-154h-118v154z" />
    <glyph glyph-name="Lslash" unicode="&#x141;" horiz-adv-x="1017" 
d="M952 90v-90h-747v555l-150 -84l-41 72l191 104v717h104v-657l361 202l39 -71l-400 -226v-522h643z" />
    <glyph glyph-name="lslash" unicode="&#x142;" horiz-adv-x="499" 
d="M504 829l-205 -129v-700h-98v639l-160 -100l-41 61l201 127v690h98v-629l164 103z" />
    <glyph glyph-name="Nacute" unicode="&#x143;" horiz-adv-x="1325" 
d="M938 1884l-283 -317h-73l221 317h135zM201 1364h96l727 -1159h4v1159h98v-1364h-90l-735 1169h-4v-1169h-96v1364z" />
    <glyph glyph-name="nacute" unicode="&#x144;" horiz-adv-x="1032" 
d="M801 1542l-297 -364h-74l236 364h135zM170 952h78l10 -204q66 113 146 169t192 56q126 0 200 -82t74 -219v-672h-98v666q0 99 -53 158t-146 59q-122 0 -214.5 -97t-92.5 -208v-578h-96v952z" />
    <glyph glyph-name="Ncommaaccent" unicode="&#x145;" horiz-adv-x="1325" 
d="M201 1364h96l727 -1159h4v1159h98v-1364h-90l-735 1169h-4v-1169h-96v1364zM592 -219h141v-148q0 -106 -54 -171.5t-169 -94.5v45q162 49 162 197h-80v172z" />
    <glyph glyph-name="ncommaaccent" unicode="&#x146;" horiz-adv-x="1032" 
d="M170 952h78l10 -204q66 113 146 169t192 56q126 0 200 -82t74 -219v-672h-98v666q0 99 -53 158t-146 59q-122 0 -214.5 -97t-92.5 -208v-578h-96v952zM438 -219h142v-148q0 -106 -54.5 -171.5t-169.5 -94.5v45q162 49 162 197h-80v172z" />
    <glyph glyph-name="Ncaron" unicode="&#x147;" horiz-adv-x="1325" 
d="M354 1905q111 -22 187 -86.5t116 -147.5q42 84 118.5 148.5t187.5 85.5v-66q-189 -56 -252 -262h-107q-59 205 -250 262v66zM201 1364h96l727 -1159h4v1159h98v-1364h-90l-735 1169h-4v-1169h-96v1364z" />
    <glyph glyph-name="ncaron" unicode="&#x148;" horiz-adv-x="1032" 
d="M225 1556q101 -27 176 -100.5t109 -173.5q34 100 109 173.5t176 100.5v-69q-175 -66 -236 -305h-98q-64 239 -236 305v69zM170 952h78l10 -204q66 113 146 169t192 56q126 0 200 -82t74 -219v-672h-98v666q0 99 -53 158t-146 59q-122 0 -214.5 -97t-92.5 -208v-578h-96
v952z" />
    <glyph glyph-name="Omacron" unicode="&#x14c;" horiz-adv-x="1314" 
d="M356 1733h600v-84h-600v84zM657 1395q236 0 373 -149.5t137 -399.5v-328q0 -250 -137 -399.5t-373 -149.5t-373 149.5t-137 399.5v328q0 250 137 399.5t373 149.5zM657 1307q-186 0 -295.5 -124.5t-109.5 -326.5v-348q0 -202 109 -326.5t296 -124.5q186 0 296 124.5
t110 326.5v348q0 202 -110 326.5t-296 124.5z" />
    <glyph glyph-name="omacron" unicode="&#x14d;" horiz-adv-x="987" 
d="M203 1307h581v-84h-581v84zM494 977q176 0 278 -116t102 -296v-180q0 -177 -105.5 -294.5t-276.5 -117.5q-173 0 -277 116.5t-104 293.5v182q0 179 103 295.5t280 116.5zM494 891q-133 0 -209 -90.5t-76 -229.5v-192q0 -139 78 -228.5t207 -89.5q127 0 204.5 89.5
t77.5 228.5v192q0 139 -76 229.5t-206 90.5z" />
    <glyph glyph-name="Obreve" unicode="&#x14e;" horiz-adv-x="1314" 
d="M657 1661q100 0 153.5 33.5t53.5 99.5q0 45 -18 113h63q29 -78 29 -131q0 -96 -78.5 -146.5t-202.5 -50.5t-202 50.5t-78 146.5q0 61 26 131h64q-16 -61 -16 -113q0 -133 206 -133zM657 1395q236 0 373 -149.5t137 -399.5v-328q0 -250 -137 -399.5t-373 -149.5
t-373 149.5t-137 399.5v328q0 250 137 399.5t373 149.5zM657 1307q-186 0 -295.5 -124.5t-109.5 -326.5v-348q0 -202 109 -326.5t296 -124.5q186 0 296 124.5t110 326.5v348q0 202 -110 326.5t-296 124.5z" />
    <glyph glyph-name="obreve" unicode="&#x14f;" horiz-adv-x="987" 
d="M494 1239q98 0 142 38t44 114q0 49 -14 118h67q23 -90 23 -145q0 -105 -73.5 -158t-188.5 -53q-116 0 -189.5 53t-73.5 158q0 55 23 145h68q-15 -73 -15 -118q0 -76 44 -114t143 -38zM494 977q176 0 278 -116t102 -296v-180q0 -177 -105.5 -294.5t-276.5 -117.5
q-173 0 -277 116.5t-104 293.5v182q0 179 103 295.5t280 116.5zM494 891q-133 0 -209 -90.5t-76 -229.5v-192q0 -139 78 -228.5t207 -89.5q127 0 204.5 89.5t77.5 228.5v192q0 139 -76 229.5t-206 90.5z" />
    <glyph glyph-name="Ohungarumlaut" unicode="&#x150;" horiz-adv-x="1314" 
d="M791 1907l-271 -318h-65l207 318h129zM1102 1907l-271 -318h-63l205 318h129zM657 1395q236 0 373 -149.5t137 -399.5v-328q0 -250 -137 -399.5t-373 -149.5t-373 149.5t-137 399.5v328q0 250 137 399.5t373 149.5zM657 1307q-186 0 -295.5 -124.5t-109.5 -326.5v-348
q0 -202 109 -326.5t296 -124.5q186 0 296 124.5t110 326.5v348q0 202 -110 326.5t-296 124.5z" />
    <glyph glyph-name="ohungarumlaut" unicode="&#x151;" horiz-adv-x="987" 
d="M657 1528l-278 -365h-68l219 365h127zM965 1528l-281 -365h-66l220 365h127zM494 977q176 0 278 -116t102 -296v-180q0 -177 -105.5 -294.5t-276.5 -117.5q-173 0 -277 116.5t-104 293.5v182q0 179 103 295.5t280 116.5zM494 891q-133 0 -209 -90.5t-76 -229.5v-192
q0 -139 78 -228.5t207 -89.5q127 0 204.5 89.5t77.5 228.5v192q0 139 -76 229.5t-206 90.5z" />
    <glyph glyph-name="OE" unicode="&#x152;" horiz-adv-x="1880" 
d="M1782 0h-1120q-251 0 -385 147t-134 392v288q0 243 135 390t384 147h1118v-90h-705v-539h561v-90h-561v-555h707v-90zM664 1274q-206 0 -310 -119t-104 -321v-302q0 -203 105.5 -322.5t310.5 -119.5h305v1184h-307z" />
    <glyph glyph-name="oe" unicode="&#x153;" horiz-adv-x="1613" 
d="M1503 287q0 -138 -95 -226t-251 -88q-125 0 -211 52t-127 143q-47 -90 -131.5 -142.5t-195.5 -52.5q-172 0 -276.5 116.5t-104.5 293.5v182q0 178 103.5 295t279.5 117q117 0 202 -54t129 -149q44 96 126 149.5t194 53.5q174 0 267 -114.5t93 -299.5v-110h-633v-74
q0 -143 69 -230.5t218 -87.5q115 0 182.5 63.5t67.5 164.5v6h94v-8zM872 555v-20h537v32q0 145 -66 234.5t-198 89.5q-129 0 -201 -93t-72 -243zM492 889q-131 0 -207 -90t-76 -228v-192q0 -139 78 -228.5t205 -89.5q128 0 205 89.5t77 228.5v192q0 138 -75.5 228t-206.5 90
z" />
    <glyph glyph-name="Racute" unicode="&#x154;" horiz-adv-x="1187" 
d="M874 1898l-280 -317h-76l223 317h133zM305 598v-598h-104v1364h446q406 0 406 -340v-80q0 -131 -81 -221.5t-231 -114.5l355 -608h-117l-346 598h-328zM305 1274v-588h322q151 0 236 71.5t85 190.5v72q0 132 -73.5 193t-233.5 61h-336z" />
    <glyph glyph-name="racute" unicode="&#x155;" horiz-adv-x="675" 
d="M684 1522l-297 -365h-74l236 365h135zM170 952h78l10 -243q23 55 49.5 97.5t63.5 80.5t87 58t111 20q22 0 66 -7v-98q-35 6 -64 6q-125 0 -215 -98t-90 -225v-543h-96v952z" />
    <glyph glyph-name="Rcommaaccent" unicode="&#x156;" horiz-adv-x="1187" 
d="M305 598v-598h-104v1364h446q406 0 406 -340v-80q0 -131 -81 -221.5t-231 -114.5l355 -608h-117l-346 598h-328zM305 1274v-588h322q151 0 236 71.5t85 190.5v72q0 132 -73.5 193t-233.5 61h-336zM553 -219h141v-148q0 -106 -54 -171.5t-169 -94.5v45q162 49 162 197h-80
v172z" />
    <glyph glyph-name="rcommaaccent" unicode="&#x157;" horiz-adv-x="675" 
d="M170 952h78l10 -243q23 55 49.5 97.5t63.5 80.5t87 58t111 20q22 0 66 -7v-98q-35 6 -64 6q-125 0 -215 -98t-90 -225v-543h-96v952zM147 -233h142v-148q0 -105 -54 -170t-169 -96v47q161 46 161 194h-80v173z" />
    <glyph glyph-name="Rcaron" unicode="&#x158;" horiz-adv-x="1187" 
d="M291 1919q111 -22 187 -85.5t118 -147.5q42 84 117 148t186 85v-66q-187 -56 -250 -262h-106q-63 206 -252 262v66zM305 598v-598h-104v1364h446q406 0 406 -340v-80q0 -131 -81 -221.5t-231 -114.5l355 -608h-117l-346 598h-328zM305 1274v-588h322q151 0 236 71.5
t85 190.5v72q0 132 -73.5 193t-233.5 61h-336z" />
    <glyph glyph-name="rcaron" unicode="&#x159;" horiz-adv-x="675" 
d="M106 1536q101 -27 176 -100.5t109 -173.5q34 100 109 173.5t176 100.5v-70q-173 -69 -236 -305h-98q-60 236 -236 305v70zM170 952h78l10 -243q23 55 49.5 97.5t63.5 80.5t87 58t111 20q22 0 66 -7v-98q-35 6 -64 6q-125 0 -215 -98t-90 -225v-543h-96v952z" />
    <glyph glyph-name="Sacute" unicode="&#x15a;" horiz-adv-x="1146" 
d="M862 1905l-280 -318h-74l221 318h133zM582 1393q115 0 200.5 -31t135 -85t73 -121t23.5 -146v-60h-105v54q0 63 -16.5 114t-53 94t-102.5 67t-157 24q-148 0 -235 -74.5t-87 -194.5q0 -50 13.5 -87.5t38 -66t70.5 -54t97 -45.5t133 -46q112 -36 180.5 -67t126.5 -76.5
t83.5 -106t25.5 -143.5q0 -173 -118.5 -272t-315.5 -99q-229 0 -345 107.5t-116 286.5v67h105v-61q0 -146 88 -228t270 -82q150 0 239 71.5t89 201.5q0 66 -18.5 111t-66.5 81t-108.5 61.5t-165.5 59.5q-84 26 -142 48.5t-112 55t-85.5 70t-50.5 89.5t-19 118
q0 159 116.5 262t311.5 103z" />
    <glyph glyph-name="sacute" unicode="&#x15b;" horiz-adv-x="909" 
d="M743 1528l-294 -365h-76l235 365h135zM463 -25q-174 0 -265.5 85t-91.5 221v38h95v-36q0 -103 67.5 -163.5t196.5 -60.5q109 0 172 48t63 139q0 79 -57.5 121t-204.5 75q-159 36 -234 97t-75 176q0 109 89 185.5t237 76.5q160 0 242.5 -79.5t82.5 -207.5v-31h-92v27
q0 98 -59.5 152.5t-175.5 54.5q-102 0 -166 -49.5t-64 -126.5q0 -78 61.5 -120t202.5 -75q161 -37 234.5 -97.5t73.5 -176.5q0 -125 -89.5 -199t-242.5 -74z" />
    <glyph glyph-name="Scedilla" unicode="&#x15e;" horiz-adv-x="1146" 
d="M793 -328q0 -88 -62 -136t-176 -48q-120 0 -227 51l26 62q97 -43 201 -43q156 0 156 116q0 47 -33.5 75t-99.5 28q-51 0 -117 -25l-35 49l127 172q-210 9 -316 114.5t-106 277.5v67h105v-61q0 -146 88 -228t270 -82q150 0 239 71.5t89 201.5q0 66 -18.5 111t-66.5 81
t-108.5 61.5t-165.5 59.5q-84 26 -142 48.5t-112 55t-85.5 70t-50.5 89.5t-19 118q0 159 116.5 262t311.5 103q115 0 200.5 -31t135 -85t73 -121t23.5 -146v-60h-105v54q0 63 -16.5 114t-53 94t-102.5 67t-157 24q-148 0 -235 -74.5t-87 -194.5q0 -50 13.5 -87.5t38 -66
t70.5 -54t97 -45.5t133 -46q112 -36 180.5 -67t126.5 -76.5t83.5 -106t25.5 -143.5q0 -164 -107 -262t-288 -107l-113 -145q35 14 90 14q85 0 135 -45.5t50 -124.5z" />
    <glyph glyph-name="scedilla" unicode="&#x15f;" horiz-adv-x="909" 
d="M662 -328q0 -88 -62 -136t-176 -48q-123 0 -227 51l26 62q94 -43 201 -43q156 0 156 116q0 46 -34 74.5t-100 28.5q-50 0 -116 -25l-35 49l129 174q-154 10 -236 94t-82 212v38h95v-36q0 -103 67.5 -163.5t196.5 -60.5q109 0 172 48t63 139q0 79 -57.5 121t-204.5 75
q-159 36 -234 97t-75 176q0 109 89 185.5t237 76.5q160 0 242.5 -79.5t82.5 -207.5v-31h-92v27q0 98 -59.5 152.5t-175.5 54.5q-102 0 -166 -49.5t-64 -126.5q0 -78 61.5 -120t202.5 -75q161 -37 234.5 -97.5t73.5 -176.5t-78.5 -189.5t-214.5 -83.5l-117 -147q40 14 92 14
q85 0 135 -45.5t50 -124.5z" />
    <glyph glyph-name="Scaron" unicode="&#x160;" horiz-adv-x="1146" 
d="M281 1925q111 -21 186 -85t117 -148q42 84 118 147.5t187 85.5v-65q-190 -56 -252 -263h-107q-62 208 -249 263v65zM582 1393q115 0 200.5 -31t135 -85t73 -121t23.5 -146v-60h-105v54q0 63 -16.5 114t-53 94t-102.5 67t-157 24q-148 0 -235 -74.5t-87 -194.5
q0 -50 13.5 -87.5t38 -66t70.5 -54t97 -45.5t133 -46q112 -36 180.5 -67t126.5 -76.5t83.5 -106t25.5 -143.5q0 -173 -118.5 -272t-315.5 -99q-229 0 -345 107.5t-116 286.5v67h105v-61q0 -146 88 -228t270 -82q150 0 239 71.5t89 201.5q0 66 -18.5 111t-66.5 81
t-108.5 61.5t-165.5 59.5q-84 26 -142 48.5t-112 55t-85.5 70t-50.5 89.5t-19 118q0 159 116.5 262t311.5 103z" />
    <glyph glyph-name="scaron" unicode="&#x161;" horiz-adv-x="909" 
d="M168 1542q101 -27 176 -101t109 -175q34 102 108.5 175.5t175.5 100.5v-69q-170 -67 -235 -306h-99q-65 238 -235 306v69zM463 -25q-174 0 -265.5 85t-91.5 221v38h95v-36q0 -103 67.5 -163.5t196.5 -60.5q109 0 172 48t63 139q0 79 -57.5 121t-204.5 75q-159 36 -234 97
t-75 176q0 109 89 185.5t237 76.5q160 0 242.5 -79.5t82.5 -207.5v-31h-92v27q0 98 -59.5 152.5t-175.5 54.5q-102 0 -166 -49.5t-64 -126.5q0 -78 61.5 -120t202.5 -75q161 -37 234.5 -97.5t73.5 -176.5q0 -125 -89.5 -199t-242.5 -74z" />
    <glyph glyph-name="Tcommaaccent" unicode="&#x162;" horiz-adv-x="1097" 
d="M66 1364h966v-90h-430v-1274h-104v1274h-432v90zM479 -233h142v-148q0 -105 -54.5 -170t-169.5 -96v47q162 46 162 194h-80v173z" />
    <glyph glyph-name="Tcommaaccent" unicode="&#x21a;" horiz-adv-x="1097" 
d="M66 1364h966v-90h-430v-1274h-104v1274h-432v90zM479 -233h142v-148q0 -105 -54.5 -170t-169.5 -96v47q162 46 162 194h-80v173z" />
    <glyph glyph-name="tcommaaccent" unicode="&#x163;" horiz-adv-x="677" 
d="M74 952h155v215l99 35v-250h282v-86h-282v-571q0 -125 40.5 -168t147.5 -43h51v-86h-61q-70 0 -118 11.5t-85.5 41t-55.5 84t-18 135.5v596h-155v86zM307 -236h142v-147q0 -106 -54.5 -171.5t-169.5 -94.5v45q164 49 164 196h-82v172z" />
    <glyph glyph-name="tcommaaccent" unicode="&#x21b;" horiz-adv-x="677" 
d="M74 952h155v215l99 35v-250h282v-86h-282v-571q0 -125 40.5 -168t147.5 -43h51v-86h-61q-70 0 -118 11.5t-85.5 41t-55.5 84t-18 135.5v596h-155v86zM307 -236h142v-147q0 -106 -54.5 -171.5t-169.5 -94.5v45q164 49 164 196h-82v172z" />
    <glyph glyph-name="Tcaron" unicode="&#x164;" horiz-adv-x="1097" 
d="M246 1919q111 -22 187 -85.5t118 -147.5q40 83 116 147t187 86v-66q-191 -57 -250 -262h-106q-63 206 -252 262v66zM66 1364h966v-90h-430v-1274h-104v1274h-432v90z" />
    <glyph glyph-name="tcaron" unicode="&#x165;" horiz-adv-x="677" 
d="M518 1456h100l-53 -354h-61zM74 952h155v215l99 35v-250h282v-86h-282v-571q0 -125 40.5 -168t147.5 -43h51v-86h-61q-70 0 -118 11.5t-85.5 41t-55.5 84t-18 135.5v596h-155v86z" />
    <glyph glyph-name="Umacron" unicode="&#x16a;" horiz-adv-x="1282" 
d="M342 1710h598v-84h-598v84zM184 1364h105v-928q0 -181 92.5 -277t259.5 -96t259.5 96t92.5 277v928h105v-930q0 -221 -121.5 -341t-337.5 -120q-214 0 -334.5 120t-120.5 341v930z" />
    <glyph glyph-name="umacron" unicode="&#x16b;" horiz-adv-x="1032" 
d="M221 1288h584v-84h-584v84zM162 952h98v-665q0 -99 53 -159t146 -60q122 0 214.5 98t92.5 211v575h96v-952h-78l-10 205q-66 -113 -146 -169t-192 -56q-126 0 -200 82t-74 219v671z" />
    <glyph glyph-name="Ubreve" unicode="&#x16c;" horiz-adv-x="1282" 
d="M641 1638q207 0 207 134q0 37 -17 112h62q29 -69 29 -133q0 -95 -78.5 -145t-202.5 -50t-202.5 50t-78.5 145q0 64 29 133h62q-17 -75 -17 -112q0 -134 207 -134zM184 1364h105v-928q0 -181 92.5 -277t259.5 -96t259.5 96t92.5 277v928h105v-930q0 -221 -121.5 -341
t-337.5 -120q-214 0 -334.5 120t-120.5 341v930z" />
    <glyph glyph-name="ubreve" unicode="&#x16d;" horiz-adv-x="1032" 
d="M512 1219q99 0 142.5 38t43.5 115q0 46 -12 119h66q22 -74 22 -145q0 -107 -72.5 -159t-189.5 -52q-115 0 -187.5 52t-72.5 159q0 71 22 145h66q-12 -77 -12 -119q0 -77 42.5 -115t141.5 -38zM162 952h98v-665q0 -99 53 -159t146 -60q122 0 214.5 98t92.5 211v575h96
v-952h-78l-10 205q-66 -113 -146 -169t-192 -56q-126 0 -200 82t-74 219v671z" />
    <glyph glyph-name="Uring" unicode="&#x16e;" horiz-adv-x="1282" 
d="M641 1931q94 0 152.5 -56.5t58.5 -135.5q0 -81 -58.5 -137t-152.5 -56t-152.5 56t-58.5 137q0 79 58.5 135.5t152.5 56.5zM641 1864q-62 0 -99.5 -35.5t-37.5 -89.5t37.5 -89.5t99.5 -35.5t98.5 35.5t36.5 89.5t-36.5 89.5t-98.5 35.5zM184 1364h105v-928
q0 -181 92.5 -277t259.5 -96t259.5 96t92.5 277v928h105v-930q0 -221 -121.5 -341t-337.5 -120q-214 0 -334.5 120t-120.5 341v930z" />
    <glyph glyph-name="uring" unicode="&#x16f;" horiz-adv-x="1032" 
d="M512 1509q93 0 151 -56.5t58 -135.5q0 -80 -58 -136.5t-151 -56.5t-150 56t-57 137q0 79 57.5 135.5t149.5 56.5zM512 1442q-59 0 -96 -36.5t-37 -88.5q0 -53 37 -89t96 -36q60 0 97.5 35.5t37.5 89.5q0 52 -37.5 88.5t-97.5 36.5zM162 952h98v-665q0 -99 53 -159
t146 -60q122 0 214.5 98t92.5 211v575h96v-952h-78l-10 205q-66 -113 -146 -169t-192 -56q-126 0 -200 82t-74 219v671z" />
    <glyph glyph-name="Uhungarumlaut" unicode="&#x170;" horiz-adv-x="1282" 
d="M774 1884l-270 -317h-64l205 317h129zM1085 1884l-270 -317h-63l204 317h129zM184 1364h105v-928q0 -181 92.5 -277t259.5 -96t259.5 96t92.5 277v928h105v-930q0 -221 -121.5 -341t-337.5 -120q-214 0 -334.5 120t-120.5 341v930z" />
    <glyph glyph-name="uhungarumlaut" unicode="&#x171;" horiz-adv-x="1032" 
d="M676 1507l-279 -362h-65l219 362h125zM983 1507l-278 -362h-68l219 362h127zM162 952h98v-665q0 -99 53 -159t146 -60q122 0 214.5 98t92.5 211v575h96v-952h-78l-10 205q-66 -113 -146 -169t-192 -56q-126 0 -200 82t-74 219v671z" />
    <glyph glyph-name="Uogonek" unicode="&#x172;" horiz-adv-x="1282" 
d="M852 -465q-66 -47 -164 -47q-96 0 -149.5 50t-53.5 130q0 65 33 127q34 67 123 178h-2q-214 0 -334.5 120t-120.5 341v930h105v-928q0 -181 92.5 -277t259.5 -96t259.5 96t92.5 277v928h105v-930q0 -198 -99 -316.5t-278 -140.5q-88 -115 -117 -170q-33 -74 -33 -126
q0 -59 33 -88t88 -29q65 0 127 33z" />
    <glyph glyph-name="uogonek" unicode="&#x173;" horiz-adv-x="1032" 
d="M975 -465q-63 -47 -162 -47q-96 0 -150.5 50t-54.5 130q0 59 33 127q43 84 141 205l-8 205q-66 -113 -146 -169t-192 -56q-126 0 -200 82t-74 219v671h98v-665q0 -99 53 -159t146 -60q122 0 214.5 98t92.5 211v575h96v-952q-104 -134 -133 -193q-35 -68 -35 -126
q0 -59 33 -88t90 -29q65 0 127 33z" />
    <glyph glyph-name="Wcircumflex" unicode="&#x174;" horiz-adv-x="1808" 
d="M852 1905h109q59 -207 249 -263v-65q-111 22 -187 85.5t-118 147.5q-40 -83 -116 -147t-187 -86v65q191 57 250 263zM106 1364h111l297 -1208h4l338 1214h96l340 -1214h4l299 1208h107l-365 -1382h-98l-336 1204h-4l-340 -1204h-96z" />
    <glyph glyph-name="wcircumflex" unicode="&#x175;" horiz-adv-x="1374" 
d="M643 1522h98q64 -236 236 -305v-70q-102 29 -176.5 102t-108.5 174q-34 -101 -108.5 -174t-175.5 -102v70q170 67 235 305zM70 952h100l229 -831h4l234 831h98l240 -831h4l225 831h101l-285 -960h-88l-246 819h-4l-242 -819h-88z" />
    <glyph glyph-name="Ycircumflex" unicode="&#x176;" horiz-adv-x="1144" 
d="M520 1884h107q63 -206 252 -262v-66q-111 21 -187.5 85.5t-118.5 148.5q-40 -83 -116 -147.5t-187 -86.5v66q191 57 250 262zM63 1364h119l396 -727l387 727h114l-452 -829v-535h-105v535z" />
    <glyph glyph-name="ycircumflex" unicode="&#x177;" horiz-adv-x="905" 
d="M416 1507h98q65 -237 236 -303v-69q-101 27 -176 100.5t-109 173.5q-34 -100 -109 -173.5t-176 -100.5v69q171 66 236 303zM510 -27q-30 -79 -57 -129t-63 -88t-81 -54.5t-106 -16.5h-56v92h48q83 0 126.5 36t73.5 121l17 52l-342 966h102l293 -843l285 843h102z" />
    <glyph glyph-name="Ydieresis" unicode="&#x178;" horiz-adv-x="1144" 
d="M342 1743h119v-152h-119v152zM686 1743h121v-152h-121v152zM63 1364h119l396 -727l387 727h114l-452 -829v-535h-105v535z" />
    <glyph glyph-name="Zacute" unicode="&#x179;" horiz-adv-x="1112" 
d="M844 1898l-281 -317h-74l222 317h133zM133 1364h881v-61l-781 -1213h764v-90h-897v61l787 1213h-754v90z" />
    <glyph glyph-name="zacute" unicode="&#x17a;" horiz-adv-x="872" 
d="M739 1522l-295 -365h-75l235 365h135zM121 952h665v-63l-565 -803h553v-86h-676v63l566 805h-543v84z" />
    <glyph glyph-name="Zdotaccent" unicode="&#x17b;" horiz-adv-x="1112" 
d="M506 1757h119v-153h-119v153zM133 1364h881v-61l-781 -1213h764v-90h-897v61l787 1213h-754v90z" />
    <glyph glyph-name="zdotaccent" unicode="&#x17c;" horiz-adv-x="872" 
d="M389 1335h119v-153h-119v153zM121 952h665v-63l-565 -803h553v-86h-676v63l566 805h-543v84z" />
    <glyph glyph-name="Zcaron" unicode="&#x17d;" horiz-adv-x="1112" 
d="M262 1919q111 -21 186 -85t117 -148q42 84 118 147.5t187 85.5v-66q-189 -56 -252 -262h-106q-63 206 -250 262v66zM133 1364h881v-61l-781 -1213h764v-90h-897v61l787 1213h-754v90z" />
    <glyph glyph-name="zcaron" unicode="&#x17e;" horiz-adv-x="872" 
d="M164 1536q101 -27 176 -100.5t109 -173.5q34 100 108.5 173.5t175.5 100.5v-70q-171 -66 -235 -305h-99q-64 239 -235 305v70zM121 952h665v-63l-565 -803h553v-86h-676v63l566 805h-543v84z" />
    <glyph glyph-name="Aringacute" unicode="&#x1fa;" horiz-adv-x="1234" 
d="M936 2085l-283 -318h-73l223 318h133zM1042 0l-133 385h-587l-134 -385h-106l461 1315q-64 20 -99.5 68.5t-35.5 111.5q0 81 57 137t151 56t152.5 -56t58.5 -137q0 -61 -36.5 -110.5t-98.5 -69.5l461 -1315h-111zM616 1620q-62 0 -98.5 -35.5t-36.5 -89.5t36.5 -89.5
t98.5 -35.5t100 35.5t38 89.5t-38 89.5t-100 35.5zM614 1231l-262 -756h527z" />
    <glyph glyph-name="aringacute" unicode="&#x1fb;" horiz-adv-x="974" 
d="M809 2005l-297 -365h-74l236 365h135zM477 1528q91 0 149 -57t58 -136q0 -80 -57.5 -136t-149.5 -56q-93 0 -151 56t-58 136q0 79 58.5 136t150.5 57zM477 1460q-60 0 -97.5 -36.5t-37.5 -88.5q0 -54 37.5 -89.5t97.5 -35.5q59 0 96 36t37 89q0 52 -37 88.5t-96 36.5z
M705 180q-118 -200 -336 -200q-122 0 -188 66t-66 183q0 173 159 252q130 65 431 94v87q0 227 -228 227q-109 0 -173 -54.5t-64 -148.5v-20h-93v22q0 129 88 209t246 80t238 -80t80 -231v-435q0 -103 24.5 -132t100.5 -29v-78h-33q-89 0 -135.5 41.5t-50.5 146.5zM213 231
q0 -165 172 -165q120 0 220 92t100 198v140q-274 -28 -375 -80q-64 -31 -90.5 -76t-26.5 -109z" />
    <glyph glyph-name="AEacute" unicode="&#x1fc;" horiz-adv-x="1787" 
d="M1251 1898l-282 -317h-74l221 317h135zM-14 0l835 1364h867v-90h-705v-539h563v-90h-563v-555h707v-90h-811v385h-541l-236 -385h-116zM874 1268l-481 -793h486v793h-5z" />
    <glyph glyph-name="aeacute" unicode="&#x1fd;" horiz-adv-x="1538" 
d="M1063 1526l-297 -365h-74l236 365h135zM1427 287q0 -139 -94 -226.5t-252 -87.5q-139 0 -227 63.5t-125 174.5q-50 -116 -141.5 -175t-214.5 -59t-190.5 66.5t-67.5 183.5q0 173 159 252q134 66 428 94v95q0 113 -54 167t-169 54q-110 0 -174.5 -54.5t-64.5 -148.5v-20
h-93v22q0 128 88.5 208.5t245.5 80.5q229 0 291 -168q44 80 119.5 124t177.5 44q175 0 268 -114.5t93 -299.5v-110h-633v-74q0 -69 15.5 -124.5t48 -100t89 -69t133.5 -24.5q115 0 182.5 63.5t67.5 164.5v6h94v-8zM797 559v-24h536v32q0 145 -66 234.5t-198 89.5
q-129 0 -200.5 -91t-71.5 -241zM213 229q0 -166 172 -166q129 0 223 91.5t94 220.5v117q-270 -25 -372 -76q-63 -33 -90 -78t-27 -109z" />
    <glyph glyph-name="Oslashacute" unicode="&#x1fe;" horiz-adv-x="1312" 
d="M936 1907l-283 -318h-73l221 318h135zM657 -31q-188 0 -319 101l-111 -166l-73 45l118 186q-125 143 -125 383v328q0 250 137 399.5t373 149.5q185 0 320 -101l110 166l72 -45l-117 -184q125 -150 125 -385v-328q0 -250 -137 -399.5t-373 -149.5zM252 508q0 -170 78 -283
l594 987q-109 95 -267 95q-186 0 -295.5 -124.5t-109.5 -326.5v-348zM1063 856q0 170 -78 283l-594 -987q109 -95 266 -95q186 0 296 124.5t110 326.5v348z" />
    <glyph glyph-name="oslashacute" unicode="&#x1ff;" horiz-adv-x="987" 
d="M782 1528l-295 -365h-73l235 365h133zM492 -27q-139 0 -236 78l-90 -129l-64 41l97 146q-88 115 -88 274v182q0 179 103 295.5t280 116.5q142 0 237 -76l88 129l64 -41l-97 -145q88 -111 88 -279v-180q0 -177 -105.5 -294.5t-276.5 -117.5zM209 379q0 -105 49 -186
l420 630q-74 68 -184 68q-133 0 -209 -90.5t-76 -229.5v-192zM776 571q0 112 -47 189l-420 -633q76 -66 185 -66q127 0 204.5 89.5t77.5 228.5v192z" />
    <glyph glyph-name="Scommaaccent" unicode="&#x218;" horiz-adv-x="1146" 
d="M582 1393q115 0 200.5 -31t135 -85t73 -121t23.5 -146v-60h-105v54q0 63 -16.5 114t-53 94t-102.5 67t-157 24q-148 0 -235 -74.5t-87 -194.5q0 -50 13.5 -87.5t38 -66t70.5 -54t97 -45.5t133 -46q112 -36 180.5 -67t126.5 -76.5t83.5 -106t25.5 -143.5
q0 -173 -118.5 -272t-315.5 -99q-229 0 -345 107.5t-116 286.5v67h105v-61q0 -146 88 -228t270 -82q150 0 239 71.5t89 201.5q0 66 -18.5 111t-66.5 81t-108.5 61.5t-165.5 59.5q-84 26 -142 48.5t-112 55t-85.5 70t-50.5 89.5t-19 118q0 159 116.5 262t311.5 103zM512 -240
h141v-149q0 -105 -54 -170t-169 -94v45q164 46 164 196h-82v172z" />
    <glyph glyph-name="scommaaccent" unicode="&#x219;" horiz-adv-x="909" 
d="M463 -25q-174 0 -265.5 85t-91.5 221v38h95v-36q0 -103 67.5 -163.5t196.5 -60.5q109 0 172 48t63 139q0 79 -57.5 121t-204.5 75q-159 36 -234 97t-75 176q0 109 89 185.5t237 76.5q160 0 242.5 -79.5t82.5 -207.5v-31h-92v27q0 98 -59.5 152.5t-175.5 54.5
q-102 0 -166 -49.5t-64 -126.5q0 -78 61.5 -120t202.5 -75q161 -37 234.5 -97.5t73.5 -176.5q0 -125 -89.5 -199t-242.5 -74zM381 -238h141v-147q0 -106 -54 -171.5t-169 -94.5v45q162 49 162 196h-80v172z" />
    <glyph glyph-name="schwa" unicode="&#x259;" horiz-adv-x="950" 
d="M838 403q0 -190 -100 -310t-271 -120q-172 0 -265 115.5t-93 300.5v115h632v69q0 143 -69 230.5t-217 87.5q-116 0 -184 -63t-68 -164v-7h-92v9q0 137 94.5 224t249.5 87q128 0 215.5 -53.5t127.5 -143.5t40 -211v-166zM469 61q129 0 200.5 93t71.5 243v25h-536v-39
q0 -144 66 -233t198 -89z" />
    <glyph glyph-name="circumflex" unicode="&#x2c6;" horiz-adv-x="1024" 
d="M463 1522h98q64 -236 236 -305v-70q-102 29 -176.5 102t-108.5 174q-34 -101 -108.5 -174t-176.5 -102v70q172 69 236 305z" />
    <glyph glyph-name="caron" unicode="&#x2c7;" horiz-adv-x="1024" 
d="M227 1536q101 -27 176 -100.5t109 -173.5q34 100 109 173.5t176 100.5v-70q-172 -66 -236 -305h-98q-64 239 -236 305v70z" />
    <glyph glyph-name="breve" unicode="&#x2d8;" horiz-adv-x="1024" 
d="M512 1233q99 0 142.5 37.5t43.5 113.5q0 50 -14 121h68q22 -86 22 -145q0 -107 -73 -160t-189 -53q-115 0 -188.5 53t-73.5 160q0 59 22 145h68q-14 -71 -14 -121q0 -76 43.5 -113.5t142.5 -37.5z" />
    <glyph glyph-name="dotaccent" unicode="&#x2d9;" horiz-adv-x="1024" 
d="M453 1335h118v-153h-118v153z" />
    <glyph glyph-name="ring" unicode="&#x2da;" horiz-adv-x="1024" 
d="M512 1522q93 0 151 -56t58 -135q0 -80 -58 -137t-151 -57t-151 57t-58 137q0 79 58 135t151 56zM512 1454q-60 0 -96.5 -35.5t-36.5 -87.5q0 -54 36.5 -90.5t96.5 -36.5t97.5 36.5t37.5 90.5q0 52 -37.5 87.5t-97.5 35.5z" />
    <glyph glyph-name="ogonek" unicode="&#x2db;" horiz-adv-x="1021" 
d="M686 -403l33 -62q-66 -47 -164 -47q-96 0 -149.5 50t-53.5 130q0 57 31 121q40 79 172 219l72 -8q-125 -136 -158 -201q-31 -64 -31 -118q0 -59 33 -88t90 -29q66 0 125 33z" />
    <glyph glyph-name="tilde" unicode="&#x2dc;" horiz-adv-x="1024" 
d="M360 1462q33 0 60.5 -10.5t52 -34t37.5 -39t37 -47.5q25 -38 37.5 -54.5t35.5 -34t46 -17.5q34 0 55.5 25.5t21.5 80.5q0 51 -18 119h68q22 -60 22 -123q0 -89 -42.5 -134.5t-108.5 -45.5q-33 0 -60.5 10.5t-52 35t-37.5 40.5t-37 49q-25 36 -37.5 52t-35.5 33t-46 17
q-33 0 -54 -25t-21 -79q0 -61 16 -121h-68q-22 77 -22 125q0 87 43 132.5t108 45.5z" />
    <glyph glyph-name="hungarumlaut" unicode="&#x2dd;" horiz-adv-x="1024" 
d="M530 1522l-278 -365h-66l220 365h124zM838 1522l-279 -365h-65l219 365h125z" />
    <glyph glyph-name="commaaccent" unicode="&#x326;" horiz-adv-x="1021" 
d="M481 -233h142v-148q0 -105 -54.5 -170t-169.5 -96v47q162 46 162 194h-80v173z" />
    <glyph glyph-name="baht" unicode="&#xe3f;" horiz-adv-x="1208" 
d="M698 0h-41v-229h-88v229h-352v1364h352v229h88v-229h35q187 0 281 -85.5t94 -236.5v-49q0 -125 -59.5 -196t-176.5 -103v-4q126 -31 191 -104t65 -203v-64q0 -149 -98.5 -234t-290.5 -85zM322 1274v-543h321q155 0 236.5 68t81.5 194v45q0 114 -77 175t-227 61h-335z
M322 645v-555h358q152 0 226.5 61.5t74.5 174.5v55q0 126 -83.5 195t-248.5 69h-327z" />
    <glyph glyph-name="Wgrave" unicode="&#x1e80;" horiz-adv-x="1808" 
d="M586 1905h133l223 -318h-76zM106 1364h111l297 -1208h4l338 1214h96l340 -1214h4l299 1208h107l-365 -1382h-98l-336 1204h-4l-340 -1204h-96z" />
    <glyph glyph-name="wgrave" unicode="&#x1e81;" horiz-adv-x="1374" 
d="M352 1522h135l236 -365h-74zM70 952h100l229 -831h4l234 831h98l240 -831h4l225 831h101l-285 -960h-88l-246 819h-4l-242 -819h-88z" />
    <glyph glyph-name="Wacute" unicode="&#x1e82;" horiz-adv-x="1808" 
d="M1223 1905l-281 -318h-76l224 318h133zM106 1364h111l297 -1208h4l338 1214h96l340 -1214h4l299 1208h107l-365 -1382h-98l-336 1204h-4l-340 -1204h-96z" />
    <glyph glyph-name="wacute" unicode="&#x1e83;" horiz-adv-x="1374" 
d="M1020 1522l-297 -365h-74l236 365h135zM70 952h100l229 -831h4l234 831h98l240 -831h4l225 831h101l-285 -960h-88l-246 819h-4l-242 -819h-88z" />
    <glyph glyph-name="Wdieresis" unicode="&#x1e84;" horiz-adv-x="1808" 
d="M674 1763h119v-151h-119v151zM1020 1763h119v-151h-119v151zM106 1364h111l297 -1208h4l338 1214h96l340 -1214h4l299 1208h107l-365 -1382h-98l-336 1204h-4l-340 -1204h-96z" />
    <glyph glyph-name="wdieresis" unicode="&#x1e85;" horiz-adv-x="1374" 
d="M481 1335h119v-153h-119v153zM784 1335h119v-153h-119v153zM70 952h100l229 -831h4l234 831h98l240 -831h4l225 831h101l-285 -960h-88l-246 819h-4l-242 -819h-88z" />
    <glyph glyph-name="Ygrave" unicode="&#x1ef2;" horiz-adv-x="1144" 
d="M309 1884h133l222 -317h-74zM63 1364h119l396 -727l387 727h114l-452 -829v-535h-105v535z" />
    <glyph glyph-name="ygrave" unicode="&#x1ef3;" horiz-adv-x="905" 
d="M197 1507h135l235 -362h-73zM510 -27q-30 -79 -57 -129t-63 -88t-81 -54.5t-106 -16.5h-56v92h48q83 0 126.5 36t73.5 121l17 52l-342 966h102l293 -843l285 843h102z" />
    <glyph glyph-name="enspace" unicode="&#x2002;" horiz-adv-x="1024" 
 />
    <glyph glyph-name="emspace" unicode="&#x2003;" horiz-adv-x="2048" 
 />
    <glyph glyph-name="threeperemspace" unicode="&#x2004;" horiz-adv-x="681" 
 />
    <glyph glyph-name="fourperemspace" unicode="&#x2005;" horiz-adv-x="512" 
 />
    <glyph glyph-name="thinspace" unicode="&#x2009;" horiz-adv-x="272" 
 />
    <glyph glyph-name="hairspace" unicode="&#x200a;" horiz-adv-x="153" 
 />
    <glyph glyph-name="endash" unicode="&#x2013;" horiz-adv-x="1179" 
d="M160 668h862v-86h-862v86z" />
    <glyph glyph-name="emdash" unicode="&#x2014;" horiz-adv-x="1751" 
d="M168 668h1415v-86h-1415v86z" />
    <glyph glyph-name="quoteleft" unicode="&#x2018;" horiz-adv-x="421" 
d="M272 891h-139v133q0 160 53 238.5t176 109.5v-43q-90 -38 -122.5 -94t-34.5 -148h67v-196z" />
    <glyph glyph-name="quoteright" unicode="&#x2019;" horiz-adv-x="421" 
d="M150 1364h139v-133q0 -160 -53 -238.5t-177 -109.5v43q90 36 123 92.5t35 148.5h-67v197z" />
    <glyph glyph-name="quotesinglbase" unicode="&#x201a;" horiz-adv-x="405" 
d="M133 197h139v-134q0 -160 -53 -238.5t-176 -109.5v43q90 36 123 92.5t35 149.5h-68v197z" />
    <glyph glyph-name="quotedblleft" unicode="&#x201c;" horiz-adv-x="749" 
d="M600 891h-141v133q0 160 53.5 238.5t175.5 109.5v-43q-90 -38 -123 -94t-35 -148h70v-196zM272 891h-139v133q0 160 53 238.5t176 109.5v-43q-90 -38 -122.5 -94t-34.5 -148h67v-196z" />
    <glyph glyph-name="quotedblright" unicode="&#x201d;" horiz-adv-x="749" 
d="M150 1364h139v-133q0 -160 -53 -238.5t-177 -109.5v43q90 36 123 92.5t35 148.5h-67v197zM475 1364h141v-133q0 -160 -53 -238.5t-176 -109.5v43q90 36 123 92.5t35 148.5h-70v197z" />
    <glyph glyph-name="quotedblbase" unicode="&#x201e;" horiz-adv-x="733" 
d="M133 197h139v-134q0 -159 -53 -237t-176 -111v43q90 38 123 94.5t35 149.5h-68v195zM459 197h141v-134q0 -159 -53 -237t-176 -111v43q90 38 122.5 94.5t34.5 149.5h-69v195z" />
    <glyph glyph-name="dagger" unicode="&#x2020;" horiz-adv-x="933" 
d="M414 735q0 130 32 271q-47 -12 -139 -19.5t-153 -7.5q-11 0 -20 6.5t-9 18.5v45q0 22 29 22q202 0 290 -22q-28 137 -28 286q0 11 7 20t19 9h47q12 0 19.5 -9.5t7.5 -19.5q0 -154 -27 -286q88 22 289 22q29 0 29 -22v-45q0 -12 -9 -18.5t-20 -6.5q-59 0 -151.5 7.5
t-139.5 19.5q33 -145 33 -271q0 -252 -24 -502q-3 -28 -25 -28h-8q-22 0 -25 28q-24 250 -24 502z" />
    <glyph glyph-name="daggerdbl" unicode="&#x2021;" horiz-adv-x="933" 
d="M418 784q0 79 28 222q-47 -12 -139 -19.5t-153 -7.5q-11 0 -20 6.5t-9 18.5v45q0 22 29 22q202 0 290 -22q-28 137 -28 286q0 11 7 20t19 9h47q12 0 19.5 -9.5t7.5 -19.5q0 -154 -27 -286q88 22 289 22q29 0 29 -22v-45q0 -12 -9 -18.5t-20 -6.5q-59 0 -151.5 7.5
t-139.5 19.5q29 -170 29 -222q0 -51 -29 -221q47 12 139.5 19.5t151.5 7.5q11 0 20 -6.5t9 -18.5v-45q0 -22 -29 -22q-201 0 -289 22q27 -132 27 -287q0 -10 -7.5 -19t-19.5 -9h-47q-12 0 -19 9t-7 19q0 150 28 287q-88 -22 -290 -22q-29 0 -29 22v45q0 12 9 18.5t20 6.5
q61 0 153 -7.5t139 -19.5q-28 144 -28 221z" />
    <glyph glyph-name="bullet" unicode="&#x2022;" horiz-adv-x="694" 
d="M578 682q0 -104 -65 -168.5t-165 -64.5q-102 0 -166.5 64.5t-64.5 168.5t64.5 168.5t166.5 64.5q100 0 165 -64.5t65 -168.5z" />
    <glyph glyph-name="ellipsis" unicode="&#x2026;" horiz-adv-x="1228" 
d="M133 197h139v-197h-139v197zM956 197h140v-197h-140v197zM545 197h139v-197h-139v197z" />
    <glyph glyph-name="guilsinglleft" unicode="&#x2039;" horiz-adv-x="731" 
d="M537 944h73q-44 -153 -129 -262t-233 -207q148 -96 233 -205.5t129 -263.5h-73q-98 274 -416 424v92q315 145 416 422z" />
    <glyph glyph-name="guilsinglright" unicode="&#x203a;" horiz-adv-x="731" 
d="M195 6h-74q44 154 129 263.5t233 205.5q-148 98 -233 207t-129 262h74q97 -276 415 -422v-92q-320 -151 -415 -424z" />
    <glyph glyph-name="fraction" unicode="&#x2044;" horiz-adv-x="284" 
d="M647 1364l-917 -1364h-92l917 1364h92z" />
    <glyph glyph-name="zero.sup" unicode="&#x2070;" 
d="M377 1436q146 0 224.5 -90t78.5 -254v-138q0 -164 -78.5 -254t-224.5 -90t-224.5 90t-78.5 254v138q0 164 78.5 254t224.5 90zM377 1358q-104 0 -159.5 -68t-55.5 -194v-146q0 -126 55.5 -194t159.5 -68t159.5 68t55.5 194v146q0 126 -55.5 194t-159.5 68z" />
    <glyph glyph-name="four.sup" unicode="&#x2074;" 
d="M463 1417h110v-526h123v-74h-123v-188h-84v188h-450v74zM489 891v452l-362 -452h362z" />
    <glyph glyph-name="five.sup" unicode="&#x2075;" 
d="M141 1417h504q-5 -48 -21 -64t-65 -16h-342l-22 -290q106 81 221 81q120 0 180.5 -62t60.5 -165v-33q0 -110 -73.5 -183t-204.5 -73q-139 0 -209 61.5t-70 157.5v15h84v-10q0 -71 50.5 -109.5t142.5 -38.5q86 0 139 46.5t53 131.5v27q0 76 -42 120t-128 44
q-122 0 -217 -92l-71 18z" />
    <glyph glyph-name="six.sup" unicode="&#x2076;" 
d="M379 610q-138 0 -214.5 74.5t-76.5 220.5v207q0 148 77 234t228 86q59 0 105.5 -13.5t75.5 -34.5t47.5 -49t26 -55t7.5 -55v-17h-86v6q0 58 -43.5 100t-128.5 42q-221 0 -221 -244v-98q84 100 238 100q122 0 189 -65.5t67 -161.5v-23q0 -107 -76 -180.5t-215 -73.5z
M379 688q91 0 147 46.5t56 125.5v14q0 76 -50.5 121t-146.5 45q-90 0 -149.5 -41.5t-59.5 -113.5v-21q0 -86 57 -131t146 -45z" />
    <glyph glyph-name="seven.sup" unicode="&#x2077;" 
d="M78 1417h604v-59q-290 -327 -330 -729h-94q29 369 326 706h-506v82z" />
    <glyph glyph-name="eight.sup" unicode="&#x2078;" 
d="M377 1436q135 0 211 -62.5t76 -163.5v-8q0 -57 -35.5 -104.5t-100.5 -71.5q68 -25 106 -73.5t38 -110.5v-8q0 -103 -79.5 -163.5t-215.5 -60.5q-137 0 -216 60.5t-79 163.5v8q0 62 36.5 111t104.5 73q-64 24 -98.5 71.5t-34.5 104.5v8q0 101 76 163.5t211 62.5zM377 1360
q-90 0 -144.5 -39t-54.5 -109v-16q0 -59 56.5 -97t142.5 -38t142 38t56 97v16q0 70 -54.5 109t-143.5 39zM377 686q94 0 151.5 39t57.5 111v14q0 63 -59 102t-150 39t-150 -39t-59 -102v-14q0 -72 57.5 -111t151.5 -39z" />
    <glyph glyph-name="nine.sup" unicode="&#x2079;" 
d="M377 1436q138 0 213.5 -75.5t75.5 -221.5v-207q0 -147 -78 -233.5t-232 -86.5q-72 0 -125.5 19.5t-81.5 51.5t-40.5 65.5t-12.5 68.5v17h84v-7q0 -59 44 -98t132 -39q113 0 167.5 59.5t54.5 182.5v94q-85 -100 -236 -100q-121 0 -187.5 64t-66.5 155v33q0 110 75 184
t214 74zM377 1358q-90 0 -144.5 -47t-54.5 -129v-25q0 -70 49.5 -114t143.5 -44q83 0 143.5 41.5t60.5 112.5v21q0 90 -55.5 137t-142.5 47z" />
    <glyph glyph-name="zero.inf" unicode="&#x2080;" 
d="M377 492q145 0 224 -90.5t79 -254.5v-137q0 -164 -78.5 -254t-224.5 -90t-224.5 90t-78.5 254v137q0 164 79 254.5t224 90.5zM377 414q-104 0 -159.5 -68t-55.5 -194v-146q0 -126 55.5 -194t159.5 -68t159.5 68t55.5 194v146q0 126 -55.5 194t-159.5 68z" />
    <glyph glyph-name="one.inf" unicode="&#x2081;" horiz-adv-x="561" 
d="M303 485h64v-800h-91v612h-200v65h69q78 0 114.5 26t43.5 97z" />
    <glyph glyph-name="two.inf" unicode="&#x2082;" 
d="M649 -315h-555v45q0 125 50.5 192.5t209.5 151.5q134 66 174.5 103t40.5 97q0 67 -52 103.5t-130 36.5q-89 0 -144 -41.5t-55 -116.5v-39h-84v43q0 101 77 165t206 64q130 0 200 -59t70 -154q0 -28 -6.5 -52t-14 -42t-28.5 -38t-36 -33t-51 -34.5t-59 -33.5t-73 -39
q-124 -60 -164.5 -106.5t-40.5 -135.5h465v-77z" />
    <glyph glyph-name="three.inf" unicode="&#x2083;" 
d="M375 489q128 0 200 -59t72 -149v-17q0 -61 -42.5 -111.5t-121.5 -66.5q82 -20 124 -68t42 -116v-15q0 -94 -72.5 -156.5t-201.5 -62.5q-146 0 -215.5 62.5t-69.5 154.5v33h84v-29q0 -65 50.5 -106t146.5 -41q82 0 136 39.5t54 105.5v13q0 145 -211 145h-86v74h86
q107 0 159 41t52 104v15q0 63 -53 100t-137 37q-91 0 -143 -42t-52 -104v-28h-84v32q0 85 72 150t211 65z" />
    <glyph glyph-name="four.inf" unicode="&#x2084;" 
d="M463 473h110v-526h123v-74h-123v-188h-84v188h-450v74zM489 -53v452l-362 -452h362z" />
    <glyph glyph-name="five.inf" unicode="&#x2085;" 
d="M141 473h504q-5 -48 -21 -64t-65 -16h-342l-22 -293q102 82 221 82q120 0 180.5 -61.5t60.5 -165.5v-31q0 -110 -73.5 -183t-204.5 -73q-139 0 -209 61.5t-70 157.5v13h84v-9q0 -70 50.5 -108.5t142.5 -38.5q86 0 139 46.5t53 131.5v27q0 76 -42 120t-128 44
q-120 0 -217 -93l-71 19z" />
    <glyph glyph-name="six.inf" unicode="&#x2086;" 
d="M379 -334q-138 0 -214.5 74.5t-76.5 220.5v207q0 148 77 233.5t228 85.5q73 0 127 -19.5t81.5 -51.5t40.5 -66t13 -69v-17h-86v6q0 58 -43.5 100t-128.5 42q-221 0 -221 -244v-98q84 100 238 100q122 0 189 -65.5t67 -161.5v-23q0 -107 -76 -180.5t-215 -73.5zM379 -256
q91 0 147 46.5t56 125.5v14q0 76 -50.5 121t-146.5 45q-90 0 -149.5 -41.5t-59.5 -113.5v-21q0 -86 57 -131t146 -45z" />
    <glyph glyph-name="seven.inf" unicode="&#x2087;" 
d="M78 473h604v-59q-290 -327 -330 -729h-94q29 369 326 706h-506v82z" />
    <glyph glyph-name="eight.inf" unicode="&#x2088;" 
d="M377 492q135 0 211 -62.5t76 -163.5v-8q0 -57 -35.5 -104.5t-100.5 -71.5q68 -25 106 -73.5t38 -110.5v-11q0 -101 -79.5 -161t-215.5 -60q-137 0 -216 59.5t-79 161.5v11q0 62 36.5 111t104.5 73q-64 24 -98.5 71.5t-34.5 104.5v8q0 101 76 163.5t211 62.5zM377 416
q-90 0 -144.5 -39t-54.5 -111v-14q0 -60 57 -98.5t142 -38.5t141.5 38.5t56.5 98.5v14q0 72 -54.5 111t-143.5 39zM377 -258q94 0 151.5 39t57.5 110v15q0 63 -59 102t-150 39t-150 -39t-59 -102v-15q0 -71 57.5 -110t151.5 -39z" />
    <glyph glyph-name="nine.inf" unicode="&#x2089;" 
d="M377 492q138 0 213.5 -76t75.5 -221v-207q0 -147 -78 -233.5t-232 -86.5q-72 0 -125.5 19.5t-81.5 51.5t-40.5 65.5t-12.5 68.5v16h84v-6q0 -59 44 -98t132 -39q113 0 167.5 59.5t54.5 182.5v94q-85 -100 -236 -100q-121 0 -187.5 64t-66.5 155v32q0 110 75 184.5
t214 74.5zM377 414q-91 0 -145 -47t-54 -131v-23q0 -70 49.5 -115t143.5 -45q83 0 143.5 42t60.5 114v20q0 90 -56 137.5t-142 47.5z" />
    <glyph glyph-name="colonmonetary" unicode="&#x20a1;" horiz-adv-x="1245" 
d="M647 -31q-87 0 -172 29l-39 -238h-86l45 275q-114 66 -176.5 190t-62.5 283v348q0 226 123.5 375t332.5 162l35 206h88l-35 -206q106 -9 187 -47l43 253h86l-51 -305q137 -116 137 -303v-92h-103v76q0 92 -36 165.5t-116 120t-194 46.5q-180 0 -285.5 -122.5
t-105.5 -312.5v-380q0 -189 106.5 -312t284.5 -123q168 0 257 94.5t89 237.5v76h103v-92q0 -147 -91 -256t-257 -137l-35 -220h-88l35 209h-19z" />
    <glyph glyph-name="naira" unicode="&#x20a6;" horiz-adv-x="1542" 
d="M428 1204v-1204h-94v498h-250v82h250v204h-250v84h250v496h119l655 -1202h4v1202h94v-496h252v-84h-252v-204h252v-82h-252v-498h-114l-660 1204h-4z" />
    <glyph glyph-name="rupee" unicode="&#x20a8;" horiz-adv-x="2043" 
d="M322 598v-598h-105v1364h434q406 0 406 -340v-80q0 -130 -81.5 -221t-230.5 -115l355 -608h-119l-346 598h-313zM322 686h309q151 0 235 71.5t84 190.5v72q0 132 -73 193t-234 61h-321v-588zM1583 -25q-173 0 -264.5 84.5t-91.5 221.5v38h94v-36q0 -102 68.5 -163
t195.5 -61q110 0 173 48t63 139q0 78 -57.5 120.5t-202.5 75.5q-161 36 -236.5 97t-75.5 176q0 109 89 185.5t237 76.5q160 0 243 -79.5t83 -207.5v-31h-93v27q0 98 -59.5 152.5t-175.5 54.5q-102 0 -166 -49.5t-64 -126.5q0 -78 62 -120t203 -75q161 -37 234 -97.5
t73 -176.5q0 -125 -89.5 -199t-242.5 -74z" />
    <glyph glyph-name="won" unicode="&#x20a9;" horiz-adv-x="1810" 
d="M901 1235l-274 -1241h-125l-105 489h-323v82h305l-41 201h-264v84h245l-110 514h102l254 -1245h4l277 1251h119l272 -1251h4l262 1245h99l-115 -514h250v-84h-269l-43 -201h312v-82h-330l-109 -489h-124l-269 1241h-4z" />
    <glyph glyph-name="sheqel" unicode="&#x20aa;" horiz-adv-x="1400" 
d="M158 1018h444q177 0 258.5 -78.5t81.5 -230.5v-416h-96v416q0 112 -56.5 167.5t-187.5 55.5h-346v-932h-98v1018zM1260 1018v-709q0 -152 -81 -230.5t-257 -78.5h-428v725h96v-639h330q131 0 187 55.5t56 167.5v709h97z" />
    <glyph glyph-name="Euro" unicode="&#x20ac;" horiz-adv-x="1302" 
d="M1161 362q0 -77 -29.5 -147t-85 -125.5t-143.5 -88t-196 -32.5q-223 0 -356.5 139.5t-133.5 383.5h-151v83h151v213h-151v86h151q3 245 136.5 383t357.5 138q108 0 195 -33t142 -88.5t84 -125.5t29 -147v-30h-98v16q0 133 -91.5 226.5t-258.5 93.5q-180 0 -287 -111.5
t-107 -310.5v-11h547v-86h-547v-213h547v-83h-547v-13q0 -199 108 -310.5t286 -111.5q84 0 152.5 26.5t110.5 72t64.5 102t22.5 119.5v10h98v-25z" />
    <glyph glyph-name="peso" unicode="&#x20b1;" horiz-adv-x="1406" 
d="M414 537v-537h-105v909h-252v84h252v371h414q211 0 311.5 -94.5t100.5 -268.5v-8h251v-84h-251v-10q0 -362 -418 -362h-303zM414 1276v-283h616v2q0 137 -74.5 209t-236.5 72h-305zM1030 905v4h-616v-284h307q164 0 236.5 70.5t72.5 209.5z" />
    <glyph glyph-name="rupeeindia" unicode="&#x20b9;" horiz-adv-x="1206" 
d="M428 561h-160l717 -561h-151l-699 555v90h293q369 0 393 275h-690v86h690q-11 136 -95.5 204t-258.5 68h-336v86h1010v-86h-369q139 -86 148 -272h221v-86h-221q-12 -178 -136 -268.5t-356 -90.5z" />
    <glyph glyph-name="ruble" unicode="&#x20bd;" horiz-adv-x="1271" 
d="M1036 272h-598v-272h-104v272h-250v86h250v222h-250v86h250v698h405q414 0 414 -348v-88q0 -173 -101.5 -260.5t-316.5 -87.5h-297v-222h598v-86zM438 1276v-610h303q165 -1 236.5 64t71.5 204v78q0 264 -312 264h-299z" />
    <glyph glyph-name="published" unicode="&#x2117;" horiz-adv-x="1775" 
d="M145 682q0 213 95.5 382.5t265 264t381.5 94.5q161 0 299 -55.5t235.5 -153t153 -235t55.5 -297.5t-55.5 -297.5t-153 -235t-235.5 -153t-299 -55.5q-212 0 -381.5 94.5t-265 264t-95.5 382.5zM1546 682q0 193 -83 345t-233.5 237.5t-342.5 85.5q-191 0 -341.5 -85.5
t-233.5 -238t-83 -344.5t83 -344.5t233.5 -239t341.5 -86.5q192 0 342.5 86.5t233.5 239t83 344.5zM664 1034h276q132 0 188 -52t56 -169q0 -120 -58.5 -172.5t-193.5 -52.5h-176v-258h-92v704zM756 956v-288h168q99 0 132.5 32t33.5 111q0 78 -33 111.5t-129 33.5h-172z
" />
    <glyph glyph-name="servicemark" unicode="&#x2120;" horiz-adv-x="1445" 
d="M328 1378q229 0 229 -194h-80q-2 61 -36.5 94t-114.5 33q-64 0 -103 -28t-39 -69q0 -40 32.5 -58t131.5 -46q119 -32 167 -67t48 -107q0 -82 -62 -127t-165 -45q-246 0 -246 205h82q0 -135 164 -135q66 0 104.5 26t38.5 70t-35 65.5t-129 44.5q-115 28 -164 64t-49 106
q0 75 61 121.5t165 46.5zM717 1364h137l174 -471h2l174 471h133v-586h-82v494h-14l-184 -496h-68l-182 496h-16v-494h-74v586z" />
    <glyph glyph-name="trademark" unicode="&#x2122;" horiz-adv-x="1421" 
d="M63 1364h510v-74h-215v-512h-79v512h-216v74zM692 1364h139l173 -471h2l174 471h133v-586h-80v494h-16l-185 -496h-67l-181 496h-16v-494h-76v586z" />
    <glyph glyph-name="onethird" unicode="&#x2153;" horiz-adv-x="1613" 
d="M303 1376h64v-801h-91v613h-200v65h69q78 0 114.5 26t43.5 97zM1208 1364l-917 -1364h-92l917 1364h92zM1235 805q127 0 199.5 -59.5t72.5 -149.5v-16q0 -61 -43 -112t-121 -67q81 -20 123.5 -68.5t42.5 -115.5v-14q0 -93 -73.5 -156t-202.5 -63q-144 0 -213.5 62.5
t-69.5 154.5v32h84v-28q0 -65 50.5 -106.5t144.5 -41.5q83 0 136.5 40t53.5 106v12q0 145 -209 145h-86v74h86q106 0 157.5 41.5t51.5 104.5v14q0 63 -53 100t-135 37q-92 0 -144.5 -41.5t-52.5 -103.5v-29h-82v33q0 39 16 76t48.5 69t89 51t129.5 19z" />
    <glyph glyph-name="twothirds" unicode="&#x2154;" horiz-adv-x="1847" 
d="M649 575h-555v46q0 125 50.5 192.5t209.5 151.5q134 66 174.5 103t40.5 97q0 67 -52 103.5t-130 36.5q-89 0 -144 -41.5t-55 -116.5v-39h-84v43q0 101 77 165t206 64q130 0 200 -59t70 -154q0 -28 -6.5 -52t-14 -42t-28.5 -38t-36 -33t-51 -34.5t-59 -33.5t-73 -39
q-124 -60 -164.5 -106.5t-40.5 -135.5h465v-78zM1442 1364l-918 -1364h-92l918 1364h92zM1468 805q128 0 200.5 -59.5t72.5 -149.5v-16q0 -61 -43 -112t-121 -67q81 -20 123.5 -68.5t42.5 -115.5v-14q0 -93 -74 -156t-203 -63q-144 0 -213 62.5t-69 154.5v32h84v-28
q0 -65 50 -106.5t144 -41.5q83 0 137 40t54 106v12q0 145 -209 145h-86v74h86q106 0 157.5 41.5t51.5 104.5v14q0 63 -53.5 100t-135.5 37q-92 0 -144 -41t-52 -104v-29h-82v33q0 39 16 76t48.5 69t88.5 51t129 19z" />
    <glyph glyph-name="onefifth" unicode="&#x2155;" horiz-adv-x="1630" 
d="M303 1376h64v-801h-91v613h-200v65h69q78 0 114.5 26t43.5 97zM1208 1364l-917 -1364h-92l917 1364h92zM1018 788h504q-5 -48 -21 -63.5t-65 -15.5h-342l-23 -293q98 82 221 82q120 0 180 -62t60 -166v-30q0 -110 -73 -183t-204 -73q-140 0 -209 61.5t-69 157.5v12h84v-8
q0 -71 50 -109.5t142 -38.5q86 0 139.5 47t53.5 132v26q0 76 -42 120t-128 44q-120 0 -219 -92l-70 18z" />
    <glyph glyph-name="twofifths" unicode="&#x2156;" horiz-adv-x="1863" 
d="M649 575h-555v46q0 125 50.5 192.5t209.5 151.5q134 66 174.5 103t40.5 97q0 67 -52 103.5t-130 36.5q-89 0 -144 -41.5t-55 -116.5v-39h-84v43q0 101 77 165t206 64q130 0 200 -59t70 -154q0 -28 -6.5 -52t-14 -42t-28.5 -38t-36 -33t-51 -34.5t-59 -33.5t-73 -39
q-124 -60 -164.5 -106.5t-40.5 -135.5h465v-78zM1442 1364l-918 -1364h-92l918 1364h92zM1251 788h504q-5 -48 -21 -63.5t-65 -15.5h-342l-22 -293q98 82 221 82q120 0 179.5 -61.5t59.5 -166.5v-30q0 -110 -72.5 -183t-203.5 -73q-140 0 -209.5 61.5t-69.5 157.5v12h84v-8
q0 -71 50.5 -109.5t142.5 -38.5q86 0 139 47t53 132v26q0 76 -42 120t-128 44q-120 0 -219 -92l-69 18z" />
    <glyph glyph-name="threefifths" unicode="&#x2157;" horiz-adv-x="1835" 
d="M375 1380q127 0 199.5 -59.5t72.5 -149.5v-16q0 -61 -42.5 -110.5t-121.5 -67.5q81 -18 123.5 -67t42.5 -117v-15q0 -94 -72.5 -156.5t-201.5 -62.5q-146 0 -215.5 62.5t-69.5 154.5v33h84v-29q0 -65 50.5 -106t146.5 -41q82 0 136 39.5t54 105.5v13q0 68 -51 107.5
t-160 39.5h-86v74h86q107 0 159 40.5t52 102.5v14q0 63 -53.5 100.5t-136.5 37.5q-91 0 -143 -41.5t-52 -104.5v-28h-84v32q0 85 72 150t211 65zM1413 1364l-915 -1364h-92l915 1364h92zM1225 788h501q-3 -48 -19 -63.5t-65 -15.5h-344l-20 -293q98 82 221 82q120 0 180 -62
t60 -166v-30q0 -110 -73 -183t-204 -73q-140 0 -209 61.5t-69 157.5v12h84v-8q0 -71 49.5 -109.5t142.5 -38.5q85 0 138 47t53 132v26q0 76 -41.5 120t-128.5 44q-118 0 -217 -92l-70 18z" />
    <glyph glyph-name="fourfifths" unicode="&#x2158;" horiz-adv-x="1863" 
d="M463 1364h110v-526h123v-74h-123v-189h-84v189h-450v74zM1440 1364l-916 -1364h-92l918 1364h90zM489 838v452l-362 -452h362zM1251 788h504q-5 -48 -21 -63.5t-65 -15.5h-342l-22 -293q98 82 221 82q120 0 179.5 -61.5t59.5 -166.5v-30q0 -110 -72.5 -183t-203.5 -73
q-140 0 -209.5 61.5t-69.5 157.5v12h84v-8q0 -71 50.5 -109.5t142.5 -38.5q85 0 138.5 47t53.5 132v26q0 76 -42.5 120t-129.5 44q-118 0 -217 -92l-69 18z" />
    <glyph glyph-name="onesixth" unicode="&#x2159;" horiz-adv-x="1601" 
d="M303 1376h64v-801h-91v613h-200v65h69q78 0 114.5 26t43.5 97zM1208 1364l-917 -1364h-92l917 1364h92zM1227 -18q-138 0 -213.5 74t-75.5 220v207q0 148 77 234t228 86q58 0 104.5 -13.5t75 -34.5t47 -49t26 -55t7.5 -55v-16h-86v6q0 58 -42.5 99.5t-127.5 41.5
q-112 0 -166.5 -60.5t-54.5 -183.5v-98q84 100 236 100q123 0 190.5 -65.5t67.5 -161.5v-22q0 -107 -76.5 -180.5t-216.5 -73.5zM1227 59q91 0 147 46.5t56 125.5v15q0 76 -50.5 121t-144.5 45q-91 0 -150 -41.5t-59 -114.5v-20q0 -86 56.5 -131.5t144.5 -45.5z" />
    <glyph glyph-name="fivesixths" unicode="&#x215a;" horiz-adv-x="1808" 
d="M141 1364h504q-5 -48 -21 -64t-65 -16h-342l-22 -291q107 82 221 82q120 0 180.5 -62t60.5 -165v-33q0 -110 -73.5 -183t-204.5 -73q-139 0 -209 61.5t-70 157.5v15h84v-11q0 -70 50.5 -108.5t142.5 -38.5q86 0 139 46.5t53 131.5v27q0 76 -42 120t-128 44
q-120 0 -217 -93l-71 19zM1413 1364l-915 -1364h-92l915 1364h92zM1434 -18q-138 0 -214.5 74t-76.5 220v207q0 148 77.5 234t229.5 86q58 0 104.5 -13.5t75 -34.5t47 -49t26 -55t7.5 -55v-16h-86v6q0 58 -43.5 99.5t-128.5 41.5q-221 0 -221 -244v-98q84 100 237 100
q123 0 189.5 -65t66.5 -162v-22q0 -107 -75.5 -180.5t-214.5 -73.5zM1434 59q91 0 146.5 46.5t55.5 125.5v15q0 76 -50 121t-146 45q-90 0 -149.5 -41.5t-59.5 -114.5v-20q0 -86 57 -131.5t146 -45.5z" />
    <glyph glyph-name="oneeighth" unicode="&#x215b;" horiz-adv-x="1619" 
d="M303 1376h64v-801h-91v613h-200v65h69q78 0 114.5 26t43.5 97zM1208 1364l-917 -1364h-92l917 1364h92zM1243 807q135 0 211 -62t76 -163v-9q0 -57 -35 -104.5t-100 -71.5q68 -25 105.5 -73.5t37.5 -110.5v-10q0 -101 -79.5 -161t-215.5 -60q-137 0 -216 59.5t-79 161.5
v10q0 62 37 111t105 73q-64 24 -99 71.5t-35 104.5v9q0 101 76 163t211 62zM1243 731q-90 0 -144.5 -38.5t-54.5 -110.5v-15q0 -60 57 -98.5t142 -38.5t142 38.5t57 98.5v15q0 71 -55 110t-144 39zM1243 57q94 0 151.5 39t57.5 111v14q0 63 -59 102t-150 39t-150 -39
t-59 -102v-14q0 -72 57 -111t152 -39z" />
    <glyph glyph-name="threeeighths" unicode="&#x215c;" horiz-adv-x="1826" 
d="M375 1380q127 0 199.5 -59.5t72.5 -149.5v-16q0 -61 -42.5 -110.5t-121.5 -67.5q81 -18 123.5 -67t42.5 -117v-15q0 -94 -72.5 -156.5t-201.5 -62.5q-146 0 -215.5 62.5t-69.5 154.5v33h84v-29q0 -65 50.5 -106t146.5 -41q82 0 136 39.5t54 105.5v13q0 68 -51 107.5
t-160 39.5h-86v74h86q107 0 159 40.5t52 102.5v14q0 63 -53.5 100.5t-136.5 37.5q-91 0 -143 -41.5t-52 -104.5v-28h-84v32q0 85 72 150t211 65zM1413 1364l-915 -1364h-92l915 1364h92zM1448 807q135 0 212 -62.5t77 -162.5v-9q0 -57 -35 -104.5t-100 -71.5
q68 -25 105.5 -73.5t37.5 -110.5v-10q0 -102 -79.5 -161.5t-217.5 -59.5q-136 0 -215.5 60t-79.5 161v10q0 62 37.5 110.5t105.5 73.5q-64 24 -98.5 71.5t-34.5 104.5v9q0 101 75 163t210 62zM1448 731q-89 0 -143 -38.5t-54 -110.5v-15q0 -60 56 -98.5t141 -38.5
q86 0 142.5 38.5t56.5 98.5v15q0 71 -55 110t-144 39zM1448 57q94 0 151.5 39t57.5 111v14q0 63 -59 102t-150 39t-149 -39t-58 -102v-14q0 -72 57 -111t150 -39z" />
    <glyph glyph-name="fiveeighths" unicode="&#x215d;" horiz-adv-x="1826" 
d="M141 1364h504q-5 -48 -21 -64t-65 -16h-342l-22 -291q107 82 221 82q120 0 180.5 -62t60.5 -165v-33q0 -110 -73.5 -183t-204.5 -73q-139 0 -209 61.5t-70 157.5v15h84v-11q0 -70 50.5 -108.5t142.5 -38.5q86 0 139 46.5t53 131.5v27q0 76 -42 120t-128 44
q-120 0 -217 -93l-71 19zM1413 1364l-915 -1364h-92l915 1364h92zM1448 807q135 0 212 -62.5t77 -162.5v-9q0 -57 -35 -104.5t-100 -71.5q68 -25 105.5 -73.5t37.5 -110.5v-10q0 -102 -79.5 -161.5t-217.5 -59.5q-136 0 -215.5 60t-79.5 161v10q0 62 37.5 110.5t105.5 73.5
q-64 24 -98.5 71.5t-34.5 104.5v9q0 101 75 163t210 62zM1448 731q-89 0 -143 -38.5t-54 -110.5v-15q0 -60 56 -98.5t141 -38.5q86 0 142.5 38.5t56.5 98.5v15q0 71 -55 110t-144 39zM1448 57q94 0 151.5 39t57.5 111v14q0 63 -59 102t-150 39t-149 -39t-58 -102v-14
q0 -72 57 -111t150 -39z" />
    <glyph glyph-name="seveneighths" unicode="&#x215e;" horiz-adv-x="1654" 
d="M78 1364h604v-59q-290 -327 -330 -730h-94q29 370 326 707h-506v82zM1241 1364l-915 -1364h-93l918 1364h90zM1276 807q136 0 212.5 -62t76.5 -163v-9q0 -57 -35 -104.5t-100 -71.5q68 -25 105.5 -73.5t37.5 -110.5v-10q0 -102 -79.5 -161.5t-217.5 -59.5
q-136 0 -215.5 60t-79.5 161v10q0 62 37.5 110.5t105.5 73.5q-64 24 -98.5 71.5t-34.5 104.5v9q0 101 75 163t210 62zM1276 731q-89 0 -143 -38.5t-54 -110.5v-15q0 -60 56 -98.5t141 -38.5q86 0 142.5 38.5t56.5 98.5v15q0 72 -54.5 110.5t-144.5 38.5zM1276 57
q95 0 152 39t57 111v14q0 63 -58 102t-151 39q-90 0 -148.5 -39.5t-58.5 -101.5v-14q0 -72 57 -111t150 -39z" />
    <glyph glyph-name="minus" unicode="&#x2212;" horiz-adv-x="1193" 
d="M188 729h818v-94h-818v94z" />
    <glyph glyph-name="hcoslug" unicode="&#xe10b;" horiz-adv-x="1421" 
d="M1319 1434v-1639h-1217v1639h1217zM782 541q42 55 95 86q30 -52 88 -52q43 0 72.5 32t29.5 79t-29.5 77t-72.5 30q-70 0 -123 -78q-3 40 -30.5 59t-70.5 17q19 32 19 69q0 59 -52.5 105.5t-142.5 46.5q-99 0 -161 -52.5t-62 -121.5q0 -43 15 -75t49 -67
q-168 -57 -168 -186q0 -81 65 -136t158 -55q129 0 213 93q51 -52 89.5 -72.5t84.5 -20.5q68 0 114.5 53t49.5 140l-15 4q-34 -59 -88 -59q-30 0 -59 19.5t-68 64.5zM506 877q0 26 15 42.5t40 16.5q26 0 43 -21.5t17 -56.5q0 -46 -37 -102q-30 29 -42.5 42.5t-24 35
t-11.5 43.5zM639 700q61 42 86 70q23 -23 29 -49t-2 -52.5t-29 -62.5q-68 78 -84 94zM535 449q-46 0 -76.5 31.5t-30.5 78.5q0 49 33 82q72 -68 151 -168q-31 -24 -77 -24zM721 256v-106h12l8 16q10 -16 29 -16q17 0 25 13.5t8 29.5q0 18 -8.5 29t-22.5 11q-21 0 -27 -18v55
h-36v-14h12zM256 166v-14h61v14h-20v33h8q7 0 8.5 -3t3.5 -14h15v47h-15q-1 -8 -2 -10.5t-3 -4t-7 -1.5h-8v37h25q11 0 15 -5t7 -22h16v41h-104v-14h14v-84h-14zM586 254l-25 -4v-19h-14v-14h14v-41q0 -26 25 -26q22 0 28 26l-10 4q-3 -14 -10 -14q-8 0 -8 10v41h26v14h-26
v23zM356 193q0 -20 12 -31.5t31 -11.5t31 12t12 31q0 18 -12 29t-31 11t-31 -11t-12 -29zM618 180v-28h15l2 8q15 -10 27 -10q13 0 20.5 7.5t7.5 18.5q0 19 -24.5 25t-24.5 12q0 8 10 8q11 0 21 -14h14v26h-12l-4 -10q-7 10 -23 10q-13 0 -21 -7t-8 -17q0 -19 25 -26t25 -13
q0 -8 -11 -8q-12 0 -24 18h-15zM449 166v-14h45v14h-9v31q0 20 15 20q12 0 12 -14v-37h-8v-14h45v14h-12v39q0 28 -25 28q-20 0 -29 -22v20h-34v-14h12v-51h-12zM829 133q5 5 2.5 13t-12.5 8q-14 0 -14 -15q0 -18 22 -18q24 0 37 33l27 63h10v14h-35v-14h11l-17 -41l-18 41
h12v14h-51v-14h10q25 -47 33 -67q-3 -17 -17 -17zM416 193q0 -33 -17 -33q-16 0 -16 33q0 30 16 30q17 0 17 -30zM776 190q0 -26 -14 -26q-17 0 -17 26q0 27 17 27q14 0 14 -27zM565 14v-14h47v14h-10v52h29v-52h-10v-14h47v14h-13v107l-20 -4q-8 4 -19 4q-16 0 -27 -10
t-11 -29v-2h-15v-14h15v-52h-13zM961 55q0 -26 15.5 -41.5t43.5 -15.5q46 0 49 47h-16q-4 -33 -29 -33q-33 0 -33 45t29 45q12 0 18.5 -6.5t12.5 -25.5h16v45h-16l-2 -13q-15 15 -33 15q-22 0 -38.5 -17.5t-16.5 -44.5zM254 14v-14h59v14h-16v37h45v-37h-16v-14h59v14h-16
v84h16v15h-59v-15h16v-32h-45v32h16v15h-59v-15h16v-84h-16zM950 68h-37v-15h13q-2 -7 -13 -18q-4 4 -11.5 12.5t-12.5 13.5q22 9 22 25q0 10 -7.5 17.5t-20.5 7.5q-14 0 -24.5 -9t-10.5 -20q0 -13 12 -25q-26 -7 -26 -30q0 -29 36 -29q19 0 31 12q10 -12 25 -12q19 0 26 25
l-10 2q-3 -11 -8 -11t-12 11q12 16 18 28h10v15zM602 80v6q0 25 12 25l7 -2q-3 -3 -3 -7q0 -12 13 -12v-10h-29zM883 68q-13 13 -13 20q0 10 11 10q12 0 12 -12q0 -11 -10 -18zM506 37h53q3 45 -39 45q-17 0 -29 -12t-12 -31t11.5 -30t31.5 -11q30 0 37 29h-14
q-3 -15 -19 -15q-20 0 -20 25zM754 14v-14h53v14h-16v33q8 19 14 19v-3q0 -12 12 -12q14 0 14 15q0 16 -16 16q-15 0 -24 -23v21h-37v-14h12v-52h-12zM1075 41q0 -20 12 -31.5t31 -11.5t31 12t12 31t-12 30t-31 11t-31 -11t-12 -30zM387 41q0 -20 12 -31.5t31 -11.5t31 12
t12 31t-12 30t-31 11t-31 -11t-12 -30zM696 37h54q3 45 -39 45q-17 0 -29 -12t-12 -31t11.5 -30t31.5 -11q30 0 37 29h-15q-3 -15 -18 -15q-21 0 -21 25zM1135 41q0 -33 -17 -33q-16 0 -16 33q0 31 16 31q17 0 17 -31zM446 41q0 -33 -16 -33t-16 33q0 31 16 31t16 -31z
M696 47q0 25 15 25q14 0 14 -25h-29zM506 47q0 25 14 25q15 0 15 -25h-29zM895 18q-9 -6 -16 -6q-9 0 -15 6t-6 15q0 10 8 18q9 -9 29 -33zM1194 12q0 15 -14 15q-6 0 -10.5 -4.5t-4.5 -10.5q0 -14 15 -14q14 0 14 14z" />
    <glyph glyph-name="fi" unicode="&#xfb01;" horiz-adv-x="1073" 
d="M590 1417v-88h-58q-104 0 -151 -47t-47 -139v-191h256v-86h-256v-866h-96v866h-160v86h160v187q0 133 70.5 205.5t213.5 72.5h68zM793 1335h118v-153h-118v153zM803 952h98v-952h-98v952z" />
    <glyph glyph-name="fl" unicode="&#xfb02;" horiz-adv-x="1073" 
d="M590 1417v-88h-58q-104 0 -151 -47t-47 -139v-191h256v-86h-256v-866h-96v866h-160v86h160v187q0 133 70.5 205.5t213.5 72.5h68zM901 1417v-1417h-98v1417h98z" />
    <glyph glyph-name="NUL" horiz-adv-x="0" 
 />
    <glyph glyph-name="Q.alt" horiz-adv-x="1312" 
d="M995 -231v-86h-88q-168 0 -234.5 47t-66.5 176v80q-214 17 -336.5 163t-122.5 375v328q0 244 137.5 393.5t372.5 149.5t371.5 -149t136.5 -394v-328q0 -230 -121.5 -375.5t-336.5 -162.5v-82q0 -83 42 -109t171 -26h75zM657 1307q-186 0 -295.5 -123.5t-109.5 -321.5
v-348q0 -197 109.5 -319.5t295.5 -122.5q185 0 294.5 123t109.5 319v348q0 198 -109.5 321.5t-294.5 123.5z" />
    <glyph glyph-name="Q.alt2" horiz-adv-x="1316" 
d="M1278 -33q-50 -22 -102 -22q-59 0 -106.5 28t-94.5 99q-131 -103 -318 -103q-235 0 -372.5 150t-137.5 395v334q0 246 137.5 396.5t372.5 150.5t371.5 -150.5t136.5 -396.5v-334q0 -231 -123 -379q42 -59 76 -80.5t74 -21.5q32 0 86 14v-80zM254 508q0 -212 111 -332
q-15 47 -15 82q0 113 79 184.5t192 71.5q64 0 115.5 -18t93 -56t71 -77.5t66.5 -102.5l18 -33q76 115 76 281v348q0 202 -109.5 326.5t-294.5 124.5q-186 0 -294.5 -124.5t-108.5 -326.5v-348zM434 248q0 -191 223 -191q156 0 265 95l-39 69q-62 106 -122.5 155.5
t-142.5 49.5q-86 0 -135 -52.5t-49 -125.5z" />
    <glyph glyph-name="R.alt" horiz-adv-x="1224" 
d="M201 1364h448q209 0 308.5 -86t99.5 -244v-69q0 -254 -258 -314v-4q127 -25 180 -91t53 -210v-184q0 -41 22.5 -60t73.5 -22v-80h-34q-80 0 -123 39.5t-43 116.5v188q0 143 -69.5 200.5t-248.5 57.5h-305v-602h-104v1364zM305 1274v-584h309q162 0 250 72.5t88 204.5v59
q0 248 -307 248h-340z" />
    <glyph glyph-name="t.alt" horiz-adv-x="624" 
d="M227 1167l97 35v-250h260v-86h-260v-430q0 -73 2 -118t8.5 -88.5t17 -69.5t31 -53t47.5 -47t68 -44v-16h-140q-53 37 -79.5 77t-39 108t-12.5 184v497h-155v86h155v215z" />
    <glyph glyph-name="Racute.alt" horiz-adv-x="1224" 
d="M881 1898l-283 -317h-74l224 317h133zM201 1364h448q209 0 308.5 -86t99.5 -244v-69q0 -254 -258 -314v-4q127 -25 180 -91t53 -210v-184q0 -41 22.5 -60t73.5 -22v-80h-34q-80 0 -123 39.5t-43 116.5v188q0 143 -69.5 200.5t-248.5 57.5h-305v-602h-104v1364zM305 1274
v-584h309q162 0 250 72.5t88 204.5v59q0 248 -307 248h-340z" />
    <glyph glyph-name="Rcaron.alt" horiz-adv-x="1224" 
d="M297 1919q111 -22 187 -85.5t118 -147.5q40 83 116 147t187 86v-66q-191 -57 -250 -262h-106q-63 206 -252 262v66zM201 1364h448q209 0 308.5 -86t99.5 -244v-69q0 -254 -258 -314v-4q127 -25 180 -91t53 -210v-184q0 -41 22.5 -60t73.5 -22v-80h-34q-80 0 -123 39.5
t-43 116.5v188q0 143 -69.5 200.5t-248.5 57.5h-305v-602h-104v1364zM305 1274v-584h309q162 0 250 72.5t88 204.5v59q0 248 -307 248h-340z" />
    <glyph glyph-name="Rcommaaccent.alt" horiz-adv-x="1224" 
d="M201 1364h448q209 0 308.5 -86t99.5 -244v-69q0 -254 -258 -314v-4q127 -25 180 -91t53 -210v-184q0 -41 22.5 -60t73.5 -22v-80h-34q-80 0 -123 39.5t-43 116.5v188q0 143 -69.5 200.5t-248.5 57.5h-305v-602h-104v1364zM305 1274v-584h309q162 0 250 72.5t88 204.5v59
q0 248 -307 248h-340zM553 -219h141v-148q0 -106 -54 -171.5t-169 -94.5v45q162 49 162 197h-80v172z" />
    <glyph glyph-name="tcaron.alt" horiz-adv-x="624" 
d="M518 1456h100l-53 -354h-61zM227 1167l97 35v-250h260v-86h-260v-430q0 -73 2 -118t8.5 -88.5t17 -69.5t31 -53t47.5 -47t68 -44v-16h-140q-53 37 -79.5 77t-39 108t-12.5 184v497h-155v86h155v215z" />
    <glyph glyph-name="tcommaaccent.alt" horiz-adv-x="624" 
d="M227 1167l97 35v-250h260v-86h-260v-430q0 -73 2 -118t8.5 -88.5t17 -69.5t31 -53t47.5 -47t68 -44v-16h-140q-53 37 -79.5 77t-39 108t-12.5 184v497h-155v86h155v215zM272 -233h142v-148q0 -105 -54.5 -170t-169.5 -96v47q162 46 162 194h-80v173z" />
    <glyph glyph-name="one.alt" horiz-adv-x="929" 
d="M879 0h-748v86h336v1040h-361v74h74q174 0 241 37t71 152h75v-1303h312v-86z" />
    <glyph glyph-name="one.alt2" horiz-adv-x="573" 
d="M236 1255q27 13 40.5 45.5t16.5 102.5h45v-1403h-102v1255z" />
    <glyph glyph-name="colon.alt" horiz-adv-x="428" 
d="M143 1151h140v-197h-140v197zM143 410h140v-197h-140v197z" />
    <glyph glyph-name="guillemotleft.cap" horiz-adv-x="1214" 
d="M535 1151h71q-44 -153 -129 -262t-233 -207q148 -98 233 -207t129 -262h-71q-100 275 -418 424v90q318 149 418 424zM1018 1151h72q-44 -153 -129 -262t-234 -207q149 -98 234 -207t129 -262h-72q-100 275 -418 424v90q318 149 418 424z" />
    <glyph glyph-name="guillemotright.cap" horiz-adv-x="1202" 
d="M668 213h-74q44 153 129 262t233 207q-148 98 -233 207t-129 262h74q100 -275 415 -424v-90q-315 -149 -415 -424zM197 213h-74q44 153 129 262t233 207q-148 98 -233 207t-129 262h74q100 -275 415 -424v-90q-315 -149 -415 -424z" />
    <glyph glyph-name="guilsinglleft.cap" horiz-adv-x="731" 
d="M537 1151h73q-44 -153 -129 -262t-233 -207q148 -98 233 -207t129 -262h-73q-100 275 -416 424v90q316 149 416 424z" />
    <glyph glyph-name="guilsinglright.cap" horiz-adv-x="731" 
d="M195 213h-74q44 153 129 262t233 207q-148 98 -233 207t-129 262h74q96 -274 415 -424v-90q-319 -150 -415 -424z" />
    <glyph glyph-name="hyphen.cap" horiz-adv-x="778" 
d="M125 725h528v-86h-528v86z" />
    <glyph glyph-name="endash.cap" horiz-adv-x="1179" 
d="M160 725h862v-86h-862v86z" />
    <glyph glyph-name="emdash.cap" horiz-adv-x="1751" 
d="M168 725h1415v-86h-1415v86z" />
    <glyph glyph-name="at.cap" horiz-adv-x="1609" 
d="M877 1454q159 0 283.5 -50t199.5 -134t113 -186.5t38 -215.5q0 -119 -33.5 -223.5t-88.5 -174.5t-125.5 -110.5t-143.5 -40.5q-91 0 -143.5 51.5t-44.5 133.5q-96 -170 -236 -170q-97 0 -153 66.5t-56 187.5q0 109 44 218t127 184t182 75q66 0 114.5 -40.5t61.5 -113.5
l45 142h92l-121 -400q-36 -120 -12 -189t106 -69q113 0 206 137t93 338q0 223 -147 364.5t-401 141.5q-141 0 -265 -58.5t-213 -160t-140.5 -246.5t-51.5 -311q0 -287 158 -448.5t438 -161.5q144 0 279 49t221 121l45 -64q-95 -78 -242.5 -131t-302.5 -53q-314 0 -498 183.5
t-184 504.5q0 185 59 345t160.5 271t240.5 174.5t296 63.5zM846 981q-59 0 -110 -38t-84 -97t-51.5 -128t-18.5 -134q0 -84 33.5 -128t99.5 -44q68 0 130 64t91 165l51 176q2 65 -34.5 114.5t-106.5 49.5z" />
    <glyph glyph-name="registered.large" horiz-adv-x="1775" 
d="M145 682q0 213 95.5 382.5t265 264t381.5 94.5q161 0 299 -55.5t235.5 -153t153 -235t55.5 -297.5t-55.5 -297.5t-153 -235t-235.5 -153t-299 -55.5q-212 0 -381.5 94.5t-265 264t-95.5 382.5zM1546 682q0 193 -83 345t-233.5 237.5t-342.5 85.5q-191 0 -341.5 -85.5
t-233.5 -238t-83 -344.5t83 -344.5t233.5 -239t341.5 -86.5q192 0 342.5 86.5t233.5 239t83 344.5zM743 612v-282h-92v704h287q242 0 242 -211q0 -80 -42 -131t-118 -69l176 -293h-104l-168 282h-181zM743 956v-266h179q82 0 121.5 32t39.5 101t-35.5 101t-115.5 32h-189z
" />
    <glyph glyph-name="registered.large_alt" horiz-adv-x="1775" 
d="M145 682q0 213 95.5 382.5t265 264t381.5 94.5q161 0 299 -55.5t235.5 -153t153 -235t55.5 -297.5t-55.5 -297.5t-153 -235t-235.5 -153t-299 -55.5q-212 0 -381.5 94.5t-265 264t-95.5 382.5zM1546 682q0 193 -83 345t-233.5 237.5t-342.5 85.5q-191 0 -341.5 -85.5
t-233.5 -238t-83 -344.5t83 -344.5t233.5 -239t341.5 -86.5q192 0 342.5 86.5t233.5 239t83 344.5zM651 1034h297q232 0 232 -196q0 -83 -35.5 -125t-108.5 -56v-2q65 -14 93 -47.5t28 -97.5v-84q0 -26 11 -38.5t36 -18.5v-39h-53q-86 0 -86 84v90q0 59 -32 84.5t-115 25.5
h-175v-284h-92v704zM743 956v-266h177q86 0 125.5 32.5t39.5 104.5q0 68 -35 98.5t-116 30.5h-191z" />
    <glyph glyph-name="registered.alt" horiz-adv-x="1060" 
d="M528 1395q185 0 306.5 -121.5t121.5 -298.5q0 -179 -121 -299.5t-307 -120.5q-184 0 -304 120.5t-120 299.5q0 177 120 298.5t304 121.5zM528 1329q-160 0 -258 -99.5t-98 -254.5q0 -156 98 -257.5t258 -101.5q163 0 261 101t98 258q0 155 -98 254.5t-261 99.5zM379 1186
h186q140 0 140 -117q0 -48 -19.5 -71.5t-62.5 -34.5q36 -9 51.5 -30t15.5 -61v-24q0 -19 8 -28t31 -15v-29h-55q-53 0 -53 58v38q0 32 -18.5 47t-61.5 15h-92v-158h-70v410zM449 1126v-141h96q90 0 90 74q0 34 -19 50.5t-63 16.5h-104z" />
    <glyph glyph-name="R_p" horiz-adv-x="2140" 
d="M322 598v-598h-105v1364h434q406 0 406 -340v-80q0 -130 -81.5 -221t-230.5 -115l355 -608h-119l-346 598h-313zM322 686h309q151 0 235 71.5t84 190.5v72q0 132 -73 193t-234 61h-321v-588zM1677 -23q-111 0 -182.5 53t-126.5 146v-491h-96v1267h78l10 -202
q57 108 131.5 165.5t191.5 57.5q159 0 250.5 -114t91.5 -286v-194q0 -172 -94.5 -287t-253.5 -115zM1667 66q123 0 191.5 91t68.5 228v182q0 137 -68.5 228.5t-191.5 91.5q-118 0 -208.5 -99.5t-90.5 -242.5v-137q0 -143 91 -242.5t208 -99.5z" />
    <glyph glyph-name="R_p.alt" horiz-adv-x="2195" 
d="M217 1364h434q210 0 310 -86t100 -244v-69q0 -255 -260 -314v-4q127 -25 181 -91.5t54 -209.5v-184q0 -41 22.5 -60t74.5 -22v-80h-35q-81 0 -124.5 39.5t-43.5 116.5v188q0 143 -68.5 200.5t-247.5 57.5h-292v-602h-105v1364zM322 1274v-584h296q162 0 250 72.5
t88 204.5v59q0 248 -307 248h-327zM1325 952h80l10 -202q55 107 130.5 165t191.5 58q159 0 250.5 -114t91.5 -286v-194q0 -172 -94.5 -287t-253.5 -115q-111 0 -183 53t-125 146v-491h-98v1267zM1720 887q-118 0 -207.5 -99.5t-89.5 -242.5v-137q0 -143 90 -242.5t207 -99.5
q123 0 192.5 91t69.5 228v182q0 137 -69 228.5t-193 91.5z" />
    <glyph glyph-name="rupee.alt" horiz-adv-x="2091" 
d="M217 1364h434q210 0 310 -86t100 -244v-69q0 -255 -260 -314v-4q127 -25 181 -91.5t54 -209.5v-184q0 -41 22.5 -60t74.5 -22v-80h-35q-81 0 -124.5 39.5t-43.5 116.5v188q0 143 -68.5 200.5t-247.5 57.5h-292v-602h-105v1364zM322 1274v-584h296q162 0 250 72.5
t88 204.5v59q0 248 -307 248h-327zM1630 -25q-173 0 -263.5 84.5t-90.5 221.5v38h92v-36q0 -103 68.5 -163.5t197.5 -60.5q108 0 171 48.5t63 138.5q0 79 -57 121t-203 75q-161 36 -236.5 97t-75.5 176q0 109 89 185.5t237 76.5q161 0 244.5 -79.5t83.5 -207.5v-31h-95v27
q0 98 -59.5 152.5t-175.5 54.5q-102 0 -165.5 -49.5t-63.5 -126.5q0 -78 61.5 -120t202.5 -75q162 -37 235.5 -97.5t73.5 -176.5q0 -125 -90.5 -199t-243.5 -74z" />
    <glyph glyph-name="rupeeindia.alt" horiz-adv-x="1226" 
d="M999 80v-80h-22q-180 0 -180 166v82q0 112 -34 175.5t-118.5 94.5t-236.5 31h-273v90h266q200 0 303 69.5t117 209.5h-690v86h690q-11 137 -102 205.5t-277 68.5h-311v86h1010v-86h-375q142 -81 154 -274h221v-86h-221q-21 -270 -312 -318v-4q162 -21 225.5 -100
t63.5 -242v-86q0 -44 23 -64.5t79 -23.5z" />
    <glyph glyph-name="onehalf.alt" horiz-adv-x="1878" 
d="M684 575h-575v72h256v539h-269v67h117q95 0 133.5 26.5t42.5 98.5h66v-731h229v-72zM1466 1364l-915 -1364h-92l917 1364h90zM1776 0h-557v45q0 125 51 192.5t211 151.5q133 66 174 103.5t41 97.5q0 67 -53 103t-130 36q-89 0 -143.5 -41.5t-54.5 -116.5v-39h-84v43
q0 101 76.5 165.5t205.5 64.5q130 0 200.5 -59t70.5 -154q0 -32 -6 -58t-25 -50.5t-34.5 -40.5t-55.5 -40.5t-65.5 -38.5t-84.5 -45q-123 -59 -162.5 -105t-39.5 -136h465v-78z" />
    <glyph glyph-name="onethird.alt" horiz-adv-x="1878" 
d="M684 575h-575v72h256v539h-269v67h117q95 0 133.5 26.5t42.5 98.5h66v-731h229v-72zM1466 1364l-915 -1364h-92l917 1364h90zM1501 805q128 0 200.5 -59.5t72.5 -149.5v-16q0 -61 -43 -112t-121 -67q82 -20 124 -68t42 -116v-14q0 -93 -74 -156t-203 -63
q-144 0 -213 62.5t-69 154.5v32h83v-28q0 -65 50.5 -106.5t144.5 -41.5q84 0 138.5 40t54.5 106v12q0 145 -211 145h-86v74h86q107 0 158 41.5t51 104.5v14q0 63 -53.5 100t-135.5 37q-91 0 -144 -41.5t-53 -103.5v-29h-81v33q0 39 16 76t48.5 69t88.5 51t129 19z" />
    <glyph glyph-name="onequarter.alt" horiz-adv-x="1769" 
d="M684 575h-575v72h256v539h-269v67h117q95 0 133.5 26.5t42.5 98.5h66v-731h229v-72zM1466 1364l-915 -1364h-92l917 1364h90zM1479 788h110v-526h123v-74h-123v-188h-84v188h-450v74zM1505 262v453l-362 -453h362z" />
    <glyph glyph-name="onefifth.alt" horiz-adv-x="1900" 
d="M684 575h-575v72h256v539h-269v67h117q95 0 133.5 26.5t42.5 98.5h66v-731h229v-72zM1466 1364l-915 -1364h-92l917 1364h90zM1288 788h504q-5 -48 -21 -63.5t-65 -15.5h-342l-23 -293q98 82 222 82q120 0 179.5 -61.5t59.5 -166.5v-30q0 -110 -72.5 -183t-203.5 -73
q-140 0 -209.5 61.5t-69.5 157.5v12h84v-8q0 -71 50.5 -109.5t142.5 -38.5q85 0 138.5 47t53.5 132v26q0 76 -42.5 120t-129.5 44q-118 0 -217 -92l-70 18z" />
    <glyph glyph-name="onesixth.alt" horiz-adv-x="1869" 
d="M684 575h-575v72h256v539h-269v67h117q95 0 133.5 26.5t42.5 98.5h66v-731h229v-72zM1466 1364l-915 -1364h-92l917 1364h90zM1495 -18q-139 0 -215 74t-76 220v207q0 148 77 234t228 86q73 0 126.5 -19.5t81 -52t40 -66t12.5 -69.5v-16h-86v6q0 58 -42.5 99.5
t-127.5 41.5q-112 0 -166.5 -60.5t-54.5 -183.5v-98q84 100 236 100q123 0 190.5 -65.5t67.5 -161.5v-22q0 -107 -76 -180.5t-215 -73.5zM1495 59q90 0 145.5 46.5t55.5 125.5v15q0 76 -50.5 121t-144.5 45q-91 0 -150 -41.5t-59 -114.5v-20q0 -86 57 -131.5t146 -45.5z" />
    <glyph glyph-name="oneeighth.alt" horiz-adv-x="1886" 
d="M684 575h-575v72h256v539h-269v67h117q95 0 133.5 26.5t42.5 98.5h66v-731h229v-72zM1466 1364l-915 -1364h-92l917 1364h90zM1509 807q135 0 211 -62t76 -163v-9q0 -57 -35 -104.5t-100 -71.5q68 -25 105.5 -73.5t37.5 -110.5v-10q0 -101 -79.5 -161t-215.5 -60
q-137 0 -216 59.5t-79 161.5v10q0 62 37 111t105 73q-64 24 -98.5 71.5t-34.5 104.5v9q0 101 75.5 163t210.5 62zM1509 731q-90 0 -143 -38.5t-53 -110.5v-15q0 -60 55.5 -98.5t140.5 -38.5t142 38.5t57 98.5v15q0 71 -55 110t-144 39zM1509 57q94 0 151.5 39t57.5 111v14
q0 63 -59 102t-150 39t-150 -39t-59 -102v-14q0 -72 57.5 -111t151.5 -39z" />
    <glyph glyph-name="one.sup_alt" 
d="M684 629h-575v71h256v539h-269v68h117q95 0 133.5 26.5t42.5 98.5h66v-732h229v-71z" />
    <glyph glyph-name="one.inf_alt" 
d="M684 -315h-575v71h256v539h-269v67h117q95 0 133.5 26.5t42.5 98.5h66v-731h229v-71z" />
    <glyph glyph-name="zero.tab" horiz-adv-x="1196" 
d="M600 1395q225 0 350 -150t125 -414v-296q0 -265 -125 -415.5t-350 -150.5q-226 0 -352.5 150.5t-126.5 415.5v296q0 264 126.5 414t352.5 150zM600 1307q-181 0 -279 -123.5t-98 -345.5v-312q0 -222 98 -345.5t279 -123.5q179 0 277 123.5t98 345.5v312q0 222 -98 345.5
t-277 123.5z" />
    <glyph glyph-name="one.tab" horiz-adv-x="1196" 
d="M631 1389h80v-1303h417v-86h-966v86h448v1036h-469v76h185q171 0 236 37.5t69 153.5z" />
    <glyph glyph-name="two.tab" horiz-adv-x="1196" 
d="M623 1393q213 0 325.5 -97t112.5 -260q0 -66 -17 -117.5t-46 -90.5t-83 -78.5t-111 -72.5t-146 -82q-37 -20 -56 -30q-115 -60 -180 -105.5t-105 -101t-52.5 -115t-12.5 -153.5h797v-90h-899v76q0 72 6 124.5t24.5 103t47.5 90.5t79 84.5t115.5 87.5t159.5 96
q101 53 159.5 87.5t106 69t68.5 66.5t31.5 67t10.5 84q0 137 -92 203t-241 66q-159 0 -257 -76t-98 -221v-70h-98v74q0 172 123.5 276.5t327.5 104.5z" />
    <glyph glyph-name="three.tab" horiz-adv-x="1196" 
d="M602 1395q108 0 193.5 -29.5t137.5 -79.5t78.5 -113.5t26.5 -134.5v-28q0 -110 -69.5 -197.5t-198.5 -118.5q135 -30 203.5 -112.5t68.5 -202.5v-33q0 -164 -113.5 -270.5t-328.5 -106.5q-101 0 -180.5 19.5t-131 53t-84.5 80.5t-47 98t-14 110v53h101v-51
q0 -131 86.5 -203t265.5 -72q160 0 252 73.5t92 215.5v31q0 125 -86 197.5t-268 72.5h-158v88h158q175 0 263.5 74.5t88.5 200.5v22q0 135 -92 205t-248 70q-171 0 -261.5 -76t-90.5 -199v-51h-99v53q0 53 14.5 102.5t49 97t85.5 83t130 57t176 21.5z" />
    <glyph glyph-name="four.tab" horiz-adv-x="1196" 
d="M780 1364h129v-950h217v-88h-217v-326h-96v326h-733v77zM813 414v839l-614 -839h614z" />
    <glyph glyph-name="five.tab" horiz-adv-x="1196" 
d="M666 872q205 0 304 -110.5t99 -294.5v-68q0 -192 -115 -311t-338 -119q-123 0 -213 29t-142 82t-76.5 120t-24.5 150v2h98v-4q0 -141 89 -216t269 -75q157 0 255 84.5t98 253.5v64q0 151 -75 237t-235 86q-117 0 -213 -46t-188 -130l-78 25l53 733h811q-6 -55 -28 -72.5
t-92 -17.5h-602l-41 -551q175 149 385 149z" />
    <glyph glyph-name="six.tab" horiz-adv-x="1196" 
d="M602 -29q-225 0 -341 125.5t-116 345.5v443q0 112 29 203.5t87 161t151 107.5t215 38q92 0 165.5 -22.5t119.5 -57.5t76.5 -81t43 -90t12.5 -87v-41h-100v20q0 119 -81 195t-232 76q-188 0 -286.5 -109t-98.5 -330v-219q125 189 399 189q195 0 306.5 -110.5t111.5 -287.5
v-47q0 -185 -121 -303.5t-340 -118.5zM602 59q74 0 136.5 18.5t112.5 57t78.5 104t28.5 152.5v35q0 160 -90.5 242t-251.5 82q-72 0 -137 -19t-117 -55.5t-83 -96t-31 -133.5v-47q0 -86 29 -152.5t78.5 -106.5t112 -60.5t134.5 -20.5z" />
    <glyph glyph-name="seven.tab" horiz-adv-x="1196" 
d="M510 0h-102q23 313 158.5 626t418.5 648h-881v90h996v-84q-279 -321 -417.5 -631t-172.5 -649z" />
    <glyph glyph-name="eight.tab" horiz-adv-x="1196" 
d="M600 1395q205 0 318.5 -105t113.5 -268v-23q0 -109 -56 -189.5t-167 -121.5q242 -88 242 -326v-22q0 -170 -121 -270.5t-330 -100.5q-211 0 -332 100.5t-121 270.5v22q0 120 65.5 201.5t184.5 124.5q-113 41 -172 122t-59 189v23q0 163 114 268t320 105zM600 1307
q-153 0 -243.5 -72t-90.5 -209v-27q0 -128 91 -199t243 -71q151 0 241.5 71t90.5 199v27q0 137 -90.5 209t-241.5 72zM600 57q160 0 255 71.5t95 211.5v22q0 138 -94.5 211.5t-255.5 73.5q-162 0 -257 -73.5t-95 -211.5v-22q0 -140 95 -211.5t257 -71.5z" />
    <glyph glyph-name="nine.tab" horiz-adv-x="1196" 
d="M590 1395q228 0 343.5 -126t115.5 -345v-443q0 -233 -121.5 -371.5t-364.5 -138.5q-90 0 -163 21.5t-119.5 56t-78 79t-44.5 89t-13 88.5v35h101v-21q0 -112 81.5 -186t231.5 -74q189 0 289 109t100 330v198q-22 -33 -51 -61.5t-76.5 -59.5t-118 -49t-155.5 -18
q-199 0 -308.5 111t-109.5 288v64q0 89 29.5 165t85.5 134t145 91.5t201 33.5zM590 1307q-74 0 -136 -18.5t-112 -57t-78 -105.5t-28 -157v-41q0 -168 89 -250t250 -82q99 0 181 32.5t136 104t54 170.5v53q0 91 -29 160t-79.5 110t-113 61t-134.5 20z" />
    <glyph glyph-name="dollar.tab" horiz-adv-x="1196" 
d="M1042 350q0 -159 -106.5 -255.5t-286.5 -108.5v-226h-92v226q-205 12 -309.5 115t-104.5 268v69h103v-63q0 -142 90 -222.5t270 -80.5q152 0 243 71.5t91 198.5q0 52 -15 91.5t-40.5 68.5t-74 55t-99.5 45.5t-133 44.5q-83 24 -141.5 46.5t-112.5 54t-87 68.5t-52 88
t-19 114q0 148 105 248t286 110v223h92v-223q102 -7 177.5 -39t119 -84t64 -114t20.5 -135v-60h-102v53q0 61 -16.5 111t-53 92.5t-104 66t-160.5 23.5q-150 0 -238 -74t-88 -192q0 -48 14 -85t39.5 -65t71.5 -53t99 -44.5t133 -43.5q86 -27 143.5 -50t113.5 -55.5t88.5 -70
t52 -89.5t19.5 -118z" />
    <glyph glyph-name="sterling.tab" horiz-adv-x="1196" 
d="M1104 311q0 -180 -67 -261t-195 -81q-46 0 -90 13t-94.5 45t-75.5 50.5t-81 63.5q-9 7 -14 11q-33 -82 -93 -132.5t-142 -50.5q-97 0 -151 53t-54 138q0 83 56 138.5t153 55.5q82 0 178 -59q6 37 6 72q0 130 -67 278h-230v86h191q-70 159 -70 287q0 78 24 145t72.5 119.5
t128 82.5t183.5 30q185 0 286 -97.5t101 -273.5v-53h-101v41q0 150 -77 222.5t-213 72.5q-135 0 -219 -73t-84 -214q0 -79 19.5 -143t57.5 -146h432v-86h-395q56 -137 56 -276q0 -59 -17 -129q17 -13 65 -50t70.5 -52.5t60 -38.5t69 -32.5t61.5 -9.5q34 0 60 9t51.5 33.5
t39 76.5t13.5 129v107h96v-101zM141 160q0 -47 29.5 -77t81.5 -30q58 0 99.5 41.5t62.5 114.5q-90 63 -158 63q-57 0 -86 -30.5t-29 -81.5z" />
    <glyph glyph-name="Euro.tab" horiz-adv-x="1196" 
d="M1083 362q0 -80 -26.5 -150t-77 -124.5t-132 -86.5t-185.5 -32q-216 0 -337.5 136.5t-121.5 386.5h-146v83h146v213h-146v86h146q1 249 124.5 385t336.5 136q104 0 185.5 -32t131.5 -87t76 -125t26 -150v-30h-98v16q0 138 -80.5 229t-238.5 91q-170 0 -266.5 -109
t-96.5 -313v-11h498v-86h-498v-213h498v-83h-498v-13q0 -204 97 -313t266 -109q157 0 238 91.5t81 228.5v10h98v-25z" />
    <glyph glyph-name="yen.tab" horiz-adv-x="1196" 
d="M1038 264h-387v-264h-98v264h-399v82h399v199l-8 16h-391v82h344l-398 721h115l391 -721l381 721h111l-393 -721h333v-82h-379l-8 -16v-199h387v-82z" />
    <glyph glyph-name="cent.tab" horiz-adv-x="1196" 
d="M991 506q0 -123 -86 -214t-241 -104v-200h-93v200q-176 13 -269 125t-93 295v148q0 178 94 290.5t268 129.5v198h93v-198q159 -11 243 -100.5t84 -217.5v-8h-96v4q0 43 -14 82.5t-44 73.5t-84.5 54.5t-127.5 20.5q-156 0 -236 -86.5t-80 -238.5v-156q0 -149 79 -237
t230 -88q71 0 126.5 20.5t87 54.5t47.5 73t16 81v6h96v-8z" />
    <glyph glyph-name="numbersign.tab" horiz-adv-x="1196" 
d="M657 0l62 395h-332l-63 -395h-86l63 395h-242v86h254l64 402h-260v86h274l64 395h86l-64 -395h334l61 395h86l-61 -395h240v-86h-254l-64 -402h260v-86h-274l-62 -395h-86zM399 481h334l64 402h-334z" />
    <glyph glyph-name="degree.tab" horiz-adv-x="1196" 
d="M600 1395q171 0 272 -104t101 -265q0 -159 -103 -261.5t-272 -102.5t-272 102.5t-103 261.5q0 160 103 264.5t274 104.5zM598 1309q-129 0 -205 -77t-76 -206t77.5 -205t203.5 -76q127 0 204 76t77 205q0 130 -75.5 206.5t-205.5 76.5z" />
    <glyph glyph-name="percent.tab" horiz-adv-x="1796" 
d="M475 1395q130 0 204.5 -81.5t74.5 -209.5v-100q0 -127 -76 -209t-203 -82t-202.5 82t-75.5 209v100q0 127 74.5 209t203.5 82zM1501 1382l-1104 -1400h-102l1104 1400h102zM475 1313q-93 0 -140.5 -57t-47.5 -150v-105q0 -92 49 -149t139 -57q91 0 140 57t49 149v105
q0 92 -48.5 149.5t-140.5 57.5zM1319 -31q-127 0 -202 81t-75 208v100q0 128 74.5 210.5t204.5 82.5q129 0 202.5 -82.5t73.5 -210.5v-100q0 -126 -75.5 -207.5t-202.5 -81.5zM1321 51q91 0 139.5 57t48.5 148v104q0 94 -48.5 151.5t-141.5 57.5q-92 0 -139 -57.5
t-47 -151.5v-104q0 -91 48.5 -148t139.5 -57z" />
    <glyph glyph-name="quotedbl.tab" horiz-adv-x="1196" 
d="M401 1364h121l-168 -619h-67zM821 1364h121l-166 -619h-69z" />
    <glyph glyph-name="quotesingle.tab" horiz-adv-x="598" 
d="M324 1364h127l-168 -619h-72z" />
    <glyph glyph-name="period.tab" horiz-adv-x="598" 
d="M229 197h140v-197h-140v197z" />
    <glyph glyph-name="comma.tab" horiz-adv-x="598" 
d="M229 197h140v-134q0 -160 -53 -238.5t-177 -109.5v43q90 36 123 92.5t35 149.5h-68v197z" />
    <glyph glyph-name="colon.tab" horiz-adv-x="598" 
d="M229 938h140v-197h-140v197zM229 197h140v-197h-140v197z" />
    <glyph glyph-name="semicolon.tab" horiz-adv-x="598" 
d="M229 938h140v-197h-140v197zM229 197h140v-134q0 -160 -53 -238.5t-177 -109.5v43q90 36 123 92.5t35 149.5h-68v197z" />
    <glyph glyph-name="periodcentered.tab" horiz-adv-x="598" 
d="M229 780h140v-196h-140v196z" />
    <glyph glyph-name="slash.tab" horiz-adv-x="1196" 
d="M1044 1556h103l-983 -1871h-103z" />
    <glyph glyph-name="bar.tab" horiz-adv-x="598" 
d="M254 1556h90v-1871h-90v1871z" />
    <glyph glyph-name="underscore.tab" horiz-adv-x="1196" 
d="M74 -231h1048v-84h-1048v84z" />
    <glyph glyph-name="plus.tab" horiz-adv-x="1196" 
d="M555 1094h90v-369h367v-86h-367v-371h-90v371h-371v86h371v369z" />
    <glyph glyph-name="minus.tab" horiz-adv-x="1196" 
d="M199 729h800v-94h-800v94z" />
    <glyph glyph-name="divide.tab" horiz-adv-x="1196" 
d="M532 1077h134v-141h-134v141zM199 729h800v-94h-800v94zM532 428h134v-141h-134v141z" />
    <glyph glyph-name="equal.tab" horiz-adv-x="1196" 
d="M199 928h800v-92h-800v92zM199 528h800v-92h-800v92z" />
    <glyph glyph-name="multiply.tab" horiz-adv-x="1196" 
d="M891 305l-293 311l-293 -313l-65 62l297 317l-297 315l65 60l293 -312l293 314l65 -62l-297 -315l297 -315z" />
    <glyph glyph-name="less.tab" horiz-adv-x="1196" 
d="M901 1112v-100l-633 -330l633 -330v-100l-731 383v94z" />
    <glyph glyph-name="greater.tab" horiz-adv-x="1196" 
d="M270 1112l729 -383v-94l-729 -383v100l631 330l-631 330v100z" />
    <glyph glyph-name="plusminus.tab" horiz-adv-x="1196" 
d="M555 1253h88v-368h363v-86h-363v-371h-88v371h-365v86h365v368zM190 238h818v-95h-818v95z" />
    <glyph glyph-name="onehalf.tab" horiz-adv-x="1796" 
d="M684 575h-575v72h256v539h-269v67h117q95 0 133.5 26.5t42.5 98.5h66v-731h229v-72zM1430 1364l-918 -1364h-92l917 1364h93zM1692 0h-557v45q0 125 51 192.5t211 151.5q132 66 172.5 103.5t40.5 97.5q0 67 -52.5 103t-130.5 36q-87 0 -142.5 -42t-55.5 -116v-39h-82v43
q0 102 76.5 166t206.5 64t199 -59t69 -154q0 -33 -6 -58.5t-24 -49.5t-34.5 -41t-54.5 -40.5t-65 -38.5t-84 -45q-124 -59 -163.5 -105.5t-39.5 -135.5h465v-78z" />
    <glyph glyph-name="onethird.tab" horiz-adv-x="1796" 
d="M684 575h-575v72h256v539h-269v67h117q95 0 133.5 26.5t42.5 98.5h66v-731h229v-72zM1430 1364l-918 -1364h-92l917 1364h93zM1417 805q126 0 198.5 -59.5t72.5 -149.5v-16q0 -61 -42 -112t-120 -67q80 -20 122 -68.5t42 -115.5v-14q0 -93 -73 -156t-202 -63
q-144 0 -213 62.5t-69 154.5v32h81v-28q0 -65 51.5 -106.5t145.5 -41.5q82 0 136.5 40t54.5 106v12q0 145 -211 145h-84v74h84q107 0 159 41.5t52 104.5v14q0 63 -53.5 100t-135.5 37q-92 0 -144 -41t-52 -104v-29h-84v33q0 85 71.5 150t212.5 65z" />
    <glyph glyph-name="twothirds.tab" horiz-adv-x="1796" 
d="M649 575h-555v46q0 125 50.5 192.5t209.5 151.5q134 66 174.5 103t40.5 97q0 67 -52 103.5t-130 36.5q-89 0 -144 -41.5t-55 -116.5v-39h-84v43q0 101 77 165t206 64q130 0 200 -59t70 -154q0 -28 -6.5 -52t-14 -42t-28.5 -38t-36 -33t-51 -34.5t-59 -33.5t-73 -39
q-124 -60 -164.5 -106.5t-40.5 -135.5h465v-78zM1409 1364l-917 -1364h-93l918 1364h92zM1417 805q126 0 198.5 -59.5t72.5 -149.5v-16q0 -61 -42 -112t-120 -67q80 -20 122 -68.5t42 -115.5v-14q0 -93 -73 -156t-202 -63q-144 0 -213 62.5t-69 154.5v32h81v-28
q0 -65 51.5 -106.5t145.5 -41.5q82 0 136.5 40t54.5 106v12q0 145 -211 145h-84v74h84q107 0 159 41.5t52 104.5v14q0 63 -53.5 100t-135.5 37q-92 0 -144 -41t-52 -104v-29h-84v33q0 85 71.5 150t212.5 65z" />
    <glyph glyph-name="onequarter.tab" horiz-adv-x="1796" 
d="M684 575h-575v72h256v539h-269v67h117q95 0 133.5 26.5t42.5 98.5h66v-731h229v-72zM1491 1364l-918 -1364h-90l916 1364h92zM1503 788h113v-526h123v-74h-123v-188h-84v188h-453v74zM1532 262v453l-365 -453h365z" />
    <glyph glyph-name="threequarters.tab" horiz-adv-x="1796" 
d="M375 1380q127 0 199.5 -59.5t72.5 -149.5v-16q0 -61 -42.5 -110.5t-121.5 -67.5q81 -18 123.5 -67t42.5 -117v-15q0 -94 -72.5 -156.5t-201.5 -62.5q-146 0 -215.5 62.5t-69.5 154.5v33h84v-29q0 -65 50.5 -106t146.5 -41q82 0 136 39.5t54 105.5v13q0 68 -51 107.5
t-160 39.5h-86v74h86q107 0 159 40.5t52 102.5v14q0 63 -53.5 100.5t-136.5 37.5q-91 0 -143 -41.5t-52 -104.5v-28h-84v32q0 85 72 150t211 65zM1444 1364l-918 -1364h-92l918 1364h92zM1503 788h113v-526h123v-74h-123v-188h-84v188h-453v74zM1532 262v453l-365 -453h365z
" />
    <glyph glyph-name="onefifth.tab" horiz-adv-x="1796" 
d="M684 575h-575v72h256v539h-269v67h117q95 0 133.5 26.5t42.5 98.5h66v-731h229v-72zM1430 1364l-918 -1364h-92l917 1364h93zM1184 788h502q-5 -48 -21 -63.5t-63 -15.5h-345l-20 -293q98 82 221 82q119 0 179.5 -62t60.5 -166v-30q0 -109 -74 -182.5t-205 -73.5
q-139 0 -207.5 61.5t-68.5 157.5v12h82v-8q0 -71 50.5 -109.5t143.5 -38.5q85 0 138 47t53 132v26q0 76 -41.5 120t-128.5 44q-118 0 -217 -92l-72 18z" />
    <glyph glyph-name="twofifths.tab" horiz-adv-x="1796" 
d="M649 575h-555v46q0 125 50.5 192.5t209.5 151.5q134 66 174.5 103t40.5 97q0 67 -52 103.5t-130 36.5q-89 0 -144 -41.5t-55 -116.5v-39h-84v43q0 101 77 165t206 64q130 0 200 -59t70 -154q0 -28 -6.5 -52t-14 -42t-28.5 -38t-36 -33t-51 -34.5t-59 -33.5t-73 -39
q-124 -60 -164.5 -106.5t-40.5 -135.5h465v-78zM1409 1364l-917 -1364h-93l918 1364h92zM1184 788h502q-5 -48 -21 -63.5t-63 -15.5h-345l-20 -293q98 82 221 82q119 0 179.5 -62t60.5 -166v-30q0 -109 -74 -182.5t-205 -73.5q-139 0 -207.5 61.5t-68.5 157.5v12h82v-8
q0 -71 50.5 -109.5t143.5 -38.5q85 0 138 47t53 132v26q0 76 -41.5 120t-128.5 44q-118 0 -217 -92l-72 18z" />
    <glyph glyph-name="threefifths.tab" horiz-adv-x="1796" 
d="M375 1380q127 0 199.5 -59.5t72.5 -149.5v-16q0 -61 -42.5 -110.5t-121.5 -67.5q81 -18 123.5 -67t42.5 -117v-15q0 -94 -72.5 -156.5t-201.5 -62.5q-146 0 -215.5 62.5t-69.5 154.5v33h84v-29q0 -65 50.5 -106t146.5 -41q82 0 136 39.5t54 105.5v13q0 68 -51 107.5
t-160 39.5h-86v74h86q107 0 159 40.5t52 102.5v14q0 63 -53.5 100.5t-136.5 37.5q-91 0 -143 -41.5t-52 -104.5v-28h-84v32q0 85 72 150t211 65zM1401 1364l-916 -1364h-92l918 1364h90zM1184 788h502q-5 -48 -21 -63.5t-63 -15.5h-345l-20 -293q98 82 221 82
q119 0 179.5 -62t60.5 -166v-30q0 -109 -74 -182.5t-205 -73.5q-139 0 -207.5 61.5t-68.5 157.5v12h82v-8q0 -71 50.5 -109.5t143.5 -38.5q85 0 138 47t53 132v26q0 76 -41.5 120t-128.5 44q-118 0 -217 -92l-72 18z" />
    <glyph glyph-name="fourfifths.tab" horiz-adv-x="1796" 
d="M463 1364h110v-526h123v-74h-123v-189h-84v189h-450v74zM1401 1364l-916 -1364h-92l918 1364h90zM489 838v452l-362 -452h362zM1184 788h502q-5 -48 -21 -63.5t-63 -15.5h-345l-20 -293q98 82 221 82q119 0 179.5 -62t60.5 -166v-30q0 -109 -74 -182.5t-205 -73.5
q-139 0 -207.5 61.5t-68.5 157.5v12h82v-8q0 -71 50.5 -109.5t143.5 -38.5q85 0 138 47t53 132v26q0 76 -41.5 120t-128.5 44q-118 0 -217 -92l-72 18z" />
    <glyph glyph-name="onesixth.tab" horiz-adv-x="1796" 
d="M684 575h-575v72h256v539h-269v67h117q95 0 133.5 26.5t42.5 98.5h66v-731h229v-72zM1436 1364l-916 -1364h-92l915 1364h93zM1419 -18q-138 0 -214.5 74t-76.5 220v207q0 148 78 234t230 86q58 0 104.5 -13.5t75 -34.5t47 -49t26 -55t7.5 -55v-16h-86v6q0 58 -42.5 99.5
t-127.5 41.5q-223 0 -223 -244v-98q84 100 237 100q123 0 190.5 -65.5t67.5 -161.5v-22q0 -107 -77 -180.5t-216 -73.5zM1419 59q91 0 147 46.5t56 125.5v15q0 76 -50.5 121t-144.5 45q-91 0 -149.5 -41.5t-58.5 -114.5v-20q0 -86 56 -131.5t144 -45.5z" />
    <glyph glyph-name="fivesixths.tab" horiz-adv-x="1796" 
d="M1409 1364l-917 -1364h-93l918 1364h92zM141 1364h504q-5 -48 -21 -64t-65 -16h-342l-22 -291q107 82 221 82q120 0 180.5 -62t60.5 -165v-33q0 -110 -73.5 -183t-204.5 -73q-139 0 -209 61.5t-70 157.5v15h84v-11q0 -70 50.5 -108.5t142.5 -38.5q86 0 139 46.5t53 131.5
v27q0 76 -42 120t-128 44q-120 0 -217 -93l-71 19zM1419 -18q-138 0 -214.5 74t-76.5 220v207q0 148 78 234t230 86q58 0 104.5 -13.5t75 -34.5t47 -49t26 -55t7.5 -55v-16h-86v6q0 58 -42.5 99.5t-127.5 41.5q-223 0 -223 -244v-98q84 100 237 100q123 0 190.5 -65.5
t67.5 -161.5v-22q0 -107 -77 -180.5t-216 -73.5zM1419 59q91 0 147 46.5t56 125.5v15q0 76 -50.5 121t-144.5 45q-91 0 -149.5 -41.5t-58.5 -114.5v-20q0 -86 56 -131.5t144 -45.5z" />
    <glyph glyph-name="oneeighth.tab" horiz-adv-x="1796" 
d="M684 575h-575v72h256v539h-269v67h117q95 0 133.5 26.5t42.5 98.5h66v-731h229v-72zM1430 1364l-916 -1364h-92l917 1364h91zM1417 807q135 0 211 -62t76 -163v-9q0 -57 -34.5 -104.5t-98.5 -71.5q68 -25 105.5 -73.5t37.5 -110.5v-10q0 -101 -80.5 -161t-216.5 -60
t-215.5 60t-79.5 161v10q0 62 37 111t107 73q-66 24 -101 71.5t-35 104.5v9q0 101 76 163t211 62zM1417 731q-89 0 -142.5 -38.5t-53.5 -110.5v-15q0 -60 55.5 -98.5t140.5 -38.5t142 38.5t57 98.5v15q0 71 -55 110t-144 39zM1417 57q94 0 151.5 39t57.5 111v14
q0 63 -59 102t-150 39t-149 -39t-58 -102v-14q0 -72 57 -111t150 -39z" />
    <glyph glyph-name="threeeighths.tab" horiz-adv-x="1796" 
d="M375 1380q127 0 199.5 -59.5t72.5 -149.5v-16q0 -61 -42.5 -110.5t-121.5 -67.5q81 -18 123.5 -67t42.5 -117v-15q0 -94 -72.5 -156.5t-201.5 -62.5q-146 0 -215.5 62.5t-69.5 154.5v33h84v-29q0 -65 50.5 -106t146.5 -41q82 0 136 39.5t54 105.5v13q0 68 -51 107.5
t-160 39.5h-86v74h86q107 0 159 40.5t52 102.5v14q0 63 -53.5 100.5t-136.5 37.5q-91 0 -143 -41.5t-52 -104.5v-28h-84v32q0 85 72 150t211 65zM1401 1364l-916 -1364h-92l918 1364h90zM1417 807q135 0 211 -62t76 -163v-9q0 -57 -34.5 -104.5t-98.5 -71.5
q68 -25 105.5 -73.5t37.5 -110.5v-10q0 -101 -80.5 -161t-216.5 -60t-215.5 60t-79.5 161v10q0 62 37 111t107 73q-66 24 -101 71.5t-35 104.5v9q0 101 76 163t211 62zM1417 731q-89 0 -142.5 -38.5t-53.5 -110.5v-15q0 -60 55.5 -98.5t140.5 -38.5t142 38.5t57 98.5v15
q0 71 -55 110t-144 39zM1417 57q94 0 151.5 39t57.5 111v14q0 63 -59 102t-150 39t-149 -39t-58 -102v-14q0 -72 57 -111t150 -39z" />
    <glyph glyph-name="fiveeighths.tab" horiz-adv-x="1796" 
d="M1401 1364l-916 -1364h-92l918 1364h90zM141 1364h504q-5 -48 -21 -64t-65 -16h-342l-22 -291q107 82 221 82q120 0 180.5 -62t60.5 -165v-33q0 -110 -73.5 -183t-204.5 -73q-139 0 -209 61.5t-70 157.5v15h84v-11q0 -70 50.5 -108.5t142.5 -38.5q86 0 139 46.5t53 131.5
v27q0 76 -42 120t-128 44q-120 0 -217 -93l-71 19zM1417 807q135 0 211 -62t76 -163v-9q0 -57 -34.5 -104.5t-98.5 -71.5q68 -25 105.5 -73.5t37.5 -110.5v-10q0 -101 -80.5 -161t-216.5 -60t-215.5 60t-79.5 161v10q0 62 37 111t107 73q-66 24 -101 71.5t-35 104.5v9
q0 101 76 163t211 62zM1417 731q-89 0 -142.5 -38.5t-53.5 -110.5v-15q0 -60 55.5 -98.5t140.5 -38.5t142 38.5t57 98.5v15q0 71 -55 110t-144 39zM1417 57q94 0 151.5 39t57.5 111v14q0 63 -59 102t-150 39t-149 -39t-58 -102v-14q0 -72 57 -111t150 -39z" />
    <glyph glyph-name="seveneighths.tab" horiz-adv-x="1796" 
d="M78 1364h604v-59q-290 -327 -330 -730h-94q29 370 326 707h-506v82zM1313 1364l-918 -1364h-92l918 1364h92zM1417 807q135 0 211 -62t76 -163v-9q0 -57 -34.5 -104.5t-98.5 -71.5q68 -25 105.5 -73.5t37.5 -110.5v-10q0 -101 -80.5 -161t-216.5 -60t-215.5 60t-79.5 161
v10q0 62 37 111t107 73q-66 24 -101 71.5t-35 104.5v9q0 101 76 163t211 62zM1417 731q-89 0 -142.5 -38.5t-53.5 -110.5v-15q0 -60 55.5 -98.5t140.5 -38.5t142 38.5t57 98.5v15q0 71 -55 110t-144 39zM1417 57q94 0 151.5 39t57.5 111v14q0 63 -59 102t-150 39t-149 -39
t-58 -102v-14q0 -72 57 -111t150 -39z" />
    <glyph glyph-name="i.dot" horiz-adv-x="444" 
d="M164 1335h119v-153h-119v153zM174 952h96v-952h-96v952z" />
    <glyph glyph-name="fraction.tab" horiz-adv-x="286" 
d="M647 1364l-915 -1364h-92l917 1364h90z" />
    <glyph glyph-name="zero.num" 
d="M377 1382q146 0 224.5 -90t78.5 -254v-137q0 -164 -78.5 -254t-224.5 -90t-224.5 90t-78.5 254v137q0 164 78.5 254t224.5 90zM377 1305q-104 0 -159.5 -68.5t-55.5 -194.5v-145q0 -126 55.5 -194t159.5 -68t159.5 68t55.5 194v145q0 126 -55.5 194.5t-159.5 68.5z" />
    <glyph glyph-name="one.num" horiz-adv-x="561" 
d="M303 1376h64v-801h-91v613h-200v65h69q78 0 114.5 26t43.5 97z" />
    <glyph glyph-name="one.num_alt" 
d="M684 575h-575v72h256v539h-269v67h117q95 0 133.5 26.5t42.5 98.5h66v-731h229v-72z" />
    <glyph glyph-name="two.num" 
d="M649 575h-555v46q0 125 50.5 192.5t209.5 151.5q134 66 174.5 103t40.5 97q0 67 -52 103.5t-130 36.5q-89 0 -144 -41.5t-55 -116.5v-39h-84v43q0 101 77 165t206 64q130 0 200 -59t70 -154q0 -28 -6.5 -52t-14 -42t-28.5 -38t-36 -33t-51 -34.5t-59 -33.5t-73 -39
q-124 -60 -164.5 -106.5t-40.5 -135.5h465v-78z" />
    <glyph glyph-name="three.num" 
d="M375 1380q127 0 199.5 -59.5t72.5 -149.5v-16q0 -61 -42.5 -110.5t-121.5 -67.5q81 -18 123.5 -67t42.5 -117v-15q0 -94 -72.5 -156.5t-201.5 -62.5q-146 0 -215.5 62.5t-69.5 154.5v33h84v-29q0 -65 50.5 -106t146.5 -41q82 0 136 39.5t54 105.5v13q0 68 -51 107.5
t-160 39.5h-86v74h86q107 0 159 40.5t52 102.5v14q0 63 -53.5 100.5t-136.5 37.5q-91 0 -143 -41.5t-52 -104.5v-28h-84v32q0 85 72 150t211 65z" />
    <glyph glyph-name="four.num" 
d="M463 1364h110v-526h123v-74h-123v-189h-84v189h-450v74zM489 838v452l-362 -452h362z" />
    <glyph glyph-name="five.num" 
d="M141 1364h504q-5 -48 -21 -64t-65 -16h-342l-22 -291q107 82 221 82q120 0 180.5 -62t60.5 -165v-33q0 -110 -73.5 -183t-204.5 -73q-139 0 -209 61.5t-70 157.5v15h84v-11q0 -70 50.5 -108.5t142.5 -38.5q86 0 139 46.5t53 131.5v27q0 76 -42 120t-128 44
q-120 0 -217 -93l-71 19z" />
    <glyph glyph-name="six.num" 
d="M379 557q-138 0 -214.5 74.5t-76.5 220.5v207q0 148 77 233.5t228 85.5q59 0 105.5 -13.5t75.5 -34.5t47.5 -49t26 -55t7.5 -55v-16h-86v6q0 58 -43.5 100t-128.5 42q-221 0 -221 -244v-98q84 100 238 100q122 0 189 -65.5t67 -161.5v-23q0 -107 -76 -180.5t-215 -73.5z
M379 635q91 0 147 46.5t56 125.5v14q0 76 -50.5 121t-146.5 45q-90 0 -149.5 -41.5t-59.5 -114.5v-20q0 -86 57 -131t146 -45z" />
    <glyph glyph-name="seven.num" 
d="M78 1364h604v-59q-290 -327 -330 -730h-94q29 370 326 707h-506v82z" />
    <glyph glyph-name="eight.num" 
d="M377 1382q135 0 211 -62t76 -163v-8q0 -57 -35.5 -104.5t-100.5 -71.5q68 -25 106 -74t38 -111v-8q0 -103 -79.5 -163t-215.5 -60q-138 0 -216.5 60t-78.5 163v8q0 63 36.5 112t104.5 73q-64 24 -98.5 71.5t-34.5 104.5v8q0 101 76 163t211 62zM377 1307
q-90 0 -144.5 -39t-54.5 -109v-16q0 -59 56.5 -97t142.5 -38t142 38t56 97v16q0 70 -54.5 109t-143.5 39zM377 633q94 0 151.5 39t57.5 110v15q0 63 -59 102t-150 39t-150 -39t-59 -102v-15q0 -71 57.5 -110t151.5 -39z" />
    <glyph glyph-name="nine.num" 
d="M377 1382q138 0 213.5 -75.5t75.5 -221.5v-206q0 -147 -78 -233.5t-232 -86.5q-72 0 -125.5 19.5t-81.5 51.5t-40.5 65.5t-12.5 68.5v16h84v-6q0 -59 44 -98t132 -39q113 0 167.5 59.5t54.5 182.5v94q-85 -101 -236 -101q-121 0 -187.5 64.5t-66.5 155.5v32q0 110 75 184
t214 74zM377 1305q-90 0 -144.5 -47.5t-54.5 -129.5v-24q0 -70 49.5 -114t143.5 -44q83 0 143.5 41.5t60.5 112.5v20q0 90 -56 137.5t-142 47.5z" />
    <glyph glyph-name="zero.den" 
d="M377 807q146 0 224.5 -90t78.5 -254v-137q0 -164 -78.5 -254t-224.5 -90t-224.5 90t-78.5 254v137q0 164 78.5 254t224.5 90zM377 729q-104 0 -159.5 -68t-55.5 -194v-145q0 -126 55.5 -194.5t159.5 -68.5t159.5 68.5t55.5 194.5v145q0 126 -55.5 194t-159.5 68z" />
    <glyph glyph-name="one.den" horiz-adv-x="561" 
d="M303 801h64v-801h-91v612h-200v66h69q78 0 114.5 26t43.5 97z" />
    <glyph glyph-name="one.den_alt" 
d="M684 0h-575v72h256v538h-269v68h117q95 0 133.5 26.5t42.5 98.5h66v-731h229v-72z" />
    <glyph glyph-name="two.den" 
d="M649 0h-555v45q0 125 50.5 192.5t209.5 151.5q133 66 174 103.5t41 97.5q0 67 -52 103t-130 36q-89 0 -144 -41.5t-55 -116.5v-39h-84v43q0 101 77 165.5t206 64.5q130 0 200 -59t70 -154q0 -33 -6 -58.5t-24 -49.5t-34.5 -41t-54.5 -40.5t-65 -38.5t-84 -45
q-124 -60 -164.5 -106t-40.5 -135h465v-78z" />
    <glyph glyph-name="three.den" 
d="M375 805q127 0 199.5 -59.5t72.5 -149.5v-16q0 -61 -42.5 -112t-121.5 -67q82 -20 124 -68t42 -116v-14q0 -94 -72.5 -156.5t-201.5 -62.5q-146 0 -215.5 62.5t-69.5 154.5v32h84v-28q0 -65 50.5 -106.5t146.5 -41.5q82 0 136 40t54 106v12q0 145 -211 145h-86v74h86
q107 0 159 41.5t52 104.5v14q0 63 -53 100t-137 37q-91 0 -143 -41.5t-52 -103.5v-29h-84v33q0 85 72 150t211 65z" />
    <glyph glyph-name="four.den" 
d="M463 788h110v-526h123v-74h-123v-188h-84v188h-450v74zM489 262v453l-362 -453h362z" />
    <glyph glyph-name="five.den" 
d="M141 788h504q-5 -48 -21 -63.5t-65 -15.5h-342l-22 -293q102 82 221 82q120 0 180.5 -62t60.5 -166v-30q0 -110 -73.5 -183t-204.5 -73q-139 0 -209 61.5t-70 157.5v12h84v-8q0 -71 50.5 -109.5t142.5 -38.5q86 0 139 47t53 132v26q0 76 -42 120t-128 44q-122 0 -217 -92
l-71 18z" />
    <glyph glyph-name="six.den" 
d="M379 -18q-138 0 -214.5 74t-76.5 220v207q0 148 77 234t228 86q59 0 105.5 -13.5t75.5 -34.5t47.5 -49t26 -55t7.5 -55v-16h-86v6q0 58 -43.5 99.5t-128.5 41.5q-221 0 -221 -244v-98q84 100 238 100q122 0 189 -65.5t67 -161.5v-22q0 -107 -76 -180.5t-215 -73.5z
M379 59q91 0 147 46.5t56 125.5v15q0 76 -50.5 121t-146.5 45q-90 0 -149.5 -41.5t-59.5 -114.5v-20q0 -86 57 -131.5t146 -45.5z" />
    <glyph glyph-name="seven.den" 
d="M78 788h604v-59q-290 -327 -330 -729h-94q29 370 326 707h-506v81z" />
    <glyph glyph-name="eight.den" 
d="M377 807q135 0 211 -62t76 -163v-9q0 -57 -35.5 -104.5t-100.5 -71.5q68 -25 106 -73.5t38 -110.5v-10q0 -101 -79.5 -161t-215.5 -60q-137 0 -216 59.5t-79 161.5v10q0 62 36.5 111t104.5 73q-64 24 -98.5 71.5t-34.5 104.5v9q0 101 76 163t211 62zM377 731
q-90 0 -144.5 -38.5t-54.5 -110.5v-15q0 -60 57 -98.5t142 -38.5t141.5 38.5t56.5 98.5v15q0 71 -54.5 110t-143.5 39zM377 57q94 0 151.5 39t57.5 111v14q0 63 -59 102t-150 39t-150 -39t-59 -102v-14q0 -72 57.5 -111t151.5 -39z" />
    <glyph glyph-name="nine.den" 
d="M377 807q138 0 213.5 -76t75.5 -221v-207q0 -147 -78 -233t-232 -86q-72 0 -125.5 19.5t-81.5 51t-40.5 65t-12.5 68.5v17h84v-6q0 -59 44 -98.5t132 -39.5q113 0 167.5 59.5t54.5 182.5v94q-85 -100 -236 -100q-121 0 -187.5 64t-66.5 155v33q0 110 75 184t214 74z
M377 729q-91 0 -145 -47t-54 -131v-23q0 -70 49.5 -114.5t143.5 -44.5q83 0 143.5 42t60.5 113v21q0 90 -55.5 137t-142.5 47z" />
    <glyph glyph-name="caron.alt" horiz-adv-x="1024" 
d="M471 1462h98l-53 -356h-61z" />
    <glyph glyph-name="acute.cap" horiz-adv-x="1024" 
d="M690 1898l-282 -317h-74l223 317h133z" />
    <glyph glyph-name="hungarumlaut.cap" horiz-adv-x="1024" 
d="M522 1898l-268 -317h-66l207 317h127zM834 1898l-269 -317h-65l207 317h127z" />
    <glyph glyph-name="grave.cap" horiz-adv-x="1024" 
d="M334 1898h133l223 -317h-74z" />
    <glyph glyph-name="circumflex.cap" horiz-adv-x="1024" 
d="M459 1898h106q61 -205 250 -262v-65q-110 22 -185.5 86t-117.5 147q-42 -83 -117.5 -147t-185.5 -86v65q189 57 250 262z" />
    <glyph glyph-name="caron.cap" horiz-adv-x="1024" 
d="M209 1919q110 -22 185.5 -86t117.5 -147q42 83 117.5 147t185.5 86v-66q-187 -56 -250 -262h-106q-63 206 -250 262v66z" />
    <glyph glyph-name="breve.cap" horiz-adv-x="1024" 
d="M512 1653q207 0 207 133q0 34 -17 112h62q29 -72 29 -133q0 -94 -78.5 -144t-202.5 -50t-202.5 50t-78.5 144q0 61 29 133h62q-17 -78 -17 -112q0 -133 207 -133z" />
    <glyph glyph-name="tilde.cap" horiz-adv-x="1024" 
d="M344 1872q66 0 110 -32t89 -91q26 -34 42 -51.5t42.5 -34t54.5 -16.5q78 0 78 100q0 44 -23 115h72q25 -60 25 -121q0 -78 -42.5 -124t-111.5 -46q-44 0 -82.5 18.5t-61 40t-51.5 56.5q-5 6 -18.5 23t-19 23.5t-17.5 19.5t-20 18.5t-19.5 13t-23.5 10t-25 2.5
q-78 0 -78 -102q0 -42 23 -113h-72q-25 60 -25 121q0 78 42.5 124t111.5 46z" />
    <glyph glyph-name="macron.cap" horiz-adv-x="1024" 
d="M213 1724h598v-84h-598v84z" />
    <glyph glyph-name="dieresis.cap" horiz-adv-x="1024" 
d="M281 1757h118v-153h-118v153zM625 1757h118v-153h-118v153z" />
    <glyph glyph-name="dotaccent.cap" horiz-adv-x="1024" 
d="M453 1757h118v-153h-118v153z" />
    <glyph glyph-name="ring.cap" horiz-adv-x="1024" 
d="M512 1946q94 0 152.5 -57t58.5 -136q0 -80 -58.5 -136t-152.5 -56t-152.5 56t-58.5 136q0 79 58.5 136t152.5 57zM512 1878q-62 0 -99.5 -35.5t-37.5 -89.5q0 -55 37.5 -90t99.5 -35t99.5 35t37.5 90q0 54 -37.5 89.5t-99.5 35.5z" />
    <glyph glyph-name="commaaccent.rot" horiz-adv-x="1021" 
d="M399 1182v147q0 106 54.5 171.5t169.5 94.5v-45q-162 -46 -162 -196h80v-172h-142z" />
    </font>
</defs>
</svg>
