<?xml version="1.0" standalone="no"?>
<!DOCTYPE svg PUBLIC "-//W3C//DTD SVG 1.1//EN" "http://www.w3.org/Graphics/SVG/1.1/DTD/svg11.dtd" >
<svg xmlns="http://www.w3.org/2000/svg" xmlns:xlink="http://www.w3.org/1999/xlink" version="1.1">
<metadata>
Created by FontForge 20201107 at Mon Jul 15 16:14:53 2024
 By 
(C) 2016 Sharp Type Corporation
</metadata>
<defs>
<font id="SharpGroteskBlack15" horiz-adv-x="890" >
  <font-face 
    font-family="Sharp Grotesk Black 15"
    font-weight="900"
    font-stretch="normal"
    units-per-em="2048"
    panose-1="2 11 10 3 5 7 2 3 2 4"
    ascent="1638"
    descent="-410"
    x-height="1198"
    cap-height="1475"
    bbox="-131 -504 2267 2052"
    underline-thickness="102"
    underline-position="-153"
    unicode-range="U+0020-3009"
  />
<missing-glyph horiz-adv-x="380" 
 />
    <glyph glyph-name=".notdef" horiz-adv-x="380" 
 />
    <glyph glyph-name=".null" horiz-adv-x="0" 
 />
    <glyph glyph-name="nonmarkingreturn" horiz-adv-x="682" 
 />
    <glyph glyph-name="space" unicode=" " horiz-adv-x="380" 
 />
    <glyph glyph-name="exclam" unicode="!" horiz-adv-x="481" 
d="M92 434q-22 22 -49 199t-27 375v467h449v-467q0 -194 -26 -373t-46 -201q-53 17 -149 17q-106 0 -152 -17zM242 -16q-75 0 -117 8t-69.5 33t-36.5 66.5t-9 113.5q0 136 44.5 176.5t187.5 40.5q139 0 184 -41t45 -176q0 -71 -9.5 -112.5t-37 -66.5t-69 -33.5t-113.5 -8.5z
" />
    <glyph glyph-name="quotedbl" unicode="&#x22;" horiz-adv-x="733" 
d="M53 967q-14 65 -27.5 205t-13.5 266v37h346v-37q0 -125 -14 -262t-29 -209h-262zM416 967q-15 61 -28 201t-13 270v37h346v-37q0 -124 -15 -260t-30 -211h-260z" />
    <glyph glyph-name="numbersign" unicode="#" horiz-adv-x="1198" 
d="M649 690l13 113h-111l-14 -113h112zM573 0l33 291h-112l-33 -291h-383l33 291h-95v399h138l12 113h-150v399h193l31 273h385l-31 -273h111l30 273h383l-31 -273h95v-399h-138l-12 -113h150v-399h-193l-33 -291h-383z" />
    <glyph glyph-name="dollar" unicode="$" horiz-adv-x="880" 
d="M635 -186h-381v178q-130 30 -188 117.5t-58 242.5v189h412v-176q0 -26 4.5 -34.5t15.5 -8.5q12 0 17.5 9t5.5 40v84q0 40 -10.5 61t-45.5 46.5t-124 74.5q-162 91 -215.5 169.5t-53.5 219.5v94q0 289 246 361v196h379v-200q223 -70 223 -326v-174h-397v147
q0 37 -3.5 46.5t-17.5 9.5q-12 0 -16 -8.5t-4 -41.5v-92q0 -28 8 -42t40 -36t112 -65q170 -93 227 -169.5t57 -215.5v-158q0 -149 -56 -234.5t-177 -119.5v-184z" />
    <glyph glyph-name="percent" unicode="%" horiz-adv-x="1257" 
d="M266 768q-262 0 -262 250v229q0 123 72 186.5t194 63.5q123 0 195 -64t72 -186v-229q0 -250 -271 -250zM0 0l895 1475h381l-885 -1475h-391zM270 981q6 0 8.5 2t4.5 11.5t2 29.5v219q0 29 -3.5 38t-11.5 9q-9 0 -11.5 -8.5t-2.5 -38.5v-219q0 -29 2.5 -36t11.5 -7z
M983 -57q-262 0 -262 250v229q0 123 72 186.5t194 63.5t194 -63.5t72 -186.5v-229q0 -250 -270 -250zM987 156q8 0 11 7t3 36v219q0 29 -3 38t-11 9q-9 0 -11.5 -8.5t-2.5 -38.5v-219q0 -29 2.5 -36t11.5 -7z" />
    <glyph glyph-name="ampersand" unicode="&#x26;" horiz-adv-x="1159" 
d="M936 -25q-111 0 -209 70q-139 -68 -283 -68q-207 0 -320.5 94.5t-113.5 276.5v53q0 76 15 139.5t39 108.5t61.5 85t74 66.5t85.5 53.5q-37 142 -37 266v19q0 181 95 273.5t253 92.5q173 0 264.5 -76t91.5 -229v-22q0 -158 -60 -251.5t-210 -181.5q22 -56 68 -161
q16 -40 30 -68q56 115 56 266v64h313v-119q0 -238 -131 -428q69 0 131 51v-319q-76 -56 -213 -56zM580 1133q0 -57 14 -117q41 59 41 141v10q0 30 -5.5 42t-19.5 12q-30 0 -30 -66v-22zM502 307h6q-4 7 -28 50t-36 67q-37 76 -47 100v-100q0 -117 105 -117z" />
    <glyph glyph-name="quotesingle" unicode="'" horiz-adv-x="368" 
d="M53 967q-14 67 -27.5 206t-13.5 265v37h346v-37q0 -125 -14 -262t-29 -209h-262z" />
    <glyph glyph-name="parenleft" unicode="(" horiz-adv-x="563" 
d="M551 -289q-112 -1 -191.5 8.5t-140.5 34.5t-98 62t-60.5 97.5t-32 134.5t-8.5 179v729q0 103 10 178t34 136.5t63 101.5t99 66.5t139 37.5t186 9v-375q-54 0 -74.5 -9t-29.5 -42t-9 -115v-692q0 -61 3 -90.5t17.5 -45.5t32.5 -18t60 0v-387z" />
    <glyph glyph-name="parenright" unicode=")" horiz-adv-x="563" 
d="M12 -289v387q50 -3 71.5 7t31.5 47t10 120v650q0 124 -21.5 157.5t-91.5 28.5v375q89 1 155.5 -3t122 -17t93.5 -31.5t67.5 -51.5t46.5 -71.5t28 -97t14.5 -123t3.5 -154.5v-686q0 -117 -7.5 -195.5t-30.5 -142.5t-58 -100t-97 -60t-141.5 -32t-196.5 -7z" />
    <glyph glyph-name="asterisk" unicode="*" horiz-adv-x="804" 
d="M647 897l-166 180l78 -233h-315l80 235l-166 -184l-158 268l244 54l-244 49l156 274l168 -186l-80 235h315l-76 -229l162 182l160 -272l-248 -53l248 -52z" />
    <glyph glyph-name="plus" unicode="+" horiz-adv-x="833" 
d="M817 559h-231v-237h-332v237h-238v334h238v237h332v-237h231v-334z" />
    <glyph glyph-name="comma" unicode="," horiz-adv-x="489" 
d="M483 195q0 -254 -100 -371t-338 -105l2 185q77 -3 117 18t53 72q-8 -2 -24 -2q-107 0 -147 51.5t-40 200.5q0 152 50 203t190 51q76 0 117.5 -9.5t71 -42.5t39 -91t9.5 -160z" />
    <glyph glyph-name="hyphen" unicode="-" horiz-adv-x="647" 
d="M12 428v373h623v-373h-623z" />
    <glyph glyph-name="period" unicode="." horiz-adv-x="485" 
d="M242 -16q-61 0 -99 6t-67 21t-43 45.5t-20.5 74.5t-6.5 113q0 83 10.5 131.5t40 76.5t72 37t115.5 9q74 0 116 -9t70.5 -37t38.5 -76.5t10 -131.5q0 -85 -10 -134.5t-39.5 -78.5t-71.5 -38t-116 -9z" />
    <glyph glyph-name="slash" unicode="/" horiz-adv-x="671" 
d="M-20 0l274 1475h438l-272 -1475h-440z" />
    <glyph glyph-name="zero" unicode="0" horiz-adv-x="897" 
d="M449 -23q-211 0 -322 102.5t-111 330.5v659q0 432 433 432q202 0 317 -105.5t115 -326.5v-659q0 -226 -114.5 -329.5t-317.5 -103.5zM449 344q17 0 19.5 11t2.5 69v645q0 58 -2.5 69t-19.5 11t-20 -11.5t-3 -68.5v-645q0 -57 3 -68.5t20 -11.5z" />
    <glyph glyph-name="one" unicode="1" horiz-adv-x="645" 
d="M635 0h-625v377h113v522h-100v350q84 3 114.5 59.5t30.5 166.5h358v-1098h109v-377z" />
    <glyph glyph-name="two" unicode="2" horiz-adv-x="886" 
d="M872 0h-856v356q0 154 52.5 240t199.5 172q133 82 155 101q34 29 39 69q1 13 1 35v151q0 24 -4.5 32.5t-16.5 8.5q-13 0 -17.5 -10.5t-4.5 -38.5v-217h-404v227q0 186 104.5 282.5t328.5 96.5q222 0 322.5 -85t100.5 -259v-207q0 -74 -17.5 -137.5t-42 -106t-65 -82.5
t-72 -62t-77.5 -50q-84 -51 -113 -78.5t-32 -56.5h419v-381z" />
    <glyph glyph-name="three" unicode="3" horiz-adv-x="894" 
d="M451 -23q-229 0 -335 91.5t-106 281.5v205h412v-172q0 -39 20 -39q16 0 20.5 6.5t4.5 22.5v194q0 31 -37 31h-143v332h145q35 0 35 35v155q0 29 -25 29q-12 0 -16 -7.5t-4 -29.5v-141h-412v182q0 168 119 260t326 92q211 0 318.5 -87t107.5 -232v-168
q0 -111 -38.5 -166.5t-117.5 -73.5q74 -21 115 -77t41 -166v-201q0 -168 -110 -262.5t-320 -94.5z" />
    <glyph glyph-name="four" unicode="4" horiz-adv-x="940" 
d="M930 225h-99v-225h-374v225h-447v346l455 904h366v-904h99v-346zM430 684l-51 -113h78v117l53 328z" />
    <glyph glyph-name="five" unicode="5" horiz-adv-x="882" 
d="M442 -29q-166 0 -261 40.5t-132 116.5t-37 202v270h412v-244q0 -16 3.5 -21t16.5 -5q21 0 21 26v324q0 22 -4.5 30.5t-16.5 8.5q-20 0 -30 -37l-8 -29l-410 76l67 746h785v-125q0 -150 -56 -213.5t-204 -63.5h-174q-5 -45 -16 -127.5t-15 -111.5q32 104 89 150t151 46
q128 0 186.5 -74.5t58.5 -255.5v-370q0 -359 -426 -359z" />
    <glyph glyph-name="six" unicode="6" horiz-adv-x="905" 
d="M889 330q0 -162 -108.5 -256t-323.5 -94q-127 0 -212.5 26.5t-136 83.5t-71.5 137t-21 195v635q0 232 110.5 340t328.5 108q225 0 327 -95t107 -288v-215h-420v199q0 25 -3.5 34t-16.5 9t-18 -11t-5 -40v-357q28 67 81 98t142 31q112 0 176 -65.5t64 -198.5v-276z
M451 344q15 0 20.5 11t5.5 40v191q0 28 -20 28q-22 0 -31 -30v-156q0 -55 4 -69.5t21 -14.5z" />
    <glyph glyph-name="seven" unicode="7" horiz-adv-x="780" 
d="M512 0h-483q39 307 115.5 566t170.5 444h-307v465h764v-379q-76 -211 -116 -340t-80 -323.5t-64 -432.5z" />
    <glyph glyph-name="eight" unicode="8" horiz-adv-x="892" 
d="M436 -29q-219 0 -320.5 79t-101.5 241v256q0 152 115 217q-113 52 -113 209v219q0 144 108.5 228.5t313.5 84.5q209 0 324 -83t115 -226v-217q0 -157 -109 -211q111 -59 111 -221v-260q0 -150 -111.5 -233t-331.5 -83zM424 909q0 -21 4 -30t18 -9q23 3 23 37v246
q0 18 -5 25.5t-20 7.5q-20 0 -20 -33v-244zM446 307q23 0 23 31v258q0 19 -5 27t-18 8h-2q-20 0 -20 -39v-252q0 -33 22 -33z" />
    <glyph glyph-name="nine" unicode="9" horiz-adv-x="905" 
d="M449 844q21 0 30 30v183q0 56 -3.5 70t-20.5 14q-15 0 -21 -11t-6 -40v-218q0 -28 21 -28zM451 -20q-225 0 -327.5 95t-107.5 287v177h420v-160q0 -25 4 -34t17 -9t17.5 10.5t4.5 40.5v340q-21 -86 -68 -120t-132 -34q-134 0 -198.5 64.5t-64.5 216.5v301q0 162 109 256
t324 94q127 0 212 -26.5t135.5 -83.5t71.5 -137t21 -195v-635q0 -232 -110 -340t-328 -108z" />
    <glyph glyph-name="colon" unicode=":" horiz-adv-x="483" 
d="M242 516q-77 0 -119 8.5t-70.5 38t-37.5 77.5t-9 134q0 84 10.5 133t40 77t72 37t115.5 9q74 0 116 -9t70.5 -37.5t38.5 -77t10 -132.5t-10 -133t-39.5 -78t-71.5 -38t-116 -9zM242 -16q-61 0 -99 6t-67 21t-43 45.5t-20.5 74.5t-6.5 113q0 83 10.5 131.5t40 76.5t72 37
t115.5 9q74 0 116 -9t70.5 -37t38.5 -76.5t10 -131.5q0 -85 -10 -134.5t-39.5 -78.5t-71.5 -38t-116 -9z" />
    <glyph glyph-name="semicolon" unicode=";" horiz-adv-x="485" 
d="M242 516q-77 0 -119 8.5t-70.5 38t-37.5 77.5t-9 134q0 84 10.5 133t40 77t72 37t115.5 9q74 0 116 -9t70.5 -37.5t38.5 -77t10 -132.5t-10 -133t-39.5 -78t-71.5 -38t-116 -9zM483 195q0 -254 -100 -371t-338 -105l2 185q77 -3 117 18t53 72q-8 -2 -24 -2
q-107 0 -147 51.5t-40 200.5q0 152 50 203t190 51q76 0 117.5 -9.5t71 -42.5t39 -91t9.5 -160z" />
    <glyph glyph-name="less" unicode="&#x3c;" horiz-adv-x="737" 
d="M721 291l-707 289v321l707 297v-369l-256 -88l256 -88v-362z" />
    <glyph glyph-name="equal" unicode="=" horiz-adv-x="759" 
d="M16 752v331h727v-331h-727zM16 383v334h727v-334h-727z" />
    <glyph glyph-name="greater" unicode="&#x3e;" horiz-adv-x="739" 
d="M16 291v362l256 88l-256 88v369l709 -297v-321z" />
    <glyph glyph-name="question" unicode="?" horiz-adv-x="880" 
d="M227 389q-6 99 -6 193v8q0 68 29 112t123 101q50 31 67 49.5t17 44.5v238q0 18 -4 24t-15 6q-20 0 -20 -35v-268h-404v283q0 356 424 356q222 0 325 -89t103 -247v-262q0 -46 -1 -74.5t-9 -54.5t-14.5 -39.5t-28.5 -33t-39 -31t-57 -37.5q-73 -47 -92.5 -69t-24.5 -56
l-6 -117q-54 33 -180 33q-140 0 -187 -35zM414 -16q-135 0 -177 38t-42 164q0 66 9.5 104.5t36 61t66 30t107.5 7.5q131 0 175 -38.5t44 -164.5q0 -124 -44.5 -163t-174.5 -39z" />
    <glyph glyph-name="at" unicode="@" horiz-adv-x="1069" 
d="M541 -160q-521 0 -521 539v612q0 262 136.5 396.5t380.5 134.5q256 0 384 -134t128 -389v-587q0 -66 -9 -110t-34.5 -80t-74 -53t-122.5 -17q-149 0 -205 81q-37 -77 -139 -77q-197 0 -197 256v534q0 133 42.5 192.5t138.5 59.5q57 0 85 -23t37 -77l52 90h178v-731v-21
q0 -55 2.5 -69.5t15.5 -14.5q14 0 16.5 24t2.5 141v24v460q0 90 -11.5 147t-44 100.5t-92.5 62t-155 18.5q-169 0 -236.5 -81.5t-67.5 -276.5v-568q0 -182 71.5 -275t238.5 -93q61 0 102 14t59.5 31t40.5 49h291q-62 -150 -182.5 -219.5t-310.5 -69.5zM535 365q12 0 15 10.5
t3 50.5v508q0 59 -16 59q-15 0 -18 -10t-3 -51v-506q0 -40 3 -50.5t16 -10.5z" />
    <glyph glyph-name="A" unicode="A" 
d="M432 635l-18 -199h63l-20 199l-15 301zM520 0l-10 113h-129l-10 -113h-391l204 1475h510l217 -1475h-391z" />
    <glyph glyph-name="B" unicode="B" horiz-adv-x="854" 
d="M522 0h-502v1475h414q222 0 312 -69t90 -249v-166q0 -99 -29 -151t-107 -76q80 -21 112 -77.5t32 -168.5v-174q0 -98 -12.5 -158.5t-48 -105t-98 -62.5t-163.5 -18zM410 1184h-7v-277h15q15 0 21.5 9t6.5 36v191q0 26 -6.5 33.5t-29.5 7.5zM410 598h-7v-283h9
q24 0 31.5 10.5t7.5 43.5v184q0 31 -7.5 38t-33.5 7z" />
    <glyph glyph-name="C" unicode="C" horiz-adv-x="888" 
d="M444 -23q-211 0 -319.5 101t-108.5 332v659q0 432 439 432q220 0 319.5 -102t99.5 -330v-238h-409v238q0 37 -2.5 54.5t-6.5 21.5t-12 4q-17 0 -19.5 -11t-2.5 -69v-645q0 -55 3.5 -67.5t18.5 -12.5q13 0 17 13.5t4 66.5v260h409v-274q0 -433 -430 -433z" />
    <glyph glyph-name="D" unicode="D" horiz-adv-x="899" 
d="M20 0v1475h426q437 0 437 -416v-641q0 -113 -33 -195.5t-94 -130t-139 -70t-177 -22.5h-420zM420 350q29 0 37 12t8 60v653q0 38 -8 49t-35 11h-2v-785z" />
    <glyph glyph-name="E" unicode="E" horiz-adv-x="727" 
d="M711 395v-395h-691v1475h691v-385h-293v-150h293v-387h-293v-158h293z" />
    <glyph glyph-name="F" unicode="F" horiz-adv-x="679" 
d="M668 537h-252v-537h-396v1475h648v-398h-252v-143h252v-397z" />
    <glyph glyph-name="G" unicode="G" horiz-adv-x="907" 
d="M541 199q-18 -112 -74.5 -167t-167.5 -55q-156 0 -219.5 97t-63.5 329v670q0 426 439 426q224 0 328 -98.5t104 -321.5v-127h-416v133q0 44 -4 54t-18 10q-15 0 -19 -10.5t-4 -57.5v-653q0 -59 9 -78.5t36 -19.5q26 0 35.5 20t9.5 78v57h-59v394h430v-879h-330z" />
    <glyph glyph-name="H" unicode="H" horiz-adv-x="882" 
d="M461 0v551h-41v-551h-400v1475h400v-543h41v543h401v-1475h-401z" />
    <glyph glyph-name="I" unicode="I" horiz-adv-x="460" 
d="M23 0v1475h415v-1475h-415z" />
    <glyph glyph-name="J" unicode="J" horiz-adv-x="909" 
d="M451 -23q-117 0 -196 20.5t-135 71t-81 135.5t-25 214v362h416v-385q0 -33 4.5 -43t18.5 -10q13 0 16.5 15t3.5 73v1045h418v-1037q0 -250 -103 -355.5t-337 -105.5z" />
    <glyph glyph-name="K" unicode="K" horiz-adv-x="950" 
d="M442 410l-16 168l-4 -35v-543h-399v1475h399v-273l-37 -303l64 277l90 299h430l-211 -629l219 -846h-445z" />
    <glyph glyph-name="L" unicode="L" horiz-adv-x="669" 
d="M655 0h-635v1475h418v-1063h217v-412z" />
    <glyph glyph-name="M" unicode="M" horiz-adv-x="1343" 
d="M434 258v-258h-414v1475h605l41 -506l10 -586l10 586l39 506h598v-1475h-408v260l66 889l-133 -1149h-348l-133 1169z" />
    <glyph glyph-name="N" unicode="N" horiz-adv-x="980" 
d="M412 332v-332h-392v1475h474l178 -998l-92 709v289h381v-1475h-455l-178 975z" />
    <glyph glyph-name="O" unicode="O" horiz-adv-x="897" 
d="M449 -23q-211 0 -322 102.5t-111 330.5v659q0 432 433 432q202 0 317 -105.5t115 -326.5v-659q0 -226 -114.5 -329.5t-317.5 -103.5zM449 344q17 0 19.5 11t2.5 69v645q0 58 -2.5 69t-19.5 11t-20 -11.5t-3 -68.5v-645q0 -57 3 -68.5t20 -11.5z" />
    <glyph glyph-name="P" unicode="P" horiz-adv-x="878" 
d="M434 279h-20v-279h-394v1475h416q226 0 325 -91t99 -276v-432q0 -195 -101.5 -296t-324.5 -101zM414 1145v-520q45 0 45 61v404q0 55 -45 55z" />
    <glyph glyph-name="Q" unicode="Q" horiz-adv-x="897" 
d="M909 -168l-442 2l-53 143q-398 19 -398 433v659q0 219 113.5 325.5t319.5 106.5q200 0 316 -107.5t116 -324.5v-659q0 -214 -113 -324zM449 344q17 0 19.5 11t2.5 69v645q0 58 -2.5 69t-19.5 11t-20 -11.5t-3 -68.5v-645q0 -57 3 -68.5t20 -11.5z" />
    <glyph glyph-name="R" unicode="R" horiz-adv-x="864" 
d="M422 1143h-4v-314q27 1 36 13t9 39v213q0 29 -8 39t-33 10zM461 438q0 37 -9.5 49.5t-33.5 14.5v-502h-398v1475h437q86 0 146 -9t109.5 -32t78 -63.5t44 -102t15.5 -148.5v-200q0 -112 -26.5 -168t-94.5 -80q70 -22 93.5 -72t23.5 -156v-331q0 -53 5 -74.5t23 -38.5
h-387q-26 11 -26 111v327z" />
    <glyph glyph-name="S" unicode="S" horiz-adv-x="884" 
d="M434 -27q-227 0 -326.5 90.5t-99.5 288.5v197h414v-184q0 -26 4.5 -34.5t15.5 -8.5q12 0 17.5 9t5.5 40v84q0 35 -2.5 50t-22.5 37.5t-51.5 41t-103.5 57.5q-71 40 -113 69.5t-76 62t-50 69t-24 81.5t-8 109v88q0 383 437 383q200 0 307.5 -87.5t107.5 -264.5v-178h-399
v151q0 37 -3.5 46.5t-17.5 9.5q-12 0 -16 -8.5t-4 -41.5v-94q0 -22 2.5 -32t20.5 -27t47 -34t92 -52q118 -65 176 -115t83 -110.5t25 -155.5v-158q0 -198 -104.5 -288.5t-333.5 -90.5z" />
    <glyph glyph-name="T" unicode="T" horiz-adv-x="745" 
d="M733 1092h-153v-1092h-414v1092h-154v383h721v-383z" />
    <glyph glyph-name="U" unicode="U" 
d="M444 -23q-229 0 -327.5 106.5t-98.5 332.5v1059h406v-1035q0 -53 3 -64t17 -11t17.5 11t3.5 64v1035h407v-1059q0 -225 -103.5 -332t-324.5 -107z" />
    <glyph glyph-name="V" unicode="V" horiz-adv-x="903" 
d="M717 0h-531l-206 1475h417l45 -435l15 -663l12 663l45 435h410z" />
    <glyph glyph-name="W" unicode="W" horiz-adv-x="1384" 
d="M682 547l-49 -547h-527l-124 1475h421l21 -535l-2 -616l22 618l48 533h403l45 -533l27 -618l-6 616l30 535h412l-133 -1475h-520l-45 547l-11 475z" />
    <glyph glyph-name="X" unicode="X" horiz-adv-x="917" 
d="M446 279l-55 -279h-422l226 791l-209 684h405l55 -250l17 -232l16 230l56 252h399l-209 -689l225 -786h-407l-64 279l-16 292z" />
    <glyph glyph-name="Y" unicode="Y" horiz-adv-x="870" 
d="M641 0h-416v399l-260 1076h408l49 -306l14 -317l8 317l56 306h403l-262 -1035v-440z" />
    <glyph glyph-name="Z" unicode="Z" horiz-adv-x="710" 
d="M694 0h-680v356l250 734h-248v385h678v-363l-248 -729h248v-383z" />
    <glyph glyph-name="bracketleft" unicode="[" horiz-adv-x="550" 
d="M539 92v-373h-519v1756h519v-371h-121v-1012h121z" />
    <glyph glyph-name="backslash" unicode="\" horiz-adv-x="671" 
d="M252 0l-272 1475h438l274 -1475h-440z" />
    <glyph glyph-name="bracketright" unicode="]" horiz-adv-x="550" 
d="M530 -281h-518v373h121v1012h-121v371h518v-1756z" />
    <glyph glyph-name="asciicircum" unicode="^" horiz-adv-x="761" 
d="M446 913l-69 215l-68 -215h-315l217 562h336l221 -562h-322z" />
    <glyph glyph-name="uni005F" unicode="_" horiz-adv-x="886" 
d="M4 -418v303h879v-303h-879z" />
    <glyph glyph-name="grave" unicode="`" horiz-adv-x="641" 
d="M242 1262l-211 307h354l102 -307h-245z" />
    <glyph glyph-name="a" unicode="a" horiz-adv-x="868" 
d="M440 272q23 0 23 37v228l-4 -5q-3 -3 -13.5 -7.5t-15.5 -8.5q-12 -10 -12 -45v-158q0 -18 0.5 -24.5t5.5 -11.5t16 -5zM512 0l-37 160q-14 -102 -68.5 -144.5t-152.5 -42.5q-121 0 -181.5 62t-60.5 205v110q0 88 18.5 140t59.5 88q27 23 69.5 43t74 30.5t101.5 30.5
q18 5 27 8q71 21 86 36.5t15 74.5v65q0 27 -4.5 35t-16.5 8q-13 0 -17.5 -9t-4.5 -38v-143h-397v139q0 188 100.5 273.5t318.5 85.5q225 0 315.5 -76.5t90.5 -272.5v-868h-336z" />
    <glyph glyph-name="b" unicode="b" horiz-adv-x="872" 
d="M602 -16q-155 0 -194 178l-39 -162h-349v1573h398v-541q48 180 207 180q85 0 133.5 -36t73 -126.5t24.5 -252.5v-396q0 -225 -58 -321t-196 -96zM436 313q10 0 14.5 4.5t7.5 27t3 71.5v372q0 65 -4 83t-19 18t-18.5 -18t-3.5 -95v-381q0 -39 3 -57.5t6 -21.5t11 -3z" />
    <glyph glyph-name="c" unicode="c" horiz-adv-x="858" 
d="M428 -25q-222 0 -317 96t-95 312v418q0 207 112.5 310t320.5 103q205 0 300 -95t95 -296v-168h-393v142q0 60 -3.5 74t-15.5 14q-14 0 -18 -15t-4 -73v-404q0 -50 4 -63t18 -13q13 0 16 12t3 62v164h393v-178q0 -204 -96 -303t-320 -99z" />
    <glyph glyph-name="d" unicode="d" horiz-adv-x="872" 
d="M438 313q8 0 11.5 3t6.5 21.5t3 57.5v381q0 76 -4 94.5t-19 18.5t-18.5 -17.5t-3.5 -83.5v-372q0 -49 2.5 -71t7 -27t14.5 -5zM512 0l-41 168q-13 -89 -58.5 -136.5t-140.5 -47.5q-100 0 -154.5 40t-78 131t-23.5 259v401q0 119 16 198.5t49.5 122t76 59.5t104.5 17
q146 0 193 -155v516h397v-1573h-340z" />
    <glyph glyph-name="e" unicode="e" horiz-adv-x="862" 
d="M846 385q0 -95 -20.5 -167.5t-66.5 -128.5t-126.5 -85t-192.5 -29q-124 0 -207 26t-130.5 81.5t-67 130t-19.5 182.5v416q0 200 107.5 301.5t306.5 101.5q214 0 315 -100.5t101 -310.5v-299h-440v-119q0 -57 4 -69.5t20 -12.5t18.5 17t2.5 94v47h395v-76zM406 807v-86h51
v98q0 53 -4 65.5t-21 12.5q-18 0 -22 -15t-4 -75z" />
    <glyph glyph-name="f" unicode="f" horiz-adv-x="618" 
d="M606 799h-100v-799h-408v799h-88v399h88v96q0 103 14 166t55 108t113 63t189 18h137v-396h-86q-28 0 -37.5 -11t-9.5 -38v-6h133v-399z" />
    <glyph glyph-name="g" unicode="g" horiz-adv-x="862" 
d="M428 588q23 0 23 45v260q0 31 -4 39t-19 8t-20 -9.5t-5 -39.5v-256q0 -27 5.5 -37t19.5 -10zM385 -377h-27q-145 0 -235 25t-126 66.5t-36 101.5q0 85 60 126t194 35h21q-122 7 -177 52.5t-55 132.5q0 187 234 213q-116 13 -171 88t-55 217v180q0 159 69 239.5t226 102.5
l45 6q67 9 83 28.5t16 90.5v72h419v-2q0 -31 -1 -52.5t-4 -43.5t-7.5 -36t-13.5 -28t-20.5 -22t-28.5 -15.5t-37.5 -11t-49 -5.5t-61 -1.5t-74.5 2.5q150 -20 213.5 -89.5t63.5 -217.5v-201q0 -192 -101.5 -274.5t-330.5 -82.5h-88q-38 0 -51 -3.5t-13 -14.5q0 -9 15 -10.5
t75 -1.5h119q215 0 305 -77t90 -239v-4q0 -123 -44.5 -196.5t-151.5 -111.5t-289 -38zM403 -68h50q65 0 65 23v4q0 16 -47 16h-76q-34 0 -46.5 -5t-12.5 -17v-2q0 -19 67 -19z" />
    <glyph glyph-name="h" unicode="h" horiz-adv-x="882" 
d="M420 807v-807h-400v1573h402v-541q39 180 219 180q118 0 169.5 -78.5t51.5 -252.5v-881h-399v807q0 43 -3.5 54t-15.5 11q-14 0 -19 -11.5t-5 -53.5z" />
    <glyph glyph-name="i" unicode="i" horiz-adv-x="454" 
d="M225 1171q-132 0 -172.5 39.5t-40.5 167.5q0 124 41.5 164.5t171.5 40.5q133 0 175 -40.5t42 -164.5q0 -86 -16.5 -128t-62 -60.5t-138.5 -18.5zM20 0v1194q28 -31 72 -44t135 -13t133.5 13t73.5 46v-1196h-414z" />
    <glyph glyph-name="j" unicode="j" horiz-adv-x="454" 
d="M225 1171q-132 0 -172.5 39.5t-40.5 167.5q0 124 41.5 164.5t171.5 40.5q133 0 175 -40.5t42 -164.5q0 -86 -16.5 -128t-62 -60.5t-138.5 -18.5zM-131 -408v369h106q28 0 36.5 9t8.5 40v1184q28 -31 72 -44t135 -13t133.5 13t73.5 46v-1268q0 -186 -77.5 -261t-266.5 -75
h-221z" />
    <glyph glyph-name="k" unicode="k" horiz-adv-x="899" 
d="M424 338l-12 184l-2 -16v-506h-390v1573h390v-592l-27 -264l51 254l72 227h395l-182 -522l186 -676h-401z" />
    <glyph glyph-name="l" unicode="l" horiz-adv-x="452" 
d="M432 0h-412v1573h412v-1573z" />
    <glyph glyph-name="m" unicode="m" horiz-adv-x="1333" 
d="M422 807v-807h-402v1198h328l45 -162q54 176 240 176q87 0 137.5 -42.5t69.5 -131.5q49 174 223 174q133 0 191.5 -84.5t58.5 -248.5v-879h-406v807q0 42 -3 51.5t-17 9.5q-15 0 -20 -11.5t-5 -49.5v-807h-397v807q0 42 -3.5 51.5t-17.5 9.5t-18 -11.5t-4 -49.5z" />
    <glyph glyph-name="n" unicode="n" horiz-adv-x="886" 
d="M424 807v-807h-404v1198h330l45 -162q44 176 234 176q120 0 178.5 -80t58.5 -251v-881h-399v807q0 44 -3.5 54.5t-17.5 10.5t-18 -11t-4 -54z" />
    <glyph glyph-name="o" unicode="o" horiz-adv-x="864" 
d="M432 -25q-216 0 -316 96.5t-100 311.5v418q0 413 416 413q209 0 312.5 -100.5t103.5 -312.5v-418q0 -216 -99 -312t-317 -96zM432 313q13 0 18 10.5t5 47.5v458q0 39 -5 49.5t-18 10.5t-17.5 -10.5t-4.5 -49.5v-458q0 -38 4.5 -48t17.5 -10z" />
    <glyph glyph-name="p" unicode="p" horiz-adv-x="870" 
d="M432 313q10 0 14.5 4.5t7.5 27t3 71.5v372q0 65 -4 83t-19 18t-18.5 -18t-3.5 -95v-381q0 -39 3 -57.5t6 -21.5t11 -3zM596 -16q-86 0 -128.5 40.5t-55.5 116.5v-501h-392v1558h359l33 -164q20 94 66.5 136t129.5 42q127 0 186.5 -93t59.5 -320v-385q0 -235 -56.5 -332.5
t-201.5 -97.5z" />
    <glyph glyph-name="q" unicode="q" horiz-adv-x="872" 
d="M852 -360h-391v501q-43 -157 -191 -157q-147 0 -199.5 91t-52.5 339v401q0 96 10.5 165.5t30 114t50.5 71t66.5 36.5t84.5 10q88 0 138.5 -41t70.5 -131l45 158h338v-1558zM440 313q8 0 11.5 3t6.5 21.5t3 57.5v381q0 76 -4 94.5t-19 18.5t-18.5 -17.5t-3.5 -83.5v-372
q0 -49 2.5 -71t7 -27t14.5 -5z" />
    <glyph glyph-name="r" unicode="r" horiz-adv-x="604" 
d="M408 0h-388v1198h287l39 -280v18q0 93 7 144t31.5 82t60.5 39.5t104 8.5h39v-557h-82q-66 0 -82 -15.5t-16 -80.5v-557z" />
    <glyph glyph-name="s" unicode="s" horiz-adv-x="858" 
d="M430 -27q-160 0 -255 40.5t-133 114t-38 189.5v115h399v-86q0 -45 29 -45q19 0 26 9.5t7 39.5q0 45 -27 67t-147 77q-108 51 -167 98t-86.5 109.5t-27.5 154.5v10q0 173 105 263t309 90q118 0 202.5 -24.5t132.5 -70.5t69.5 -105.5t21.5 -137.5v-78h-385v51q0 40 -6 54
t-25 14q-17 0 -24 -10t-7 -35v-9q0 -30 26.5 -50t127.5 -66q166 -74 229.5 -156.5t63.5 -226.5v-11q0 -91 -20.5 -159t-67.5 -120.5t-130 -79t-202 -26.5z" />
    <glyph glyph-name="t" unicode="t" horiz-adv-x="598" 
d="M586 383v-383h-146q-104 0 -168.5 15t-106.5 54t-58.5 102t-16.5 165v463h-82v389q53 0 74 8q29 10 39 47q12 44 12 166h350v-211h103v-399h-103v-330q0 -57 13.5 -71.5t68.5 -14.5h21z" />
    <glyph glyph-name="u" unicode="u" horiz-adv-x="874" 
d="M530 0l-43 158q-19 -91 -69 -133.5t-142 -42.5q-138 0 -198 79t-60 261v876h400v-809q0 -39 3 -50t15 -11q14 0 18.5 13.5t4.5 51.5v805h395v-1198h-324z" />
    <glyph glyph-name="v" unicode="v" horiz-adv-x="854" 
d="M711 0h-568l-168 1198h404l37 -412l10 -497l16 497l33 412h404z" />
    <glyph glyph-name="w" unicode="w" horiz-adv-x="1277" 
d="M631 371l-35 -371h-492l-129 1198h402l24 -496l-4 -370l23 362l45 504h371l34 -500l17 -360l2 362l37 498h377l-136 -1198h-465l-51 371l-6 360z" />
    <glyph glyph-name="x" unicode="x" horiz-adv-x="917" 
d="M451 242l-54 -242h-428l178 641l-153 557h420l37 -207l10 -252l14 252l41 207h412l-156 -551l176 -647h-413l-58 242l-14 254z" />
    <glyph glyph-name="y" unicode="y" horiz-adv-x="868" 
d="M199 -399h-146v366h84q51 0 65.5 10.5t20.5 53.5l-248 1167h414l39 -291l10 -501l19 499l37 293h399l-223 -1194q-18 -94 -37 -158t-48 -110.5t-59.5 -72t-82.5 -40t-105 -18.5t-139 -4z" />
    <glyph glyph-name="z" unicode="z" horiz-adv-x="663" 
d="M651 0h-639v313l217 543h-217v342h639v-319l-207 -519h207v-360z" />
    <glyph glyph-name="braceleft" unicode="{" horiz-adv-x="548" 
d="M274 -281q-136 0 -199 64.5t-63 175.5q0 57 21 115t46.5 95.5t46.5 80.5t21 74q0 44 -23 61.5t-79 17.5h-31v371h19q56 0 79 19t23 69q0 31 -19.5 75t-43 83.5t-43 98.5t-19.5 116q0 111 63 175.5t197 64.5h258v-330h-36q-78 0 -78 -43q0 -27 19 -62t41.5 -65.5
t41.5 -78.5t19 -97q0 -92 -50.5 -138t-169.5 -47v-49q120 -1 168.5 -46t48.5 -138q0 -47 -16.5 -92t-36.5 -73.5t-36.5 -62.5t-16.5 -61t15 -36t53 -9h34v-328h-254z" />
    <glyph glyph-name="bar" unicode="|" horiz-adv-x="434" 
d="M20 -92v1640h394v-1640h-394z" />
    <glyph glyph-name="braceright" unicode="}" horiz-adv-x="548" 
d="M20 -281v328h35q38 0 53 9t15 36t-16.5 61t-37 62.5t-37 73.5t-16.5 92q0 93 48.5 138t168.5 46v49q-119 1 -169 47t-50 138q0 49 19 97t41.5 78.5t41.5 65.5t19 62q0 43 -78 43h-37v330h259q134 0 197 -64.5t63 -175.5q0 -57 -19.5 -116t-43 -98.5t-43 -83.5t-19.5 -75
q0 -50 23 -69t79 -19h19v-371h-31q-56 0 -79.5 -17.5t-23.5 -61.5q0 -31 21.5 -74t46.5 -80.5t46.5 -95.5t21.5 -115q0 -111 -63.5 -175.5t-199.5 -64.5h-254z" />
    <glyph glyph-name="asciitilde" unicode="~" horiz-adv-x="659" 
d="M471 1122q-53 0 -126.5 34t-94.5 34q-17 0 -21 -14t-4 -50h-219q0 142 18.5 218.5t58 107.5t112.5 31q55 0 128.5 -29t84.5 -29q16 0 21 12t5 38h219q0 -144 -20 -221.5t-57.5 -104.5t-104.5 -27z" />
    <glyph glyph-name="uni00A0" unicode="&#xa0;" horiz-adv-x="380" 
 />
    <glyph glyph-name="exclamdown" unicode="&#xa1;" horiz-adv-x="481" 
d="M242 1225q72 0 113.5 -8.5t69 -33.5t37 -66.5t9.5 -112.5q0 -135 -45.5 -176.5t-183.5 -41.5q-143 0 -187.5 41t-44.5 177q0 72 9 113.5t36.5 66.5t69.5 33t117 8zM393 774q20 -22 46 -200.5t26 -372.5v-467h-449v467q0 198 27 374.5t49 198.5q43 -16 152 -16
q99 0 149 16z" />
    <glyph glyph-name="cent" unicode="&#xa2;" horiz-adv-x="856" 
d="M842 379q0 -150 -50 -242t-159 -131v-205h-381v197q-236 71 -236 387v418q0 302 238 385v192h381v-188q207 -75 207 -367v-168h-396v136q0 44 -2.5 64.5t-6.5 25t-13 4.5q-14 0 -17.5 -14.5t-3.5 -73.5v-404q0 -49 4.5 -62.5t18.5 -13.5q13 0 16.5 12t3.5 62v164h396
v-178z" />
    <glyph glyph-name="sterling" unicode="&#xa3;" horiz-adv-x="999" 
d="M702 -18q-134 0 -233 71q-87 -71 -205 -71q-150 0 -209 60.5t-59 190.5q0 122 67 188t175 66q71 0 127 -32q-11 51 -46 104h-260v252h107q-102 165 -105 322q0 182 99 273t321 91q130 0 217.5 -24.5t137.5 -77.5t71 -125.5t21 -177.5v-240h-393v221q0 56 -4.5 70
t-22.5 14q-17 0 -22 -12.5t-5 -61.5q0 -128 19 -272h252v-252h-185q29 -95 29 -219q0 -36 -6 -66q4 -2 12 -2q16 0 22.5 11.5t6.5 46.5v184h362v-188q0 -107 -17.5 -175.5t-56.5 -105t-89 -50t-128 -13.5zM262 201q30 0 51 12q-34 39 -55 39q-11 0 -19 -6.5t-8 -16.5
q0 -28 31 -28z" />
    <glyph glyph-name="currency" unicode="&#xa4;" horiz-adv-x="913" 
d="M453 643q12 0 19 7t7 18v151q0 23 -24 23q-11 0 -18 -7t-7 -16v-151q0 -11 6.5 -18t16.5 -7zM459 358q-65 0 -121 15l-141 -160l-211 182l139 156q-29 69 -29 147v88q0 78 33 152l-137 149l196 185l146 -160q58 18 125 18t125 -18l143 158l203 -180l-142 -154
q31 -67 31 -148v-88q0 -76 -28 -143l135 -151l-201 -187l-141 158q-62 -19 -125 -19z" />
    <glyph glyph-name="yen" unicode="&#xa5;" horiz-adv-x="870" 
d="M850 115h-209v-115h-416v115h-205v190h205v33h-205v190h175l-230 947h408l49 -306l14 -317l8 317l56 306h403l-239 -947h186v-190h-209v-33h209v-190z" />
    <glyph glyph-name="brokenbar" unicode="&#xa6;" horiz-adv-x="434" 
d="M20 754v794h394v-794h-394zM20 -92v811h394v-811h-394z" />
    <glyph glyph-name="section" unicode="&#xa7;" horiz-adv-x="909" 
d="M371 770q0 -19 31 -33.5t122 -38.5q15 10 15 21q0 18 -31.5 33t-118.5 39q-18 -8 -18 -21zM467 -53q-249 0 -349 68t-100 237v88h412v-57q0 -30 6.5 -42t26.5 -12q22 0 30.5 8.5t8.5 34.5v9q0 27 -13 43.5t-57.5 33t-130.5 33.5q-158 32 -224.5 91t-66.5 149q0 96 53 144
t168 48q25 0 39 -2q-150 42 -204 121.5t-54 214.5v6q0 89 22 152t74 110t141.5 70t219.5 23q230 0 328 -69t98 -237v-84h-401v76q0 24 -9 33.5t-30 9.5t-30 -9t-9 -32v-10q0 -29 12 -45t49 -31t121 -37q86 -23 138.5 -42.5t93 -47t57 -63.5t16.5 -86q0 -84 -66.5 -131
t-166.5 -47q-17 0 -27 2q148 -43 203 -128t55 -221v-6q0 -95 -21.5 -161.5t-71 -113.5t-133.5 -69t-208 -22z" />
    <glyph glyph-name="dieresis" unicode="&#xa8;" horiz-adv-x="636" 
d="M156 1260q-87 0 -114.5 28.5t-27.5 118.5q0 94 31 129t111 35q85 0 116 -34.5t31 -129.5q0 -86 -30.5 -116.5t-116.5 -30.5zM475 1260q-88 0 -114.5 28.5t-26.5 118.5q0 96 28.5 130t112.5 34q83 0 115.5 -35t32.5 -129q0 -86 -31.5 -116.5t-116.5 -30.5z" />
    <glyph glyph-name="copyright" unicode="&#xa9;" horiz-adv-x="1220" 
d="M616 -27q-275 0 -438.5 147.5t-163.5 416.5v376q0 258 169 418t425 160q266 0 432 -153.5t166 -409.5v-389q0 -250 -163.5 -408t-426.5 -158zM616 225q153 0 240.5 84t87.5 240v369q0 155 -83.5 238t-252.5 83q-150 0 -238.5 -91t-88.5 -247v-352q0 -324 335 -324z
M614 256q-142 0 -222.5 77t-80.5 218v342q0 155 79 235t222 80q306 0 306 -297v-155h-285v155q0 33 -3.5 41.5t-13.5 8.5q-5 0 -8 -4t-4.5 -18t-1.5 -42v-328q0 -36 2.5 -45.5t11.5 -9.5q11 0 14 9t3 38v168h285v-186q0 -135 -80 -211t-224 -76z" />
    <glyph glyph-name="ordfeminine" unicode="&#xaa;" horiz-adv-x="638" 
d="M315 852q19 0 19 31v149q-3 -8 -12 -14q-16 -10 -21 -17q-4 -6 -4 -38v-84q0 -27 18 -27zM393 678l-39 94q-14 -56 -49 -82t-102 -26q-101 0 -146 44t-45 146v90q0 105 66 148q49 32 166 47q61 8 75.5 17t14.5 44v66q0 22 -15 22q-9 0 -12.5 -6.5t-3.5 -26.5v-90h-278
v101q0 114 77.5 173.5t229.5 59.5q150 0 217 -58t67 -177v-586h-223z" />
    <glyph glyph-name="guillemotleft" unicode="&#xab;" horiz-adv-x="1001" 
d="M596 219h-356l-242 373v20l254 400h346l-254 -406zM1012 219h-365l-248 375v33l244 385h356l-254 -394z" />
    <glyph glyph-name="logicalnot" unicode="&#xac;" horiz-adv-x="835" 
d="M821 338h-372v268h-437v344h809v-612z" />
    <glyph glyph-name="uni00AD" unicode="&#xad;" horiz-adv-x="647" 
d="M12 428v373h623v-373h-623z" />
    <glyph glyph-name="registered" unicode="&#xae;" horiz-adv-x="696" 
d="M354 770q-159 0 -251.5 83.5t-92.5 246.5v37q0 163 93 253.5t247 90.5q152 0 244 -89.5t92 -250.5v-41q0 -157 -92.5 -243.5t-239.5 -86.5zM354 903q98 0 146 39h-117q-10 5 -10 23v30q0 30 -7.5 39.5t-29.5 9.5v-102h-127v369h156q79 0 115 -29.5t36 -97.5
q0 -64 -51 -90q35 -22 35 -88v-43q0 -11 4 -19q51 48 51 162v27q0 227 -205 227q-203 0 -203 -232v-22q0 -111 48.5 -157t158.5 -46zM342 1206h-6v-67h6q27 0 36 7t9 28q0 19 -9.5 25.5t-35.5 6.5z" />
    <glyph glyph-name="macron" unicode="&#xaf;" horiz-adv-x="641" 
d="M113 1262v266h413v-266h-413z" />
    <glyph glyph-name="degree" unicode="&#xb0;" horiz-adv-x="583" 
d="M291 944q-289 0 -289 256v12q0 137 78.5 207t212.5 70q133 0 211 -69.5t78 -207.5v-12q0 -129 -77 -192.5t-214 -63.5zM293 1186q31 0 31 28q0 19 -7.5 26t-23.5 7t-23.5 -7t-7.5 -26q0 -16 7.5 -22t23.5 -6z" />
    <glyph glyph-name="plusminus" unicode="&#xb1;" horiz-adv-x="708" 
d="M692 813h-172v-184h-327v184h-177v322h177v184h327v-184h172v-322zM16 225v330h676v-330h-676z" />
    <glyph glyph-name="twosuperior" unicode="&#xb2;" horiz-adv-x="534" 
d="M528 1042h-524v185q0 47 14 83.5t40.5 60t51.5 37t60 26.5q5 2 19 8t19.5 8t17 7.5t16.5 8.5t13 8.5t12 10t8.5 10t6 12t1.5 13.5v67q0 17 -15 17q-14 0 -14 -25v-92h-250v108q0 87 65.5 142t196.5 55q135 0 198.5 -47.5t63.5 -142.5v-84q0 -36 -9.5 -66t-23 -49.5
t-36.5 -37t-41 -27t-45 -21.5q-3 -1 -13.5 -5.5t-14.5 -6t-12.5 -5.5t-12.5 -6l-11 -5.5t-11 -6.5t-9 -6.5t-8.5 -7.5t-6.5 -8h254v-218z" />
    <glyph glyph-name="threesuperior" unicode="&#xb3;" horiz-adv-x="544" 
d="M276 1024q-85 0 -139.5 13t-82.5 41.5t-38 62.5t-10 86v71h250v-49v-12.5t2 -7.5t5 -5t9 -1q13 0 13 24v53q0 21 -8 27t-33 6h-76v162h88q29 0 29 27v61q0 21 -15 21q-14 0 -14 -23v-51h-250v65q0 99 70 147t198 48q263 0 263 -182v-70q0 -95 -103 -119q103 -14 103 -116
v-95q0 -80 -67 -132t-194 -52z" />
    <glyph glyph-name="acute" unicode="&#xb4;" horiz-adv-x="641" 
d="M37 1262l143 307h355l-226 -307h-272z" />
    <glyph glyph-name="paragraph" unicode="&#xb6;" horiz-adv-x="1204" 
d="M455 809h2v332h-6q-18 0 -26 -9.5t-12.5 -45t-4.5 -113.5t4 -111.5t13 -43t30 -9.5zM801 0h-344v461h-74q-93 -1 -160.5 26t-108 71t-64.5 114t-32 142.5t-8 168.5q0 492 428 492h746v-1475h-342v1141h-41v-1141z" />
    <glyph glyph-name="periodcentered" unicode="&#xb7;" horiz-adv-x="446" 
d="M225 375q-70 0 -108 7t-65 32.5t-35.5 69.5t-8.5 122t9.5 123t37 70.5t65 33t105.5 7.5t105.5 -7.5t64.5 -33t36 -70.5t9 -123q0 -75 -9.5 -119.5t-36 -70t-64.5 -33.5t-105 -8z" />
    <glyph glyph-name="cedilla" unicode="&#xb8;" horiz-adv-x="641" 
d="M332 -467q-294 0 -328 246h281q14 -41 55 -41q45 0 45 31q0 30 -41 30h-133v240h231v-90q100 -8 148.5 -49.5t48.5 -141.5q0 -105 -82 -165t-225 -60z" />
    <glyph glyph-name="onesuperior" unicode="&#xb9;" horiz-adv-x="403" 
d="M397 1042h-391v226h70v202h-70v201q49 3 89 32t50 77h177v-512h75v-226z" />
    <glyph glyph-name="ordmasculine" unicode="&#xba;" horiz-adv-x="618" 
d="M305 668q-149 0 -225 69t-76 215v262q0 141 83 213t222 72q140 0 221.5 -72t81.5 -213v-262q0 -284 -307 -284zM309 911q6 0 9 2.5t5.5 14t2.5 33.5v249q0 34 -3.5 44t-13.5 10t-13 -10t-3 -44v-249q0 -33 2.5 -41.5t13.5 -8.5z" />
    <glyph glyph-name="guillemotright" unicode="&#xbb;" horiz-adv-x="1001" 
d="M766 219h-356l252 387l-254 406h346l254 -400v-20zM358 219h-364l266 399l-254 394h356l244 -385v-33z" />
    <glyph glyph-name="onequarter" unicode="&#xbc;" horiz-adv-x="1171" 
d="M614 760l-8 6l244 770l313 -168zM358 -61l-317 186l553 623l8 -7zM1139 76h-56v-76h-239v76h-277v207l232 454h284v-440h56v-221zM827 356l-30 -59h47v55l16 127zM483 735h-391v226h70v202h-70v201q49 3 89 32t50 77h177v-512h75v-226z" />
    <glyph glyph-name="onehalf" unicode="&#xbd;" horiz-adv-x="1171" 
d="M614 760l-8 6l244 770l313 -168zM358 -61l-317 186l553 623l8 -7zM483 735h-391v226h70v202h-70v201q49 3 89 32t50 77h177v-512h75v-226zM1171 0h-524v184q0 47 14 83.5t40.5 60t51.5 37t60 26.5q5 2 19 8t19.5 8t17 7.5t16.5 8.5t13 8.5t12 10t8.5 10t6 12t1.5 13.5v68
q0 16 -15 16q-14 0 -14 -24v-93h-250v109q0 87 65.5 142t196.5 55q262 0 262 -191v-84q0 -36 -9.5 -66t-23 -49.5t-36.5 -37t-41 -27t-45 -21.5q-82 -34 -98 -57h253v-217z" />
    <glyph glyph-name="threequarters" unicode="&#xbe;" horiz-adv-x="1171" 
d="M627 760l-9 6l244 770l314 -168zM371 -61l-318 186l553 623l8 -7zM1139 76h-56v-76h-239v76h-277v207l232 454h284v-440h56v-221zM827 356l-30 -59h47v55l16 127zM289 717q-85 0 -139.5 13t-83 41.5t-38.5 62.5t-10 86v71h250v-49q0 -16 3 -21.5t14 -5.5q12 0 12 25v53
q0 21 -8 27t-33 6h-76v162h88q29 0 29 26v62q0 20 -14 20q-15 0 -15 -22v-51h-250v65q0 99 70.5 147t198.5 48q262 0 262 -183v-69q0 -95 -103 -119q103 -14 103 -117v-94q0 -80 -66.5 -132t-193.5 -52z" />
    <glyph glyph-name="questiondown" unicode="&#xbf;" horiz-adv-x="880" 
d="M467 1225q135 0 177 -38.5t42 -164.5q0 -66 -9.5 -104.5t-36 -61t-66 -30t-107.5 -7.5q-131 0 -175 38.5t-44 164.5q0 124 44.5 163.5t174.5 39.5zM653 819q6 -99 6 -192v-9q0 -68 -28.5 -111.5t-122.5 -100.5q-50 -31 -67 -50t-17 -45v-237q0 -19 3.5 -25t14.5 -6
q21 0 21 35v268h403v-283q0 -356 -424 -356q-222 0 -325 89t-103 247v262q0 46 1 74.5t9.5 54.5t14.5 39.5t28.5 33t39 31t57.5 37.5q73 47 92.5 69t24.5 56l6 117q54 -33 180 -33q139 0 186 35z" />
    <glyph glyph-name="Agrave" unicode="&#xc0;" 
d="M432 635l-18 -199h63l-20 199l-15 301zM520 0l-10 113h-129l-10 -113h-391l204 1475h510l217 -1475h-391zM348 1499l-211 307h355l102 -307h-246z" />
    <glyph glyph-name="Aacute" unicode="&#xc1;" 
d="M432 635l-18 -199h63l-20 199l-15 301zM520 0l-10 113h-129l-10 -113h-391l204 1475h510l217 -1475h-391zM297 1499l143 307h355l-226 -307h-272z" />
    <glyph glyph-name="Acircumflex" unicode="&#xc2;" 
d="M432 635l-18 -199h63l-20 199l-15 301zM520 0l-10 113h-129l-10 -113h-391l204 1475h510l217 -1475h-391zM483 1499l-34 98l-41 -98h-244l168 326h237l166 -326h-252z" />
    <glyph glyph-name="Atilde" unicode="&#xc3;" 
d="M432 635l-18 -199h63l-20 199l-15 301zM520 0l-10 113h-129l-10 -113h-391l204 1475h510l217 -1475h-391zM121 1499q-1 143 17 220t57 108t112 31q42 0 83.5 -15.5t73 -31t50.5 -15.5q39 0 39 53h221q0 -145 -19.5 -223t-58 -105.5t-108.5 -27.5q-53 0 -121 35t-92 35
q-23 0 -31 -15.5t-8 -48.5h-215z" />
    <glyph glyph-name="Adieresis" unicode="&#xc4;" 
d="M432 635l-18 -199h63l-20 199l-15 301zM520 0l-10 113h-129l-10 -113h-391l204 1475h510l217 -1475h-391zM283 1497q-87 0 -114.5 29t-27.5 119q0 94 31 128.5t111 34.5q85 0 116 -34t31 -129q0 -86 -30.5 -117t-116.5 -31zM602 1497q-88 0 -114.5 28.5t-26.5 119.5
q0 96 28.5 129.5t112.5 33.5q83 0 115.5 -34.5t32.5 -128.5q0 -86 -31.5 -117t-116.5 -31z" />
    <glyph glyph-name="Aring" unicode="&#xc5;" 
d="M432 635l-18 -199h63l-20 199l-15 301zM520 0l-10 113h-129l-10 -113h-391l204 1475h510l217 -1475h-391zM444 1495q-120 0 -189 56.5t-69 160.5q0 113 72.5 172.5t185.5 59.5q117 0 187.5 -61t70.5 -167q0 -104 -67.5 -162.5t-190.5 -58.5zM446 1692q33 0 33 26
q0 29 -33 29q-32 0 -32 -29q0 -13 6.5 -19.5t25.5 -6.5z" />
    <glyph glyph-name="AE" unicode="&#xc6;" horiz-adv-x="1191" 
d="M479 600l-26 -186h82l-23 172l-12 405zM590 0l-15 109h-167l-17 -109h-422l262 1475h945v-385h-314l19 -152h295v-383h-252l18 -160h234v-395h-586z" />
    <glyph glyph-name="Ccedilla" unicode="&#xc7;" horiz-adv-x="888" 
d="M434 -465q-294 0 -328 246h281q14 -41 55 -41q45 0 45 31q0 30 -41 30h-133v187q-147 27 -222 128t-75 294v659q0 432 439 432q220 0 319.5 -102t99.5 -330v-238h-409v238q0 37 -2.5 54.5t-6.5 21.5t-12 4q-17 0 -19.5 -11t-2.5 -69v-645q0 -55 3.5 -67.5t18.5 -12.5
q13 0 17 13.5t4 66.5v260h409v-274q0 -377 -329 -426v-33q100 -8 148 -49.5t48 -141.5q0 -105 -82 -165t-225 -60z" />
    <glyph glyph-name="Egrave" unicode="&#xc8;" horiz-adv-x="727" 
d="M711 395v-395h-691v1475h691v-385h-293v-150h293v-387h-293v-158h293zM281 1499l-211 307h354l102 -307h-245z" />
    <glyph glyph-name="Eacute" unicode="&#xc9;" horiz-adv-x="727" 
d="M711 395v-395h-691v1475h691v-385h-293v-150h293v-387h-293v-158h293zM229 1499l144 307h354l-225 -307h-273z" />
    <glyph glyph-name="Ecircumflex" unicode="&#xca;" horiz-adv-x="727" 
d="M711 395v-395h-691v1475h691v-385h-293v-150h293v-387h-293v-158h293zM416 1499l-35 98l-41 -98h-244l168 326h238l166 -326h-252z" />
    <glyph glyph-name="Edieresis" unicode="&#xcb;" horiz-adv-x="727" 
d="M711 395v-395h-691v1475h691v-385h-293v-150h293v-387h-293v-158h293zM215 1497q-87 0 -114 29t-27 119q0 94 30.5 128.5t110.5 34.5q85 0 116 -34t31 -129q0 -86 -30.5 -117t-116.5 -31zM535 1497q-88 0 -115 29t-27 119q0 96 29 129.5t113 33.5q83 0 115 -34.5
t32 -128.5q0 -86 -31 -117t-116 -31z" />
    <glyph glyph-name="Igrave" unicode="&#xcc;" horiz-adv-x="460" 
d="M23 0v1475h415v-1475h-415zM133 1499l-211 307h354l103 -307h-246z" />
    <glyph glyph-name="Iacute" unicode="&#xcd;" horiz-adv-x="460" 
d="M23 0v1475h415v-1475h-415zM82 1499l143 307h355l-226 -307h-272z" />
    <glyph glyph-name="Icircumflex" unicode="&#xce;" horiz-adv-x="460" 
d="M23 0v1475h415v-1475h-415zM268 1499l-35 98l-40 -98h-244l168 326h237l166 -326h-252z" />
    <glyph glyph-name="Idieresis" unicode="&#xcf;" horiz-adv-x="460" 
d="M23 0v1475h415v-1475h-415zM68 1497q-87 0 -114.5 29t-27.5 119q0 94 31 128.5t111 34.5q85 0 116 -34t31 -129q0 -86 -30.5 -117t-116.5 -31zM387 1497q-88 0 -114.5 28.5t-26.5 119.5q0 96 28.5 129.5t112.5 33.5q83 0 115.5 -34.5t32.5 -128.5q0 -86 -31.5 -117
t-116.5 -31z" />
    <glyph glyph-name="Eth" unicode="&#xd0;" horiz-adv-x="909" 
d="M451 0h-420v582h-31v348h31v545h426q436 0 436 -416v-641q0 -113 -33 -195.5t-93.5 -130t-138.5 -70t-177 -22.5zM467 582h-37v-232h14q29 0 37 12t8 60v653q0 38 -8 49t-35 11h-16v-205h37v-348z" />
    <glyph glyph-name="Ntilde" unicode="&#xd1;" horiz-adv-x="980" 
d="M412 332v-332h-392v1475h474l178 -998l-92 709v289h381v-1475h-455l-178 975zM330 1499l143 307h354l-225 -307h-272z" />
    <glyph glyph-name="Ograve" unicode="&#xd2;" horiz-adv-x="897" 
d="M449 -23q-211 0 -322 102.5t-111 330.5v659q0 432 433 432q202 0 317 -105.5t115 -326.5v-659q0 -226 -114.5 -329.5t-317.5 -103.5zM449 344q17 0 19.5 11t2.5 69v645q0 58 -2.5 69t-19.5 11t-20 -11.5t-3 -68.5v-645q0 -57 3 -68.5t20 -11.5zM348 1526l-211 307h355
l102 -307h-246z" />
    <glyph glyph-name="Oacute" unicode="&#xd3;" horiz-adv-x="897" 
d="M449 -23q-211 0 -322 102.5t-111 330.5v659q0 432 433 432q202 0 317 -105.5t115 -326.5v-659q0 -226 -114.5 -329.5t-317.5 -103.5zM449 344q17 0 19.5 11t2.5 69v645q0 58 -2.5 69t-19.5 11t-20 -11.5t-3 -68.5v-645q0 -57 3 -68.5t20 -11.5zM129 1513q-1 143 17 220
t57 108t112 31q42 0 83.5 -15.5t73 -31t50.5 -15.5q39 0 39 54h221q0 -146 -19.5 -223.5t-58 -105.5t-108.5 -28q-53 0 -121 35t-92 35q-23 0 -31 -15.5t-8 -48.5h-215z" />
    <glyph glyph-name="Ocircumflex" unicode="&#xd4;" horiz-adv-x="897" 
d="M449 -23q-211 0 -322 102.5t-111 330.5v659q0 432 433 432q202 0 317 -105.5t115 -326.5v-659q0 -226 -114.5 -329.5t-317.5 -103.5zM449 344q17 0 19.5 11t2.5 69v645q0 58 -2.5 69t-19.5 11t-20 -11.5t-3 -68.5v-645q0 -57 3 -68.5t20 -11.5zM483 1524l-34 98l-41 -98
h-244l168 325h237l166 -325h-252z" />
    <glyph glyph-name="Otilde" unicode="&#xd5;" horiz-adv-x="897" 
d="M449 -23q-211 0 -322 102.5t-111 330.5v659q0 432 433 432q202 0 317 -105.5t115 -326.5v-659q0 -226 -114.5 -329.5t-317.5 -103.5zM449 344q17 0 19.5 11t2.5 69v645q0 58 -2.5 69t-19.5 11t-20 -11.5t-3 -68.5v-645q0 -57 3 -68.5t20 -11.5zM127 1513q-1 143 17 220
t57 108t112 31q42 0 83.5 -15.5t73 -31t50.5 -15.5q39 0 39 54h221q0 -146 -19.5 -223.5t-58 -105.5t-108.5 -28q-53 0 -121 35t-92 35q-23 0 -31 -15.5t-8 -48.5h-215z" />
    <glyph glyph-name="Odieresis" unicode="&#xd6;" horiz-adv-x="897" 
d="M449 -23q-211 0 -322 102.5t-111 330.5v659q0 432 433 432q202 0 317 -105.5t115 -326.5v-659q0 -226 -114.5 -329.5t-317.5 -103.5zM449 344q17 0 19.5 11t2.5 69v645q0 58 -2.5 69t-19.5 11t-20 -11.5t-3 -68.5v-645q0 -57 3 -68.5t20 -11.5zM283 1509q-87 0 -114.5 29
t-27.5 119q0 94 31 129t111 35q85 0 116 -34.5t31 -129.5q0 -86 -30.5 -117t-116.5 -31zM602 1509q-88 0 -114.5 28.5t-26.5 119.5q0 96 28.5 130t112.5 34q83 0 115.5 -35t32.5 -129q0 -86 -31.5 -117t-116.5 -31z" />
    <glyph glyph-name="multiply" unicode="&#xd7;" horiz-adv-x="782" 
d="M571 336l-178 174l-178 -176l-217 213l178 176l-174 168l215 217l174 -172l172 170l217 -217l-170 -166l174 -170z" />
    <glyph glyph-name="Oslash" unicode="&#xd8;" horiz-adv-x="897" 
d="M500 -229h-412l72 280q-144 106 -144 359v659q0 413 398 432l35 160h405l-72 -283q99 -110 99 -309v-659q0 -378 -334 -426zM449 344q17 0 19.5 11t2.5 69v645q0 58 -2.5 69t-19.5 11t-20 -11.5t-3 -68.5v-645q0 -57 3 -68.5t20 -11.5z" />
    <glyph glyph-name="Ugrave" unicode="&#xd9;" 
d="M444 -23q-229 0 -327.5 106.5t-98.5 332.5v1059h406v-1035q0 -53 3 -64t17 -11t17.5 11t3.5 64v1035h407v-1059q0 -225 -103.5 -332t-324.5 -107zM348 1499l-211 307h355l102 -307h-246z" />
    <glyph glyph-name="Uacute" unicode="&#xda;" 
d="M444 -23q-229 0 -327.5 106.5t-98.5 332.5v1059h406v-1035q0 -53 3 -64t17 -11t17.5 11t3.5 64v1035h407v-1059q0 -225 -103.5 -332t-324.5 -107zM297 1499l143 307h355l-226 -307h-272z" />
    <glyph glyph-name="Ucircumflex" unicode="&#xdb;" 
d="M444 -23q-229 0 -327.5 106.5t-98.5 332.5v1059h406v-1035q0 -53 3 -64t17 -11t17.5 11t3.5 64v1035h407v-1059q0 -225 -103.5 -332t-324.5 -107zM483 1499l-34 98l-41 -98h-244l168 326h237l166 -326h-252z" />
    <glyph glyph-name="Udieresis" unicode="&#xdc;" 
d="M444 -23q-229 0 -327.5 106.5t-98.5 332.5v1059h406v-1035q0 -53 3 -64t17 -11t17.5 11t3.5 64v1035h407v-1059q0 -225 -103.5 -332t-324.5 -107zM283 1497q-87 0 -114.5 29t-27.5 119q0 94 31 128.5t111 34.5q85 0 116 -34t31 -129q0 -86 -30.5 -117t-116.5 -31z
M602 1497q-88 0 -114.5 28.5t-26.5 119.5q0 96 28.5 129.5t112.5 33.5q83 0 115.5 -34.5t32.5 -128.5q0 -86 -31.5 -117t-116.5 -31z" />
    <glyph glyph-name="Yacute" unicode="&#xdd;" horiz-adv-x="870" 
d="M641 0h-416v399l-260 1076h408l49 -306l14 -317l8 317l56 306h403l-262 -1035v-440zM287 1499l143 307h354l-225 -307h-272z" />
    <glyph glyph-name="Thorn" unicode="&#xde;" horiz-adv-x="876" 
d="M434 162h-20v-162h-394v1475h394v-160h22q226 0 327 -91t101 -274v-391q0 -397 -430 -397zM414 987v-479q45 0 45 61v361q0 57 -45 57z" />
    <glyph glyph-name="germandbls" unicode="&#xdf;" horiz-adv-x="929" 
d="M621 -6q-116 0 -164 6v344h14q10 0 17.5 9.5t7.5 23.5v194q0 31 -29 31h-12v332h12q27 0 27 35v186q0 12 -9 20.5t-24 8.5q-35 0 -35 -37v-1147h-406v1188q0 169 121 260.5t334 91.5q210 0 318 -89t108 -237v-213q0 -92 -23 -145t-71 -78q106 -52 106 -219v-225
q0 -76 -5 -127.5t-18.5 -91t-33.5 -62t-55 -36.5t-76 -18.5t-104 -4.5z" />
    <glyph glyph-name="agrave" unicode="&#xe0;" horiz-adv-x="868" 
d="M440 272q23 0 23 37v228l-4 -5q-3 -3 -13.5 -7.5t-15.5 -8.5q-12 -10 -12 -45v-158q0 -18 0.5 -24.5t5.5 -11.5t16 -5zM512 0l-37 160q-14 -102 -68.5 -144.5t-152.5 -42.5q-121 0 -181.5 62t-60.5 205v110q0 88 18.5 140t59.5 88q27 23 69.5 43t74 30.5t101.5 30.5
q18 5 27 8q71 21 86 36.5t15 74.5v65q0 27 -4.5 35t-16.5 8q-13 0 -17.5 -9t-4.5 -38v-143h-397v139q0 188 100.5 273.5t318.5 85.5q225 0 315.5 -76.5t90.5 -272.5v-868h-336zM344 1241l-211 307h354l103 -307h-246z" />
    <glyph glyph-name="aacute" unicode="&#xe1;" horiz-adv-x="868" 
d="M440 272q23 0 23 37v228l-4 -5q-3 -3 -13.5 -7.5t-15.5 -8.5q-12 -10 -12 -45v-158q0 -18 0.5 -24.5t5.5 -11.5t16 -5zM512 0l-37 160q-14 -102 -68.5 -144.5t-152.5 -42.5q-121 0 -181.5 62t-60.5 205v110q0 88 18.5 140t59.5 88q27 23 69.5 43t74 30.5t101.5 30.5
q18 5 27 8q71 21 86 36.5t15 74.5v65q0 27 -4.5 35t-16.5 8q-13 0 -17.5 -9t-4.5 -38v-143h-397v139q0 188 100.5 273.5t318.5 85.5q225 0 315.5 -76.5t90.5 -272.5v-868h-336zM293 1241l143 307h355l-226 -307h-272z" />
    <glyph glyph-name="acircumflex" unicode="&#xe2;" horiz-adv-x="868" 
d="M440 272q23 0 23 37v228l-4 -5q-3 -3 -13.5 -7.5t-15.5 -8.5q-12 -10 -12 -45v-158q0 -18 0.5 -24.5t5.5 -11.5t16 -5zM512 0l-37 160q-14 -102 -68.5 -144.5t-152.5 -42.5q-121 0 -181.5 62t-60.5 205v110q0 88 18.5 140t59.5 88q27 23 69.5 43t74 30.5t101.5 30.5
q18 5 27 8q71 21 86 36.5t15 74.5v65q0 27 -4.5 35t-16.5 8q-13 0 -17.5 -9t-4.5 -38v-143h-397v139q0 188 100.5 273.5t318.5 85.5q225 0 315.5 -76.5t90.5 -272.5v-868h-336zM479 1241l-35 98l-41 -98h-243l168 326h237l166 -326h-252z" />
    <glyph glyph-name="atilde" unicode="&#xe3;" horiz-adv-x="868" 
d="M440 272q23 0 23 37v228l-4 -5q-3 -3 -13.5 -7.5t-15.5 -8.5q-12 -10 -12 -45v-158q0 -18 0.5 -24.5t5.5 -11.5t16 -5zM512 0l-37 160q-14 -102 -68.5 -144.5t-152.5 -42.5q-121 0 -181.5 62t-60.5 205v110q0 88 18.5 140t59.5 88q27 23 69.5 43t74 30.5t101.5 30.5
q18 5 27 8q71 21 86 36.5t15 74.5v65q0 27 -4.5 35t-16.5 8q-13 0 -17.5 -9t-4.5 -38v-143h-397v139q0 188 100.5 273.5t318.5 85.5q225 0 315.5 -76.5t90.5 -272.5v-868h-336zM141 1237q-1 143 17 219.5t57.5 107.5t112.5 31q42 0 83.5 -15.5t73 -30.5t50.5 -15q22 0 30 13
t8 40h222q0 -145 -20 -223t-58.5 -105.5t-108.5 -27.5q-53 0 -121 34.5t-92 34.5q-23 0 -31 -15.5t-8 -47.5h-215z" />
    <glyph glyph-name="adieresis" unicode="&#xe4;" horiz-adv-x="868" 
d="M440 272q23 0 23 37v228l-4 -5q-3 -3 -13.5 -7.5t-15.5 -8.5q-12 -10 -12 -45v-158q0 -18 0.5 -24.5t5.5 -11.5t16 -5zM512 0l-37 160q-14 -102 -68.5 -144.5t-152.5 -42.5q-121 0 -181.5 62t-60.5 205v110q0 88 18.5 140t59.5 88q27 23 69.5 43t74 30.5t101.5 30.5
q18 5 27 8q71 21 86 36.5t15 74.5v65q0 27 -4.5 35t-16.5 8q-13 0 -17.5 -9t-4.5 -38v-143h-397v139q0 188 100.5 273.5t318.5 85.5q225 0 315.5 -76.5t90.5 -272.5v-868h-336zM287 1229q-87 0 -114.5 28.5t-27.5 118.5q0 94 31 129t111 35q85 0 116 -34.5t31 -129.5
q0 -86 -30.5 -116.5t-116.5 -30.5zM606 1229q-88 0 -114.5 28.5t-26.5 118.5q0 96 28.5 130t112.5 34q83 0 115.5 -35t32.5 -129q0 -86 -31.5 -116.5t-116.5 -30.5z" />
    <glyph glyph-name="aring" unicode="&#xe5;" horiz-adv-x="868" 
d="M440 272q23 0 23 37v228l-4 -5q-3 -3 -13.5 -7.5t-15.5 -8.5q-12 -10 -12 -45v-158q0 -18 0.5 -24.5t5.5 -11.5t16 -5zM512 0l-37 160q-14 -102 -68.5 -144.5t-152.5 -42.5q-121 0 -181.5 62t-60.5 205v110q0 88 18.5 140t59.5 88q27 23 69.5 43t74 30.5t101.5 30.5
q18 5 27 8q71 21 86 36.5t15 74.5v65q0 27 -4.5 35t-16.5 8q-13 0 -17.5 -9t-4.5 -38v-143h-397v139q0 188 100.5 273.5t318.5 85.5q225 0 315.5 -76.5t90.5 -272.5v-868h-336zM442 1239q-120 0 -189 56.5t-69 160.5q0 113 72.5 172.5t185.5 59.5q117 0 187.5 -61t70.5 -167
q0 -104 -67.5 -162.5t-190.5 -58.5zM444 1436q33 0 33 26q0 29 -33 29q-32 0 -32 -29q0 -13 6.5 -19.5t25.5 -6.5z" />
    <glyph glyph-name="ae" unicode="&#xe6;" horiz-adv-x="1286" 
d="M836 807v-86h51v98q0 53 -4 65.5t-21 12.5q-18 0 -22 -15t-4 -75zM436 272q23 0 23 37v221l-4 -4q-3 -3 -16 -7.5t-17 -8.5q-10 -10 -10 -45v-152q0 -24 4 -32.5t20 -8.5zM881 -25q-138 0 -218.5 34t-119.5 106q-66 -142 -254 -142q-145 0 -210 61t-65 206v157
q0 76 17.5 122.5t58.5 80.5q19 15 39.5 26.5t52 22.5t48.5 16t65 17t65 16q67 17 83 37t16 82v49q0 27 -5.5 37t-17.5 10q-13 0 -17.5 -10t-4.5 -41v-131h-389v127q0 166 101.5 262.5t305.5 96.5q153 0 238 -58q85 55 209 55q201 0 296 -100.5t95 -310.5v-299h-434v-119
q0 -57 4 -69.5t20 -12.5t18.5 17t2.5 94v47h389v-76q0 -95 -20.5 -167.5t-64.5 -128.5t-120.5 -85t-183.5 -29z" />
    <glyph glyph-name="ccedilla" unicode="&#xe7;" horiz-adv-x="858" 
d="M428 -469q-294 0 -328 246h281q14 -41 55 -41q45 0 45 31q0 30 -41 30h-133v187q-155 24 -223 119.5t-68 279.5v418q0 207 112.5 310t320.5 103q205 0 300 -95t95 -296v-168h-393v142q0 60 -3.5 74t-15.5 14q-14 0 -18 -15t-4 -73v-404q0 -50 4 -63t18 -13q13 0 16 12
t3 62v164h393v-178q0 -177 -71 -274t-234 -121v-35q100 -8 148 -49.5t48 -141.5q0 -105 -82 -165t-225 -60z" />
    <glyph glyph-name="egrave" unicode="&#xe8;" horiz-adv-x="862" 
d="M846 385q0 -95 -20.5 -167.5t-66.5 -128.5t-126.5 -85t-192.5 -29q-124 0 -207 26t-130.5 81.5t-67 130t-19.5 182.5v416q0 200 107.5 301.5t306.5 101.5q214 0 315 -100.5t101 -310.5v-299h-440v-119q0 -57 4 -69.5t20 -12.5t18.5 17t2.5 94v47h395v-76zM406 807v-86h51
v98q0 53 -4 65.5t-21 12.5q-18 0 -22 -15t-4 -75zM334 1239l-211 307h354l103 -307h-246z" />
    <glyph glyph-name="eacute" unicode="&#xe9;" horiz-adv-x="862" 
d="M846 385q0 -95 -20.5 -167.5t-66.5 -128.5t-126.5 -85t-192.5 -29q-124 0 -207 26t-130.5 81.5t-67 130t-19.5 182.5v416q0 200 107.5 301.5t306.5 101.5q214 0 315 -100.5t101 -310.5v-299h-440v-119q0 -57 4 -69.5t20 -12.5t18.5 17t2.5 94v47h395v-76zM406 807v-86h51
v98q0 53 -4 65.5t-21 12.5q-18 0 -22 -15t-4 -75zM283 1239l143 307h354l-225 -307h-272z" />
    <glyph glyph-name="ecircumflex" unicode="&#xea;" horiz-adv-x="862" 
d="M846 385q0 -95 -20.5 -167.5t-66.5 -128.5t-126.5 -85t-192.5 -29q-124 0 -207 26t-130.5 81.5t-67 130t-19.5 182.5v416q0 200 107.5 301.5t306.5 101.5q214 0 315 -100.5t101 -310.5v-299h-440v-119q0 -57 4 -69.5t20 -12.5t18.5 17t2.5 94v47h395v-76zM406 807v-86h51
v98q0 53 -4 65.5t-21 12.5q-18 0 -22 -15t-4 -75zM469 1235l-35 98l-41 -98h-243l167 326h238l166 -326h-252z" />
    <glyph glyph-name="edieresis" unicode="&#xeb;" horiz-adv-x="862" 
d="M846 385q0 -95 -20.5 -167.5t-66.5 -128.5t-126.5 -85t-192.5 -29q-124 0 -207 26t-130.5 81.5t-67 130t-19.5 182.5v416q0 200 107.5 301.5t306.5 101.5q214 0 315 -100.5t101 -310.5v-299h-440v-119q0 -57 4 -69.5t20 -12.5t18.5 17t2.5 94v47h395v-76zM406 807v-86h51
v98q0 53 -4 65.5t-21 12.5q-18 0 -22 -15t-4 -75zM268 1225q-87 0 -114 28.5t-27 118.5q0 95 30.5 129.5t110.5 34.5q85 0 116.5 -34.5t31.5 -129.5q0 -86 -31 -116.5t-117 -30.5zM588 1225q-88 0 -115 28.5t-27 118.5q0 96 29 130t113 34q83 0 115 -35t32 -129
q0 -86 -31 -116.5t-116 -30.5z" />
    <glyph glyph-name="igrave" unicode="&#xec;" horiz-adv-x="454" 
d="M434 0h-414v1198h414v-1198zM131 1223l-211 307h354l103 -307h-246z" />
    <glyph glyph-name="iacute" unicode="&#xed;" horiz-adv-x="454" 
d="M434 0h-414v1198h414v-1198zM86 1225l143 307h355l-226 -307h-272z" />
    <glyph glyph-name="icircumflex" unicode="&#xee;" horiz-adv-x="454" 
d="M434 0h-414v1198h414v-1198zM266 1223l-35 98l-41 -98h-243l168 325h237l166 -325h-252z" />
    <glyph glyph-name="idieresis" unicode="&#xef;" horiz-adv-x="454" 
d="M434 0h-414v1198h414v-1198zM66 1221q-87 0 -114.5 28.5t-27.5 118.5q0 94 31 129t111 35q85 0 116 -34.5t31 -129.5q0 -86 -30.5 -116.5t-116.5 -30.5zM385 1221q-88 0 -114.5 28.5t-26.5 118.5q0 96 28.5 130t112.5 34q83 0 115 -35t32 -129q0 -86 -31 -116.5
t-116 -30.5z" />
    <glyph glyph-name="eth" unicode="&#xf0;" horiz-adv-x="860" 
d="M416 -25q-206 0 -303 92.5t-97 288.5v422q0 195 63.5 283t205.5 88q93 0 142.5 -37t76.5 -111q-38 126 -142 248l-67 -41h-293l250 152q-95 87 -279 211h498q21 -13 59 -43l70 43h293l-250 -152q203 -247 203 -596v-420q0 -216 -113.5 -322t-316.5 -106zM430 317
q13 0 18 10.5t5 47.5v389q0 39 -5 49t-18 10t-17.5 -10t-4.5 -49v-389q0 -38 4.5 -48t17.5 -10z" />
    <glyph glyph-name="ntilde" unicode="&#xf1;" horiz-adv-x="886" 
d="M424 807v-807h-404v1198h330l45 -162q44 176 234 176q120 0 178.5 -80t58.5 -251v-881h-399v807q0 44 -3.5 54.5t-17.5 10.5t-18 -11t-4 -54zM129 1231q-1 143 17 219.5t57 107.5t112 31q42 0 83.5 -15.5t73 -30.5t50.5 -15q39 0 39 53h221q0 -145 -19.5 -223t-58 -105.5
t-108.5 -27.5q-53 0 -121 34.5t-92 34.5q-23 0 -31 -15.5t-8 -47.5h-215z" />
    <glyph glyph-name="ograve" unicode="&#xf2;" horiz-adv-x="864" 
d="M432 -25q-216 0 -316 96.5t-100 311.5v418q0 413 416 413q209 0 312.5 -100.5t103.5 -312.5v-418q0 -216 -99 -312t-317 -96zM432 313q13 0 18 10.5t5 47.5v458q0 39 -5 49.5t-18 10.5t-17.5 -10.5t-4.5 -49.5v-458q0 -38 4.5 -48t17.5 -10zM336 1237l-211 307h354
l103 -307h-246z" />
    <glyph glyph-name="oacute" unicode="&#xf3;" horiz-adv-x="864" 
d="M432 -25q-216 0 -316 96.5t-100 311.5v418q0 413 416 413q209 0 312.5 -100.5t103.5 -312.5v-418q0 -216 -99 -312t-317 -96zM432 313q13 0 18 10.5t5 47.5v458q0 39 -5 49.5t-18 10.5t-17.5 -10.5t-4.5 -49.5v-458q0 -38 4.5 -48t17.5 -10zM285 1237l143 307h354
l-225 -307h-272z" />
    <glyph glyph-name="ocircumflex" unicode="&#xf4;" horiz-adv-x="864" 
d="M432 -25q-216 0 -316 96.5t-100 311.5v418q0 413 416 413q209 0 312.5 -100.5t103.5 -312.5v-418q0 -216 -99 -312t-317 -96zM432 313q13 0 18 10.5t5 47.5v458q0 39 -5 49.5t-18 10.5t-17.5 -10.5t-4.5 -49.5v-458q0 -38 4.5 -48t17.5 -10zM471 1233l-35 98l-41 -98
h-243l167 326h238l166 -326h-252z" />
    <glyph glyph-name="otilde" unicode="&#xf5;" horiz-adv-x="864" 
d="M432 -25q-216 0 -316 96.5t-100 311.5v418q0 413 416 413q209 0 312.5 -100.5t103.5 -312.5v-418q0 -216 -99 -312t-317 -96zM432 313q13 0 18 10.5t5 47.5v458q0 39 -5 49.5t-18 10.5t-17.5 -10.5t-4.5 -49.5v-458q0 -38 4.5 -48t17.5 -10zM131 1227q-1 143 17 219.5
t57 107.5t112 31q42 0 83.5 -15.5t73 -30.5t50.5 -15q39 0 39 53h221q0 -145 -19.5 -223t-58 -105.5t-108.5 -27.5q-53 0 -121 34.5t-92 34.5q-23 0 -31 -15.5t-8 -47.5h-215z" />
    <glyph glyph-name="odieresis" unicode="&#xf6;" horiz-adv-x="864" 
d="M432 -25q-216 0 -316 96.5t-100 311.5v418q0 413 416 413q209 0 312.5 -100.5t103.5 -312.5v-418q0 -216 -99 -312t-317 -96zM432 313q13 0 18 10.5t5 47.5v458q0 39 -5 49.5t-18 10.5t-17.5 -10.5t-4.5 -49.5v-458q0 -38 4.5 -48t17.5 -10zM276 1223q-87 0 -114 28.5
t-27 118.5q0 95 30.5 129.5t110.5 34.5q85 0 116.5 -34.5t31.5 -129.5q0 -86 -31 -116.5t-117 -30.5zM596 1223q-88 0 -114.5 28.5t-26.5 118.5q0 96 28.5 130t112.5 34q83 0 115 -35t32 -129q0 -86 -31 -116.5t-116 -30.5z" />
    <glyph glyph-name="divide" unicode="&#xf7;" horiz-adv-x="833" 
d="M416 918q-120 0 -156.5 24.5t-36.5 108.5q0 82 39.5 107.5t153.5 25.5t153 -25.5t39 -107.5t-38.5 -107.5t-153.5 -25.5zM16 549v340h801v-340h-801zM416 246q-119 0 -156 26t-37 109t40 109t153 26t152.5 -26t39.5 -109q0 -81 -39 -108t-153 -27z" />
    <glyph glyph-name="oslash" unicode="&#xf8;" horiz-adv-x="878" 
d="M446 -217h-423l81 307q-81 97 -81 293v418q0 373 339 409l41 146h422l-67 -248q98 -101 98 -307v-418q0 -200 -86 -297t-272 -109zM440 317q23 0 23 76v406v72q-3 14 -23 14q-16 0 -19 -11t-3 -54v-21v-406q0 -76 22 -76z" />
    <glyph glyph-name="ugrave" unicode="&#xf9;" horiz-adv-x="874" 
d="M530 0l-43 158q-19 -91 -69 -133.5t-142 -42.5q-138 0 -198 79t-60 261v876h400v-809q0 -39 3 -50t15 -11q14 0 18.5 13.5t4.5 51.5v805h395v-1198h-324zM340 1223l-211 307h354l103 -307h-246z" />
    <glyph glyph-name="uacute" unicode="&#xfa;" horiz-adv-x="874" 
d="M530 0l-43 158q-19 -91 -69 -133.5t-142 -42.5q-138 0 -198 79t-60 261v876h400v-809q0 -39 3 -50t15 -11q14 0 18.5 13.5t4.5 51.5v805h395v-1198h-324zM289 1223l143 307h354l-225 -307h-272z" />
    <glyph glyph-name="ucircumflex" unicode="&#xfb;" horiz-adv-x="874" 
d="M530 0l-43 158q-19 -91 -69 -133.5t-142 -42.5q-138 0 -198 79t-60 261v876h400v-809q0 -39 3 -50t15 -11q14 0 18.5 13.5t4.5 51.5v805h395v-1198h-324zM475 1223l-35 98l-41 -98h-243l168 325h237l166 -325h-252z" />
    <glyph glyph-name="udieresis" unicode="&#xfc;" horiz-adv-x="874" 
d="M530 0l-43 158q-19 -91 -69 -133.5t-142 -42.5q-138 0 -198 79t-60 261v876h400v-809q0 -39 3 -50t15 -11q14 0 18.5 13.5t4.5 51.5v805h395v-1198h-324zM274 1221q-87 0 -114 28.5t-27 118.5q0 95 30.5 129.5t110.5 34.5q85 0 116.5 -34.5t31.5 -129.5q0 -86 -31 -116.5
t-117 -30.5zM594 1221q-88 0 -114.5 28.5t-26.5 118.5q0 96 28.5 130t112.5 34q83 0 115 -35t32 -129q0 -86 -31 -116.5t-116 -30.5z" />
    <glyph glyph-name="yacute" unicode="&#xfd;" horiz-adv-x="868" 
d="M199 -399h-146v366h84q51 0 65.5 10.5t20.5 53.5l-248 1167h414l39 -291l10 -501l19 499l37 293h399l-223 -1194q-18 -94 -37 -158t-48 -110.5t-59.5 -72t-82.5 -40t-105 -18.5t-139 -4zM272 1225l144 307h354l-225 -307h-273z" />
    <glyph glyph-name="thorn" unicode="&#xfe;" horiz-adv-x="876" 
d="M430 313q10 0 14.5 4.5t7.5 27t3 71.5v372q0 65 -4 83t-19 18t-18.5 -18t-3.5 -95v-381q0 -39 3 -57.5t6 -21.5t11 -3zM594 -16q-86 0 -128.5 40.5t-55.5 116.5v-501h-394v1933h394v-508q50 147 202 147q120 0 181 -96t61 -328v-339q0 -251 -57.5 -358t-202.5 -107z" />
    <glyph glyph-name="ydieresis" unicode="&#xff;" horiz-adv-x="868" 
d="M199 -399h-146v366h84q51 0 65.5 10.5t20.5 53.5l-248 1167h414l39 -291l10 -501l19 499l37 293h399l-223 -1194q-18 -94 -37 -158t-48 -110.5t-59.5 -72t-82.5 -40t-105 -18.5t-139 -4zM281 1223q-87 0 -114.5 28.5t-27.5 118.5q0 94 31 129t111 35q85 0 116 -34.5
t31 -129.5q0 -86 -30.5 -116.5t-116.5 -30.5zM600 1223q-88 0 -114.5 28.5t-26.5 118.5q0 96 28.5 130t112.5 34q83 0 115.5 -35t32.5 -129q0 -86 -31.5 -116.5t-116.5 -30.5z" />
    <glyph glyph-name="Amacron" unicode="&#x100;" 
d="M432 635l-18 -199h63l-20 199l-15 301zM520 0l-10 113h-129l-10 -113h-391l204 1475h510l217 -1475h-391zM238 1499v266h413v-266h-413z" />
    <glyph glyph-name="amacron" unicode="&#x101;" horiz-adv-x="868" 
d="M440 272q23 0 23 37v228l-4 -5q-3 -3 -13.5 -7.5t-15.5 -8.5q-12 -10 -12 -45v-158q0 -18 0.5 -24.5t5.5 -11.5t16 -5zM512 0l-37 160q-14 -102 -68.5 -144.5t-152.5 -42.5q-121 0 -181.5 62t-60.5 205v110q0 88 18.5 140t59.5 88q27 23 69.5 43t74 30.5t101.5 30.5
q18 5 27 8q71 21 86 36.5t15 74.5v65q0 27 -4.5 35t-16.5 8q-13 0 -17.5 -9t-4.5 -38v-143h-397v139q0 188 100.5 273.5t318.5 85.5q225 0 315.5 -76.5t90.5 -272.5v-868h-336zM233 1241v266h414v-266h-414z" />
    <glyph glyph-name="Abreve" unicode="&#x102;" 
d="M432 635l-18 -199h63l-20 199l-15 301zM520 0l-10 113h-129l-10 -113h-391l204 1475h510l217 -1475h-391zM446 1497q-148 0 -211 68.5t-63 230.5h240q0 -50 4.5 -60t29.5 -10q22 0 27.5 11.5t5.5 58.5h240q0 -163 -64 -231t-209 -68z" />
    <glyph glyph-name="abreve" unicode="&#x103;" horiz-adv-x="868" 
d="M440 272q23 0 23 37v228l-4 -5q-3 -3 -13.5 -7.5t-15.5 -8.5q-12 -10 -12 -45v-158q0 -18 0.5 -24.5t5.5 -11.5t16 -5zM512 0l-37 160q-14 -102 -68.5 -144.5t-152.5 -42.5q-121 0 -181.5 62t-60.5 205v110q0 88 18.5 140t59.5 88q27 23 69.5 43t74 30.5t101.5 30.5
q18 5 27 8q71 21 86 36.5t15 74.5v65q0 27 -4.5 35t-16.5 8q-13 0 -17.5 -9t-4.5 -38v-143h-397v139q0 188 100.5 273.5t318.5 85.5q225 0 315.5 -76.5t90.5 -272.5v-868h-336zM442 1239q-148 0 -211 68.5t-63 230.5h240q0 -50 4.5 -60t29.5 -10q22 0 27.5 11.5t5.5 58.5
h240q0 -163 -64 -231t-209 -68z" />
    <glyph glyph-name="Aogonek" unicode="&#x104;" 
d="M432 635l-18 -199h63l-20 199l-15 301zM1040 -143q-29 -293 -329 -293q-277 0 -277 227q0 57 23 106t84 103h-21l-10 113h-129l-10 -113h-391l204 1475h510l217 -1475q-94 -69 -143 -112.5t-55 -54t-6 -21.5q0 -21 16 -21q31 0 29 66h288z" />
    <glyph glyph-name="aogonek" unicode="&#x105;" horiz-adv-x="868" 
d="M440 272q23 0 23 37v228l-4 -5q-3 -3 -13.5 -7.5t-15.5 -8.5q-12 -10 -12 -45v-158q0 -18 0.5 -24.5t5.5 -11.5t16 -5zM977 -143q-29 -293 -330 -293q-276 0 -276 227q0 63 29 117.5t106 116.5l-31 135q-14 -102 -68.5 -144.5t-152.5 -42.5q-121 0 -181.5 62t-60.5 205
v110q0 88 18.5 140t59.5 88q27 23 69.5 43t74 30.5t101.5 30.5q18 5 27 8q71 21 86 36.5t15 74.5v65q0 27 -4.5 35t-16.5 8q-13 0 -17.5 -9t-4.5 -38v-143h-397v139q0 188 100.5 273.5t318.5 85.5q225 0 315.5 -76.5t90.5 -272.5v-868q-94 -69 -143 -112t-55.5 -54.5
t-6.5 -21.5q0 -21 16 -21q31 0 29 66h289z" />
    <glyph glyph-name="Cacute" unicode="&#x106;" horiz-adv-x="888" 
d="M444 -23q-211 0 -319.5 101t-108.5 332v659q0 432 439 432q220 0 319.5 -102t99.5 -330v-238h-409v238q0 37 -2.5 54.5t-6.5 21.5t-12 4q-17 0 -19.5 -11t-2.5 -69v-645q0 -55 3.5 -67.5t18.5 -12.5q13 0 17 13.5t4 66.5v260h409v-274q0 -433 -430 -433zM301 1526
l143 307h355l-226 -307h-272z" />
    <glyph glyph-name="cacute" unicode="&#x107;" horiz-adv-x="858" 
d="M428 -25q-222 0 -317 96t-95 312v418q0 207 112.5 310t320.5 103q205 0 300 -95t95 -296v-168h-393v142q0 60 -3.5 74t-15.5 14q-14 0 -18 -15t-4 -73v-404q0 -50 4 -63t18 -13q13 0 16 12t3 62v164h393v-178q0 -204 -96 -303t-320 -99zM299 1241l143 307h355l-226 -307
h-272z" />
    <glyph glyph-name="Ccircumflex" unicode="&#x108;" horiz-adv-x="888" 
d="M444 -23q-211 0 -319.5 101t-108.5 332v659q0 432 439 432q220 0 319.5 -102t99.5 -330v-238h-409v238q0 37 -2.5 54.5t-6.5 21.5t-12 4q-17 0 -19.5 -11t-2.5 -69v-645q0 -55 3.5 -67.5t18.5 -12.5q13 0 17 13.5t4 66.5v260h409v-274q0 -433 -430 -433zM487 1520l-34 98
l-41 -98h-244l168 325h237l166 -325h-252z" />
    <glyph glyph-name="ccircumflex" unicode="&#x109;" horiz-adv-x="858" 
d="M428 -25q-222 0 -317 96t-95 312v418q0 207 112.5 310t320.5 103q205 0 300 -95t95 -296v-168h-393v142q0 60 -3.5 74t-15.5 14q-14 0 -18 -15t-4 -73v-404q0 -50 4 -63t18 -13q13 0 16 12t3 62v164h393v-178q0 -204 -96 -303t-320 -99zM485 1241l-34 98l-41 -98h-244
l168 326h237l166 -326h-252z" />
    <glyph glyph-name="Cdotaccent" unicode="&#x10a;" horiz-adv-x="888" 
d="M444 -23q-211 0 -319.5 101t-108.5 332v659q0 432 439 432q220 0 319.5 -102t99.5 -330v-238h-409v238q0 37 -2.5 54.5t-6.5 21.5t-12 4q-17 0 -19.5 -11t-2.5 -69v-645q0 -55 3.5 -67.5t18.5 -12.5q13 0 17 13.5t4 66.5v260h409v-274q0 -433 -430 -433zM444 1524
q-62 0 -94 5.5t-54.5 25.5t-29 54t-6.5 97q0 62 8 97.5t31 56t55 26.5t90 6t90.5 -6t57 -26t33 -56.5t8.5 -97.5q0 -60 -8.5 -95t-32.5 -55t-57 -26t-91 -6z" />
    <glyph glyph-name="cdotaccent" unicode="&#x10b;" horiz-adv-x="858" 
d="M428 -25q-222 0 -317 96t-95 312v418q0 207 112.5 310t320.5 103q205 0 300 -95t95 -296v-168h-393v142q0 60 -3.5 74t-15.5 14q-14 0 -18 -15t-4 -73v-404q0 -50 4 -63t18 -13q13 0 16 12t3 62v164h393v-178q0 -204 -96 -303t-320 -99zM442 1239q-62 0 -94 5.5
t-54.5 25.5t-29 54t-6.5 97q0 62 8 98t31 56t55.5 26.5t89.5 6.5q58 0 90.5 -6.5t56.5 -26.5t33 -56.5t9 -97.5q0 -60 -8.5 -95t-32.5 -55t-57 -26t-91 -6z" />
    <glyph glyph-name="Ccaron" unicode="&#x10c;" horiz-adv-x="888" 
d="M444 -23q-211 0 -319.5 101t-108.5 332v659q0 432 439 432q220 0 319.5 -102t99.5 -330v-238h-409v238q0 37 -2.5 54.5t-6.5 21.5t-12 4q-17 0 -19.5 -11t-2.5 -69v-645q0 -55 3.5 -67.5t18.5 -12.5q13 0 17 13.5t4 66.5v260h409v-274q0 -433 -430 -433zM565 1526h-237
l-168 325h256l35 -100l41 100h245z" />
    <glyph glyph-name="ccaron" unicode="&#x10d;" horiz-adv-x="858" 
d="M428 -25q-222 0 -317 96t-95 312v418q0 207 112.5 310t320.5 103q205 0 300 -95t95 -296v-168h-393v142q0 60 -3.5 74t-15.5 14q-14 0 -18 -15t-4 -73v-404q0 -50 4 -63t18 -13q13 0 16 12t3 62v164h393v-178q0 -204 -96 -303t-320 -99zM563 1241h-237l-168 326h256
l35 -101l40 101h246z" />
    <glyph glyph-name="Dcaron" unicode="&#x10e;" horiz-adv-x="899" 
d="M20 0v1475h426q437 0 437 -416v-641q0 -113 -33 -195.5t-94 -130t-139 -70t-177 -22.5h-420zM420 350q29 0 37 12t8 60v653q0 38 -8 49t-35 11h-2v-785zM549 1499h-238l-168 326h256l35 -101l41 101h246z" />
    <glyph glyph-name="dcaron" unicode="&#x10f;" horiz-adv-x="872" 
d="M438 313q8 0 11.5 3t6.5 21.5t3 57.5v381q0 76 -4 94.5t-19 18.5t-18.5 -17.5t-3.5 -83.5v-372q0 -49 2.5 -71t7 -27t14.5 -5zM512 0l-41 168q-13 -89 -58.5 -136.5t-140.5 -47.5q-100 0 -154.5 40t-78 131t-23.5 259v401q0 119 16 198.5t49.5 122t76 59.5t104.5 17
q146 0 193 -155v516h397v-1573h-340zM854 1233l61 340h189l-146 -340h-104z" />
    <glyph glyph-name="Dcroat" unicode="&#x110;" horiz-adv-x="909" 
d="M451 0h-420v582h-31v348h31v545h426q436 0 436 -416v-641q0 -113 -33 -195.5t-93.5 -130t-138.5 -70t-177 -22.5zM467 582h-37v-232h14q29 0 37 12t8 60v653q0 38 -8 49t-35 11h-16v-205h37v-348z" />
    <glyph glyph-name="dcroat" unicode="&#x111;" horiz-adv-x="862" 
d="M428 313q8 0 11.5 3t6.5 21.5t3 57.5v381q0 76 -4 94.5t-19 18.5t-19 -18t-4 -83v-372q0 -49 3 -71.5t7.5 -27t14.5 -4.5zM502 0l-41 166q-12 -87 -56 -134.5t-139 -47.5q-144 0 -197 105.5t-53 359.5v339q0 159 29 254t80 132.5t131 37.5q74 0 119 -37.5t69 -113.5v156
h-96v253h96v103h398v-103h20v-253h-20v-1217h-340z" />
    <glyph glyph-name="Emacron" unicode="&#x112;" horiz-adv-x="727" 
d="M711 395v-395h-691v1475h691v-385h-293v-150h293v-387h-293v-158h293zM170 1499v266h414v-266h-414z" />
    <glyph glyph-name="emacron" unicode="&#x113;" horiz-adv-x="862" 
d="M846 385q0 -95 -20.5 -167.5t-66.5 -128.5t-126.5 -85t-192.5 -29q-124 0 -207 26t-130.5 81.5t-67 130t-19.5 182.5v416q0 200 107.5 301.5t306.5 101.5q214 0 315 -100.5t101 -310.5v-299h-440v-119q0 -57 4 -69.5t20 -12.5t18.5 17t2.5 94v47h395v-76zM406 807v-86h51
v98q0 53 -4 65.5t-21 12.5q-18 0 -22 -15t-4 -75zM223 1239v266h414v-266h-414z" />
    <glyph glyph-name="Ebreve" unicode="&#x114;" horiz-adv-x="727" 
d="M711 395v-395h-691v1475h691v-385h-293v-150h293v-387h-293v-158h293zM379 1497q-148 0 -211.5 68.5t-63.5 230.5h240q0 -50 5 -60t30 -10q22 0 27.5 11.5t5.5 58.5h239q0 -163 -63.5 -231t-208.5 -68z" />
    <glyph glyph-name="ebreve" unicode="&#x115;" horiz-adv-x="862" 
d="M846 385q0 -95 -20.5 -167.5t-66.5 -128.5t-126.5 -85t-192.5 -29q-124 0 -207 26t-130.5 81.5t-67 130t-19.5 182.5v416q0 200 107.5 301.5t306.5 101.5q214 0 315 -100.5t101 -310.5v-299h-440v-119q0 -57 4 -69.5t20 -12.5t18.5 17t2.5 94v47h395v-76zM406 807v-86h51
v98q0 53 -4 65.5t-21 12.5q-18 0 -22 -15t-4 -75zM432 1237q-148 0 -211 68.5t-63 230.5h239q0 -50 5 -60t30 -10q22 0 27.5 11.5t5.5 58.5h240q0 -163 -64 -231t-209 -68z" />
    <glyph glyph-name="Edotaccent" unicode="&#x116;" horiz-adv-x="727" 
d="M711 395v-395h-691v1475h691v-385h-293v-150h293v-387h-293v-158h293zM373 1497q-41 0 -67 2t-48.5 9t-34.5 19t-20.5 33t-11.5 49t-3 70q0 62 8 98t31.5 56t56 26.5t89.5 6.5q112 0 150 -34.5t38 -152.5q0 -60 -8.5 -95t-32 -55t-56.5 -26t-91 -6z" />
    <glyph glyph-name="edotaccent" unicode="&#x117;" horiz-adv-x="862" 
d="M846 385q0 -95 -20.5 -167.5t-66.5 -128.5t-126.5 -85t-192.5 -29q-124 0 -207 26t-130.5 81.5t-67 130t-19.5 182.5v416q0 200 107.5 301.5t306.5 101.5q214 0 315 -100.5t101 -310.5v-299h-440v-119q0 -57 4 -69.5t20 -12.5t18.5 17t2.5 94v47h395v-76zM406 807v-86h51
v98q0 53 -4 65.5t-21 12.5q-18 0 -22 -15t-4 -75zM426 1237q-62 0 -94 5.5t-54.5 25.5t-29 54t-6.5 97q0 62 8 98t31 56t55.5 26.5t89.5 6.5q112 0 150 -34.5t38 -152.5q0 -60 -8.5 -95t-32 -55t-56.5 -26t-91 -6z" />
    <glyph glyph-name="Eogonek" unicode="&#x118;" horiz-adv-x="727" 
d="M840 -143q-29 -293 -330 -293q-277 0 -277 227q0 57 23 106t84 103h-320v1475h691v-385h-293v-150h293v-387h-293v-158h293v-395q-94 -69 -143 -112t-55.5 -54.5t-6.5 -21.5q0 -21 16 -21q31 0 29 66h289z" />
    <glyph glyph-name="eogonek" unicode="&#x119;" horiz-adv-x="862" 
d="M506 -393q-277 0 -277 227q0 84 56 156q-149 30 -209 128t-60 277v416q0 200 107.5 301.5t306.5 101.5q214 0 315 -100.5t101 -310.5v-299h-440v-119q0 -57 4 -69.5t20 -12.5t18.5 17t2.5 94v47h395v-76q0 -247 -144 -344q-92 -67 -140 -110t-54 -54t-6 -22q0 -21 16 -21
q31 0 29 66h289q-29 -293 -330 -293zM406 807v-86h51v98q0 53 -4 65.5t-21 12.5q-18 0 -22 -15t-4 -75z" />
    <glyph glyph-name="Ecaron" unicode="&#x11a;" horiz-adv-x="727" 
d="M711 395v-395h-691v1475h691v-385h-293v-150h293v-387h-293v-158h293zM494 1499h-238l-168 326h256l35 -101l41 101h246z" />
    <glyph glyph-name="ecaron" unicode="&#x11b;" horiz-adv-x="862" 
d="M846 385q0 -95 -20.5 -167.5t-66.5 -128.5t-126.5 -85t-192.5 -29q-124 0 -207 26t-130.5 81.5t-67 130t-19.5 182.5v416q0 200 107.5 301.5t306.5 101.5q214 0 315 -100.5t101 -310.5v-299h-440v-119q0 -57 4 -69.5t20 -12.5t18.5 17t2.5 94v47h395v-76zM406 807v-86h51
v98q0 53 -4 65.5t-21 12.5q-18 0 -22 -15t-4 -75zM547 1239h-238l-168 326h256l35 -101l41 101h246z" />
    <glyph glyph-name="Gcircumflex" unicode="&#x11c;" horiz-adv-x="907" 
d="M541 199q-18 -112 -74.5 -167t-167.5 -55q-156 0 -219.5 97t-63.5 329v670q0 426 439 426q224 0 328 -98.5t104 -321.5v-127h-416v133q0 44 -4 54t-18 10q-15 0 -19 -10.5t-4 -57.5v-653q0 -59 9 -78.5t36 -19.5q26 0 35.5 20t9.5 78v57h-59v394h430v-879h-330zM492 1520
l-35 98l-41 -98h-244l168 325h238l165 -325h-251z" />
    <glyph glyph-name="gcircumflex" unicode="&#x11d;" horiz-adv-x="864" 
d="M428 590q23 0 23 45v260q0 32 -4 40.5t-19 8.5t-20 -9.5t-5 -41.5v-256q0 -27 5.5 -37t19.5 -10zM385 -379h-6q-397 0 -397 195q0 85 58.5 126t188.5 35q-118 9 -171.5 54t-53.5 131q0 189 234 215q-116 13 -171 88t-55 217v180q0 161 69 241.5t226 102.5l45 6
q67 9 83 28.5t16 90.5v21h419v-2q0 -29 -0.5 -47t-4 -37t-6.5 -29.5t-13.5 -21.5t-19 -16t-29 -9.5t-37 -6t-50 -1.5t-61 1t-76.5 3q151 -20 214 -89t63 -218v-201q0 -192 -101.5 -274t-330.5 -82h-88q-37 0 -50.5 -4t-13.5 -15q0 -10 15 -12t75 -2h119q215 0 305 -77
t90 -239v-4q0 -184 -108 -266t-377 -82zM403 -68h50q65 0 65 23v4q0 16 -47 16h-76q-34 0 -46.5 -5t-12.5 -17v-2q0 -19 67 -19zM473 1378l-35 99l-41 -99h-243l168 326h237l166 -326h-252z" />
    <glyph glyph-name="Gbreve" unicode="&#x11e;" horiz-adv-x="907" 
d="M541 199q-18 -112 -74.5 -167t-167.5 -55q-156 0 -219.5 97t-63.5 329v670q0 426 439 426q224 0 328 -98.5t104 -321.5v-127h-416v133q0 44 -4 54t-18 10q-15 0 -19 -10.5t-4 -57.5v-653q0 -59 9 -78.5t36 -19.5q26 0 35.5 20t9.5 78v57h-59v394h430v-879h-330zM455 1522
q-148 0 -211.5 68.5t-63.5 230.5h240q0 -49 5 -59.5t30 -10.5q22 0 27 11.5t5 58.5h240q0 -163 -63.5 -231t-208.5 -68z" />
    <glyph glyph-name="gbreve" unicode="&#x11f;" horiz-adv-x="864" 
d="M428 590q23 0 23 45v260q0 32 -4 40.5t-19 8.5t-20 -9.5t-5 -41.5v-256q0 -27 5.5 -37t19.5 -10zM385 -379h-6q-397 0 -397 195q0 85 58.5 126t188.5 35q-118 9 -171.5 54t-53.5 131q0 189 234 215q-116 13 -171 88t-55 217v180q0 161 69 241.5t226 102.5l45 6
q67 9 83 28.5t16 90.5v21h419v-2q0 -29 -0.5 -47t-4 -37t-6.5 -29.5t-13.5 -21.5t-19 -16t-29 -9.5t-37 -6t-50 -1.5t-61 1t-76.5 3q151 -20 214 -89t63 -218v-201q0 -192 -101.5 -274t-330.5 -82h-88q-37 0 -50.5 -4t-13.5 -15q0 -10 15 -12t75 -2h119q215 0 305 -77
t90 -239v-4q0 -184 -108 -266t-377 -82zM403 -68h50q65 0 65 23v4q0 16 -47 16h-76q-34 0 -46.5 -5t-12.5 -17v-2q0 -19 67 -19zM436 1376q-148 0 -211 68.5t-63 230.5h239q0 -49 5 -59t30 -10q22 0 27.5 11t5.5 58h240q0 -163 -64 -231t-209 -68z" />
    <glyph glyph-name="Gdotaccent" unicode="&#x120;" horiz-adv-x="907" 
d="M541 199q-18 -112 -74.5 -167t-167.5 -55q-156 0 -219.5 97t-63.5 329v670q0 426 439 426q224 0 328 -98.5t104 -321.5v-127h-416v133q0 44 -4 54t-18 10q-15 0 -19 -10.5t-4 -57.5v-653q0 -59 9 -78.5t36 -19.5q26 0 35.5 20t9.5 78v57h-59v394h430v-879h-330zM449 1522
q-41 0 -67 2t-48.5 9t-34.5 19t-20.5 33t-11.5 49t-3 70q0 62 8 97.5t31.5 56t55.5 26.5t90 6t90.5 -6t56.5 -26t32.5 -56.5t8.5 -97.5q0 -60 -8.5 -95t-32 -55t-56.5 -26t-91 -6z" />
    <glyph glyph-name="gdotaccent" unicode="&#x121;" horiz-adv-x="864" 
d="M428 590q23 0 23 45v260q0 32 -4 40.5t-19 8.5t-20 -9.5t-5 -41.5v-256q0 -27 5.5 -37t19.5 -10zM385 -379h-6q-397 0 -397 195q0 85 58.5 126t188.5 35q-118 9 -171.5 54t-53.5 131q0 189 234 215q-116 13 -171 88t-55 217v180q0 161 69 241.5t226 102.5l45 6
q67 9 83 28.5t16 90.5v21h419v-2q0 -29 -0.5 -47t-4 -37t-6.5 -29.5t-13.5 -21.5t-19 -16t-29 -9.5t-37 -6t-50 -1.5t-61 1t-76.5 3q151 -20 214 -89t63 -218v-201q0 -192 -101.5 -274t-330.5 -82h-88q-37 0 -50.5 -4t-13.5 -15q0 -10 15 -12t75 -2h119q215 0 305 -77
t90 -239v-4q0 -184 -108 -266t-377 -82zM403 -68h50q65 0 65 23v4q0 16 -47 16h-76q-34 0 -46.5 -5t-12.5 -17v-2q0 -19 67 -19zM430 1376q-61 0 -93.5 5.5t-55 25.5t-29 54.5t-6.5 97.5q0 62 8 97.5t31 56t55 26.5t90 6t90.5 -6t56.5 -26t32.5 -56.5t8.5 -97.5
q0 -115 -37.5 -149t-150.5 -34z" />
    <glyph glyph-name="uni0122" unicode="&#x122;" horiz-adv-x="907" 
d="M541 199q-18 -112 -74.5 -167t-167.5 -55q-156 0 -219.5 97t-63.5 329v670q0 426 439 426q224 0 328 -98.5t104 -321.5v-127h-416v133q0 44 -4 54t-18 10q-15 0 -19 -10.5t-4 -57.5v-653q0 -59 9 -78.5t36 -19.5q26 0 35.5 20t9.5 78v57h-59v394h430v-879h-330zM301 -446
v104q118 0 172.5 10.5t67.5 44.5q-35 -6 -70 -6q-113 0 -150.5 23.5t-37.5 107.5q0 83 43.5 110t171.5 27q67 0 105 -6t65 -26t37 -55.5t10 -96.5q0 -140 -93 -188.5t-321 -48.5z" />
    <glyph glyph-name="uni0123" unicode="&#x123;" horiz-adv-x="864" 
d="M428 590q23 0 23 45v260q0 32 -4 40.5t-19 8.5t-20 -9.5t-5 -41.5v-256q0 -27 5.5 -37t19.5 -10zM385 -379h-6q-397 0 -397 195q0 85 58.5 126t188.5 35q-118 9 -171.5 54t-53.5 131q0 189 234 215q-116 13 -171 88t-55 217v180q0 161 69 241.5t226 102.5l45 6
q67 9 83 28.5t16 90.5v21h419v-2q0 -29 -0.5 -47t-4 -37t-6.5 -29.5t-13.5 -21.5t-19 -16t-29 -9.5t-37 -6t-50 -1.5t-61 1t-76.5 3q151 -20 214 -89t63 -218v-201q0 -192 -101.5 -274t-330.5 -82h-88q-37 0 -50.5 -4t-13.5 -15q0 -10 15 -12t75 -2h119q215 0 305 -77
t90 -239v-4q0 -184 -108 -266t-377 -82zM403 -68h50q65 0 65 23v4q0 16 -47 16h-76q-34 0 -46.5 -5t-12.5 -17v-2q0 -19 67 -19zM436 1376q-67 0 -105 6.5t-65 26.5t-37 55.5t-10 96.5q0 140 93 188.5t321 48.5v-104q-117 0 -172 -11t-68 -45q40 7 70 7q113 0 150.5 -24
t37.5 -108q0 -83 -43.5 -110t-171.5 -27z" />
    <glyph glyph-name="Hcircumflex" unicode="&#x124;" horiz-adv-x="882" 
d="M461 0v551h-41v-551h-400v1475h400v-543h41v543h401v-1475h-401zM477 1499l-35 98l-41 -98h-243l168 326h237l166 -326h-252z" />
    <glyph glyph-name="hcircumflex" unicode="&#x125;" horiz-adv-x="882" 
d="M420 807v-807h-400v1573h402v-541q39 180 219 180q118 0 169.5 -78.5t51.5 -252.5v-881h-399v807q0 43 -3.5 54t-15.5 11q-14 0 -19 -11.5t-5 -53.5zM254 1597l-35 99l-41 -99h-244l168 326h238l166 -326h-252z" />
    <glyph glyph-name="Hbar" unicode="&#x126;" horiz-adv-x="903" 
d="M475 870v172h-49v-172h49zM475 0v551h-49v-551h-395v1042h-33v281h33v152h395v-152h49v152h397v-152h33v-281h-33v-1042h-397z" />
    <glyph glyph-name="hbar" unicode="&#x127;" horiz-adv-x="878" 
d="M420 807v-807h-400v1243h-20v230h20v100h402v-100h61v-230h-61v-211q39 180 219 180q118 0 169.5 -78.5t51.5 -252.5v-881h-399v807q0 43 -3.5 54t-15.5 11q-14 0 -19 -11.5t-5 -53.5z" />
    <glyph glyph-name="Itilde" unicode="&#x128;" horiz-adv-x="460" 
d="M23 0v1475h415v-1475h-415zM-94 1499q-1 143 17 220t57 108t112 31q42 0 83.5 -15.5t73 -31t50.5 -15.5q39 0 39 53h221q0 -145 -19.5 -223t-58 -105.5t-108.5 -27.5q-53 0 -121 35t-92 35q-23 0 -31 -15.5t-8 -48.5h-215z" />
    <glyph glyph-name="itilde" unicode="&#x129;" horiz-adv-x="454" 
d="M434 0h-414v1198h414v-1198zM-96 1223q-1 143 17 219.5t57 107.5t112 31q42 0 83.5 -15.5t73 -30.5t50.5 -15q39 0 39 53h221q0 -145 -19.5 -223t-58 -105.5t-108.5 -27.5q-53 0 -121 34.5t-92 34.5q-23 0 -31 -15.5t-8 -47.5h-215z" />
    <glyph glyph-name="Imacron" unicode="&#x12a;" horiz-adv-x="460" 
d="M23 0v1475h415v-1475h-415zM23 1499v266h413v-266h-413z" />
    <glyph glyph-name="imacron" unicode="&#x12b;" horiz-adv-x="454" 
d="M434 0h-414v1198h414v-1198zM20 1223v266h414v-266h-414z" />
    <glyph glyph-name="Ibreve" unicode="&#x12c;" horiz-adv-x="460" 
d="M23 0v1475h415v-1475h-415zM231 1497q-148 0 -211 68.5t-63 230.5h240q0 -50 4.5 -60t29.5 -10q22 0 27.5 11.5t5.5 58.5h240q0 -163 -64 -231t-209 -68z" />
    <glyph glyph-name="ibreve" unicode="&#x12d;" horiz-adv-x="454" 
d="M434 0h-414v1198h414v-1198zM229 1221q-148 0 -211 68.5t-63 230.5h240q0 -50 4.5 -60t29.5 -10q22 0 27.5 11.5t5.5 58.5h240q0 -163 -64 -231t-209 -68z" />
    <glyph glyph-name="Iogonek" unicode="&#x12e;" horiz-adv-x="460" 
d="M567 -143q-29 -293 -329 -293q-277 0 -277 227q0 57 23 106t84 103h-45v1475h415v-1475q-94 -69 -143 -112t-55.5 -54.5t-6.5 -21.5q0 -21 17 -21q31 0 29 66h288z" />
    <glyph glyph-name="iogonek" unicode="&#x12f;" horiz-adv-x="454" 
d="M225 1171q-132 0 -172.5 39.5t-40.5 167.5q0 124 41.5 164.5t171.5 40.5q133 0 175 -40.5t42 -164.5q0 -86 -16.5 -128t-62 -60.5t-138.5 -18.5zM563 -143q-29 -293 -330 -293q-276 0 -276 227q0 57 22.5 106t83.5 103h-43v1194q28 -31 72 -44t135 -13t133.5 13t73.5 46
v-1196q-94 -69 -143 -112t-55.5 -54.5t-6.5 -21.5q0 -21 17 -21q30 0 28 66h289z" />
    <glyph glyph-name="Idotaccent" unicode="&#x130;" horiz-adv-x="460" 
d="M23 0v1475h415v-1475h-415zM225 1497q-62 0 -94 5.5t-54.5 25.5t-29 54t-6.5 97q0 62 8 98t31 56t55.5 26.5t89.5 6.5q58 0 90.5 -6.5t56.5 -26.5t33 -56.5t9 -97.5q0 -60 -8.5 -95t-32.5 -55t-57 -26t-91 -6z" />
    <glyph glyph-name="dotlessi" unicode="&#x131;" horiz-adv-x="454" 
d="M434 0h-414v1198h414v-1198z" />
    <glyph glyph-name="IJ" unicode="&#x132;" horiz-adv-x="958" 
d="M471 0v377h14q26 0 31.5 6.5t5.5 40.5v1057h416v-1055q0 -103 -4 -167.5t-19.5 -115.5t-35.5 -76.5t-62 -42t-89 -20.5t-126 -4h-131zM23 0v1475h415v-1475h-415z" />
    <glyph glyph-name="ij" unicode="&#x133;" horiz-adv-x="913" 
d="M227 1169q-124 0 -168.5 36.5t-44.5 144.5q0 104 46 140t167 36q119 0 165 -36.5t46 -139.5q0 -104 -47 -142.5t-164 -38.5zM682 1169q-122 0 -165.5 36t-43.5 145q0 104 45 140t164 36q121 0 166 -36t45 -140t-47 -142.5t-164 -38.5zM23 0v1186q31 -25 74.5 -36
t129.5 -11q85 0 130 12t77 37v-1188h-411zM23 -393v354h409q25 0 34 7t9 32v1186q35 -25 78 -36t129 -11q85 0 130.5 11.5t80.5 37.5v-1231q0 -109 -16.5 -174t-62 -106t-117 -55.5t-189.5 -14.5h-485z" />
    <glyph glyph-name="Jcircumflex" unicode="&#x134;" horiz-adv-x="909" 
d="M451 -23q-117 0 -196 20.5t-135 71t-81 135.5t-25 214v362h416v-385q0 -33 4.5 -43t18.5 -10q13 0 16.5 15t3.5 73v1045h418v-1037q0 -250 -103 -355.5t-337 -105.5zM719 1499l-35 98l-41 -98h-244l168 326h238l166 -326h-252z" />
    <glyph glyph-name="jcircumflex" unicode="&#x135;" horiz-adv-x="454" 
d="M-131 -408v369h106q28 0 36.5 9t8.5 40v1188h414v-1270q0 -186 -77.5 -261t-266.5 -75h-221zM266 1223l-35 98l-41 -98h-243l168 325h237l166 -325h-252z" />
    <glyph glyph-name="uni0136" unicode="&#x136;" horiz-adv-x="950" 
d="M442 410l-16 168l-4 -35v-543h-399v1475h399v-273l-37 -303l64 277l90 299h430l-211 -629l219 -846h-445zM285 -440v104q118 0 172 10.5t67 44.5q-35 -6 -69 -6q-113 0 -151 23.5t-38 107.5q0 83 43.5 110.5t171.5 27.5q67 0 105 -6.5t65 -26.5t37 -55.5t10 -96.5
q0 -140 -92.5 -188.5t-320.5 -48.5z" />
    <glyph glyph-name="uni0137" unicode="&#x137;" horiz-adv-x="899" 
d="M424 338l-12 184l-2 -16v-506h-390v1573h390v-592l-27 -264l51 254l72 227h395l-182 -522l186 -676h-401zM262 -444v104q118 0 172.5 10.5t67.5 44.5q-35 -6 -70 -6q-113 0 -150.5 23.5t-37.5 107.5q0 83 43.5 110t171.5 27q67 0 105 -6t65 -26t37 -55.5t10 -96.5
q0 -140 -93 -188.5t-321 -48.5z" />
    <glyph glyph-name="kgreenlandic" unicode="&#x138;" horiz-adv-x="897" 
d="M422 338l-12 184l-2 -16v-506h-390v1198h392v-217l-27 -264l51 254l72 227h393l-182 -522l186 -676h-401z" />
    <glyph glyph-name="Lacute" unicode="&#x139;" horiz-adv-x="669" 
d="M655 0h-635v1475h418v-1063h217v-412zM80 1499l143 307h355l-226 -307h-272z" />
    <glyph glyph-name="lacute" unicode="&#x13a;" horiz-adv-x="452" 
d="M432 0h-412v1573h412v-1573zM74 1597l143 308h354l-225 -308h-272z" />
    <glyph glyph-name="uni013B" unicode="&#x13b;" horiz-adv-x="669" 
d="M655 0h-635v1475h418v-1063h217v-412zM162 -444v104q118 0 172 10.5t67 44.5q-34 -6 -69 -6q-113 0 -151 23.5t-38 107.5q0 83 43.5 110t171.5 27q67 0 105 -6t65 -26t37 -55.5t10 -96.5q0 -140 -92.5 -188.5t-320.5 -48.5z" />
    <glyph glyph-name="uni013C" unicode="&#x13c;" horiz-adv-x="452" 
d="M432 0h-412v1573h412v-1573zM37 -444v104q118 0 172 10.5t67 44.5q-34 -6 -69 -6q-113 0 -151 23.5t-38 107.5q0 83 43.5 110t171.5 27q67 0 105 -6t65.5 -26t37.5 -55.5t10 -96.5q0 -140 -93 -188.5t-321 -48.5z" />
    <glyph glyph-name="Lcaron" unicode="&#x13d;" horiz-adv-x="669" 
d="M655 0h-635v1475h418v-1063h217v-412zM440 1135l62 340h188l-145 -340h-105z" />
    <glyph glyph-name="lcaron" unicode="&#x13e;" horiz-adv-x="452" 
d="M432 0h-412v1573h412v-1573zM434 1233l62 340h188l-145 -340h-105z" />
    <glyph glyph-name="Ldot" unicode="&#x13f;" horiz-adv-x="884" 
d="M872 0h-852v1475h418v-1063h434v-412zM664 598q-67 0 -102.5 6t-60.5 28t-32.5 60t-7.5 107q0 67 9 106t34 61t60.5 28.5t99.5 6.5t99.5 -6.5t62 -28.5t35.5 -61t9 -106q0 -66 -9 -105t-34.5 -61t-62 -28.5t-100.5 -6.5z" />
    <glyph glyph-name="ldot" unicode="&#x140;" horiz-adv-x="579" 
d="M432 0h-412v1573h412v-1573zM508 266q-21 0 -32 10t-19 46t-10.5 101t-2.5 181q0 114 3 181.5t11 105t19 49.5t31 12t31 -11.5t19 -50t10.5 -105t2.5 -181.5q0 -113 -2.5 -178t-10.5 -101.5t-19 -47.5t-31 -11z" />
    <glyph glyph-name="Lslash" unicode="&#x141;" horiz-adv-x="675" 
d="M662 0h-635v545l-27 -6v292l27 7v637h417v-525l82 23v-295l-82 -23v-243h218v-412z" />
    <glyph glyph-name="lslash" unicode="&#x142;" horiz-adv-x="458" 
d="M428 0h-399v416l-29 -6v348l29 6v809h399v-727l31 6v-346l-31 -6v-500z" />
    <glyph glyph-name="Nacute" unicode="&#x143;" horiz-adv-x="980" 
d="M412 332v-332h-392v1475h474l178 -998l-92 709v289h381v-1475h-455l-178 975zM330 1499l143 307h354l-225 -307h-272z" />
    <glyph glyph-name="nacute" unicode="&#x144;" horiz-adv-x="886" 
d="M424 807v-807h-404v1198h330l45 -162q44 176 234 176q120 0 178.5 -80t58.5 -251v-881h-399v807q0 44 -3.5 54.5t-17.5 10.5t-18 -11t-4 -54zM307 1221l144 307h354l-225 -307h-273z" />
    <glyph glyph-name="uni0145" unicode="&#x145;" horiz-adv-x="980" 
d="M412 332v-332h-392v1475h474l178 -998l-92 709v289h381v-1475h-455l-178 975zM307 -442v104q118 0 172.5 10.5t67.5 44.5q-35 -6 -70 -6q-113 0 -150.5 23.5t-37.5 107.5q0 83 43.5 110.5t171.5 27.5q67 0 105 -6.5t65 -26.5t37 -55.5t10 -96.5q0 -140 -93 -188.5
t-321 -48.5z" />
    <glyph glyph-name="uni0146" unicode="&#x146;" horiz-adv-x="886" 
d="M424 807v-807h-404v1198h330l45 -162q44 176 234 176q120 0 178.5 -80t58.5 -251v-881h-399v807q0 44 -3.5 54.5t-17.5 10.5t-18 -11t-4 -54zM250 -440v104q118 0 172 10.5t67 44.5q-35 -6 -69 -6q-113 0 -151 23.5t-38 107.5q0 83 43.5 110.5t171.5 27.5q67 0 105 -6.5
t65.5 -26.5t37.5 -55.5t10 -96.5q0 -140 -93 -188.5t-321 -48.5z" />
    <glyph glyph-name="Ncaron" unicode="&#x147;" horiz-adv-x="980" 
d="M412 332v-332h-392v1475h474l178 -998l-92 709v289h381v-1475h-455l-178 975zM594 1499h-238l-168 326h256l35 -101l41 101h246z" />
    <glyph glyph-name="ncaron" unicode="&#x148;" horiz-adv-x="886" 
d="M424 807v-807h-404v1198h330l45 -162q44 176 234 176q120 0 178.5 -80t58.5 -251v-881h-399v807q0 44 -3.5 54.5t-17.5 10.5t-18 -11t-4 -54zM571 1221h-237l-168 325h256l35 -100l41 100h245z" />
    <glyph glyph-name="Eng" unicode="&#x14a;" horiz-adv-x="968" 
d="M604 -410h-221v371h129q22 0 31 6l-209 938l57 -504v-401h-371v1475h443l196 -932l-75 594v338h364v-1547q0 -188 -77.5 -263t-266.5 -75z" />
    <glyph glyph-name="eng" unicode="&#x14b;" horiz-adv-x="882" 
d="M535 -408h-193v369h78q28 0 36.5 9t8.5 40v797q0 44 -3.5 54.5t-17.5 10.5t-17 -10.5t-3 -54.5v-807h-404v1198h330l45 -162q44 176 234 176q120 0 177.5 -79.5t57.5 -251.5v-953q0 -189 -71.5 -262.5t-257.5 -73.5z" />
    <glyph glyph-name="Omacron" unicode="&#x14c;" horiz-adv-x="897" 
d="M449 -23q-211 0 -322 102.5t-111 330.5v659q0 432 433 432q202 0 317 -105.5t115 -326.5v-659q0 -226 -114.5 -329.5t-317.5 -103.5zM449 344q17 0 19.5 11t2.5 69v645q0 58 -2.5 69t-19.5 11t-20 -11.5t-3 -68.5v-645q0 -57 3 -68.5t20 -11.5zM238 1526v266h413v-266
h-413z" />
    <glyph glyph-name="omacron" unicode="&#x14d;" horiz-adv-x="864" 
d="M432 -25q-216 0 -316 96.5t-100 311.5v418q0 413 416 413q209 0 312.5 -100.5t103.5 -312.5v-418q0 -216 -99 -312t-317 -96zM432 313q13 0 18 10.5t5 47.5v458q0 39 -5 49.5t-18 10.5t-17.5 -10.5t-4.5 -49.5v-458q0 -38 4.5 -48t17.5 -10zM225 1237v266h414v-266h-414z
" />
    <glyph glyph-name="Obreve" unicode="&#x14e;" horiz-adv-x="897" 
d="M449 -23q-211 0 -322 102.5t-111 330.5v659q0 432 433 432q202 0 317 -105.5t115 -326.5v-659q0 -226 -114.5 -329.5t-317.5 -103.5zM449 344q17 0 19.5 11t2.5 69v645q0 58 -2.5 69t-19.5 11t-20 -11.5t-3 -68.5v-645q0 -57 3 -68.5t20 -11.5zM446 1524
q-148 0 -211 68.5t-63 230.5h240q0 -50 4.5 -60t29.5 -10q22 0 27.5 11.5t5.5 58.5h240q0 -163 -64 -231t-209 -68z" />
    <glyph glyph-name="obreve" unicode="&#x14f;" horiz-adv-x="864" 
d="M432 -25q-216 0 -316 96.5t-100 311.5v418q0 413 416 413q209 0 312.5 -100.5t103.5 -312.5v-418q0 -216 -99 -312t-317 -96zM432 313q13 0 18 10.5t5 47.5v458q0 39 -5 49.5t-18 10.5t-17.5 -10.5t-4.5 -49.5v-458q0 -38 4.5 -48t17.5 -10zM434 1235q-148 0 -211 68.5
t-63 230.5h239q0 -50 5 -60t30 -10q22 0 27.5 11.5t5.5 58.5h240q0 -163 -64 -231t-209 -68z" />
    <glyph glyph-name="Ohungarumlaut" unicode="&#x150;" horiz-adv-x="897" 
d="M449 -23q-211 0 -322 102.5t-111 330.5v659q0 432 433 432q202 0 317 -105.5t115 -326.5v-659q0 -226 -114.5 -329.5t-317.5 -103.5zM449 344q17 0 19.5 11t2.5 69v645q0 58 -2.5 69t-19.5 11t-20 -11.5t-3 -68.5v-645q0 -57 3 -68.5t20 -11.5zM471 1522l72 307h276
l-155 -307h-193zM213 1522l35 307h264l-113 -307h-186z" />
    <glyph glyph-name="ohungarumlaut" unicode="&#x151;" horiz-adv-x="864" 
d="M432 -25q-216 0 -316 96.5t-100 311.5v418q0 413 416 413q209 0 312.5 -100.5t103.5 -312.5v-418q0 -216 -99 -312t-317 -96zM432 313q13 0 18 10.5t5 47.5v458q0 39 -5 49.5t-18 10.5t-17.5 -10.5t-4.5 -49.5v-458q0 -38 4.5 -48t17.5 -10zM459 1231l71 307h277
l-156 -307h-192zM201 1231l35 307h264l-113 -307h-186z" />
    <glyph glyph-name="OE" unicode="&#x152;" horiz-adv-x="1179" 
d="M457 344q17 0 19.5 11t2.5 69v645q0 58 -2.5 69t-19.5 11t-20 -11.5t-3 -68.5v-645q0 -57 3 -68.5t20 -11.5zM473 0v94q-22 -58 -65 -86t-117 -28q-159 0 -217 101t-58 341v641q0 233 61.5 335.5t207.5 102.5q80 0 123.5 -25.5t64.5 -89.5v89h690v-385h-293v-150h293
v-387h-293v-158h293v-395h-690z" />
    <glyph glyph-name="oe" unicode="&#x153;" horiz-adv-x="1288" 
d="M1272 385q0 -97 -17 -168t-57 -127.5t-113.5 -85.5t-179.5 -29q-175 0 -252 68q-82 -68 -245 -68q-213 0 -303.5 95t-90.5 313v418q0 213 97 313t297 100q170 0 256 -77q86 77 235 77q194 0 283.5 -100t89.5 -311v-299h-438v-119q0 -57 4 -69.5t20 -12.5t18.5 17t2.5 94
v47h393v-76zM834 807v-86h51v98q0 53 -4 65.5t-21 12.5q-18 0 -22 -15t-4 -75zM428 313q13 0 18 10.5t5 47.5v458q0 39 -5 49.5t-18 10.5t-17.5 -10.5t-4.5 -49.5v-458q0 -38 4.5 -48t17.5 -10z" />
    <glyph glyph-name="Racute" unicode="&#x154;" horiz-adv-x="864" 
d="M422 1143h-4v-314q27 1 36 13t9 39v213q0 29 -8 39t-33 10zM461 438q0 37 -9.5 49.5t-33.5 14.5v-502h-398v1475h437q86 0 146 -9t109.5 -32t78 -63.5t44 -102t15.5 -148.5v-200q0 -112 -26.5 -168t-94.5 -80q70 -22 93.5 -72t23.5 -156v-331q0 -53 5 -74.5t23 -38.5
h-387q-26 11 -26 111v327zM303 1499l143 307h355l-226 -307h-272z" />
    <glyph glyph-name="racute" unicode="&#x155;" horiz-adv-x="604" 
d="M408 0h-388v1198h287l39 -280v18q0 93 7 144t31.5 82t60.5 39.5t104 8.5h39v-557h-82q-66 0 -82 -15.5t-16 -80.5v-557zM203 1227l143 307h354l-225 -307h-272z" />
    <glyph glyph-name="uni0156" unicode="&#x156;" horiz-adv-x="864" 
d="M422 1143h-4v-314q27 1 36 13t9 39v213q0 29 -8 39t-33 10zM461 438q0 37 -9.5 49.5t-33.5 14.5v-502h-398v1475h437q86 0 146 -9t109.5 -32t78 -63.5t44 -102t15.5 -148.5v-200q0 -112 -26.5 -168t-94.5 -80q70 -22 93.5 -72t23.5 -156v-331q0 -53 5 -74.5t23 -38.5
h-387q-26 11 -26 111v327zM260 -444v104q118 0 172.5 10.5t67.5 44.5q-34 -6 -70 -6q-113 0 -150.5 23.5t-37.5 107.5q0 83 43.5 110t171.5 27q67 0 105 -6t65 -26t37 -55.5t10 -96.5q0 -140 -93 -188.5t-321 -48.5z" />
    <glyph glyph-name="uni0157" unicode="&#x157;" horiz-adv-x="604" 
d="M408 0h-388v1198h287l39 -280v18q0 93 7 144t31.5 82t60.5 39.5t104 8.5h39v-557h-82q-66 0 -82 -15.5t-16 -80.5v-557zM20 -444v104q118 0 172.5 10.5t67.5 44.5q-35 -6 -70 -6q-113 0 -150.5 23.5t-37.5 107.5q0 83 43.5 110t171.5 27q67 0 105 -6t65 -26t37 -55.5
t10 -96.5q0 -140 -93 -188.5t-321 -48.5z" />
    <glyph glyph-name="Rcaron" unicode="&#x158;" horiz-adv-x="864" 
d="M422 1143h-4v-314q27 1 36 13t9 39v213q0 29 -8 39t-33 10zM461 438q0 37 -9.5 49.5t-33.5 14.5v-502h-398v1475h437q86 0 146 -9t109.5 -32t78 -63.5t44 -102t15.5 -148.5v-200q0 -112 -26.5 -168t-94.5 -80q70 -22 93.5 -72t23.5 -156v-331q0 -53 5 -74.5t23 -38.5
h-387q-26 11 -26 111v327zM567 1499h-237l-168 326h256l35 -101l41 101h245z" />
    <glyph glyph-name="rcaron" unicode="&#x159;" horiz-adv-x="604" 
d="M408 0h-388v1198h287l39 -280v18q0 93 7 144t31.5 82t60.5 39.5t104 8.5h39v-557h-82q-66 0 -82 -15.5t-16 -80.5v-557zM467 1227h-238l-168 325h256l35 -100l41 100h246z" />
    <glyph glyph-name="Sacute" unicode="&#x15a;" horiz-adv-x="884" 
d="M434 -27q-227 0 -326.5 90.5t-99.5 288.5v197h414v-184q0 -26 4.5 -34.5t15.5 -8.5q12 0 17.5 9t5.5 40v84q0 35 -2.5 50t-22.5 37.5t-51.5 41t-103.5 57.5q-71 40 -113 69.5t-76 62t-50 69t-24 81.5t-8 109v88q0 383 437 383q200 0 307.5 -87.5t107.5 -264.5v-178h-399
v151q0 37 -3.5 46.5t-17.5 9.5q-12 0 -16 -8.5t-4 -41.5v-94q0 -22 2.5 -32t20.5 -27t47 -34t92 -52q118 -65 176 -115t83 -110.5t25 -155.5v-158q0 -198 -104.5 -288.5t-333.5 -90.5zM301 1528l143 307h355l-226 -307h-272z" />
    <glyph glyph-name="sacute" unicode="&#x15b;" horiz-adv-x="858" 
d="M430 -27q-160 0 -255 40.5t-133 114t-38 189.5v115h399v-86q0 -45 29 -45q19 0 26 9.5t7 39.5q0 45 -27 67t-147 77q-108 51 -167 98t-86.5 109.5t-27.5 154.5v10q0 173 105 263t309 90q118 0 202.5 -24.5t132.5 -70.5t69.5 -105.5t21.5 -137.5v-78h-385v51q0 40 -6 54
t-25 14q-17 0 -24 -10t-7 -35v-9q0 -30 26.5 -50t127.5 -66q166 -74 229.5 -156.5t63.5 -226.5v-11q0 -91 -20.5 -159t-67.5 -120.5t-130 -79t-202 -26.5zM289 1243l143 307h354l-225 -307h-272z" />
    <glyph glyph-name="Scircumflex" unicode="&#x15c;" horiz-adv-x="884" 
d="M434 -27q-227 0 -326.5 90.5t-99.5 288.5v197h414v-184q0 -26 4.5 -34.5t15.5 -8.5q12 0 17.5 9t5.5 40v84q0 35 -2.5 50t-22.5 37.5t-51.5 41t-103.5 57.5q-71 40 -113 69.5t-76 62t-50 69t-24 81.5t-8 109v88q0 383 437 383q200 0 307.5 -87.5t107.5 -264.5v-178h-399
v151q0 37 -3.5 46.5t-17.5 9.5q-12 0 -16 -8.5t-4 -41.5v-94q0 -22 2.5 -32t20.5 -27t47 -34t92 -52q118 -65 176 -115t83 -110.5t25 -155.5v-158q0 -198 -104.5 -288.5t-333.5 -90.5zM487 1524l-34 98l-41 -98h-244l168 325h237l166 -325h-252z" />
    <glyph glyph-name="scircumflex" unicode="&#x15d;" horiz-adv-x="858" 
d="M430 -27q-160 0 -255 40.5t-133 114t-38 189.5v115h399v-86q0 -45 29 -45q19 0 26 9.5t7 39.5q0 45 -27 67t-147 77q-108 51 -167 98t-86.5 109.5t-27.5 154.5v10q0 173 105 263t309 90q118 0 202.5 -24.5t132.5 -70.5t69.5 -105.5t21.5 -137.5v-78h-385v51q0 40 -6 54
t-25 14q-17 0 -24 -10t-7 -35v-9q0 -30 26.5 -50t127.5 -66q166 -74 229.5 -156.5t63.5 -226.5v-11q0 -91 -20.5 -159t-67.5 -120.5t-130 -79t-202 -26.5zM475 1241l-35 98l-41 -98h-243l168 326h237l166 -326h-252z" />
    <glyph glyph-name="uni015E" unicode="&#x15e;" horiz-adv-x="884" 
d="M432 -465q-294 0 -328 246h281q14 -41 55 -41q45 0 45 31q0 30 -41 30h-133v181q-160 21 -231.5 111t-71.5 259v197h414v-184q0 -26 4.5 -34.5t15.5 -8.5q12 0 17.5 9t5.5 40v84q0 35 -2.5 50t-22.5 37.5t-51.5 41t-103.5 57.5q-71 40 -113 69.5t-76 62t-50 69t-24 81.5
t-8 109v88q0 383 437 383q200 0 307.5 -87.5t107.5 -264.5v-178h-399v151q0 37 -3.5 46.5t-17.5 9.5q-12 0 -16 -8.5t-4 -41.5v-94q0 -22 2.5 -32t20.5 -27t47 -34t92 -52q118 -65 176 -115t83 -110.5t25 -155.5v-158q0 -174 -79 -263.5t-250 -108.5v-29q100 -8 148 -49.5
t48 -141.5q0 -105 -82 -165t-225 -60z" />
    <glyph glyph-name="uni015F" unicode="&#x15f;" horiz-adv-x="858" 
d="M432 -471q-294 0 -328 246h281q14 -41 55 -41q45 0 45 30q0 31 -41 31h-133v185q-167 21 -237 103.5t-70 233.5v115h399v-86q0 -45 29 -45q19 0 26 9.5t7 39.5q0 45 -27 67t-147 77q-108 51 -167 98t-86.5 109.5t-27.5 154.5v10q0 173 105 263t309 90q118 0 202.5 -24.5
t132.5 -70.5t69.5 -105.5t21.5 -137.5v-78h-385v51q0 40 -6 54t-25 14q-17 0 -24 -10t-7 -35v-9q0 -30 26.5 -50t127.5 -66q166 -74 229.5 -156.5t63.5 -226.5v-11q0 -164 -70 -259t-237 -117v-37q100 -8 148 -49.5t48 -141.5q0 -105 -82 -165t-225 -60z" />
    <glyph glyph-name="Scaron" unicode="&#x160;" horiz-adv-x="884" 
d="M434 -27q-227 0 -326.5 90.5t-99.5 288.5v197h414v-184q0 -26 4.5 -34.5t15.5 -8.5q12 0 17.5 9t5.5 40v84q0 35 -2.5 50t-22.5 37.5t-51.5 41t-103.5 57.5q-71 40 -113 69.5t-76 62t-50 69t-24 81.5t-8 109v88q0 383 437 383q200 0 307.5 -87.5t107.5 -264.5v-178h-399
v151q0 37 -3.5 46.5t-17.5 9.5q-12 0 -16 -8.5t-4 -41.5v-94q0 -22 2.5 -32t20.5 -27t47 -34t92 -52q118 -65 176 -115t83 -110.5t25 -155.5v-158q0 -198 -104.5 -288.5t-333.5 -90.5zM565 1528h-237l-168 325h256l35 -100l41 100h245z" />
    <glyph glyph-name="scaron" unicode="&#x161;" horiz-adv-x="858" 
d="M430 -27q-160 0 -255 40.5t-133 114t-38 189.5v115h399v-86q0 -45 29 -45q19 0 26 9.5t7 39.5q0 45 -27 67t-147 77q-108 51 -167 98t-86.5 109.5t-27.5 154.5v10q0 173 105 263t309 90q118 0 202.5 -24.5t132.5 -70.5t69.5 -105.5t21.5 -137.5v-78h-385v51q0 40 -6 54
t-25 14q-17 0 -24 -10t-7 -35v-9q0 -30 26.5 -50t127.5 -66q166 -74 229.5 -156.5t63.5 -226.5v-11q0 -91 -20.5 -159t-67.5 -120.5t-130 -79t-202 -26.5zM553 1243h-238l-168 326h256l35 -101l41 101h246z" />
    <glyph glyph-name="uni0162" unicode="&#x162;" horiz-adv-x="745" 
d="M733 1092h-153v-1092h-414v1092h-154v383h721v-383zM174 -444v104q118 0 172.5 10.5t67.5 44.5q-34 -6 -70 -6q-113 0 -150.5 23.5t-37.5 107.5q0 83 43.5 110t171.5 27q67 0 105 -6t65 -26t37 -55.5t10 -96.5q0 -140 -93 -188.5t-321 -48.5z" />
    <glyph glyph-name="uni0163" unicode="&#x163;" horiz-adv-x="598" 
d="M586 383v-383h-146q-104 0 -168.5 15t-106.5 54t-58.5 102t-16.5 165v463h-82v389q53 0 74 8q29 10 39 47q12 44 12 166h350v-211h103v-399h-103v-330q0 -57 13.5 -71.5t68.5 -14.5h21zM123 -444v104q118 0 172 10.5t67 44.5q-34 -6 -69 -6q-113 0 -151 23.5t-38 107.5
q0 83 43.5 110t171.5 27q67 0 105 -6t65.5 -26t37.5 -55.5t10 -96.5q0 -140 -93 -188.5t-321 -48.5z" />
    <glyph glyph-name="Tcaron" unicode="&#x164;" horiz-adv-x="745" 
d="M733 1092h-153v-1092h-414v1092h-154v383h721v-383zM500 1499h-238l-168 326h256l35 -101l41 101h246z" />
    <glyph glyph-name="tcaron" unicode="&#x165;" horiz-adv-x="598" 
d="M586 383v-383h-146q-104 0 -168.5 15t-106.5 54t-58.5 102t-16.5 165v463h-82v389q53 0 74 8q29 10 39 47q12 44 12 166h350v-211h103v-399h-103v-330q0 -57 13.5 -71.5t68.5 -14.5h21zM502 1397l61 340h189l-146 -340h-104z" />
    <glyph glyph-name="Tbar" unicode="&#x166;" horiz-adv-x="745" 
d="M684 494h-104v-494h-414v494h-109v368h109v230h-154v383h721v-383h-153v-230h104v-368z" />
    <glyph glyph-name="tbar" unicode="&#x167;" horiz-adv-x="618" 
d="M608 377v-377h-147q-205 0 -286 73t-81 269v158h-71v196h71v107h-90v379q41 0 70 10q29 9 44 25t27 51q15 48 15 141h340v-211h108v-395h-108v-107h84v-196h-84v-29q0 -63 16.5 -78.5t69.5 -15.5h22z" />
    <glyph glyph-name="Utilde" unicode="&#x168;" 
d="M444 -23q-229 0 -327.5 106.5t-98.5 332.5v1059h406v-1035q0 -53 3 -64t17 -11t17.5 11t3.5 64v1035h407v-1059q0 -225 -103.5 -332t-324.5 -107zM121 1499q-1 143 17 220t57 108t112 31q42 0 83.5 -15.5t73 -31t50.5 -15.5q39 0 39 53h221q0 -145 -19.5 -223t-58 -105.5
t-108.5 -27.5q-53 0 -121 35t-92 35q-23 0 -31 -15.5t-8 -48.5h-215z" />
    <glyph glyph-name="utilde" unicode="&#x169;" horiz-adv-x="874" 
d="M530 0l-43 158q-19 -91 -69 -133.5t-142 -42.5q-138 0 -198 79t-60 261v876h400v-809q0 -39 3 -50t15 -11q14 0 18.5 13.5t4.5 51.5v805h395v-1198h-324zM113 1223q-1 143 17 219.5t57 107.5t112 31q42 0 83.5 -15.5t73 -30.5t50.5 -15q39 0 39 53h221q0 -145 -19.5 -223
t-58 -105.5t-108.5 -27.5q-53 0 -121 34.5t-92 34.5q-23 0 -31 -15.5t-8 -47.5h-215z" />
    <glyph glyph-name="Umacron" unicode="&#x16a;" 
d="M444 -23q-229 0 -327.5 106.5t-98.5 332.5v1059h406v-1035q0 -53 3 -64t17 -11t17.5 11t3.5 64v1035h407v-1059q0 -225 -103.5 -332t-324.5 -107zM238 1499v266h413v-266h-413z" />
    <glyph glyph-name="umacron" unicode="&#x16b;" horiz-adv-x="874" 
d="M530 0l-43 158q-19 -91 -69 -133.5t-142 -42.5q-138 0 -198 79t-60 261v876h400v-809q0 -39 3 -50t15 -11q14 0 18.5 13.5t4.5 51.5v805h395v-1198h-324zM229 1223v266h414v-266h-414z" />
    <glyph glyph-name="Ubreve" unicode="&#x16c;" 
d="M444 -23q-229 0 -327.5 106.5t-98.5 332.5v1059h406v-1035q0 -53 3 -64t17 -11t17.5 11t3.5 64v1035h407v-1059q0 -225 -103.5 -332t-324.5 -107zM446 1497q-148 0 -211 68.5t-63 230.5h240q0 -50 4.5 -60t29.5 -10q22 0 27.5 11.5t5.5 58.5h240q0 -163 -64 -231
t-209 -68z" />
    <glyph glyph-name="ubreve" unicode="&#x16d;" horiz-adv-x="874" 
d="M530 0l-43 158q-19 -91 -69 -133.5t-142 -42.5q-138 0 -198 79t-60 261v876h400v-809q0 -39 3 -50t15 -11q14 0 18.5 13.5t4.5 51.5v805h395v-1198h-324zM438 1221q-148 0 -211 68.5t-63 230.5h239q0 -50 5 -60t30 -10q22 0 27.5 11.5t5.5 58.5h240q0 -163 -64 -231
t-209 -68z" />
    <glyph glyph-name="Uring" unicode="&#x16e;" 
d="M444 -23q-229 0 -327.5 106.5t-98.5 332.5v1059h406v-1035q0 -53 3 -64t17 -11t17.5 11t3.5 64v1035h407v-1059q0 -225 -103.5 -332t-324.5 -107zM446 1497q-120 0 -189 56.5t-69 160.5q0 113 72.5 172.5t185.5 59.5q117 0 188 -61t71 -167q0 -104 -67.5 -162.5
t-191.5 -58.5zM449 1694q32 0 32 26q0 29 -32 29q-33 0 -33 -29q0 -26 33 -26z" />
    <glyph glyph-name="uring" unicode="&#x16f;" horiz-adv-x="874" 
d="M530 0l-43 158q-19 -91 -69 -133.5t-142 -42.5q-138 0 -198 79t-60 261v876h400v-809q0 -39 3 -50t15 -11q14 0 18.5 13.5t4.5 51.5v805h395v-1198h-324zM438 1221q-120 0 -189 56.5t-69 160.5q0 113 72 172t186 59q117 0 187.5 -60.5t70.5 -166.5q0 -104 -67.5 -162.5
t-190.5 -58.5zM440 1417q33 0 33 27q0 29 -33 29q-32 0 -32 -29q0 -13 6.5 -20t25.5 -7z" />
    <glyph glyph-name="Uhungarumlaut" unicode="&#x170;" 
d="M444 -23q-229 0 -327.5 106.5t-98.5 332.5v1059h406v-1035q0 -53 3 -64t17 -11t17.5 11t3.5 64v1035h407v-1059q0 -225 -103.5 -332t-324.5 -107zM471 1499l72 307h276l-155 -307h-193zM213 1499l35 307h264l-113 -307h-186z" />
    <glyph glyph-name="uhungarumlaut" unicode="&#x171;" horiz-adv-x="874" 
d="M530 0l-43 158q-19 -91 -69 -133.5t-142 -42.5q-138 0 -198 79t-60 261v876h400v-809q0 -39 3 -50t15 -11q14 0 18.5 13.5t4.5 51.5v805h395v-1198h-324zM463 1223l72 307h276l-156 -307h-192zM205 1223l35 307h264l-113 -307h-186z" />
    <glyph glyph-name="Uogonek" unicode="&#x172;" 
d="M492 -403q-277 0 -277 227q0 94 68 170q-140 35 -202.5 138t-62.5 284v1059h406v-1035q0 -53 3 -64t17 -11t17.5 11t3.5 64v1035h407v-1059q0 -312 -200 -398q-85 -63 -129 -103t-50 -50.5t-6 -20.5q0 -20 17 -20q30 0 28 65h289q-29 -292 -329 -292z" />
    <glyph glyph-name="uogonek" unicode="&#x173;" horiz-adv-x="874" 
d="M983 -143q-29 -293 -330 -293q-276 0 -276 227q0 65 31 121t114 121l-35 125q-19 -91 -69 -133.5t-142 -42.5q-138 0 -198 79t-60 261v876h400v-809q0 -39 3 -50t15 -11q14 0 18.5 13.5t4.5 51.5v805h395v-1198q-94 -69 -143 -112t-55.5 -54.5t-6.5 -21.5q0 -21 17 -21
q30 0 28 66h289z" />
    <glyph glyph-name="Wcircumflex" unicode="&#x174;" horiz-adv-x="1384" 
d="M682 547l-49 -547h-527l-124 1475h421l21 -535l-2 -616l22 618l48 533h403l45 -533l27 -618l-6 616l30 535h412l-133 -1475h-520l-45 547l-11 475zM727 1499l-35 98l-41 -98h-243l167 326h238l166 -326h-252z" />
    <glyph glyph-name="wcircumflex" unicode="&#x175;" horiz-adv-x="1277" 
d="M631 371l-35 -371h-492l-129 1198h402l24 -496l-4 -370l23 362l45 504h371l34 -500l17 -360l2 362l37 498h377l-136 -1198h-465l-51 371l-6 360zM688 1223l-35 98l-41 -98h-243l168 325h237l166 -325h-252z" />
    <glyph glyph-name="Ycircumflex" unicode="&#x176;" horiz-adv-x="870" 
d="M641 0h-416v399l-260 1076h408l49 -306l14 -317l8 317l56 306h403l-262 -1035v-440zM473 1499l-35 98l-41 -98h-243l168 326h237l166 -326h-252z" />
    <glyph glyph-name="ycircumflex" unicode="&#x177;" horiz-adv-x="868" 
d="M199 -399h-146v366h84q51 0 65.5 10.5t20.5 53.5l-248 1167h414l39 -291l10 -501l19 499l37 293h399l-223 -1194q-18 -94 -37 -158t-48 -110.5t-59.5 -72t-82.5 -40t-105 -18.5t-139 -4zM481 1225l-35 98l-40 -98h-244l168 325h237l166 -325h-252z" />
    <glyph glyph-name="Ydieresis" unicode="&#x178;" horiz-adv-x="870" 
d="M641 0h-416v399l-260 1076h408l49 -306l14 -317l8 317l56 306h403l-262 -1035v-440zM272 1497q-87 0 -114 29t-27 119q0 94 30.5 128.5t110.5 34.5q85 0 116.5 -34t31.5 -129q0 -86 -31 -117t-117 -31zM592 1497q-88 0 -114.5 28.5t-26.5 119.5q0 96 28.5 129.5
t112.5 33.5q83 0 115 -34.5t32 -128.5q0 -86 -31 -117t-116 -31z" />
    <glyph glyph-name="Zacute" unicode="&#x179;" horiz-adv-x="710" 
d="M694 0h-680v356l250 734h-248v385h678v-363l-248 -729h248v-383zM203 1499l143 307h354l-225 -307h-272z" />
    <glyph glyph-name="zacute" unicode="&#x17a;" horiz-adv-x="663" 
d="M651 0h-639v313l217 543h-217v342h639v-319l-207 -519h207v-360zM162 1223l143 307h354l-225 -307h-272z" />
    <glyph glyph-name="Zdotaccent" unicode="&#x17b;" horiz-adv-x="710" 
d="M694 0h-680v356l250 734h-248v385h678v-363l-248 -729h248v-383zM362 1497q-62 0 -94 5.5t-54.5 25.5t-29 54t-6.5 97q0 62 8 98t31 56t55.5 26.5t89.5 6.5q58 0 90.5 -6.5t56.5 -26.5t33 -56.5t9 -97.5q0 -60 -8.5 -95t-32.5 -55t-57 -26t-91 -6z" />
    <glyph glyph-name="zdotaccent" unicode="&#x17c;" horiz-adv-x="663" 
d="M651 0h-639v313l217 543h-217v342h639v-319l-207 -519h207v-360zM332 1221q-41 0 -67 2t-48.5 9t-34.5 19t-20.5 33t-11.5 49t-3 70q0 62 8 97.5t31.5 56t55.5 26.5t90 6t90.5 -6t56.5 -26t32.5 -56.5t8.5 -97.5q0 -60 -8.5 -95t-32 -55t-56.5 -26t-91 -6z" />
    <glyph glyph-name="Zcaron" unicode="&#x17d;" horiz-adv-x="710" 
d="M694 0h-680v356l250 734h-248v385h678v-363l-248 -729h248v-383zM487 1499h-237l-168 326h256l35 -101l41 101h245z" />
    <glyph glyph-name="zcaron" unicode="&#x17e;" horiz-adv-x="663" 
d="M651 0h-639v313l217 543h-217v342h639v-319l-207 -519h207v-360zM455 1223h-238l-168 325h256l35 -100l41 100h246z" />
    <glyph glyph-name="uni0192" unicode="&#x192;" horiz-adv-x="534" 
d="M467 -55q0 -179 -87.5 -256.5t-279.5 -77.5h-90v326h23q49 0 49 49v430h-70v364h70v371q0 181 82.5 255.5t281.5 74.5h76v-336h-10q-47 0 -47 -35v-330h57v-364h-55v-471z" />
    <glyph glyph-name="Aringacute" unicode="&#x1fa;" 
d="M311 1745l144 307h354l-225 -307h-273zM444 1475q33 0 33 26q0 29 -33 29q-32 0 -32 -29q0 -13 6.5 -19.5t25.5 -6.5zM432 635l-18 -199h63l-20 199l-15 301zM381 113l-10 -113h-391l204 1475v20q0 113 72 172t186 59q117 0 187.5 -60.5t70.5 -166.5q0 -19 -4 -43
l215 -1456h-391l-10 113h-129z" />
    <glyph glyph-name="aringacute" unicode="&#x1fb;" horiz-adv-x="866" 
d="M440 272q23 0 23 37v228l-4 -5q-3 -3 -13.5 -7.5t-15.5 -8.5q-12 -10 -12 -45v-158q0 -18 0.5 -24.5t5.5 -11.5t16 -5zM512 0l-37 160q-14 -102 -68.5 -144.5t-152.5 -42.5q-121 0 -181.5 62t-60.5 205v110q0 88 18.5 140t59.5 88q27 23 69.5 43t74 30.5t101.5 30.5
q18 5 27 8q71 21 86 36.5t15 74.5v65q0 27 -4.5 35t-16.5 8q-13 0 -17.5 -9t-4.5 -38v-143h-397v139q0 188 100.5 273.5t318.5 85.5q225 0 315.5 -76.5t90.5 -272.5v-868h-336zM444 1237q-120 0 -189 56.5t-69 160.5q0 113 72.5 172.5t185.5 59.5q117 0 187.5 -61t70.5 -167
q0 -104 -67.5 -162.5t-190.5 -58.5zM446 1434q33 0 33 26q0 29 -33 29q-32 0 -32 -29q0 -13 6.5 -19.5t25.5 -6.5zM309 1704l144 307h354l-225 -307h-273z" />
    <glyph glyph-name="AEacute" unicode="&#x1fc;" horiz-adv-x="1191" 
d="M479 600l-26 -186h82l-23 172l-12 405zM590 0l-15 109h-167l-17 -109h-422l262 1475h945v-385h-314l19 -152h295v-383h-252l18 -160h234v-395h-586zM393 1499l144 307h354l-225 -307h-273z" />
    <glyph glyph-name="aeacute" unicode="&#x1fd;" horiz-adv-x="1286" 
d="M836 807v-86h51v98q0 53 -4 65.5t-21 12.5q-18 0 -22 -15t-4 -75zM436 272q23 0 23 37v221l-4 -4q-3 -3 -16 -7.5t-17 -8.5q-10 -10 -10 -45v-152q0 -24 4 -32.5t20 -8.5zM881 -25q-138 0 -218.5 34t-119.5 106q-66 -142 -254 -142q-145 0 -210 61t-65 206v157
q0 76 17.5 122.5t58.5 80.5q19 15 39.5 26.5t52 22.5t48.5 16t65 17t65 16q67 17 83 37t16 82v49q0 27 -5.5 37t-17.5 10q-13 0 -17.5 -10t-4.5 -41v-131h-389v127q0 166 101.5 262.5t305.5 96.5q153 0 238 -58q85 55 209 55q201 0 296 -100.5t95 -310.5v-299h-434v-119
q0 -57 4 -69.5t20 -12.5t18.5 17t2.5 94v47h389v-76q0 -95 -20.5 -167.5t-64.5 -128.5t-120.5 -85t-183.5 -29zM528 1229l144 307h354l-225 -307h-273z" />
    <glyph glyph-name="Oslashacute" unicode="&#x1fe;" horiz-adv-x="897" 
d="M500 -229h-412l72 280q-144 106 -144 359v659q0 413 398 432l35 160h405l-72 -283q99 -110 99 -309v-659q0 -378 -334 -426zM449 344q17 0 19.5 11t2.5 69v645q0 58 -2.5 69t-19.5 11t-20 -11.5t-3 -68.5v-645q0 -57 3 -68.5t20 -11.5zM342 1679l143 308h355l-226 -308
h-272z" />
    <glyph glyph-name="oslashacute" unicode="&#x1ff;" horiz-adv-x="878" 
d="M446 -217h-423l81 307q-81 97 -81 293v418q0 373 339 409l41 146h422l-67 -248q98 -101 98 -307v-418q0 -200 -86 -297t-272 -109zM440 317q23 0 23 76v406v72q-3 14 -23 14q-16 0 -19 -11t-3 -54v-21v-406q0 -76 22 -76zM340 1374l143 307h355l-226 -307h-272z" />
    <glyph glyph-name="uni0218" unicode="&#x218;" horiz-adv-x="884" 
d="M434 -27q-227 0 -326.5 90.5t-99.5 288.5v197h414v-184q0 -26 4.5 -34.5t15.5 -8.5q12 0 17.5 9t5.5 40v84q0 35 -2.5 50t-22.5 37.5t-51.5 41t-103.5 57.5q-71 40 -113 69.5t-76 62t-50 69t-24 81.5t-8 109v88q0 383 437 383q200 0 307.5 -87.5t107.5 -264.5v-178h-399
v151q0 37 -3.5 46.5t-17.5 9.5q-12 0 -16 -8.5t-4 -41.5v-94q0 -22 2.5 -32t20.5 -27t47 -34t92 -52q118 -65 176 -115t83 -110.5t25 -155.5v-158q0 -198 -104.5 -288.5t-333.5 -90.5zM246 -469v104q117 0 171.5 11t67.5 45q-35 -6 -69 -6q-113 0 -151 23.5t-38 107.5
q0 83 43.5 110t171.5 27q67 0 105 -6t65 -26t37 -55.5t10 -96.5q0 -140 -93 -189t-320 -49z" />
    <glyph glyph-name="uni0219" unicode="&#x219;" horiz-adv-x="858" 
d="M430 -27q-160 0 -255 40.5t-133 114t-38 189.5v115h399v-86q0 -45 29 -45q19 0 26 9.5t7 39.5q0 45 -27 67t-147 77q-108 51 -167 98t-86.5 109.5t-27.5 154.5v10q0 173 105 263t309 90q118 0 202.5 -24.5t132.5 -70.5t69.5 -105.5t21.5 -137.5v-78h-385v51q0 40 -6 54
t-25 14q-17 0 -24 -10t-7 -35v-9q0 -30 26.5 -50t127.5 -66q166 -74 229.5 -156.5t63.5 -226.5v-11q0 -91 -20.5 -159t-67.5 -120.5t-130 -79t-202 -26.5zM246 -471v104q117 0 171.5 11t67.5 45q-35 -6 -69 -6q-113 0 -151 23.5t-38 107.5q0 83 43.5 110t171.5 27
q67 0 105 -6t65 -26t37 -55.5t10 -96.5q0 -140 -93 -189t-320 -49z" />
    <glyph glyph-name="uni0237" unicode="&#x237;" horiz-adv-x="454" 
d="M-131 -408v369h106q28 0 36.5 9t8.5 40v1188h414v-1270q0 -186 -77.5 -261t-266.5 -75h-221z" />
    <glyph glyph-name="uni0245" unicode="&#x245;" 
d="M434 578l-53 -578h-401l204 1475h510l217 -1475h-401l-55 578l-13 266z" />
    <glyph glyph-name="circumflex" unicode="&#x2c6;" horiz-adv-x="641" 
d="M352 1262l-35 98l-41 -98h-243l168 325h237l166 -325h-252z" />
    <glyph glyph-name="caron" unicode="&#x2c7;" horiz-adv-x="641" 
d="M436 1262h-237l-168 325h256l35 -100l40 100h246z" />
    <glyph glyph-name="breve" unicode="&#x2d8;" horiz-adv-x="641" 
d="M317 1260q-148 0 -211 68.5t-63 230.5h240q0 -50 4.5 -60t29.5 -10q22 0 27.5 11.5t5.5 58.5h240q0 -163 -64 -231t-209 -68z" />
    <glyph glyph-name="dotaccent" unicode="&#x2d9;" horiz-adv-x="638" 
d="M324 1260q-41 0 -67 2t-48.5 9t-34.5 19t-20.5 33t-11.5 49t-3 70q0 62 8 97.5t31.5 56t55.5 26.5t90 6t90.5 -6t56.5 -26t32.5 -56.5t8.5 -97.5q0 -60 -8.5 -95t-32 -55t-56.5 -26t-91 -6z" />
    <glyph glyph-name="ring" unicode="&#x2da;" horiz-adv-x="641" 
d="M324 1260q-120 0 -189 56.5t-69 160.5q0 113 72 172t186 59q117 0 187.5 -60.5t70.5 -166.5q0 -104 -67.5 -162.5t-190.5 -58.5zM326 1456q32 0 32 27q0 28 -32 28q-33 0 -33 -28q0 -27 33 -27z" />
    <glyph glyph-name="ogonek" unicode="&#x2db;" horiz-adv-x="641" 
d="M299 -436q-276 0 -276 227q0 81 51.5 151.5t195.5 161.5l230 -104q-94 -69 -143 -112t-55.5 -54.5t-6.5 -21.5q0 -21 16 -21q31 0 29 66h289q-29 -293 -330 -293z" />
    <glyph glyph-name="tilde" unicode="&#x2dc;" horiz-adv-x="641" 
d="M4 1262q-1 143 17 219.5t57 107.5t112 31q42 0 83.5 -15t73 -30.5t50.5 -15.5q39 0 39 53h221q0 -146 -19.5 -223.5t-58 -105.5t-108.5 -28q-53 0 -121 35t-92 35q-23 0 -31 -15.5t-8 -47.5h-215z" />
    <glyph glyph-name="hungarumlaut" unicode="&#x2dd;" horiz-adv-x="641" 
d="M324 1262l71 307h277l-156 -307h-192zM66 1262l34 307h265l-113 -307h-186z" />
    <glyph glyph-name="uni03BC" unicode="&#x3bc;" horiz-adv-x="882" 
d="M479 -18q-27 0 -40 26t-17 103v-473h-399v1562h397v-801q0 -47 5 -53q4 -6 15 -6q13 0 17 12t4 41v807h401v-1200h-309l-27 129q-1 -66 -6 -97.5t-14 -40.5t-27 -9z" />
    <glyph glyph-name="pi" unicode="&#x3c0;" horiz-adv-x="1097" 
d="M565 313v777h-43v-1090h-383v1090h-127v385h1069v-385h-133v-676q0 -28 8.5 -37.5t34.5 -9.5h90v-367h-196q-98 0 -157 13t-97 49t-52 94.5t-14 156.5z" />
    <glyph glyph-name="uni0E3F" unicode="&#xe3f;" horiz-adv-x="1048" 
d="M664 0h-56v-131h-182v131h-406v1475h406v102h182v-102h8q198 0 303 -74t105 -211v-213q0 -151 -84 -211q96 -65 96 -211v-262q0 -141 -92.5 -217t-279.5 -76zM633 1169h-25v-254h29q18 0 18 17v213q0 24 -22 24zM381 915h45v254h-45v-254zM614 618h-6v-288h2q26 0 36.5 8
t10.5 29v213q0 20 -9 29t-34 9zM381 330h45v288h-45v-288z" />
    <glyph glyph-name="Wgrave" unicode="&#x1e80;" horiz-adv-x="1384" 
d="M682 547l-49 -547h-527l-124 1475h421l21 -535l-2 -616l22 618l48 533h403l45 -533l27 -618l-6 616l30 535h412l-133 -1475h-520l-45 547l-11 475zM592 1499l-211 307h354l103 -307h-246z" />
    <glyph glyph-name="wgrave" unicode="&#x1e81;" horiz-adv-x="1277" 
d="M631 371l-35 -371h-492l-129 1198h402l24 -496l-4 -370l23 362l45 504h371l34 -500l17 -360l2 362l37 498h377l-136 -1198h-465l-51 371l-6 360zM535 1223l-211 307h354l102 -307h-245z" />
    <glyph glyph-name="Wacute" unicode="&#x1e82;" horiz-adv-x="1384" 
d="M682 547l-49 -547h-527l-124 1475h421l21 -535l-2 -616l22 618l48 533h403l45 -533l27 -618l-6 616l30 535h412l-133 -1475h-520l-45 547l-11 475zM541 1499l143 307h354l-225 -307h-272z" />
    <glyph glyph-name="wacute" unicode="&#x1e83;" horiz-adv-x="1277" 
d="M631 371l-35 -371h-492l-129 1198h402l24 -496l-4 -370l23 362l45 504h371l34 -500l17 -360l2 362l37 498h377l-136 -1198h-465l-51 371l-6 360zM502 1223l143 307h354l-225 -307h-272z" />
    <glyph glyph-name="Wdieresis" unicode="&#x1e84;" horiz-adv-x="1384" 
d="M682 547l-49 -547h-527l-124 1475h421l21 -535l-2 -616l22 618l48 533h403l45 -533l27 -618l-6 616l30 535h412l-133 -1475h-520l-45 547l-11 475zM526 1497q-87 0 -114 29t-27 119q0 94 30.5 128.5t110.5 34.5q85 0 116.5 -34t31.5 -129q0 -86 -31 -117t-117 -31z
M846 1497q-88 0 -114.5 28.5t-26.5 119.5q0 96 28.5 129.5t112.5 33.5q83 0 115 -34.5t32 -128.5q0 -86 -31 -117t-116 -31z" />
    <glyph glyph-name="wdieresis" unicode="&#x1e85;" horiz-adv-x="1277" 
d="M631 371l-35 -371h-492l-129 1198h402l24 -496l-4 -370l23 362l45 504h371l34 -500l17 -360l2 362l37 498h377l-136 -1198h-465l-51 371l-6 360zM487 1221q-87 0 -114 28.5t-27 118.5q0 95 30.5 129.5t110.5 34.5q85 0 116.5 -34.5t31.5 -129.5q0 -86 -31 -116.5
t-117 -30.5zM807 1221q-88 0 -114.5 28.5t-26.5 118.5q0 96 28.5 130t112.5 34q83 0 115 -35t32 -129q0 -86 -31 -116.5t-116 -30.5z" />
    <glyph glyph-name="Ygrave" unicode="&#x1ef2;" horiz-adv-x="870" 
d="M641 0h-416v399l-260 1076h408l49 -306l14 -317l8 317l56 306h403l-262 -1035v-440zM338 1499l-211 307h354l103 -307h-246z" />
    <glyph glyph-name="ygrave" unicode="&#x1ef3;" horiz-adv-x="868" 
d="M199 -399h-146v366h84q51 0 65.5 10.5t20.5 53.5l-248 1167h414l39 -291l10 -501l19 499l37 293h399l-223 -1194q-18 -94 -37 -158t-48 -110.5t-59.5 -72t-82.5 -40t-105 -18.5t-139 -4zM324 1225l-211 307h354l102 -307h-245z" />
    <glyph glyph-name="figuredash" unicode="&#x2012;" horiz-adv-x="897" 
d="M12 428v373h873v-373h-873z" />
    <glyph glyph-name="endash" unicode="&#x2013;" horiz-adv-x="600" 
d="M12 428v373h576v-373h-576z" />
    <glyph glyph-name="emdash" unicode="&#x2014;" horiz-adv-x="866" 
d="M12 428v373h842v-373h-842z" />
    <glyph glyph-name="uni2015" unicode="&#x2015;" horiz-adv-x="1153" 
d="M12 428v373h1129v-373h-1129z" />
    <glyph glyph-name="uni2016" unicode="&#x2016;" horiz-adv-x="817" 
d="M20 -55v1603h369v-1603h-369zM430 -55v1603h367v-1603h-367z" />
    <glyph glyph-name="underscoredbl" unicode="&#x2017;" horiz-adv-x="905" 
d="M14 0v326h877v-326h-877zM14 -350v323h877v-323h-877z" />
    <glyph glyph-name="quoteleft" unicode="&#x2018;" horiz-adv-x="489" 
d="M483 973q0 -105 -22.5 -159t-71.5 -74.5t-145 -20.5q-51 0 -83.5 3.5t-61.5 15.5t-45 32t-28 54.5t-16 81.5t-4 116q0 125 22.5 213.5t73.5 150t135.5 88.5t206.5 21l-2 -184q-77 3 -117 -18t-53 -72q8 2 25 2q107 0 146.5 -51.5t39.5 -198.5z" />
    <glyph glyph-name="quoteright" unicode="&#x2019;" horiz-adv-x="489" 
d="M483 1182q0 -252 -99.5 -367.5t-338.5 -103.5l2 182q77 -3 117 18t53 72q-8 -2 -24 -2q-107 0 -147 51.5t-40 198.5q0 153 50 204.5t190 51.5q76 0 117.5 -9.5t71 -43t39 -91.5t9.5 -161z" />
    <glyph glyph-name="quotesinglbase" unicode="&#x201a;" horiz-adv-x="395" 
d="M387 141q0 -204 -86 -305.5t-264 -97.5v164q69 0 102 20.5t41 65.5h-18q-61 0 -91 12.5t-46.5 55.5t-16.5 130q0 127 39.5 168t151.5 41q78 0 115.5 -18.5t55 -72t17.5 -163.5z" />
    <glyph glyph-name="uni201B" unicode="&#x201b;" horiz-adv-x="489" 
d="M444 723q-239 -12 -338.5 103.5t-99.5 367.5q0 181 50.5 243t193.5 62q139 0 186 -51t47 -205q0 -147 -39.5 -198.5t-146.5 -51.5q-17 0 -25 2q13 -51 53 -72t117 -18z" />
    <glyph glyph-name="quotedblleft" unicode="&#x201c;" horiz-adv-x="804" 
d="M201 840q-78 0 -116.5 18.5t-56.5 73t-18 164.5q0 200 87 301t265 98v-166q-69 0 -102 -20t-41 -64h19q45 0 71 -6.5t46.5 -27t28 -59t7.5 -103.5q0 -126 -39 -167.5t-151 -41.5zM606 840q-78 0 -115.5 18.5t-55 72.5t-17.5 165q0 201 85 301.5t263 97.5v-166
q-68 0 -101 -20t-42 -64h18q61 0 92 -13t48.5 -55.5t17.5 -127.5q0 -125 -41 -167t-152 -42z" />
    <glyph glyph-name="quotedblright" unicode="&#x201d;" horiz-adv-x="804" 
d="M797 1231q0 -200 -87.5 -301.5t-265.5 -98.5v166q69 0 102.5 20t41.5 64h-19q-45 0 -71.5 6.5t-46.5 27.5t-27.5 59.5t-7.5 103.5q0 126 39 167.5t151 41.5q78 0 116.5 -18.5t56.5 -73t18 -164.5zM389 1231q0 -201 -85.5 -302t-262.5 -98v166q68 0 101 20t42 64h-18
q-60 0 -91.5 13t-49 56t-17.5 128q0 125 41 167t152 42q78 0 115.5 -18.5t55 -72.5t17.5 -165z" />
    <glyph glyph-name="quotedblbase" unicode="&#x201e;" horiz-adv-x="804" 
d="M797 141q0 -202 -87.5 -303t-265.5 -98v166q69 0 102.5 20t41.5 64h-19q-45 0 -71 6.5t-46.5 27.5t-28 60t-7.5 104q0 125 39 166t151 41q59 0 92.5 -8.5t57.5 -36.5t32.5 -77t8.5 -132zM389 141q0 -407 -348 -401v166q68 0 101 20t42 64h-18q-61 0 -92 13t-48.5 56
t-17.5 129q0 125 40.5 166t152.5 41q78 0 115.5 -18t55 -71.5t17.5 -164.5z" />
    <glyph glyph-name="uni201F" unicode="&#x201f;" horiz-adv-x="808" 
d="M362 831q-180 -3 -266 91t-86 292q0 111 21 171t60.5 81t111.5 21q111 0 149.5 -41.5t38.5 -167.5q0 -65 -7.5 -103.5t-27.5 -59.5t-46.5 -27.5t-71.5 -6.5h-19q8 -44 41 -64t102 -20v-166zM766 831q-179 -3 -263.5 90.5t-84.5 292.5q0 112 20.5 171.5t59.5 80.5t110 21
q111 0 151 -42t40 -167q0 -85 -17.5 -128t-49 -56t-91.5 -13h-18q9 -44 42 -64t101 -20v-166z" />
    <glyph glyph-name="dagger" unicode="&#x2020;" horiz-adv-x="1005" 
d="M989 793h-289v-998h-397v998h-287v399h287v487h397v-487h289v-399z" />
    <glyph glyph-name="daggerdbl" unicode="&#x2021;" horiz-adv-x="1013" 
d="M997 264h-288v-469h-398v469h-295v387h295v185h-295v385h295v458h398v-458h288v-385h-288v-185h288v-387z" />
    <glyph glyph-name="bullet" unicode="&#x2022;" horiz-adv-x="524" 
d="M262 346q-142 0 -198 58t-56 212q0 151 57 210t197 59q142 0 199 -58t57 -211q0 -151 -58.5 -210.5t-197.5 -59.5z" />
    <glyph glyph-name="ellipsis" unicode="&#x2026;" horiz-adv-x="1347" 
d="M221 -16q-70 0 -108.5 9t-64.5 38t-34 77.5t-8 135.5q0 83 9.5 131.5t36.5 76.5t65 37t104 9q90 0 133 -18.5t62.5 -72t19.5 -163.5q0 -57 -4 -96.5t-14.5 -69t-25.5 -47.5t-40.5 -28.5t-56 -14.5t-74.5 -4zM674 -16q-70 0 -108.5 9t-64.5 38t-34 77.5t-8 135.5
q0 83 9.5 131.5t36.5 76.5t65 37t104 9q90 0 133 -18.5t62.5 -72t19.5 -163.5q0 -57 -4 -96.5t-14.5 -69t-25.5 -47.5t-40.5 -28.5t-56 -14.5t-74.5 -4zM1126 -16q-70 0 -108.5 9t-64.5 38t-34 77.5t-8 135.5q0 83 9.5 131.5t36.5 76.5t65 37t104 9q90 0 133 -18.5t62.5 -72
t19.5 -163.5q0 -57 -4 -96.5t-14.5 -69t-25.5 -47.5t-40.5 -28.5t-56 -14.5t-74.5 -4z" />
    <glyph glyph-name="perthousand" unicode="&#x2030;" horiz-adv-x="1816" 
d="M266 768q-262 0 -262 250v229q0 123 72 186.5t194 63.5q123 0 195 -64t72 -186v-229q0 -250 -271 -250zM0 0l895 1475h381l-885 -1475h-391zM270 981q6 0 8.5 2t4.5 11.5t2 29.5v219q0 29 -3.5 38t-11.5 9q-9 0 -11.5 -8.5t-2.5 -38.5v-219q0 -29 2.5 -36t11.5 -7z
M983 -57q-262 0 -262 250v229q0 123 72 186.5t194 63.5t194 -63.5t72 -186.5v-229q0 -250 -270 -250zM1542 -57q-262 0 -262 250v229q0 123 72 186.5t194 63.5t194 -63.5t72 -186.5v-229q0 -250 -270 -250zM987 156q8 0 11 7t3 36v219q0 29 -3 38t-11 9q-9 0 -11.5 -8.5
t-2.5 -38.5v-219q0 -29 2.5 -36t11.5 -7zM1546 156q6 0 8.5 2t4.5 11.5t2 29.5v219q0 29 -3.5 38t-11.5 9q-9 0 -11.5 -8.5t-2.5 -38.5v-219q0 -29 2.5 -36t11.5 -7z" />
    <glyph glyph-name="uni2032" unicode="&#x2032;" horiz-adv-x="438" 
d="M276 985h-278l86 490h362z" />
    <glyph glyph-name="uni2033" unicode="&#x2033;" horiz-adv-x="794" 
d="M272 985h-278l86 490h360zM633 985h-281l94 490h359z" />
    <glyph glyph-name="uni2034" unicode="&#x2034;" horiz-adv-x="1095" 
d="M53 967q-14 65 -27.5 205t-13.5 266v37h346v-37q0 -125 -14 -262t-29 -209h-262zM416 967q-15 61 -28 201t-13 270v37h346v-37q0 -124 -15 -260t-30 -211h-260zM778 967q-15 61 -28 201t-13 270v37h346v-37q0 -124 -15 -260t-30 -211h-260z" />
    <glyph glyph-name="guilsinglleft" unicode="&#x2039;" horiz-adv-x="600" 
d="M616 219h-380l-240 381v18l240 394h358l-248 -389z" />
    <glyph glyph-name="guilsinglright" unicode="&#x203a;" horiz-adv-x="600" 
d="M367 219h-381l270 404l-248 389h359l239 -394v-18z" />
    <glyph glyph-name="exclamdbl" unicode="&#x203c;" horiz-adv-x="964" 
d="M92 434q-22 22 -49 199t-27 375v467h449v-467q0 -194 -26 -373t-46 -201q-53 17 -149 17q-106 0 -152 -17zM242 -16q-75 0 -117 8t-69.5 33t-36.5 66.5t-9 113.5q0 136 44.5 176.5t187.5 40.5q139 0 184 -41t45 -176q0 -71 -9.5 -112.5t-37 -66.5t-69 -33.5t-113.5 -8.5z
M575 434q-22 22 -48.5 199t-26.5 375v467h448v-467q0 -194 -25.5 -373t-45.5 -201q-53 17 -150 17q-106 0 -152 -17zM725 -16q-60 0 -97.5 5.5t-65.5 18.5t-42 39.5t-20 63t-6 94.5q0 136 44 176.5t187 40.5q139 0 184 -41t45 -176q0 -71 -9.5 -112.5t-37 -66.5t-69 -33.5
t-113.5 -8.5z" />
    <glyph glyph-name="uni203D" unicode="&#x203d;" horiz-adv-x="1013" 
d="M647 424q-44 16 -125 16q-84 0 -125 -14q-6 9 -10 51q-12 135 -12 457v246q-33 -36 -33 -103v-391h-328v389q0 198 120.5 311t379.5 113q483 0 483 -383v-198q0 -60 -23.5 -107.5t-59 -74.5t-78 -53.5t-80 -46.5t-65.5 -50.5t-34 -67.5zM641 934q0 -80 -2 -117
q15 28 20.5 40t11 33t5.5 44v158q0 66 -35 96v-254zM522 -16q-134 0 -175.5 37.5t-41.5 164.5t42.5 165t174.5 38q69 0 108.5 -7.5t66.5 -30t36.5 -61t9.5 -104.5q0 -124 -44 -163t-177 -39z" />
    <glyph glyph-name="fraction" unicode="&#x2044;" horiz-adv-x="1171" 
d="M614 760l-8 6l244 770l313 -168zM358 -61l-317 186l553 623l8 -7z" />
    <glyph glyph-name="uni2070" unicode="&#x2070;" horiz-adv-x="540" 
d="M270 1030q-121 0 -191.5 52.5t-70.5 166.5v330q0 111 71.5 163t190.5 52q116 0 189 -52.5t73 -162.5v-330q0 -113 -72.5 -166t-189.5 -53zM270 1241q9 0 12 6.5t3 30.5v283q0 25 -2.5 30.5t-12.5 5.5q-9 0 -11.5 -5.5t-2.5 -30.5v-283q0 -24 2.5 -30.5t11.5 -6.5z" />
    <glyph glyph-name="uni2074" unicode="&#x2074;" horiz-adv-x="589" 
d="M580 1118h-56v-76h-239v76h-277v207l232 455h284v-441h56v-221zM268 1399l-30 -60h47v56l16 127z" />
    <glyph glyph-name="uni2075" unicode="&#x2075;" horiz-adv-x="548" 
d="M283 1028q-146 0 -210.5 51.5t-64.5 153.5v94h258v-70q0 -18 15 -18q12 0 12 18v113q0 19 -12 19q-11 0 -19 -19l-8 -20l-250 61l35 369h502v-35q0 -45 -1.5 -71.5t-10.5 -48.5t-18.5 -31.5t-34 -16t-49 -7.5t-71.5 -1h-90l-10 -103q41 84 133 84q152 0 152 -170v-139
q0 -100 -63.5 -156.5t-194.5 -56.5z" />
    <glyph glyph-name="uni2076" unicode="&#x2076;" horiz-adv-x="540" 
d="M532 1233q0 -95 -67 -150t-197 -55q-260 0 -260 227v308q0 108 66.5 168.5t197.5 60.5q130 0 195 -55t65 -148v-86h-247v72q0 20 -13 20q-10 0 -13 -7t-3 -29v-136q38 58 129 58q74 0 110.5 -32t36.5 -101v-115zM272 1233q19 0 19 20v72q0 23 -17 23q-3 0 -18 -5v-81
q0 -17 3.5 -23t12.5 -6z" />
    <glyph glyph-name="uni2077" unicode="&#x2077;" horiz-adv-x="444" 
d="M285 1042h-250q19 184 50.5 303.5t88.5 215.5h-164v219h428v-172q-67 -131 -99.5 -255t-53.5 -311z" />
    <glyph glyph-name="uni2078" unicode="&#x2078;" horiz-adv-x="524" 
d="M262 1028q-144 0 -203 46t-59 138v86q0 94 82 127q-80 34 -80 121v60q0 98 66 142t192 44q135 0 198.5 -42.5t63.5 -141.5v-60q0 -87 -76 -121q78 -28 78 -124v-86q0 -88 -59 -138.5t-203 -50.5zM248 1520q0 -21 14 -21t14 21v79q0 15 -14 15t-14 -15v-79zM262 1221
q14 0 14 18v98q0 17 -14 17t-14 -21v-98q0 -14 14 -14z" />
    <glyph glyph-name="uni2079" unicode="&#x2079;" horiz-adv-x="540" 
d="M266 1473q7 0 19 4v82q0 17 -4 22.5t-13 5.5q-18 0 -18 -20v-72q0 -22 16 -22zM268 1026q-130 0 -195 55.5t-65 149.5v90h248v-76q0 -20 12 -20q10 0 13.5 7.5t3.5 29.5v131q-35 -54 -119 -54q-158 0 -158 134v114q0 95 67 149t197 54q260 0 260 -225v-308
q0 -109 -67 -170t-197 -61z" />
    <glyph glyph-name="uni207A" unicode="&#x207a;" horiz-adv-x="409" 
d="M403 1325h-100v-108h-197v108h-100v201h100v108h197v-108h100v-201z" />
    <glyph glyph-name="uni207B" unicode="&#x207b;" horiz-adv-x="411" 
d="M6 1321v207h400v-207h-400z" />
    <glyph glyph-name="uni207C" unicode="&#x207c;" horiz-adv-x="362" 
d="M6 1434v172h350v-172h-350zM6 1231v172h350v-172h-350z" />
    <glyph glyph-name="uni207D" unicode="&#x207d;" horiz-adv-x="315" 
d="M309 895q-80 4 -132 19.5t-92.5 53t-58.5 105t-18 172.5v309q0 187 71 263t230 81v-227q-47 -6 -60 -33.5t-13 -105.5v-262q0 -76 12 -98t61 -25v-252z" />
    <glyph glyph-name="uni207E" unicode="&#x207e;" horiz-adv-x="317" 
d="M6 895v254q50 1 62 23t12 98v262q0 78 -13.5 106.5t-60.5 34.5v225q106 -3 170.5 -35t98.5 -107t34 -202v-309q0 -84 -13 -144t-36 -98.5t-62 -61.5t-83.5 -33t-108.5 -13z" />
    <glyph glyph-name="uni2080" unicode="&#x2080;" horiz-adv-x="540" 
d="M270 -14q-121 0 -191.5 52.5t-70.5 166.5v330q0 111 71.5 163t190.5 52q116 0 189 -52.5t73 -162.5v-330q0 -113 -72.5 -166t-189.5 -53zM270 197q9 0 12 6t3 30v283q0 25 -2.5 31t-12.5 6q-9 0 -11.5 -5.5t-2.5 -31.5v-283q0 -24 2.5 -30t11.5 -6z" />
    <glyph glyph-name="uni2081" unicode="&#x2081;" horiz-adv-x="403" 
d="M397 0h-391v225h70v203h-70v201q49 3 89 31.5t50 76.5h177v-512h75v-225z" />
    <glyph glyph-name="uni2082" unicode="&#x2082;" horiz-adv-x="534" 
d="M528 0h-524v184q0 47 14 83.5t40.5 60t51.5 37t60 26.5q5 2 19 8t19.5 8t17 7.5t16.5 8.5t13 8.5t12 10t8.5 10t6 12t1.5 13.5v68q0 16 -15 16q-14 0 -14 -24v-93h-250v109q0 87 65.5 142t196.5 55q262 0 262 -191v-84q0 -36 -9.5 -66t-23 -49.5t-36.5 -37t-41 -27
t-45 -21.5q-3 -1 -13.5 -5.5t-14.5 -6t-12.5 -5.5t-12.5 -6l-11 -5.5t-11 -6.5t-9 -6.5t-8.5 -7.5t-6.5 -8h254v-217z" />
    <glyph glyph-name="uni2083" unicode="&#x2083;" horiz-adv-x="544" 
d="M276 -18q-85 0 -139.5 13t-82.5 41t-38 62t-10 86v72h250v-49q0 -12 0.5 -16.5t4 -7.5t11.5 -3q13 0 13 25v53q0 21 -8 27t-33 6h-76v162h88q29 0 29 26v62q0 20 -15 20q-14 0 -14 -22v-52h-250v66q0 99 70 147t198 48q263 0 263 -183v-69q0 -95 -103 -119
q103 -14 103 -117v-94q0 -80 -67 -132t-194 -52z" />
    <glyph glyph-name="uni2084" unicode="&#x2084;" horiz-adv-x="589" 
d="M580 76h-56v-76h-239v76h-277v207l232 454h284v-440h56v-221zM268 356l-30 -59h47v55l16 127z" />
    <glyph glyph-name="uni2085" unicode="&#x2085;" horiz-adv-x="548" 
d="M283 -14q-146 0 -210.5 51t-64.5 153v95h258v-70q0 -18 15 -18q12 0 12 18v113q0 18 -12 18q-11 0 -19 -18l-8 -21l-250 62l35 368h502v-35q0 -45 -1.5 -71.5t-10.5 -48.5t-18.5 -31.5t-34 -16t-49 -7.5t-71.5 -1h-90l-10 -102q41 84 133 84q152 0 152 -170v-139
q0 -100 -63.5 -156.5t-194.5 -56.5z" />
    <glyph glyph-name="uni2086" unicode="&#x2086;" horiz-adv-x="540" 
d="M532 190q0 -95 -67 -149.5t-197 -54.5q-260 0 -260 227v307q0 108 66.5 169t197.5 61q130 0 195 -55t65 -148v-86h-247v71q0 21 -13 21q-10 0 -13 -7.5t-3 -29.5v-135q38 57 129 57q74 0 110.5 -32t36.5 -101v-115zM272 190q19 0 19 21v72q0 22 -17 22q-6 0 -18 -4v-82
q0 -17 3.5 -23t12.5 -6z" />
    <glyph glyph-name="uni2087" unicode="&#x2087;" horiz-adv-x="444" 
d="M285 0h-250q19 183 50.5 302.5t88.5 215.5h-164v219h428v-172q-67 -131 -99.5 -254.5t-53.5 -310.5z" />
    <glyph glyph-name="uni2088" unicode="&#x2088;" horiz-adv-x="524" 
d="M262 -14q-144 0 -203 46t-59 138v86q0 94 82 127q-80 34 -80 121v59q0 187 258 187q135 0 198.5 -43t63.5 -142v-59q0 -87 -76 -121q78 -28 78 -125v-86q0 -88 -59 -138t-203 -50zM248 477q0 -20 14 -20t14 20v80q0 14 -14 14t-14 -14v-80zM262 178q14 0 14 19v98
q0 16 -14 16t-14 -20v-98q0 -15 14 -15z" />
    <glyph glyph-name="uni2089" unicode="&#x2089;" horiz-adv-x="540" 
d="M266 430q7 0 19 4v82q0 29 -17 29q-18 0 -18 -21v-71q0 -23 16 -23zM268 -16q-130 0 -195 55t-65 149v91h248v-76q0 -21 12 -21q10 0 13.5 7.5t3.5 29.5v131q-34 -53 -119 -53q-158 0 -158 133v115q0 95 67 149t197 54q260 0 260 -226v-307q0 -109 -67 -170t-197 -61z
" />
    <glyph glyph-name="uni208A" unicode="&#x208a;" horiz-adv-x="413" 
d="M406 283h-101v-109h-196v109h-101v200h101v109h196v-109h101v-200z" />
    <glyph glyph-name="uni208B" unicode="&#x208b;" horiz-adv-x="415" 
d="M8 279v206h400v-206h-400z" />
    <glyph glyph-name="uni208C" unicode="&#x208c;" horiz-adv-x="366" 
d="M8 391v172h350v-172h-350zM8 188v172h350v-172h-350z" />
    <glyph glyph-name="uni208D" unicode="&#x208d;" horiz-adv-x="315" 
d="M309 -147q-80 4 -132 19.5t-92.5 53t-58.5 105t-18 172.5v309q0 187 71 263t230 81v-227q-47 -6 -60 -34t-13 -106v-262q0 -76 12 -98t61 -25v-251z" />
    <glyph glyph-name="uni208E" unicode="&#x208e;" horiz-adv-x="317" 
d="M6 -147v253q50 1 62 23t12 98v262q0 78 -13.5 107t-60.5 35v225q106 -3 170.5 -35t98.5 -107t34 -202v-309q0 -84 -13 -144t-36 -98.5t-62 -61.5t-83.5 -33t-108.5 -13z" />
    <glyph glyph-name="uni20A1" unicode="&#x20a1;" horiz-adv-x="892" 
d="M375 -233l31 210q-10 1 -29.5 3.5t-24.5 3.5l-30 -217h-189l35 280q-148 97 -148 363v659q0 343 279 414l27 186h190l-22 -168q10 -1 29 -2t28 -2l24 172h187l-37 -227q79 -49 116.5 -140t37.5 -233v-238h-410v238q0 37 -2.5 54.5t-6 21.5t-11.5 4q-17 0 -20 -11.5
t-3 -68.5v-645q0 -55 4 -67.5t19 -12.5q13 0 16.5 13.5t3.5 66.5v260h410v-274q0 -353 -285 -418l-27 -225h-192z" />
    <glyph glyph-name="uni20A2" unicode="&#x20a2;" horiz-adv-x="1067" 
d="M1055 408q0 -211 -132 -322t-370 -111q-264 0 -400.5 137t-136.5 388v450q0 252 137 389.5t392 137.5q251 0 380.5 -112t129.5 -292v-119h-348v62q0 149 -166 149q-95 0 -135.5 -51t-40.5 -180v-424q0 -120 34 -170v569h215l48 -133q11 69 52.5 101t139.5 32h61v-321
h-172q-44 0 -53.5 -9.5t-9.5 -46.5v-213q33 36 33 105v121h342v-137z" />
    <glyph glyph-name="franc" unicode="&#x20a3;" horiz-adv-x="686" 
d="M668 180h-252v-180h-396v1475h648v-398h-252v-188h252v-336h-252v-37h252v-336z" />
    <glyph glyph-name="lira" unicode="&#x20a4;" horiz-adv-x="999" 
d="M702 -18q-126 0 -258 90q-87 -90 -206 -90q-244 0 -244 213q0 106 61 162.5t174 56.5q65 0 129 -33v10q0 56 -20 121h-303v170h215q-3 5 -10.5 16.5t-10.5 16.5h-194v172h90q-61 119 -64 246q0 182 99 273t321 91q130 0 217.5 -24.5t137.5 -77.5t71 -125.5t21 -177.5
v-164h-393v145q0 56 -4.5 70t-22.5 14q-17 0 -22 -12.5t-5 -61.5q0 -59 21 -196h280v-172h-254q0 -13 4 -33h250v-170h-227q4 -62 4 -84q0 -80 -16 -152q6 -2 16 -2q24 0 31.5 15.5t7.5 62.5v121h377v-147q0 -108 -14.5 -175.5t-50 -105t-83.5 -50.5t-125 -13zM227 182
q31 0 60 13q-42 30 -62 30q-9 0 -15.5 -5.5t-6.5 -14.5q0 -23 24 -23z" />
    <glyph glyph-name="uni20A6" unicode="&#x20a6;" horiz-adv-x="1079" 
d="M444 401v-401h-370v428h-74v283h74v55h-74v283h74v426h442l197 -932l-76 594v338h364v-426h78v-283h-78v-55h78v-283h-78v-428h-432l-180 895z" />
    <glyph glyph-name="peseta" unicode="&#x20a7;" horiz-adv-x="2273" 
d="M414 1145v-584q45 0 45 62v467q0 55 -45 55zM434 215h-20v-215h-394v1475h416q200 0 301.5 -71t120.5 -214q13 0 33 4q32 6 48 21t26 51q12 45 12 145h340v-211h108v-397h-108v-309q0 -63 16.5 -79t69.5 -16h436q27 0 27 17q-1 11 -32.5 28.5t-111.5 53.5
q-147 67 -210.5 143t-63.5 211v2q0 166 101.5 266.5t310.5 100.5q213 0 306 -87.5t93 -248.5v-82h-367v55q0 38 -6 52t-24 14q-31 0 -31 -47v-3q0 -34 29 -57.5t125 -64.5q70 -27 117.5 -57t87 -73.5t58.5 -104.5t19 -142v-15q0 -173 -101.5 -266.5t-312.5 -93.5h-575
q-205 0 -286 73t-81 271v459h-47v-191q0 -397 -430 -397z" />
    <glyph glyph-name="uni20A8" unicode="&#x20a8;" horiz-adv-x="1685" 
d="M406 1143h-9v-314q28 0 38.5 11.5t10.5 40.5v213q0 30 -7.5 39.5t-32.5 9.5zM444 438q0 38 -10 50t-37 14v-502h-377v1475h420q108 0 177.5 -14.5t120.5 -53.5t73.5 -108.5t22.5 -178.5v-211q0 -163 -97 -223q55 -25 73.5 -74t18.5 -147v-45q0 -27 10 -36t40 -9h372
q27 0 27 18q-1 11 -32.5 28.5t-110.5 53.5q-142 65 -208.5 152.5t-66.5 224.5v2q0 166 101.5 266.5t310.5 100.5q213 0 306 -87.5t93 -248.5v-82h-366v55q0 38 -6.5 52t-24.5 14q-31 0 -31 -47v-3q0 -34 29 -57.5t125 -64.5q70 -27 117.5 -57t87 -73.5t58.5 -104.5t19 -142
v-15q0 -173 -101 -266.5t-312 -93.5h-463q-192 0 -275.5 87t-83.5 271v80z" />
    <glyph glyph-name="uni20A9" unicode="&#x20a9;" horiz-adv-x="1466" 
d="M723 547l-49 -547h-496l-41 422h-129v297h101l-5 35h-96v288h70l-43 433h414l22 -555l-4 -449l29 451l55 553h369l53 -553l28 -451l-4 449l27 555h408l-43 -433h69v-288h-96l-4 -35h100v-297h-129l-41 -422h-493l-50 547l-10 430z" />
    <glyph glyph-name="uni20AA" unicode="&#x20aa;" horiz-adv-x="1482" 
d="M487 1184h-133v-1184h-334v1475h521q250 0 401.5 -135.5t151.5 -376.5v-375q0 -137 -62.5 -192.5t-202.5 -55.5h-59v520q0 181 -70 252.5t-213 71.5zM911 0h-516v1147h70q139 0 201.5 -56.5t62.5 -199.5v-588h119q76 0 127 14t88.5 49.5t54.5 99.5t17 161v848h327v-928
q0 -261 -142 -404t-409 -143z" />
    <glyph glyph-name="Euro" unicode="&#x20ac;" horiz-adv-x="980" 
d="M963 410q0 -433 -431 -433q-211 0 -319.5 101t-108.5 332v153h-102v174h102v33h-102v176h102v123q0 432 439 432q220 0 320 -102t100 -330v-92h-410v92q0 37 -2.5 54.5t-6.5 21.5t-12 4q-17 0 -19.5 -11t-2.5 -69v-123h334l-37 -176h-297v-33h291l-39 -174h-252v-139
q0 -55 3.5 -67.5t18.5 -12.5q13 0 17 13.5t4 66.5v106h410v-120z" />
    <glyph glyph-name="uni20AE" unicode="&#x20ae;" horiz-adv-x="745" 
d="M694 492l-114 -35v-457h-414v330l-123 -37v184l123 39v68l-123 -37v184l123 39v322h-154v383h721v-383h-153v-193l114 35v-189l-114 -34v-66l114 35v-188z" />
    <glyph glyph-name="uni20B1" unicode="&#x20b1;" horiz-adv-x="983" 
d="M469 250h-53v-250h-361v686h-47v156h47v51h-47v156h47v426h414q117 0 207.5 -34t143.5 -91.5t79.5 -127.5t26.5 -149v-24h49v-156h-49v-51h49v-156h-49q-1 -90 -26 -165.5t-77 -137.5t-142.5 -97.5t-211.5 -35.5zM444 1184h-28v-135h143v14q0 50 -31 85.5t-84 35.5z
M559 842v51h-143v-51h143zM442 551q58 0 87.5 39t29.5 96h-143v-135h26z" />
    <glyph glyph-name="uni2105" unicode="&#x2105;" horiz-adv-x="1257" 
d="M0 0l895 1475h381l-885 -1475h-391zM266 768q-262 0 -262 250v229q0 123 72 186.5t194 63.5q123 0 195 -64t72 -186v-96h-252v92q0 29 -3.5 38t-11.5 9q-9 0 -11.5 -8.5t-2.5 -38.5v-219q0 -29 2.5 -36t11.5 -7q6 0 8.5 2t4.5 11.5t2 29.5v98h252v-104q0 -250 -271 -250z
M983 -57q-262 0 -262 250v229q0 123 72 186.5t194 63.5t194 -63.5t72 -186.5v-229q0 -250 -270 -250zM987 156q8 0 11 7t3 36v219q0 29 -3 38t-11 9q-9 0 -11.5 -8.5t-2.5 -38.5v-219q0 -29 2.5 -36t11.5 -7z" />
    <glyph glyph-name="uni2116" unicode="&#x2116;" horiz-adv-x="1597" 
d="M1278 668q-150 0 -225.5 68t-75.5 214v262q0 141 83 213t222 72q140 0 221.5 -72t81.5 -213v-262q0 -282 -307 -282zM1282 909q6 0 9 2t5 13.5t2 33.5v250q0 34 -3.5 44t-12.5 10q-10 0 -13 -10t-3 -44v-250q0 -33 2.5 -41t13.5 -8zM391 401v-401h-371v1475h443l196 -932
l-75 594v338h364v-1475h-432l-180 895zM977 319v314h608v-314h-608z" />
    <glyph glyph-name="uni2117" unicode="&#x2117;" horiz-adv-x="1212" 
d="M610 -27q-303 0 -434 136t-131 428v376q0 292 144.5 435t412.5 143q286 0 431 -138t145 -425v-389q0 -273 -141 -419.5t-427 -146.5zM307 549q0 -157 45 -227v837q-45 -66 -45 -258v-352zM602 969h-4v-252h6q11 0 19 7t8 15v201q0 29 -29 29zM610 225q80 0 132.5 10.5
t87.5 31.5t53 61.5t25 91t7 129.5v369q0 172 -71.5 246.5t-241.5 74.5q-95 0 -151 -14.5t-89 -50.5h267q125 0 187.5 -58.5t62.5 -148.5v-240q0 -120 -56.5 -172.5t-179.5 -50.5h-45v-215h-219q67 -64 231 -64z" />
    <glyph glyph-name="uni2120" unicode="&#x2120;" horiz-adv-x="927" 
d="M655 997l-61 138v-281h-178v621h178l72 -181l69 181h178v-621h-180v279l-55 -136h-23zM203 836q-107 0 -153 44.5t-46 135.5v74h189v-72q0 -23 10 -23t10 17v69q0 10 -12.5 16.5t-57.5 22.5q-76 29 -105.5 59t-29.5 87v61q0 84 48 125t153 41q190 0 190 -172v-49h-182v55
q0 23 -12 23q-8 0 -8 -11v-53q0 -11 10 -17.5t53 -23.5q77 -28 109 -62t32 -102v-73q0 -172 -198 -172z" />
    <glyph glyph-name="trademark" unicode="&#x2122;" horiz-adv-x="913" 
d="M383 1278h-84v-424h-205v424h-88v197h377v-197zM641 997l-61 138v-281h-179v621h179l71 -181l70 181h178v-621h-180v279l-55 -136h-23z" />
    <glyph glyph-name="uni2126" unicode="&#x2126;" horiz-adv-x="1167" 
d="M569 379l-135 -379h-420v377h131q-135 222 -135 491q0 319 149.5 474t422.5 155q137 0 240.5 -34.5t180 -108.5t115.5 -196.5t39 -291.5q-1 -147 -40 -262.5t-111 -226.5h147v-377h-416l-149 379q84 146 112.5 251.5t30.5 219.5q0 87 -12 145.5t-34.5 86t-46.5 38
t-56 10.5q-25 0 -44 -5.5t-39.5 -22.5t-34 -46.5t-22 -81t-8.5 -122.5q0 -116 26.5 -222t108.5 -251z" />
    <glyph glyph-name="uni2153" unicode="&#x2153;" horiz-adv-x="1171" 
d="M614 760l-8 6l244 770l313 -168zM358 -61l-317 186l553 623l8 -7zM483 735h-391v226h70v202h-70v201q49 3 89 32t50 77h177v-512h75v-226zM881 -18q-85 0 -139.5 13t-83 41t-38.5 62t-10 86v72h250v-49q0 -16 3 -21.5t14 -5.5q12 0 12 25v53q0 21 -8 27t-33 6h-76v162h88
q29 0 29 26v62q0 20 -15 20q-14 0 -14 -22v-52h-250v66q0 99 70.5 147t198.5 48q262 0 262 -183v-69q0 -95 -103 -119q103 -14 103 -117v-94q0 -80 -66.5 -132t-193.5 -52z" />
    <glyph glyph-name="uni2154" unicode="&#x2154;" horiz-adv-x="1171" 
d="M614 760l-8 6l244 770l313 -168zM358 -61l-317 186l553 623l8 -7zM553 735h-524v185q0 47 14 83t41 59.5t51.5 37t59.5 26.5q74 31 90 45q22 18 22 41v68q0 16 -14 16t-14 -24v-92h-250v108q0 87 65.5 142t196.5 55q262 0 262 -191v-84q0 -45 -13 -78.5t-38.5 -57
t-47.5 -36t-57 -28.5q-81 -34 -98 -58h254v-217zM881 -18q-85 0 -139.5 13t-83 41t-38.5 62t-10 86v72h250v-49q0 -16 3 -21.5t14 -5.5q12 0 12 25v53q0 21 -8 27t-33 6h-76v162h88q29 0 29 26v62q0 20 -15 20q-14 0 -14 -22v-52h-250v66q0 99 70.5 147t198.5 48
q262 0 262 -183v-69q0 -95 -103 -119q103 -14 103 -117v-94q0 -80 -66.5 -132t-193.5 -52z" />
    <glyph glyph-name="uni2155" unicode="&#x2155;" horiz-adv-x="1171" 
d="M614 760l-8 6l244 770l313 -168zM358 -61l-317 186l553 623l8 -7zM895 -14q-146 0 -210 51t-64 153v95h258v-70q0 -18 14 -18q12 0 12 18v113q0 18 -12 18q-11 0 -19 -18l-8 -21l-250 62l35 368h502v-35q0 -45 -1.5 -71.5t-10 -48.5t-18 -31.5t-34.5 -16t-49 -7.5t-71 -1
h-90l-11 -102q41 84 133 84q152 0 152 -170v-139q0 -100 -63.5 -156.5t-194.5 -56.5zM483 735h-391v226h70v202h-70v201q49 3 89 32t50 77h177v-512h75v-226z" />
    <glyph glyph-name="uni2156" unicode="&#x2156;" horiz-adv-x="1171" 
d="M614 760l-8 6l244 770l313 -168zM358 -61l-317 186l553 623l8 -7zM895 -14q-146 0 -210 51t-64 153v95h258v-70q0 -18 14 -18q12 0 12 18v113q0 18 -12 18q-11 0 -19 -18l-8 -21l-250 62l35 368h502v-35q0 -45 -1.5 -71.5t-10 -48.5t-18 -31.5t-34.5 -16t-49 -7.5t-71 -1
h-90l-11 -102q41 84 133 84q152 0 152 -170v-139q0 -100 -63.5 -156.5t-194.5 -56.5zM551 735h-524v185q0 47 14 83t41 59.5t51.5 37t59.5 26.5q74 31 90 45q22 18 22 41v68q0 16 -14 16q-15 0 -15 -24v-92h-249v108q0 87 65.5 142t196.5 55q262 0 262 -191v-84
q0 -45 -13 -78.5t-38.5 -57t-47.5 -36t-57 -28.5q-81 -34 -98 -58h254v-217z" />
    <glyph glyph-name="uni2157" unicode="&#x2157;" horiz-adv-x="1171" 
d="M614 760l-8 6l244 770l313 -168zM358 -61l-317 186l553 623l8 -7zM895 -14q-146 0 -210 51t-64 153v95h258v-70q0 -18 14 -18q12 0 12 18v113q0 18 -12 18q-11 0 -19 -18l-8 -21l-250 62l35 368h502v-35q0 -45 -1.5 -71.5t-10 -48.5t-18 -31.5t-34.5 -16t-49 -7.5t-71 -1
h-90l-11 -102q41 84 133 84q152 0 152 -170v-139q0 -100 -63.5 -156.5t-194.5 -56.5zM262 717q-85 0 -139.5 13t-82.5 41.5t-38 62.5t-10 86v71h250v-49q0 -12 0.5 -16.5t4 -7.5t11.5 -3q12 0 12 25v53q0 21 -8 27t-33 6h-75v162h88q15 0 21.5 5.5t6.5 20.5v62q0 20 -14 20
t-14 -22v-51h-250v65q0 99 70 147t198 48q262 0 262 -183v-69q0 -95 -102 -119q102 -14 102 -117v-94q0 -80 -66.5 -132t-193.5 -52z" />
    <glyph glyph-name="uni2158" unicode="&#x2158;" horiz-adv-x="1171" 
d="M614 760l-8 6l244 770l313 -168zM358 -61l-317 186l553 623l8 -7zM895 -14q-146 0 -210 51t-64 153v95h258v-70q0 -18 14 -18q12 0 12 18v113q0 18 -12 18q-11 0 -19 -18l-8 -21l-250 62l35 368h502v-35q0 -45 -1.5 -71.5t-10 -48.5t-18 -31.5t-34.5 -16t-49 -7.5t-71 -1
h-90l-11 -102q41 84 133 84q152 0 152 -170v-139q0 -100 -63.5 -156.5t-194.5 -56.5zM553 811h-55v-76h-240v76h-276v207l231 455h285v-441h55v-221zM242 1092l-31 -60h47v55l16 127z" />
    <glyph glyph-name="uni2159" unicode="&#x2159;" horiz-adv-x="1171" 
d="M614 760l-8 6l244 770l313 -168zM358 -61l-317 186l553 623l8 -7zM483 735h-391v226h70v202h-70v201q49 3 89 32t50 77h177v-512h75v-226zM1151 190q0 -95 -67 -149.5t-197 -54.5q-260 0 -260 227v307q0 108 66.5 169t197.5 61q130 0 195 -55t65 -148v-86h-248v71
q0 21 -12 21q-10 0 -13.5 -7.5t-3.5 -29.5v-135q38 57 130 57q74 0 110.5 -32t36.5 -101v-115zM891 190q18 0 18 21v72q0 22 -16 22q-7 0 -19 -4v-82q0 -29 17 -29z" />
    <glyph glyph-name="uni215A" unicode="&#x215a;" horiz-adv-x="1171" 
d="M614 760l-8 6l244 770l313 -168zM358 -61l-317 186l553 623l8 -7zM289 721q-146 0 -210.5 51.5t-64.5 153.5v94h258v-70q0 -18 15 -18q12 0 12 18v113q0 18 -12 18q-11 0 -19 -18l-8 -21l-250 62l35 369h502v-35q0 -45 -1.5 -71.5t-10.5 -48.5t-18.5 -31.5t-34 -16
t-49 -7.5t-71.5 -1h-90l-10 -103q41 84 133 84q152 0 152 -170v-139q0 -100 -63.5 -156.5t-194.5 -56.5zM1151 190q0 -95 -67 -149.5t-197 -54.5q-260 0 -260 227v307q0 108 66.5 169t197.5 61q130 0 195 -55t65 -148v-86h-248v71q0 21 -12 21q-10 0 -13.5 -7.5t-3.5 -29.5
v-135q38 57 130 57q74 0 110.5 -32t36.5 -101v-115zM891 190q18 0 18 21v72q0 22 -16 22q-7 0 -19 -4v-82q0 -29 17 -29z" />
    <glyph glyph-name="uni215B" unicode="&#x215b;" horiz-adv-x="1171" 
d="M614 760l-8 6l244 770l313 -168zM358 -61l-317 186l553 623l8 -7zM483 735h-391v226h70v202h-70v201q49 3 89 32t50 77h177v-512h75v-226zM899 -14q-144 0 -203 46t-59 138v86q0 94 82 127q-80 34 -80 121v59q0 187 258 187q135 0 198.5 -43t63.5 -142v-59
q0 -87 -76 -121q78 -28 78 -125v-86q0 -88 -59 -138t-203 -50zM885 477q0 -20 14 -20t14 20v80q0 14 -14 14t-14 -14v-80zM899 178q14 0 14 19v98q0 16 -14 16t-14 -20v-98q0 -15 14 -15z" />
    <glyph glyph-name="uni215C" unicode="&#x215c;" horiz-adv-x="1171" 
d="M614 760l-8 6l244 770l313 -168zM358 -61l-317 186l553 623l8 -7zM899 -14q-144 0 -203 46t-59 138v86q0 94 82 127q-80 34 -80 121v59q0 187 258 187q135 0 198.5 -43t63.5 -142v-59q0 -87 -76 -121q78 -28 78 -125v-86q0 -88 -59 -138t-203 -50zM885 477q0 -20 14 -20
t14 20v80q0 14 -14 14t-14 -14v-80zM899 178q14 0 14 19v98q0 16 -14 16t-14 -20v-98q0 -15 14 -15zM262 717q-85 0 -139.5 13t-82.5 41.5t-38 62.5t-10 86v71h250v-49q0 -12 0.5 -16.5t4 -7.5t11.5 -3q12 0 12 25v53q0 21 -8 27t-33 6h-75v162h88q15 0 21.5 5.5t6.5 20.5
v62q0 20 -14 20t-14 -22v-51h-250v65q0 99 70 147t198 48q262 0 262 -183v-69q0 -95 -102 -119q102 -14 102 -117v-94q0 -80 -66.5 -132t-193.5 -52z" />
    <glyph glyph-name="uni215D" unicode="&#x215d;" horiz-adv-x="1171" 
d="M614 760l-8 6l244 770l313 -168zM358 -61l-317 186l553 623l8 -7zM899 -14q-144 0 -203 46t-59 138v86q0 94 82 127q-80 34 -80 121v59q0 187 258 187q135 0 198.5 -43t63.5 -142v-59q0 -87 -76 -121q78 -28 78 -125v-86q0 -88 -59 -138t-203 -50zM885 477q0 -20 14 -20
t14 20v80q0 14 -14 14t-14 -14v-80zM899 178q14 0 14 19v98q0 16 -14 16t-14 -20v-98q0 -15 14 -15zM268 721q-146 0 -210 51.5t-64 153.5v94h258v-70q0 -18 14 -18q13 0 13 18v113q0 18 -13 18q-10 0 -18 -18l-8 -21l-250 62l35 369h501v-35q0 -45 -1.5 -71.5t-10 -48.5
t-18 -31.5t-34.5 -16t-49 -7.5t-71 -1h-90l-10 -103q41 84 133 84q151 0 151 -170v-139q0 -100 -63.5 -156.5t-194.5 -56.5z" />
    <glyph glyph-name="uni215E" unicode="&#x215e;" horiz-adv-x="1171" 
d="M614 760l-8 6l244 770l313 -168zM358 -61l-317 186l553 623l8 -7zM899 -14q-144 0 -203 46t-59 138v86q0 94 82 127q-80 34 -80 121v59q0 187 258 187q135 0 198.5 -43t63.5 -142v-59q0 -87 -76 -121q78 -28 78 -125v-86q0 -88 -59 -138t-203 -50zM885 477q0 -20 14 -20
t14 20v80q0 14 -14 14t-14 -14v-80zM899 178q14 0 14 19v98q0 16 -14 16t-14 -20v-98q0 -15 14 -15zM371 735h-250q19 183 50.5 302.5t88.5 215.5h-164v220h428v-173q-67 -131 -99.5 -254.5t-53.5 -310.5z" />
    <glyph glyph-name="uni215F" unicode="&#x215f;" horiz-adv-x="1171" 
d="M614 760l-8 6l244 770l313 -168zM358 -61l-317 186l553 623l8 -7zM483 735h-391v226h70v202h-70v201q49 3 89 32t50 77h177v-512h75v-226z" />
    <glyph glyph-name="uni2190" unicode="&#x2190;" horiz-adv-x="1441" 
d="M1350 563h-746q73 -60 135.5 -139t96.5 -160h-435q-36 98 -132.5 205.5t-209.5 179.5v178q111 68 209 179.5t133 210.5h418q-32 -81 -89 -160.5t-124 -138.5h744v-355z" />
    <glyph glyph-name="arrowup" unicode="&#x2191;" horiz-adv-x="1441" 
d="M1204 627q-175 69 -299 219v-740h-354v740q-124 -150 -299 -219v415q100 37 211 133.5t182 206.5h172q71 -113 178 -208.5t209 -131.5v-415z" />
    <glyph glyph-name="uni2192" unicode="&#x2192;" horiz-adv-x="1441" 
d="M1038 264h-432q34 82 96 160.5t134 138.5h-744v355h742q-66 60 -122.5 139.5t-88.5 159.5h417q35 -99 133 -210.5t209 -179.5v-178q-112 -72 -209 -179.5t-135 -205.5z" />
    <glyph glyph-name="arrowdown" unicode="&#x2193;" horiz-adv-x="1441" 
d="M809 86h-172q-72 112 -180 208t-207 132v416q177 -69 299 -221v741h354v-737q124 147 299 217v-416q-102 -36 -212.5 -132.5t-180.5 -207.5z" />
    <glyph glyph-name="uni2196" unicode="&#x2196;" horiz-adv-x="1441" 
d="M1303 418l-252 -248l-525 522q20 -194 -57 -364l-293 290q44 97 54 245t-19 274l121 120q128 -31 274 -22t240 57l297 -295q-174 -75 -367 -55z" />
    <glyph glyph-name="uni2197" unicode="&#x2197;" horiz-adv-x="1441" 
d="M1008 328q-75 181 -56 362l-526 -520l-252 248l526 522q-186 -19 -366 55l293 295q96 -46 246.5 -56t275.5 17l121 -121q-30 -124 -21.5 -268.5t54.5 -240.5z" />
    <glyph glyph-name="uni2198" unicode="&#x2198;" horiz-adv-x="1441" 
d="M1143 205q-129 30 -274.5 21t-239.5 -56l-297 295q176 76 368 53l-528 524l252 250l524 -524q-20 192 58 367l294 -291q-45 -98 -55.5 -245.5t19.5 -272.5z" />
    <glyph glyph-name="uni2199" unicode="&#x2199;" horiz-adv-x="1441" 
d="M848 170q-98 46 -244.5 56t-273.5 -19l-121 121q28 126 19.5 272.5t-54.5 237.5l297 295q73 -176 53 -365l525 524l251 -250l-526 -522q198 20 371 -57z" />
    <glyph glyph-name="partialdiff" unicode="&#x2202;" horiz-adv-x="849" 
d="M412 -25q-205 0 -300.5 92.5t-95.5 290.5v420q0 198 61.5 285.5t203.5 87.5q93 0 142.5 -36.5t76.5 -110.5q-40 140 -164 274.5t-367 296.5h498q171 -113 270 -308.5t99 -443.5v-417q0 -218 -110.5 -324.5t-313.5 -106.5zM426 319q13 0 18 10.5t5 47.5v387q0 39 -5 49
t-18 10t-18 -10t-5 -49v-387q0 -37 5 -47.5t18 -10.5z" />
    <glyph glyph-name="uni2206" unicode="&#x2206;" horiz-adv-x="1126" 
d="M-31 0l594 1507l592 -1507h-1186zM643 326l-78 219l-78 -219h156z" />
    <glyph glyph-name="product" unicode="&#x220f;" horiz-adv-x="1097" 
d="M569 0v1090h-43v-1090h-383v1090h-131v385h1069v-385h-129v-1090h-383z" />
    <glyph glyph-name="summation" unicode="&#x2211;" horiz-adv-x="749" 
d="M733 369v-369h-717v354l301 408l-301 371v342h717v-353h-252l267 -354l-289 -399h274z" />
    <glyph glyph-name="minus" unicode="&#x2212;" horiz-adv-x="823" 
d="M16 555v342h791v-342h-791z" />
    <glyph glyph-name="radical" unicode="&#x221a;" horiz-adv-x="1175" 
d="M715 0h-400l-178 618h-129v392h414l84 -301l16 -347l13 347l253 766h418z" />
    <glyph glyph-name="infinity" unicode="&#x221e;" horiz-adv-x="1316" 
d="M365 702q12 0 24 6.5t17.5 11.5t25.5 23q-36 34 -51 38q-7 3 -16 3q-20 0 -31.5 -11.5t-11.5 -29.5t11.5 -29.5t31.5 -11.5zM954 702q20 0 31.5 11.5t11.5 29.5t-11.5 29.5t-31.5 11.5q-12 0 -24 -6.5t-17.5 -11.5t-25.5 -23q36 -34 51 -38q7 -3 16 -3zM338 395
q-338 0 -338 348q0 146 94 243t250 97q102 0 167.5 -30t147.5 -109q83 79 147.5 109t168.5 30q146 0 244 -99.5t98 -242.5q0 -162 -85 -253t-249 -91q-106 0 -177 31.5t-153 110.5q-83 -81 -147.5 -112.5t-167.5 -31.5z" />
    <glyph glyph-name="integral" unicode="&#x222b;" horiz-adv-x="471" 
d="M-51 -410v326h22q49 0 49 49v1186q0 181 83 255.5t282 74.5h76v-336h-10q-48 0 -48 -35l3 -1186q0 -179 -87.5 -256.5t-279.5 -77.5h-90z" />
    <glyph glyph-name="approxequal" unicode="&#x2248;" horiz-adv-x="737" 
d="M563 731q-67 0 -198 43t-185 43q-52 0 -98 -22t-66 -56v342q21 30 68 52t98 22q64 0 196 -46t185 -46q47 0 89.5 22.5t68.5 63.5v-332q-25 -38 -66.5 -62t-91.5 -24zM563 342q-61 0 -134 23.5t-139.5 47t-109.5 23.5q-45 0 -91 -25.5t-73 -62.5v350q25 36 69 61t95 25
q45 0 177.5 -43t205.5 -43q103 0 158 74v-358q-18 -29 -62 -50.5t-96 -21.5z" />
    <glyph glyph-name="notequal" unicode="&#x2260;" horiz-adv-x="759" 
d="M743 385h-372l-45 -135h-224l45 135h-131v324h238l10 34h-248v324h357l45 139h227l-47 -139h145v-324h-251l-13 -34h264v-324z" />
    <glyph glyph-name="equivalence" unicode="&#x2261;" horiz-adv-x="759" 
d="M16 926v329h727v-329h-727zM16 557v334h727v-334h-727zM16 188v332h727v-332h-727z" />
    <glyph glyph-name="lessequal" unicode="&#x2264;" horiz-adv-x="743" 
d="M725 561l-709 268v273l709 274v-311l-309 -96l309 -99v-309zM18 238v297h705v-297h-705z" />
    <glyph glyph-name="greaterequal" unicode="&#x2265;" horiz-adv-x="741" 
d="M18 561v309l310 99l-310 96v311l707 -274v-273zM18 238v297h707v-297h-707z" />
    <glyph glyph-name="uni22A0" unicode="&#x22a0;" horiz-adv-x="1540" 
d="M27 0v1475h1486v-1475h-1486zM612 578h318v321h-318v-321zM854 602l-80 82l-80 -80l-49 49l78 80l-80 80l51 51l78 -80l80 82l53 -51l-82 -82l80 -82z" />
    <glyph glyph-name="house" unicode="&#x2302;" horiz-adv-x="1740" 
d="M197 0v836l673 643l674 -643v-836h-1347z" />
    <glyph glyph-name="uni25A0" unicode="&#x25a0;" horiz-adv-x="1540" 
d="M27 0v1475h1486v-1475h-1486z" />
    <glyph glyph-name="uni25A1" unicode="&#x25a1;" horiz-adv-x="1540" 
d="M27 0v1475h1486v-1475h-1486zM612 578h318v321h-318v-321z" />
    <glyph glyph-name="uni25AA" unicode="&#x25aa;" horiz-adv-x="1267" 
d="M25 0v1212h1218v-1212h-1218z" />
    <glyph glyph-name="uni25AB" unicode="&#x25ab;" horiz-adv-x="1267" 
d="M25 0v1212h1218v-1212h-1218zM500 471h266v272h-266v-272z" />
    <glyph glyph-name="triagup" unicode="&#x25b2;" horiz-adv-x="1832" 
d="M31 0l887 1526l884 -1526h-1771z" />
    <glyph glyph-name="triagrt" unicode="&#x25ba;" horiz-adv-x="1832" 
d="M197 -119v1766l1532 -881z" />
    <glyph glyph-name="triagdn" unicode="&#x25bc;" horiz-adv-x="1832" 
d="M918 -25l-887 1526h1771z" />
    <glyph glyph-name="triaglf" unicode="&#x25c4;" horiz-adv-x="1832" 
d="M1636 -119l-1532 885l1532 881v-1766z" />
    <glyph glyph-name="lozenge" unicode="&#x25ca;" horiz-adv-x="1046" 
d="M524 207l-536 532l534 533l537 -535zM524 674l66 63l-66 64l-63 -64z" />
    <glyph glyph-name="uni25CB" unicode="&#x25cb;" horiz-adv-x="1693" 
d="M846 -23q-224 0 -399.5 97t-272 270t-96.5 393q0 161 56.5 301.5t156.5 241.5t243.5 159t311.5 58q167 0 310.5 -57t244 -157.5t158 -241.5t57.5 -304q0 -217 -96.5 -390t-272.5 -271.5t-401 -98.5zM846 518q94 0 148.5 62.5t54.5 156.5q0 95 -54.5 158t-148.5 63
q-96 0 -149.5 -62.5t-53.5 -158.5q0 -95 53.5 -157t149.5 -62z" />
    <glyph glyph-name="uni25CE" unicode="&#x25ce;" horiz-adv-x="1865" 
d="M934 -20q-220 0 -393 96t-269 269t-96 392q0 161 56 301t155 240t240.5 157.5t306.5 57.5q162 0 302.5 -56.5t240 -156t156.5 -240t57 -303.5q0 -162 -56 -302.5t-155 -240.5t-240 -157t-305 -57zM934 248q209 0 347 139t138 350q0 136 -62.5 248.5t-174 178t-248.5 65.5
q-207 0 -347.5 -141t-140.5 -351t140 -349.5t348 -139.5zM936 385q-153 0 -253.5 99.5t-100.5 250.5t102 250.5t252 99.5t250 -99t100 -251q0 -148 -100 -249t-250 -101zM936 616q49 0 80 34t31 85q0 53 -31 86t-80 33q-51 0 -82 -33t-31 -86q0 -52 31.5 -85.5t81.5 -33.5z
" />
    <glyph glyph-name="uni25CF" unicode="&#x25cf;" horiz-adv-x="1693" 
d="M846 -23q-224 0 -399.5 97t-272 270t-96.5 393q0 161 56.5 301.5t156.5 241.5t243.5 159t311.5 58q167 0 310.5 -57t244 -157.5t158 -241.5t57.5 -304q0 -217 -96.5 -390t-272.5 -271.5t-401 -98.5z" />
    <glyph glyph-name="uni25E2" unicode="&#x25e2;" horiz-adv-x="1832" 
d="M543 -152l-461 1706l1712 -456z" />
    <glyph glyph-name="uni25E3" unicode="&#x25e3;" horiz-adv-x="1832" 
d="M1294 -152l-1251 1250l1712 456z" />
    <glyph glyph-name="uni25E4" unicode="&#x25e4;" horiz-adv-x="1832" 
d="M1761 -113l-1712 461l1251 1245z" />
    <glyph glyph-name="uni25E5" unicode="&#x25e5;" horiz-adv-x="1832" 
d="M80 -121l463 1706l1249 -1247z" />
    <glyph glyph-name="uni2605" unicode="&#x2605;" horiz-adv-x="1839" 
d="M530 176l148 451l-385 276l475 -2l147 449l148 -449l473 -2l-385 -274l147 -449l-385 277z" />
    <glyph glyph-name="uni263C" unicode="&#x263c;" horiz-adv-x="1896" 
d="M922 1167l-35 293h112l-34 -293h-43zM709 1102l-179 235l97 58l114 -275zM1176 1102l-31 18l112 275l99 -58zM555 938l-276 113l59 94l237 -176zM1329 938l-20 33l235 174l62 -92zM944 375q-148 0 -254 106t-106 252q0 147 106 253t254 106q146 0 251 -106t105 -253
q0 -146 -105 -252t-251 -106zM213 680v111l293 -35v-41zM1671 680l-293 35v41l293 35v-111zM1548 326l-239 176l20 33l277 -115zM342 326l-63 92l276 117l20 -35zM1257 74l-112 276l31 19l180 -236zM627 74l-97 59l179 236l32 -19zM887 8l35 293h43l34 -293h-112z" />
    <glyph glyph-name="uni263E" unicode="&#x263e;" horiz-adv-x="1605" 
d="M872 121q-165 0 -306 81.5t-223.5 221.5t-82.5 305t82.5 305t223.5 221.5t306 81.5q201 0 367 -118q-94 24 -145 24q-204 0 -349 -150.5t-145 -363.5q0 -140 66.5 -259t180 -188t247.5 -69q61 0 145 25q-164 -117 -367 -117z" />
    <glyph glyph-name="spade" unicode="&#x2660;" horiz-adv-x="1843" 
d="M1190 0h-524q192 332 192 586q-41 -118 -128 -196.5t-214 -78.5q-142 0 -245 94.5t-103 225.5q0 86 26 160t88.5 152.5t145.5 154t217 180.5l283 225h4l280 -225q175 -136 271 -235.5t143 -198t47 -213.5q0 -132 -93 -224t-224 -92q-139 0 -231 76.5t-136 194.5
q0 -68 14.5 -140.5t43.5 -145t49 -116.5t55.5 -110.5t38.5 -73.5z" />
    <glyph glyph-name="club" unicode="&#x2663;" horiz-adv-x="1843" 
d="M1325 264q-113 0 -200 66.5t-128 173.5q8 -60 25.5 -122t44 -123.5t44.5 -100.5t47.5 -94.5t33.5 -63.5h-524q160 272 188 508q-42 -109 -133 -176.5t-205 -67.5q-149 0 -254.5 106t-105.5 255q0 148 105.5 252t254.5 104q30 0 84 -12q-41 87 -41 172q0 147 105 249.5
t252 102.5q148 0 251 -102t103 -250q0 -88 -37 -176q43 16 92 16q149 0 252.5 -104t103.5 -252q0 -150 -104.5 -255.5t-253.5 -105.5z" />
    <glyph glyph-name="heart" unicode="&#x2665;" horiz-adv-x="1843" 
d="M915 -35l-284 318q-253 279 -357 466.5t-104 362.5q0 156 108.5 268.5t264.5 112.5q150 0 252 -92t120 -232q18 140 119.5 232t251.5 92q157 0 271 -113t114 -268q0 -173 -107 -360t-364 -469z" />
    <glyph glyph-name="diamond" unicode="&#x2666;" horiz-adv-x="1843" 
d="M922 -20l-664 770l664 759l661 -759z" />
    <glyph glyph-name="uni267B" unicode="&#x267b;" horiz-adv-x="1691" 
d="M1227 987l-299 55l71 41l-127 215q-24 42 -63.5 67t-67.5 29l-28 5v2h340q30 -1 46 -3t38.5 -9.5t40 -25t32.5 -46.5l50 -84l77 43zM618 934l-262 151l117 205q19 34 62 56q54 29 112 26t107 -29t67 -61zM1358 463l-203 350l260 150l121 -205q18 -25 18 -76
q1 -84 -67 -151.5t-129 -67.5zM330 258l-168 293q-19 34 -27 54.5t-5 53t24 68.5l49 86l-74 43l305 53l105 -288l-74 43q-121 -212 -125 -220q-24 -38 -25.5 -84.5t9.5 -73.5l10 -28h-4zM1096 29l-197 237l197 236v-86h254q45 0 86.5 22.5t60.5 45.5l19 22l2 -2l-168 -291
q-19 -28 -28 -39t-28 -28t-42.5 -23t-55.5 -6h-100v-88zM553 117q-43 0 -80 22t-63 60.5t-36 78.5t-8 77.5t17 60.5h405v-299h-235z" />
    <glyph glyph-name="uni267C" unicode="&#x267c;" horiz-adv-x="1691" 
d="M850 35q-191 0 -353 93t-256 253t-94 348q0 189 94 350t256 254.5t353 93.5q188 0 348.5 -93.5t254 -254.5t93.5 -350q0 -188 -93.5 -348t-254 -253t-348.5 -93zM1133 938l81 223l-57 -33l-39 66q-24 40 -51 51.5t-72 11.5h-262v-2q3 0 9 -1t22.5 -6t31.5 -12t32 -22
t28 -34l100 -166l-57 -33zM668 897l155 270q-22 42 -91.5 60.5t-131.5 -13.5q-37 -22 -43 -43l-94 -155zM1239 530q47 0 100.5 53t53.5 119q0 30 -17 60l-92 156l-203 -117zM442 373h2q-4 8 -8.5 22.5t-4 53t17.5 69.5l100 170l55 -35l-80 224l-237 -39l59 -35l-39 -66
q-14 -22 -19.5 -40t-1 -36.5t9 -29t17.5 -33.5zM1038 197v67h76q34 0 57.5 11.5t33.5 24.5t26 40l133 223l-2 2q-2 -3 -6 -7.5t-16.5 -16.5t-27 -21t-36.5 -16.5t-45 -7.5h-193v65l-155 -182zM608 264h185v232h-318q-12 -19 -13.5 -48.5t7 -60t29.5 -59.5t51 -47
q28 -17 59 -17z" />
    <glyph glyph-name="uni267D" unicode="&#x267d;" horiz-adv-x="1691" 
d="M850 35q-191 0 -353 93t-256 253t-94 348q0 189 94 350t256 254.5t353 93.5q188 0 348.5 -93.5t254 -254.5t93.5 -350q0 -188 -93.5 -348t-254 -253t-348.5 -93zM850 68q179 0 331 88.5t240 240.5t88 332q0 181 -88 334t-239.5 241.5t-331.5 88.5q-183 0 -336.5 -88.5
t-242.5 -241t-89 -334.5q0 -180 89 -332t243 -240.5t336 -88.5zM1133 938l-234 43l57 33l-100 166q-17 30 -48 49t-53 23l-22 3v2h262q45 0 72 -11.5t51 -51.5l39 -66l57 33zM668 897l-205 119l94 155q6 21 43 43q62 32 131.5 13.5t91.5 -60.5zM1239 530l-158 271l203 117
l92 -156q17 -30 17 -60q0 -66 -53.5 -119t-100.5 -53zM442 373l-129 225q-13 23 -17.5 33.5t-9 29t1 36.5t19.5 40l39 66l-59 35l237 39l80 -224l-55 35l-100 -170q-17 -31 -18.5 -67.5t5.5 -56.5l8 -21h-2zM1038 197l-155 182l155 182v-65h193q23 0 45 7t37 17t26.5 20.5
t16.5 17.5l6 7l2 -2l-133 -223q-16 -27 -26 -40t-33.5 -24.5t-57.5 -11.5h-76v-67zM608 264q-31 0 -59 17q-30 18 -51 47t-29.5 59.5t-7 60t13.5 48.5h318v-232h-185z" />
    <glyph glyph-name="uni2E18" unicode="&#x2e18;" horiz-adv-x="1013" 
d="M489 1225q134 0 176 -38t42 -165t-43 -165t-175 -38q-69 0 -108.5 7.5t-66.5 30t-36.5 61t-9.5 104.5q0 124 44.5 163.5t176.5 39.5zM498 -291q-484 0 -484 383v199q0 52 17.5 94t45.5 69.5t62.5 50.5t70 42t66 38.5t52 46t26.5 58.5l11 94q44 -16 124 -16q84 0 125 14
q7 -10 11 -51q12 -135 12 -457v-245q33 36 33 102v391h327v-389q0 -198 -120 -311t-379 -113zM336 117q0 -67 35 -97v254q0 80 2 117q-15 -28 -20.5 -40t-11 -33t-5.5 -44v-157z" />
    <glyph glyph-name="uni3008" unicode="&#x3008;" horiz-adv-x="591" 
d="M604 -281h-407l-211 897l225 859h397l-239 -857z" />
    <glyph glyph-name="uni3009" unicode="&#x3009;" horiz-adv-x="591" 
d="M393 -281h-407l235 918l-237 838h399l221 -838z" />
    <glyph glyph-name="Aumlaut" 
d="M68 1108q-38 0 -51 37.5t-13 148.5q0 118 14 160.5t50 42.5q35 0 48 -42t13 -161q0 -110 -12.5 -148t-48.5 -38zM819 1108q-37 0 -50 38t-13 148q0 118 13.5 160.5t49.5 42.5q37 0 51.5 -42.5t14.5 -160.5q0 -108 -14 -147t-52 -39zM432 635l-18 -199h63l-20 199l-15 301
zM520 0l-10 113h-129l-10 -113h-391l204 1475h510l217 -1475h-391z" />
    <glyph glyph-name="Oumlaut" horiz-adv-x="897" 
d="M823 1409q-49 0 -64.5 16t-15.5 64q0 50 16.5 67t63.5 17t65.5 -17.5t18.5 -66.5q0 -45 -19 -62.5t-65 -17.5zM66 1407q-46 0 -61 16t-15 64q0 49 16 66.5t60 17.5q47 0 64 -17.5t17 -66.5q0 -46 -17 -63t-64 -17zM449 -23q-211 0 -322 102.5t-111 330.5v659
q0 432 433 432q202 0 317 -105.5t115 -326.5v-659q0 -226 -114.5 -329.5t-317.5 -103.5zM449 344q17 0 19.5 11t2.5 69v645q0 58 -2.5 69t-19.5 11t-20 -11.5t-3 -68.5v-645q0 -57 3 -68.5t20 -11.5z" />
    <glyph glyph-name="Uumlaut" horiz-adv-x="1015" 
d="M465 1071q-23 0 -31 39t-8 156q0 126 8.5 172.5t30.5 46.5q25 0 32 -42.5t7 -176.5q0 -119 -7 -157t-32 -38zM555 1071q-26 0 -33.5 38t-7.5 157q0 131 7.5 175t31.5 44t31.5 -44t7.5 -175q0 -119 -6.5 -157t-30.5 -38zM508 -23q-258 0 -375 106.5t-117 362.5v1029h400
v-1004q0 -70 20.5 -88t73.5 -18q26 0 40 2.5t27.5 12t19 32t5.5 59.5v1004h397v-1029q0 -250 -122 -359.5t-369 -109.5z" />
    <glyph glyph-name="I.alt" horiz-adv-x="624" 
d="M608 0h-592v381h103v715h-103v379h592v-379h-98v-715h98v-381z" />
    <glyph glyph-name="Iacute.alt" horiz-adv-x="624" 
d="M608 0h-592v381h103v715h-103v379h592v-379h-98v-715h98v-381zM182 1499l144 307h354l-225 -307h-273z" />
    <glyph glyph-name="Ibreve.alt" horiz-adv-x="624" 
d="M608 0h-592v381h103v715h-103v379h592v-379h-98v-715h98v-381zM311 1497q-148 0 -211 68.5t-63 230.5h239q0 -50 5 -60t30 -10q22 0 27.5 11.5t5.5 58.5h240q0 -163 -64 -231t-209 -68z" />
    <glyph glyph-name="Icircumflex.alt" horiz-adv-x="624" 
d="M608 0h-592v381h103v715h-103v379h592v-379h-98v-715h98v-381zM346 1499l-35 98l-41 -98h-243l168 326h237l166 -326h-252z" />
    <glyph glyph-name="Idieresis.alt" horiz-adv-x="624" 
d="M608 0h-592v381h103v715h-103v379h592v-379h-98v-715h98v-381zM152 1497q-87 0 -114.5 29t-27.5 119q0 94 31 128.5t111 34.5q85 0 116 -34t31 -129q0 -86 -30.5 -117t-116.5 -31zM471 1497q-88 0 -114.5 28.5t-26.5 119.5q0 96 28.5 129.5t112.5 33.5q83 0 115 -34.5
t32 -128.5q0 -86 -31 -117t-116 -31z" />
    <glyph glyph-name="Idotaccent.alt" horiz-adv-x="624" 
d="M608 0h-592v381h103v715h-103v379h592v-379h-98v-715h98v-381zM322 1497q-41 0 -67 2t-48.5 9t-34.5 19t-20.5 33t-11.5 49t-3 70q0 62 8 98t31.5 56t56 26.5t89.5 6.5q112 0 150 -34.5t38 -152.5q0 -60 -8.5 -95t-32 -55t-56.5 -26t-91 -6z" />
    <glyph glyph-name="Igrave.alt" horiz-adv-x="624" 
d="M608 0h-592v381h103v715h-103v379h592v-379h-98v-715h98v-381zM195 1499l-211 307h354l102 -307h-245z" />
    <glyph glyph-name="Imacron.alt" horiz-adv-x="624" 
d="M608 0h-592v381h103v715h-103v379h592v-379h-98v-715h98v-381zM102 1499v266h414v-266h-414z" />
    <glyph glyph-name="Iogonek.alt" horiz-adv-x="624" 
d="M737 -143q-29 -293 -329 -293q-277 0 -277 227q0 57 23 106t84 103h-222v381h103v715h-103v379h592v-379h-98v-715h98v-381q-94 -69 -143 -112t-55.5 -54.5t-6.5 -21.5q0 -21 17 -21q31 0 29 66h288z" />
    <glyph glyph-name="Itilde.alt" horiz-adv-x="624" 
d="M608 0h-592v381h103v715h-103v379h592v-379h-98v-715h98v-381zM-8 1499q-1 143 17 220t57 108t112 31q42 0 83.5 -15.5t73 -31t50.5 -15.5q39 0 39 53h221q0 -145 -19.5 -223t-58 -105.5t-108.5 -27.5q-53 0 -121 35t-92 35q-23 0 -31 -15.5t-8 -48.5h-215z" />
    <glyph glyph-name="i.dot" horiz-adv-x="454" 
d="M225 1171q-132 0 -172.5 39.5t-40.5 167.5q0 124 41.5 164.5t171.5 40.5q133 0 175 -40.5t42 -164.5q0 -86 -16.5 -128t-62 -60.5t-138.5 -18.5zM20 0v1194q28 -31 72 -44t135 -13t133.5 13t73.5 46v-1196h-414z" />
    <glyph glyph-name="cordinal" horiz-adv-x="614" 
d="M305 668q-149 0 -225 69t-76 215v262q0 141 83 213t222 72q140 0 221.5 -72t81.5 -213v-106h-286v102q0 34 -3.5 44t-13.5 10t-13 -10t-3 -44v-249q0 -33 2.5 -41.5t13.5 -8.5q6 0 9 2.5t5.5 14t2.5 33.5v120h286v-129q0 -284 -307 -284z" />
    <glyph glyph-name="g.alt" horiz-adv-x="864" 
d="M428 590q23 0 23 45v260q0 32 -4 40.5t-19 8.5t-20 -9.5t-5 -41.5v-256q0 -27 5.5 -37t19.5 -10zM385 -379h-6q-397 0 -397 195q0 85 58.5 126t188.5 35q-118 9 -171.5 54t-53.5 131q0 189 234 215q-116 13 -171 88t-55 217v180q0 161 69 241.5t226 102.5l45 6
q67 9 83 28.5t16 90.5v21h419v-2q0 -29 -0.5 -47t-4 -37t-6.5 -29.5t-13.5 -21.5t-19 -16t-29 -9.5t-37 -6t-50 -1.5t-61 1t-76.5 3q151 -20 214 -89t63 -218v-201q0 -192 -101.5 -274t-330.5 -82h-88q-37 0 -50.5 -4t-13.5 -15q0 -10 15 -12t75 -2h119q215 0 305 -77
t90 -239v-4q0 -184 -108 -266t-377 -82zM403 -68h50q65 0 65 23v4q0 16 -47 16h-76q-34 0 -46.5 -5t-12.5 -17v-2q0 -19 67 -19z" />
    <glyph glyph-name="caronSlovak" horiz-adv-x="641" 
d="M102 1217l62 339h188l-145 -339h-105z" />
    <glyph glyph-name="altcedilla" horiz-adv-x="641" 
d="M332 -467q-294 0 -328 246h281q14 -41 55 -41q45 0 45 31q0 30 -41 30h-133v174h160q135 0 201.5 -48t66.5 -167q0 -105 -82 -165t-225 -60z" />
    <glyph glyph-name="uni00200326" horiz-adv-x="638" 
d="M123 -444v104q118 0 172 10.5t67 44.5q-34 -6 -69 -6q-113 0 -151 23.5t-38 107.5q0 83 43.5 110t171.5 27q67 0 105 -6t65.5 -26t37.5 -55.5t10 -96.5q0 -140 -93 -188.5t-321 -48.5z" />
    <glyph glyph-name="uni00200323" horiz-adv-x="638" 
d="M324 -389q-62 0 -94 5t-55 24.5t-29.5 53.5t-6.5 97q0 62 8 97.5t31.5 56t55.5 26.5t90 6t90 -6t55.5 -26.5t32 -56t8.5 -97.5q0 -61 -8 -96t-31.5 -54t-55.5 -24.5t-91 -5.5z" />
    <glyph glyph-name="doublegrave" horiz-adv-x="641" 
d="M117 1262l-180 307h280l90 -307h-190zM367 1262l-109 307h264l33 -307h-188z" />
    <glyph glyph-name="invertedbreve" horiz-adv-x="641" 
d="M43 1262q0 163 69 234t214 71q154 0 217 -69t63 -236h-246q0 48 -6 60.5t-30 12.5q-21 0 -28 -13.5t-7 -59.5h-246z" />
    <glyph glyph-name="uni00200326.alt" horiz-adv-x="638" 
d="M309 1260q-67 0 -105 6t-65 26t-37 55.5t-10 96.5q0 140 93 188.5t321 48.5v-104q-118 0 -172.5 -10.5t-67.5 -44.5q35 6 70 6q113 0 150.5 -23.5t37.5 -107.5q0 -83 -43.5 -110t-171.5 -27z" />
    <glyph glyph-name="exclamdown.cap" horiz-adv-x="479" 
d="M242 1491q72 0 113.5 -8.5t69 -33.5t37 -66.5t9.5 -112.5q0 -135 -45 -176t-184 -41q-143 0 -187.5 40.5t-44.5 176.5q0 72 9 113.5t36.5 66.5t69.5 33t117 8zM16 0v467q0 198 27 374.5t49 198.5q43 -16 152 -16q99 0 149 16q20 -22 46 -200.5t26 -372.5v-467h-449z" />
    <glyph glyph-name="questiondown.cap" horiz-adv-x="880" 
d="M467 1495q135 0 177 -38.5t42 -164.5q0 -66 -9.5 -104.5t-36.5 -61t-66 -29.5t-107 -7t-106.5 7t-66 29.5t-37 61t-9.5 104.5q0 124 44.5 163.5t174.5 39.5zM653 1090q6 -99 6 -193v-8q0 -69 -28.5 -112.5t-122.5 -100.5q-50 -31 -67 -49.5t-17 -44.5v-238q0 -19 3.5 -25
t14.5 -6q21 0 21 35v268h403v-282q0 -357 -424 -357q-222 0 -325 89t-103 247v262q0 55 4 88t10 57t28 45.5t41 36t67 44.5q73 47 92.5 69t24.5 56l6 116q53 -32 180 -32q139 0 186 35z" />
    <glyph glyph-name="uni2E18.cap" horiz-adv-x="1013" 
d="M489 1499q134 0 176 -38t42 -165q0 -66 -9 -104.5t-36 -61t-66 -29.5t-107 -7q-69 0 -108.5 7t-66.5 29.5t-36.5 61t-9.5 104.5q0 124 44.5 163.5t176.5 39.5zM498 -16q-484 0 -484 383v198q0 60 23.5 107.5t59 74.5t78 53.5t80 46.5t65.5 50.5t34 67.5l11 94
q47 -17 124 -17q81 0 125 15q7 -10 11 -51q12 -135 12 -457v-246q33 36 33 103v391h327v-389q0 -198 -120 -311t-379 -113zM336 391q0 -66 35 -96v254q0 80 2 117q-15 -28 -20.5 -40t-11 -33t-5.5 -44v-158z" />
    <glyph glyph-name="guilsinglleft.cap" horiz-adv-x="600" 
d="M616 332h-380l-240 381v16l240 393h358l-248 -389z" />
    <glyph glyph-name="guilsinglright.cap" horiz-adv-x="600" 
d="M367 332h-381l270 401l-248 389h359l239 -393v-16z" />
    <glyph glyph-name="guillemotleft.cap" horiz-adv-x="1001" 
d="M596 332h-356l-242 373v20l254 397h346l-256 -405zM1012 332h-365l-248 375v30l244 385h356l-254 -391z" />
    <glyph glyph-name="guillemotright.cap" horiz-adv-x="1001" 
d="M766 332h-356l254 385l-256 405h346l254 -397v-20zM358 332h-364l266 399l-254 391h356l244 -385v-30z" />
    <glyph glyph-name="slash.cap" horiz-adv-x="671" 
d="M-20 0l274 1475h438l-272 -1475h-440z" />
    <glyph glyph-name="backslash.cap" horiz-adv-x="671" 
d="M252 0l-272 1475h438l274 -1475h-440z" />
    <glyph glyph-name="bar.cap" horiz-adv-x="434" 
d="M20 -92v1640h394v-1640h-394z" />
    <glyph glyph-name="uni2016.cap" horiz-adv-x="817" 
d="M20 -55v1603h369v-1603h-369zM430 -55v1603h367v-1603h-367z" />
    <glyph glyph-name="brokenbar.cap" horiz-adv-x="434" 
d="M20 754v794h394v-794h-394zM20 -92v811h394v-811h-394z" />
    <glyph glyph-name="bullet.cap" horiz-adv-x="524" 
d="M262 459q-142 0 -198 58.5t-56 211.5q0 152 57 211t197 59q142 0 199 -58t57 -212q0 -150 -58.5 -210t-197.5 -60z" />
    <glyph glyph-name="onethirdemdash" horiz-adv-x="497" 
d="M12 428v373h473v-373h-473z" />
    <glyph glyph-name="threequarteremdash" horiz-adv-x="733" 
d="M12 428v373h709v-373h-709z" />
    <glyph glyph-name="periodcentered.cap" horiz-adv-x="446" 
d="M225 512q-70 0 -108 7t-65 32.5t-35.5 69t-8.5 120.5q0 79 9.5 124.5t37 71t65 33t105.5 7.5t105.5 -7.5t64.5 -33t36 -71t9 -124.5q0 -75 -9.5 -118.5t-36 -69t-64.5 -33.5t-105 -8z" />
    <glyph glyph-name="hyphen.cap" horiz-adv-x="647" 
d="M12 559v375h623v-375h-623z" />
    <glyph glyph-name="onethirdemdash.cap" horiz-adv-x="647" 
d="M12 559v375h623v-375h-623z" />
    <glyph glyph-name="endash.cap" horiz-adv-x="497" 
d="M12 559v375h473v-375h-473z" />
    <glyph glyph-name="threequarteremdash.cap" horiz-adv-x="600" 
d="M12 559v375h576v-375h-576z" />
    <glyph glyph-name="emdash.cap" horiz-adv-x="733" 
d="M12 559v375h709v-375h-709z" />
    <glyph glyph-name="figuredash.cap" horiz-adv-x="866" 
d="M12 559v375h842v-375h-842z" />
    <glyph glyph-name="uni2015.cap" horiz-adv-x="897" 
d="M12 559v375h873v-375h-873z" />
    <glyph glyph-name="periodcentered.smcp" horiz-adv-x="1153" 
d="M12 559v375h1129v-375h-1129z" />
    <glyph glyph-name="parenleft.cap" horiz-adv-x="563" 
d="M551 -160q-112 -1 -191.5 8.5t-140.5 34.5t-98 62t-60.5 97.5t-32 134.5t-8.5 179v729q0 103 10 178t34 136.5t63 101.5t99 66.5t139 37.5t186 9v-375q-54 0 -74.5 -9.5t-29.5 -42.5t-9 -114v-694q0 -60 3 -89t17.5 -45t32.5 -18t60 0v-387z" />
    <glyph glyph-name="parenright.cap" horiz-adv-x="563" 
d="M12 -160v387q50 -3 71.5 7t31.5 46.5t10 118.5v652q0 123 -21.5 157t-91.5 29v375q89 1 155.5 -3t122 -17t93.5 -31.5t67.5 -51.5t46.5 -71.5t28 -97t14.5 -123t3.5 -154.5v-688q0 -117 -7.5 -194.5t-30.5 -141.5t-58 -100t-97 -60t-141.5 -32t-196.5 -7z" />
    <glyph glyph-name="bracketleft.cap" horiz-adv-x="550" 
d="M539 221v-373h-519v1756h519v-373h-121v-1010h121z" />
    <glyph glyph-name="bracketright.cap" horiz-adv-x="550" 
d="M530 -152h-518v373h121v1010h-121v373h518v-1756z" />
    <glyph glyph-name="braceleft.cap" horiz-adv-x="548" 
d="M274 -152q-136 0 -199 64.5t-63 175.5q0 57 21 114.5t46.5 95.5t46.5 80t21 73q0 45 -23 63t-79 18h-31v371h19q56 0 79 19t23 69q0 31 -19.5 75t-43 83t-43 98t-19.5 117q0 111 63 175.5t197 64.5h258v-330h-36q-41 0 -59.5 -10.5t-18.5 -34.5q0 -27 19 -61.5t41.5 -65
t41.5 -78t19 -96.5q0 -93 -50.5 -139.5t-169.5 -47.5v-47q120 -1 168.5 -46t48.5 -138q0 -48 -16.5 -93t-36.5 -73t-36.5 -62t-16.5 -61t15 -36t53 -9h34v-328h-254z" />
    <glyph glyph-name="braceright.cap" horiz-adv-x="548" 
d="M20 -152v328h35q38 0 53 9t15 36t-16.5 61t-37 62t-37 73t-16.5 93q0 93 48.5 138t168.5 46v47q-119 1 -169 47.5t-50 139.5q0 49 19 96.5t41.5 78t41.5 65t19 61.5q0 24 -18.5 34.5t-59.5 10.5h-37v330h259q134 0 197 -64.5t63 -175.5q0 -58 -19.5 -117t-43 -98t-43 -83
t-19.5 -75q0 -50 23 -69t79 -19h19v-371h-31q-56 0 -79.5 -18t-23.5 -63q0 -31 21.5 -73t46.5 -80t46.5 -95.5t21.5 -114.5q0 -111 -63.5 -175.5t-199.5 -64.5h-254z" />
    <glyph glyph-name="anglebracketleft.cap" horiz-adv-x="591" 
d="M604 -152h-407l-211 895l225 861h397l-239 -859z" />
    <glyph glyph-name="anglebracketright.cap" horiz-adv-x="591" 
d="M393 -152h-407l235 918l-237 838h399l221 -840z" />
    <glyph glyph-name="underscore" horiz-adv-x="886" 
d="M4 0v307h879v-307h-879z" />
    <glyph glyph-name="at.cap" horiz-adv-x="1069" 
d="M541 -113q-521 0 -521 539v612q0 262 136.5 396.5t380.5 134.5q256 0 384 -133.5t128 -388.5v-588q0 -66 -9 -110t-34.5 -80t-74 -53t-122.5 -17q-149 0 -205 82q-38 -78 -139 -78q-197 0 -197 256v534q0 133 42.5 192.5t138.5 59.5q57 0 85 -23t37 -77l52 90h178v-731
v-21q0 -56 2.5 -71t15.5 -15q14 0 16.5 24.5t2.5 142.5v24v461q0 90 -11.5 147t-44 100t-92.5 61.5t-155 18.5q-169 0 -236.5 -81.5t-67.5 -276.5v-567q0 -182 71.5 -275.5t238.5 -93.5q61 0 102 14t59.5 31t40.5 49h291q-62 -150 -182.5 -219.5t-310.5 -69.5zM535 410
q12 0 15 11.5t3 51.5v508q0 59 -16 59q-15 0 -18 -10t-3 -51v-506q0 -40 3 -51.5t16 -11.5z" />
    <glyph glyph-name="registered.cap" horiz-adv-x="1212" 
d="M610 -27q-303 0 -434 136t-131 428v376q0 292 144.5 435t412.5 143q286 0 431 -138t145 -425v-389q0 -273 -141 -419.5t-427 -146.5zM874 313q41 63 41 236v369q0 172 -71.5 246.5t-241.5 74.5q-89 0 -143.5 -13t-87.5 -44h266q242 0 242 -189v-164q0 -101 -68 -147
q63 -28 63 -123v-246zM307 549q0 -154 41 -221v825q-41 -70 -41 -252v-352zM608 981h-14v-184h12q27 0 27 18v141q0 25 -25 25zM610 225q174 0 236 54h-211q-14 6 -14 59v197q0 23 -6.5 30.5t-20.5 7.5v-294h-203q69 -54 219 -54z" />
    <glyph glyph-name="zero.inf" horiz-adv-x="540" 
d="M270 -369q-121 0 -191.5 52.5t-70.5 166.5v330q0 111 71.5 163t190.5 52q116 0 189 -52.5t73 -162.5v-330q0 -113 -72.5 -166t-189.5 -53zM270 -158q9 0 12 6.5t3 30.5v283q0 25 -2.5 31t-12.5 6q-9 0 -11.5 -5.5t-2.5 -31.5v-283q0 -24 2.5 -30.5t11.5 -6.5z" />
    <glyph glyph-name="one.inf" horiz-adv-x="403" 
d="M397 -356h-391v225h70v203h-70v200q49 3 89 32t50 77h177v-512h75v-225z" />
    <glyph glyph-name="two.inf" horiz-adv-x="534" 
d="M528 -356h-524v184q0 47 14 83.5t40.5 60t51.5 37t60 26.5q5 2 19 8t19.5 8t17 7.5t16.5 8.5t13 8.5t12 10t8.5 10t6 12t1.5 13.5v67q0 17 -15 17q-14 0 -14 -25v-92h-250v109q0 87 65.5 141.5t196.5 54.5q135 0 198.5 -47.5t63.5 -142.5v-84q0 -36 -9.5 -66t-23 -49.5
t-36.5 -37t-41 -27t-45 -21.5q-3 -1 -13.5 -5.5t-14.5 -6t-12.5 -5.5t-12.5 -6l-11 -5.5t-11 -6.5t-9 -6.5t-8.5 -7.5t-6.5 -8h254v-217z" />
    <glyph glyph-name="three.inf" horiz-adv-x="544" 
d="M276 -375q-85 0 -139.5 13t-82.5 41.5t-38 62.5t-10 86v72h250v-50v-12.5t2 -7.5t5 -5t9 -1q13 0 13 24v54q0 21 -7.5 26.5t-33.5 5.5h-76v162h88q29 0 29 27v61q0 21 -15 21q-14 0 -14 -23v-51h-250v66q0 194 268 194q263 0 263 -182v-70q0 -95 -103 -119
q103 -14 103 -116v-94q0 -80 -67 -132.5t-194 -52.5z" />
    <glyph glyph-name="four.inf" horiz-adv-x="589" 
d="M580 -281h-56v-75h-239v75h-277v207l232 455h284v-440h56v-222zM268 0l-30 -59h47v55l16 127z" />
    <glyph glyph-name="five.inf" horiz-adv-x="548" 
d="M283 -371q-146 0 -210.5 51.5t-64.5 153.5v94h258v-69q0 -19 15 -19q12 0 12 19v112q0 19 -12 19q-11 0 -19 -19l-8 -20l-250 61l35 369h502v-35q0 -45 -1.5 -71.5t-10.5 -48.5t-18.5 -31.5t-34 -16t-49 -7.5t-71.5 -1h-90l-10 -102q41 84 133 84q152 0 152 -170v-140
q0 -100 -63.5 -156.5t-194.5 -56.5z" />
    <glyph glyph-name="six.inf" horiz-adv-x="540" 
d="M532 -166q0 -95 -67 -150t-197 -55q-260 0 -260 228v307q0 108 66.5 168.5t197.5 60.5q130 0 195 -55t65 -148v-86h-247v72q0 21 -13 21q-10 0 -13 -7.5t-3 -29.5v-135q38 57 129 57q74 0 110.5 -32t36.5 -101v-115zM272 -166q19 0 19 21v71q0 23 -17 23q-6 0 -18 -4v-82
q0 -17 3.5 -23t12.5 -6z" />
    <glyph glyph-name="seven.inf" horiz-adv-x="444" 
d="M285 -356h-250q19 183 50.5 302.5t88.5 215.5h-164v219h428v-172q-67 -131 -99.5 -254.5t-53.5 -310.5z" />
    <glyph glyph-name="eight.inf" horiz-adv-x="524" 
d="M262 -371q-144 0 -203 46.5t-59 138.5v86q0 94 82 127q-80 34 -80 120v60q0 98 66 142t192 44q135 0 198.5 -42.5t63.5 -141.5v-59q0 -87 -76 -121q78 -28 78 -125v-86q0 -88 -59 -138.5t-203 -50.5zM248 121q0 -21 14 -21t14 21v80q0 14 -14 14t-14 -14v-80zM262 -178
q14 0 14 18v99q0 16 -14 16t-14 -21v-98q0 -14 14 -14z" />
    <glyph glyph-name="nine.inf" horiz-adv-x="540" 
d="M266 74q7 0 19 4v82q0 17 -4 22.5t-13 5.5q-18 0 -18 -20v-72q0 -22 16 -22zM268 -373q-130 0 -195 55.5t-65 149.5v90h248v-76q0 -20 12 -20q10 0 13.5 7.5t3.5 29.5v131q-34 -53 -119 -53q-158 0 -158 133v114q0 95 67 149t197 54q260 0 260 -225v-307
q0 -109 -67 -170.5t-197 -61.5z" />
    <glyph glyph-name="plus.inf" horiz-adv-x="409" 
d="M403 -74h-100v-108h-197v108h-100v201h100v109h197v-109h100v-201z" />
    <glyph glyph-name="minus.inf" horiz-adv-x="411" 
d="M6 -78v207h400v-207h-400z" />
    <glyph glyph-name="equal.inf" horiz-adv-x="362" 
d="M6 35v172h350v-172h-350zM6 -168v172h350v-172h-350z" />
    <glyph glyph-name="parenleft.inf" horiz-adv-x="315" 
d="M309 -504q-80 4 -132 19.5t-92.5 53t-58.5 105t-18 172.5v310q0 187 71 263t230 81v-228q-47 -6 -60 -33.5t-13 -105.5v-262q0 -76 12 -98t61 -25v-252z" />
    <glyph glyph-name="parenright.inf" horiz-adv-x="317" 
d="M6 -504v254q50 1 62 23t12 98v262q0 78 -13.5 106.5t-60.5 34.5v226q106 -3 170.5 -35t98.5 -107t34 -202v-310q0 -84 -13 -144t-36 -98.5t-62 -61.5t-83.5 -33t-108.5 -13z" />
    <glyph glyph-name="onesixteenth" horiz-adv-x="1650" 
d="M614 760l-8 6l244 770l313 -168zM358 -61l-317 186l553 623l8 -7zM1628 190q0 -95 -67 -149.5t-197 -54.5q-260 0 -260 227v307q0 108 66.5 169t197.5 61q130 0 195 -55t65 -148v-86h-248v71q0 21 -12 21q-10 0 -13 -7.5t-3 -29.5v-135q38 57 129 57q74 0 110.5 -32
t36.5 -101v-115zM1368 190q18 0 18 21v72q0 22 -16 22q-6 0 -18 -4v-82q0 -17 3.5 -23t12.5 -6zM483 735h-391v226h70v202h-70v201q49 3 89 32t50 77h177v-512h75v-226zM1071 2h-391v225h70v203h-70v201q49 3 89 31.5t50 76.5h176v-512h76v-225z" />
    <glyph glyph-name="threesixteenths" horiz-adv-x="1650" 
d="M614 760l-8 6l244 770l313 -168zM358 -61l-317 186l553 623l8 -7zM1069 2h-391v225h70v203h-70v201q49 3 89 31.5t50 76.5h176v-512h76v-225zM1628 190q0 -95 -67 -149.5t-197 -54.5q-260 0 -260 227v307q0 108 66.5 169t197.5 61q130 0 195 -55t65 -148v-86h-248v71
q0 21 -12 21q-10 0 -13 -7.5t-3 -29.5v-135q38 57 129 57q74 0 110.5 -32t36.5 -101v-115zM1368 190q18 0 18 21v72q0 22 -16 22q-6 0 -18 -4v-82q0 -17 3.5 -23t12.5 -6zM262 717q-85 0 -139.5 13t-82.5 41.5t-38 62.5t-10 86v71h250v-49q0 -12 0.5 -16.5t4 -7.5t11.5 -3
q12 0 12 25v53q0 21 -8 27t-33 6h-75v162h88q15 0 21.5 5.5t6.5 20.5v62q0 20 -14 20t-14 -22v-51h-250v65q0 99 70 147t198 48q262 0 262 -183v-69q0 -95 -102 -119q102 -14 102 -117v-94q0 -80 -66.5 -132t-193.5 -52z" />
    <glyph glyph-name="fivesixteenths" horiz-adv-x="1650" 
d="M614 760l-8 6l244 770l313 -168zM358 -61l-317 186l553 623l8 -7zM1069 2h-391v225h70v203h-70v201q49 3 89 31.5t50 76.5h176v-512h76v-225zM1628 190q0 -95 -67 -149.5t-197 -54.5q-260 0 -260 227v307q0 108 66.5 169t197.5 61q130 0 195 -55t65 -148v-86h-248v71
q0 21 -12 21q-10 0 -13 -7.5t-3 -29.5v-135q38 57 129 57q74 0 110.5 -32t36.5 -101v-115zM1368 190q18 0 18 21v72q0 22 -16 22q-6 0 -18 -4v-82q0 -17 3.5 -23t12.5 -6zM266 721q-146 0 -210 51.5t-64 153.5v94h258v-70q0 -18 14 -18q12 0 12 18v113q0 18 -12 18
q-10 0 -18 -18l-8 -21l-250 62l35 369h501v-35q0 -45 -1.5 -71.5t-10 -48.5t-18 -31.5t-34.5 -16t-49 -7.5t-71 -1h-90l-10 -103q41 84 133 84q151 0 151 -170v-139q0 -100 -63.5 -156.5t-194.5 -56.5z" />
    <glyph glyph-name="sevensixteenths" horiz-adv-x="1650" 
d="M614 760l-8 6l244 770l313 -168zM358 -61l-317 186l553 623l8 -7zM1069 2h-391v225h70v203h-70v201q49 3 89 31.5t50 76.5h176v-512h76v-225zM1628 190q0 -95 -67 -149.5t-197 -54.5q-260 0 -260 227v307q0 108 66.5 169t197.5 61q130 0 195 -55t65 -148v-86h-248v71
q0 21 -12 21q-10 0 -13 -7.5t-3 -29.5v-135q38 57 129 57q74 0 110.5 -32t36.5 -101v-115zM1368 190q18 0 18 21v72q0 22 -16 22q-6 0 -18 -4v-82q0 -17 3.5 -23t12.5 -6zM379 735h-250q19 183 50.5 302.5t88.5 215.5h-164v220h428v-173q-67 -131 -99.5 -254.5t-53.5 -310.5
z" />
    <glyph glyph-name="ninesixteenths" horiz-adv-x="1650" 
d="M614 760l-8 6l244 770l313 -168zM358 -61l-317 186l553 623l8 -7zM1069 2h-391v225h70v203h-70v201q49 3 89 31.5t50 76.5h176v-512h76v-225zM1628 190q0 -95 -67 -149.5t-197 -54.5q-260 0 -260 227v307q0 108 66.5 169t197.5 61q130 0 195 -55t65 -148v-86h-248v71
q0 21 -12 21q-10 0 -13 -7.5t-3 -29.5v-135q38 57 129 57q74 0 110.5 -32t36.5 -101v-115zM1368 190q18 0 18 21v72q0 22 -16 22q-6 0 -18 -4v-82q0 -17 3.5 -23t12.5 -6zM297 1165q6 0 18 4v82q0 17 -3.5 23t-12.5 6q-18 0 -18 -20v-72q0 -23 16 -23zM299 719
q-130 0 -195 55.5t-65 149.5v90h248v-76q0 -20 12 -20q10 0 13 7t3 29v131q-19 -29 -46 -41t-72 -12q-158 0 -158 133v115q0 95 67 149t197 54q260 0 260 -226v-307q0 -109 -67 -170t-197 -61z" />
    <glyph glyph-name="elevensixteenths" horiz-adv-x="2011" 
d="M483 735h-391v226h70v202h-70v201q49 3 89 32t50 77h177v-512h75v-226zM922 735h-392v226h70v202h-70v201q49 3 89.5 32t50.5 77h176v-512h76v-226zM1413 2h-391v225h70v203h-70v201q49 3 89 31.5t50 76.5h176v-512h76v-225zM1010 760l-9 6l244 770l314 -168zM754 -61
l-318 186l553 623l8 -7zM1972 190q0 -95 -67 -149.5t-197 -54.5q-260 0 -260 227v307q0 108 66.5 169t197.5 61q130 0 195 -55t65 -148v-86h-248v71q0 21 -12 21q-10 0 -13 -7.5t-3 -29.5v-135q38 57 129 57q74 0 110.5 -32t36.5 -101v-115zM1712 190q19 0 19 21v72
q0 22 -17 22q-6 0 -18 -4v-82q0 -17 3.5 -23t12.5 -6z" />
    <glyph glyph-name="thirteensixteenths" horiz-adv-x="2211" 
d="M1145 760l-8 6l243 770l314 -168zM889 -61l-318 186l553 623l9 -7zM809 715q-85 0 -139.5 13t-82.5 41.5t-38 62.5t-10 86v71h249v-49q0 -16 3 -21.5t14 -5.5q12 0 12 25v53q0 21 -8 27t-33 6h-76v162h88q29 0 29 26v62q0 20 -14 20q-15 0 -15 -22v-51h-249v65
q0 99 70 147t198 48q262 0 262 -183v-69q0 -95 -102 -119q102 -14 102 -117v-94q0 -80 -66.5 -132t-193.5 -52zM483 735h-391v226h70v202h-70v201q49 3 89 32t50 77h177v-512h75v-226zM2138 190q0 -95 -67 -149.5t-197 -54.5q-260 0 -260 227v307q0 108 66.5 169t197.5 61
q130 0 195 -55t65 -148v-86h-248v71q0 21 -12 21q-10 0 -13 -7.5t-3 -29.5v-135q38 57 129 57q74 0 110.5 -32t36.5 -101v-115zM1878 190q18 0 18 21v72q0 22 -16 22q-6 0 -18 -4v-82q0 -17 3.5 -23t12.5 -6zM1579 2h-391v225h69v203h-69v201q49 3 89 31.5t50 76.5h176v-512
h76v-225z" />
    <glyph glyph-name="fifteensixteenths" horiz-adv-x="2199" 
d="M1137 760l-9 6l244 770l314 -168zM881 -61l-318 186l553 623l8 -7zM510 735h-391v226h69v202h-69v201q49 3 89 32t50 77h176v-512h76v-226zM831 721q-146 0 -210 51.5t-64 153.5v94h258v-70q0 -18 14 -18q13 0 13 18v113q0 18 -13 18q-10 0 -18 -18l-8 -21l-250 62
l35 369h502v-35q0 -45 -1.5 -71.5t-10.5 -48.5t-18.5 -31.5t-34 -16t-49 -7.5t-71.5 -1h-90l-10 -103q41 84 133 84q152 0 152 -170v-139q0 -100 -63.5 -156.5t-195.5 -56.5zM2126 190q0 -95 -67 -149.5t-197 -54.5q-260 0 -260 227v307q0 108 66.5 169t197.5 61
q130 0 195 -55t65 -148v-86h-248v71q0 21 -12 21q-10 0 -13.5 -7.5t-3.5 -29.5v-135q38 57 129 57q148 0 148 -133v-115zM1866 190q18 0 18 21v72q0 22 -16 22q-7 0 -19 -4v-82q0 -29 17 -29zM1567 2h-391v225h69v203h-69v201q49 3 89 31.5t50 76.5h176v-512h76v-225z" />
    <glyph glyph-name="mediumwhitecircle" horiz-adv-x="1193" 
d="M596 -20q-286 0 -458.5 173t-172.5 451q0 134 44.5 249t125 198t199.5 130.5t262 47.5q287 0 460 -172.5t173 -452.5q0 -180 -77 -321.5t-221.5 -222t-334.5 -80.5zM596 471q59 0 91 38.5t32 94.5t-32.5 95.5t-90.5 39.5q-59 0 -92 -38.5t-33 -96.5q0 -56 33 -94.5
t92 -38.5z" />
    <glyph glyph-name="mediumblackcircle" horiz-adv-x="1193" 
d="M596 -20q-286 0 -458.5 173t-172.5 451q0 134 44.5 249t125 198t199.5 130.5t262 47.5q287 0 460 -172.5t173 -452.5q0 -180 -77 -321.5t-221.5 -222t-334.5 -80.5z" />
    <glyph glyph-name="ballotboxwithx" horiz-adv-x="1267" 
d="M25 0v1212h1218v-1212h-1218zM500 471h266v272h-266v-272zM713 500l-78 80l-76 -78l-29 28l78 80l-76 78l29 31l76 -80l76 78l30 -25l-79 -82l77 -82z" />
    </font>
</defs>
</svg>
