<?xml version="1.0" standalone="no"?>
<!DOCTYPE svg PUBLIC "-//W3C//DTD SVG 1.1//EN" "http://www.w3.org/Graphics/SVG/1.1/DTD/svg11.dtd" >
<svg xmlns="http://www.w3.org/2000/svg" xmlns:xlink="http://www.w3.org/1999/xlink" version="1.1">
<metadata>
Created by FontForge 20201107 at Wed Sep 10 11:22:44 2025
 By 
Copyright (c) 2015 by Mattox Shuler. All rights reserved.
</metadata>
<defs>
<font id="Termina-Medium" horiz-adv-x="1652" >
  <font-face 
    font-family="Termina Test Medium"
    font-weight="500"
    font-stretch="normal"
    units-per-em="2048"
    panose-1="0 0 6 0 0 0 0 0 0 0"
    ascent="1638"
    descent="-410"
    x-height="1122"
    cap-height="1434"
    bbox="-156 -451 2449 1556"
    underline-thickness="102"
    underline-position="-204"
    unicode-range="U+0020-007A"
  />
<missing-glyph horiz-adv-x="1034" 
 />
    <glyph glyph-name=".notdef" horiz-adv-x="1034" 
 />
    <glyph glyph-name=".null" horiz-adv-x="0" 
 />
    <glyph glyph-name="nonmarkingreturn" horiz-adv-x="682" 
 />
    <glyph glyph-name="space" unicode=" " horiz-adv-x="614" 
 />
    <glyph glyph-name="comma" unicode="," horiz-adv-x="573" 
d="M287 260q72 0 117 -48t45 -122q0 -98 -56.5 -211.5t-156.5 -191.5l-64 67q68 69 101.5 122t43.5 112q-11 -11 -41 -11q-60 0 -101.5 40.5t-41.5 101.5q0 59 43.5 100t110.5 41z" />
    <glyph glyph-name="hyphen" unicode="-" horiz-adv-x="1226" 
d="M1067 514h-907v203h907v-203z" />
    <glyph glyph-name="period" unicode="." horiz-adv-x="563" 
d="M281 -23q-67 0 -111.5 40t-44.5 100t44.5 101.5t111.5 41.5q68 0 112.5 -41t44.5 -102q0 -60 -44 -100t-113 -40z" />
    <glyph glyph-name="zero" unicode="0" horiz-adv-x="1933" 
d="M967 -43q-398 0 -624 203t-226 557t226 557t624 203q400 0 625 -202.5t225 -557.5t-225 -557.5t-625 -202.5zM967 174q282 0 441 139.5t159 403.5t-159 403.5t-441 139.5q-283 0 -441.5 -139.5t-158.5 -403.5t158.5 -403.5t441.5 -139.5z" />
    <glyph glyph-name="one" unicode="1" horiz-adv-x="962" 
d="M500 0v1149q-169 -132 -441 -176v213q131 19 262 86.5t238 161.5h186v-1434h-245z" />
    <glyph glyph-name="two" unicode="2" horiz-adv-x="1675" 
d="M127 1124q99 155 292.5 253t432.5 98q129 0 248.5 -28t216 -80.5t155 -137.5t58.5 -189q0 -72 -28 -134t-75.5 -110t-122 -92t-155 -77.5t-188.5 -69.5q-240 -83 -385.5 -169t-180.5 -183h1168v-205h-1473v113q34 191 223.5 352t507.5 270q52 18 77.5 27t70.5 25.5
t68 26.5t59 26t54.5 27.5t43.5 28t37.5 31t25.5 32.5t18 37t5 40q0 58 -37 104t-99 74.5t-139 43t-161 14.5q-340 0 -555 -275z" />
    <glyph glyph-name="three" unicode="3" horiz-adv-x="1705" 
d="M279 418q78 -122 231 -189t354 -67q94 0 176 15t148.5 45t104.5 80.5t38 115.5q0 66 -37.5 112.5t-109.5 71.5t-161 36t-206 11h-199v193h199q95 0 177 12.5t148 37.5t104 67.5t38 97.5t-38 97.5t-101 67.5t-137 37.5t-154 12.5q-384 0 -553 -240l-190 117
q113 156 297.5 241t433.5 85q140 0 264.5 -26t220.5 -74.5t152.5 -125t56.5 -170.5q0 -132 -104 -222.5t-246 -104.5q58 -8 112.5 -24t108.5 -45t94 -67t65 -94t25 -123q0 -136 -98.5 -237.5t-261.5 -152t-367 -50.5q-266 0 -467.5 92t-322.5 254z" />
    <glyph glyph-name="four" unicode="4" horiz-adv-x="1775" 
d="M1706 526v-196h-301v-330h-244v330h-1112v151l1137 953h219v-908h301zM393 526h770v643z" />
    <glyph glyph-name="five" unicode="5" horiz-adv-x="1708" 
d="M252 426q97 -115 263 -186.5t370 -71.5q145 0 251 27.5t170 90.5t64 158q0 139 -138 210t-380 71q-254 0 -510 -107l-190 78l122 738h1199v-205h-1006l-72 -434q129 68 257.5 96.5t285.5 28.5q139 0 260 -29.5t217 -87t151.5 -151t55.5 -212.5q0 -101 -49 -188.5
t-140 -153.5t-232.5 -103.5t-315.5 -37.5q-250 0 -455.5 88t-343.5 242z" />
    <glyph glyph-name="six" unicode="6" horiz-adv-x="1812" 
d="M1055 924q124 0 237.5 -28t208.5 -83t152 -148t57 -212q0 -221 -201.5 -358.5t-545.5 -137.5q-394 0 -620 205.5t-226 554.5t226 554.5t620 205.5q455 0 696 -250l-162 -144q-194 197 -516 197q-138 0 -248 -32t-193 -98.5t-128 -176t-45 -256.5q0 -35 2 -51
q113 121 293.5 189.5t392.5 68.5zM963 154q230 0 364.5 77.5t134.5 223.5q0 98 -63 162t-162.5 90t-232.5 26q-170 0 -335 -62.5t-272 -176.5q55 -174 201.5 -257t364.5 -83z" />
    <glyph glyph-name="seven" unicode="7" horiz-adv-x="1546" 
d="M397 0l805 1223h-1155v211h1460v-168l-825 -1266h-285z" />
    <glyph glyph-name="eight" unicode="8" horiz-adv-x="1814" 
d="M1284 754q74 -8 144 -33t132 -67.5t100 -109.5t38 -149q0 -135 -100.5 -234.5t-279 -151.5t-411.5 -52q-234 0 -412.5 52t-278 151.5t-99.5 234.5q0 66 25 123t66.5 97t96 70t111 46.5t114.5 22.5q-97 9 -176.5 48t-130.5 110.5t-51 164.5q0 125 99 217t263.5 137.5
t372.5 45.5q207 0 371.5 -45.5t264 -137.5t99.5 -217q0 -93 -51 -164.5t-130.5 -110.5t-176.5 -48zM420 1059q0 -78 69.5 -129.5t175 -72.5t242.5 -21q101 0 186.5 12.5t154.5 38t108 69.5t39 103q0 78 -69.5 130t-175.5 73.5t-243 21.5t-242.5 -21.5t-175 -73.5t-69.5 -130
zM905 150q161 0 279 25.5t188 83.5t70 144q0 83 -69.5 141t-189 85.5t-278.5 27.5q-158 0 -276.5 -27.5t-188 -85.5t-69.5 -141q0 -122 146.5 -187.5t387.5 -65.5z" />
    <glyph glyph-name="nine" unicode="9" horiz-adv-x="1812" 
d="M850 1477q394 0 620 -205.5t226 -554.5t-226 -554.5t-620 -205.5q-455 0 -696 250l161 143q193 -196 516 -196q138 0 248.5 32t193.5 98.5t128 176t45 256.5q0 35 -2 51q-113 -121 -293.5 -189.5t-392.5 -68.5q-81 0 -159.5 12t-152.5 36.5t-136 63.5t-108.5 90t-73 120
t-26.5 149q0 221 202 358.5t546 137.5zM809 700q168 0 333 63.5t273 176.5q-55 174 -201 257t-364 83q-230 0 -365 -77.5t-135 -223.5q0 -74 35.5 -129t99.5 -87t144.5 -47.5t179.5 -15.5z" />
    <glyph glyph-name="A" unicode="A" horiz-adv-x="1857" 
d="M1571 0l-185 346h-919l-182 -346h-267l777 1434h270l774 -1434h-268zM578 555h700l-350 664z" />
    <glyph glyph-name="B" unicode="B" horiz-adv-x="1904" 
d="M1401 743q179 -11 286 -97.5t107 -252.5q0 -191 -145.5 -292t-403.5 -101h-1028v1434h969q241 0 383.5 -95.5t142.5 -269.5q0 -131 -80 -223.5t-231 -102.5zM459 1229v-400h688q157 0 239 44.5t82 156.5q0 58 -22.5 97.5t-66.5 61.5t-99.5 31t-132.5 9h-688zM1198 205
q171 0 257.5 48.5t86.5 164.5t-86.5 164.5t-257.5 48.5h-739v-426h739z" />
    <glyph glyph-name="C" unicode="C" horiz-adv-x="1822" 
d="M997 174q371 0 527 254l227 -113q-106 -164 -302 -261t-458 -97q-267 0 -464.5 91.5t-303.5 263.5t-106 405q0 353 237 556.5t647 203.5q254 0 449 -98t299 -259l-229 -114q-153 254 -523 254q-291 0 -460.5 -140t-169.5 -403t169.5 -403t460.5 -140z" />
    <glyph glyph-name="D" unicode="D" horiz-adv-x="1933" 
d="M944 1434q264 0 461.5 -86.5t304.5 -249t107 -381.5t-107 -381.5t-304.5 -249t-461.5 -86.5h-727v1434h727zM926 215q191 0 333 55.5t224 170t82 276.5t-82 276.5t-224 170t-333 55.5h-463v-1004h463z" />
    <glyph glyph-name="E" unicode="E" horiz-adv-x="1748" 
d="M461 215h1184v-215h-1428v1434h1407v-215h-1163v-383h979v-215h-979v-406z" />
    <glyph glyph-name="F" unicode="F" horiz-adv-x="1685" 
d="M1620 1217h-1157v-422h979v-220h-979v-575h-246v1434h1403v-217z" />
    <glyph glyph-name="G" unicode="G" horiz-adv-x="1943" 
d="M1829 776v-454q-102 -165 -313 -265t-496 -100q-423 0 -663 202.5t-240 557.5t239.5 557.5t659.5 202.5q247 0 433 -79t304 -206l-201 -143q-96 108 -226 160.5t-308 52.5q-307 0 -479 -139.5t-172 -405.5t174.5 -405.5t488.5 -139.5q416 0 561 229v164h-598v211h836z
" />
    <glyph glyph-name="H" unicode="H" horiz-adv-x="2007" 
d="M1546 1434h246v-1434h-246v616h-1083v-616h-246v1434h246v-596h1083v596z" />
    <glyph glyph-name="I" unicode="I" horiz-adv-x="677" 
d="M463 0h-246v1434h246v-1434z" />
    <glyph glyph-name="J" unicode="J" horiz-adv-x="1443" 
d="M205 348q63 -89 152 -130.5t229 -41.5q424 0 424 447v811h245v-830q0 -110 -25 -206.5t-77.5 -177.5t-130.5 -139.5t-189 -91t-247 -32.5q-386 0 -568 248z" />
    <glyph glyph-name="K" unicode="K" horiz-adv-x="1818" 
d="M1812 0h-301l-620 725l-428 -346v-379h-246v1434h246v-787l975 787h331l-692 -566z" />
    <glyph glyph-name="L" unicode="L" horiz-adv-x="1562" 
d="M463 217h1057v-217h-1303v1434h246v-1217z" />
    <glyph glyph-name="M" unicode="M" horiz-adv-x="2293" 
d="M1815 1434h264v-1434h-246v1100l-682 -828h-14l-682 828v-1100h-238v1434h266l666 -822z" />
    <glyph glyph-name="N" unicode="N" horiz-adv-x="2007" 
d="M1552 1434h240v-1434h-217l-1120 1130v-1130h-238v1434h262l1073 -1088v1088z" />
    <glyph glyph-name="O" unicode="O" horiz-adv-x="2015" 
d="M1008 -43q-414 0 -652.5 203t-238.5 557t238.5 557t652.5 203t652 -203t238 -557t-238 -557t-652 -203zM1008 174q296 0 467.5 142.5t171.5 400.5t-171.5 400.5t-467.5 142.5t-468.5 -142.5t-172.5 -400.5t172 -400.5t469 -142.5z" />
    <glyph glyph-name="P" unicode="P" horiz-adv-x="1841" 
d="M1186 1434q265 0 422 -124t157 -345q0 -222 -157 -345.5t-422 -123.5h-723v-496h-246v1434h969zM1165 707q165 0 256.5 62t91.5 194q0 256 -348 256h-702v-512h702z" />
    <glyph glyph-name="Q" unicode="Q" horiz-adv-x="2015" 
d="M1898 717q0 -195 -75 -348t-217 -252l198 -215l-141 -127l-233 252q-180 -70 -422 -70q-414 0 -652.5 203t-238.5 557t238.5 557t652.5 203t652 -203t238 -557zM1008 174q145 0 254 33l-213 229l143 127l252 -272q203 145 203 426q0 258 -171.5 400.5t-467.5 142.5
t-468.5 -142.5t-172.5 -400.5t172 -400.5t469 -142.5z" />
    <glyph glyph-name="R" unicode="R" horiz-adv-x="1900" 
d="M1815 0h-304l-444 520h-604v-520h-246v1434h975q169 0 298.5 -51.5t205.5 -156t76 -249.5q0 -181 -114 -295.5t-308 -149.5zM461 731h715q344 0 344 244t-344 244h-715v-488z" />
    <glyph glyph-name="S" unicode="S" horiz-adv-x="1777" 
d="M934 848q142 -11 251 -28.5t207.5 -49.5t162 -77.5t100.5 -113t37 -155.5q0 -209 -199.5 -338t-556.5 -129q-254 0 -472 73.5t-384 217.5l153 174q145 -130 320 -191t393 -61q239 0 367.5 60.5t128.5 172.5q0 44 -22.5 76.5t-63 55t-110.5 39t-149.5 27t-195.5 20.5
q-106 9 -194.5 22t-179.5 34.5t-159 53t-123 73.5t-83.5 100.5t-28.5 129.5q0 138 100 240t266 152.5t375 50.5q228 0 422 -63.5t326 -174.5l-156 -168q-216 190 -587 193q-90 1 -174.5 -10.5t-159 -35t-119.5 -67t-45 -100.5q0 -28 10 -51t33 -41t49 -32t68 -25t79.5 -18.5
t95.5 -14.5t103.5 -11t114.5 -10z" />
    <glyph glyph-name="T" unicode="T" horiz-adv-x="1630" 
d="M1589 1434v-215h-653v-1219h-246v1219h-649v215h1548z" />
    <glyph glyph-name="U" unicode="U" horiz-adv-x="1937" 
d="M1503 1434h246v-758q0 -160 -51 -291.5t-148 -227t-245.5 -148t-335.5 -52.5q-186 0 -334.5 52.5t-245.5 148t-148 227.5t-51 291v758h246v-742q0 -243 139 -379.5t394 -136.5q256 0 395 136.5t139 379.5v742z" />
    <glyph glyph-name="V" unicode="V" horiz-adv-x="1785" 
d="M18 1434h273l604 -1182l604 1182h268l-743 -1434h-262z" />
    <glyph glyph-name="W" unicode="W" horiz-adv-x="2496" 
d="M2193 1434h256l-524 -1434h-254l-422 1157l-424 -1157h-252l-526 1434h262l396 -1147l425 1147h242l424 -1147z" />
    <glyph glyph-name="X" unicode="X" horiz-adv-x="1681" 
d="M1653 1434l-660 -709l668 -725h-309l-516 557l-519 -557h-294l665 723l-659 711h309l510 -549l508 549h297z" />
    <glyph glyph-name="Y" unicode="Y" horiz-adv-x="1701" 
d="M23 1434h284l547 -727l543 727h282l-704 -938v-496h-246v496z" />
    <glyph glyph-name="Z" unicode="Z" horiz-adv-x="1744" 
d="M1614 1434v-172l-1149 -1051h1182v-211h-1551v172l1149 1051h-1112v211h1481z" />
    <glyph glyph-name="a" unicode="a" horiz-adv-x="1542" 
d="M739 1163q297 0 464 -138.5t167 -399.5v-408q0 -126 51 -217h-247q-44 74 -44 158v2q-71 -88 -198.5 -144.5t-290.5 -56.5q-63 0 -126 9t-127.5 27t-119 50t-98 74t-68 102t-24.5 131q0 84 35.5 152.5t92.5 112t132.5 73t150.5 41.5t152 12q163 0 290.5 -56t198.5 -144
v82q0 180 -108.5 265t-327.5 85q-234 0 -426 -113l-86 162q105 63 255.5 101t301.5 38zM1135 334v35q-32 56 -83.5 97t-113 63t-123.5 32t-129 10q-64 0 -123 -9.5t-118.5 -32t-95.5 -68t-36 -109.5q0 -52 25 -92.5t63 -64t89.5 -38.5t98.5 -20.5t97 -5.5q143 0 264.5 48
t184.5 155z" />
    <glyph glyph-name="b" unicode="b" 
d="M940 1163q274 0 440 -165t166 -439q0 -271 -166 -435.5t-440 -164.5q-173 0 -307 65.5t-209 174.5v-199h-240v1516h240v-594q75 110 208.5 175.5t307.5 65.5zM879 162q209 0 321.5 103t112.5 294q0 193 -112 296t-322 103q-309 0 -455 -229v-336q148 -231 455 -231z" />
    <glyph glyph-name="c" unicode="c" horiz-adv-x="1474" 
d="M1409 254q-79 -137 -231 -217t-379 -80q-323 0 -509 162.5t-186 439.5q0 279 186 442.5t509 163.5q222 0 373.5 -78.5t230.5 -209.5l-225 -97q-53 96 -153 141.5t-224 45.5q-207 0 -334 -105t-127 -303q0 -195 127 -299t334 -104q125 0 228 47t155 145z" />
    <glyph glyph-name="d" unicode="d" 
d="M713 1163q174 0 307.5 -65.5t208.5 -175.5v594h239v-1516h-239v199q-75 -109 -209 -174.5t-307 -65.5q-274 0 -440.5 164.5t-166.5 435.5q0 273 166.5 438.5t440.5 165.5zM774 162q307 0 455 231v336q-146 229 -455 229q-210 0 -322 -103t-112 -296q0 -191 112.5 -294
t321.5 -103z" />
    <glyph glyph-name="e" unicode="e" horiz-adv-x="1554" 
d="M340 508q17 -180 142 -271.5t341 -91.5q151 0 257.5 39t201.5 123l139 -149q-226 -201 -610 -201q-334 0 -520.5 161.5t-186.5 440.5q0 281 184 443.5t507 162.5q308 0 486.5 -157t178.5 -447q0 -35 -6 -53h-1114zM797 977q-180 0 -297 -76t-150 -223l879 2
q-37 150 -149 223.5t-283 73.5z" />
    <glyph glyph-name="f" unicode="f" horiz-adv-x="1021" 
d="M494 1214v-92h493v-188h-489v-934h-240v934h-217v188h217v62q0 184 114 278t292 94q88 0 178.5 -23t156.5 -65l-71 -149q-107 70 -221 70q-213 0 -213 -175z" />
    <glyph glyph-name="g" unicode="g" 
d="M1468 1122v-977q0 -125 -37.5 -226.5t-101.5 -169.5t-152.5 -113.5t-187 -66t-207.5 -20.5q-152 0 -310.5 40t-252.5 104l86 178q186 -123 453 -123q231 0 351 91t120 272v104q-77 -112 -217 -176t-301 -64q-278 0 -442.5 161t-164.5 431q0 272 164.5 434t442.5 162
q171 0 305 -63t213 -178v200h239zM774 170q301 0 455 242v313q-154 242 -455 242q-209 0 -321.5 -104.5t-112.5 -295.5q0 -190 112.5 -293.5t321.5 -103.5z" />
    <glyph glyph-name="h" unicode="h" horiz-adv-x="1624" 
d="M936 1163q167 0 284 -68t172.5 -184t55.5 -270v-641h-238v625q0 167 -85 253.5t-251 86.5q-147 0 -263 -69.5t-187 -205.5v-690h-240v1122v394h240v-402v-209q74 121 208 189.5t304 68.5z" />
    <glyph glyph-name="i" unicode="i" horiz-adv-x="614" 
d="M307 1276q-66 0 -109.5 38.5t-43.5 94.5q0 58 43.5 95.5t109.5 37.5t109 -37.5t43 -95.5q0 -56 -43.5 -94.5t-108.5 -38.5zM428 1122v-1122h-238v1122h238z" />
    <glyph glyph-name="j" unicode="j" horiz-adv-x="614" 
d="M307 1276q-66 0 -109.5 38t-43.5 95q0 58 43 94.5t110 36.5q66 0 109 -36.5t43 -94.5q0 -57 -43 -95t-109 -38zM186 1122h240v-1210q0 -169 -98 -266t-262 -97q-121 0 -222 43l56 177q52 -25 114 -25q81 0 126.5 50.5t45.5 137.5v1190z" />
    <glyph glyph-name="k" unicode="k" horiz-adv-x="1454" 
d="M1174 0l-449 545l-301 -246v-299h-240v1516h240v-986l696 592h295l-516 -444l549 -678h-274z" />
    <glyph glyph-name="l" unicode="l" horiz-adv-x="618" 
d="M428 0h-238v1516h238v-1516z" />
    <glyph glyph-name="m" unicode="m" horiz-adv-x="2525" 
d="M1868 1163q123 0 217 -39.5t151 -110.5t85 -163.5t28 -204.5v-645h-235v631q0 160 -79 247t-239 87q-140 0 -244 -71t-168 -206v-43v-477l2 -168h-237v631q0 160 -79 247t-239 87q-276 0 -407 -269v-696h-240v1122h240v-217q67 120 193 189t286 69q182 0 295 -83
t158 -228q62 143 198.5 227t313.5 84z" />
    <glyph glyph-name="n" unicode="n" horiz-adv-x="1624" 
d="M424 0h-240v1122h240v-217q74 121 208 189.5t304 68.5q167 0 284 -68t172.5 -184t55.5 -270v-641h-238v625q0 167 -85 253.5t-251 86.5q-147 0 -263 -69.5t-187 -205.5v-690z" />
    <glyph glyph-name="o" unicode="o" horiz-adv-x="1607" 
d="M803 -43q-325 0 -512 161.5t-187 440.5q0 280 187 443t512 163q326 0 512 -162.5t186 -443.5q0 -279 -186 -440.5t-512 -161.5zM803 158q208 0 336.5 103.5t128.5 297.5q0 197 -128.5 301.5t-336.5 104.5q-135 0 -237.5 -44t-164 -137t-61.5 -225q0 -194 128 -297.5
t335 -103.5z" />
    <glyph glyph-name="p" unicode="p" 
d="M940 -41q-174 0 -307.5 66t-208.5 176v-611h-240v1532h240v-200q75 110 208.5 175.5t307.5 65.5q274 0 440 -164.5t166 -437.5q0 -272 -166 -437t-440 -165zM879 961q-307 0 -455 -232v-336q146 -229 455 -229q209 0 321.5 102.5t112.5 294.5t-112.5 296t-321.5 104z" />
    <glyph glyph-name="q" unicode="q" 
d="M713 -41q-275 0 -442 165t-167 437q0 273 166.5 437.5t442.5 164.5q174 0 306.5 -65t209.5 -176v200h239v-1532h-239v611q-77 -111 -210 -176.5t-306 -65.5zM772 961q-207 0 -320.5 -104t-113.5 -296q0 -191 113 -294t321 -103q309 0 455 229v336q-148 232 -455 232z" />
    <glyph glyph-name="r" unicode="r" horiz-adv-x="989" 
d="M424 0h-240v1122h240v-256q66 132 209.5 205.5t320.5 73.5v-209q-193 0 -333.5 -80.5t-196.5 -234.5v-621z" />
    <glyph glyph-name="s" unicode="s" horiz-adv-x="1433" 
d="M756 676q598 -43 598 -346q0 -164 -157 -268.5t-443 -104.5q-201 0 -376.5 61.5t-299.5 169.5l129 142q217 -187 553 -187q163 0 264.5 42.5t101.5 123.5q0 80 -97.5 116t-311.5 52q-99 7 -180 20t-161 38.5t-134 61t-87.5 90t-33.5 124.5q0 165 160 259.5t442 94.5
q163 0 316.5 -50.5t258.5 -127.5l-124 -156q-189 145 -463 148q-63 0 -122 -7t-115.5 -23.5t-91 -48t-34.5 -75.5q0 -28 13.5 -50t42.5 -37t61.5 -25.5t84 -17.5t96 -11t110.5 -8z" />
    <glyph glyph-name="t" unicode="t" horiz-adv-x="1034" 
d="M934 229l63 -166q-157 -104 -346 -104q-172 0 -282.5 91t-110.5 259v623h-217v190h217v260h240v-260h489v-190h-489v-584q0 -90 60 -138t153 -48q100 0 223 67z" />
    <glyph glyph-name="u" unicode="u" horiz-adv-x="1624" 
d="M1200 1122h240v-1122h-240v217q-74 -121 -208 -189.5t-304 -68.5q-167 0 -284 68t-172.5 184t-55.5 270v641h238v-624q0 -167 85 -253.5t251 -86.5q147 0 263 69t187 205v690z" />
    <glyph glyph-name="v" unicode="v" horiz-adv-x="1470" 
d="M1438 1122l-576 -1122h-254l-577 1122h262l444 -891l445 891h256z" />
    <glyph glyph-name="w" unicode="w" horiz-adv-x="2060" 
d="M1772 1122h235l-414 -1122h-237l-324 879l-327 -879h-240l-414 1122h242l307 -864l320 864h225l319 -864z" />
    <glyph glyph-name="x" unicode="x" horiz-adv-x="1378" 
d="M1337 1122l-503 -553l512 -569h-285l-375 424l-377 -424h-276l514 565l-508 557h285l368 -417l371 417h274z" />
    <glyph glyph-name="y" unicode="y" horiz-adv-x="1466" 
d="M1182 1122h252l-848 -1532h-250l280 484l-585 1048h258l450 -819z" />
    <glyph glyph-name="z" unicode="z" horiz-adv-x="1390" 
d="M1276 1122v-157l-854 -775h878v-192h-1214v160l852 774h-823v190h1161z" />
    </font>
</defs>
</svg>
