<?xml version="1.0" standalone="no"?>
<!DOCTYPE svg PUBLIC "-//W3C//DTD SVG 1.1//EN" "http://www.w3.org/Graphics/SVG/1.1/DTD/svg11.dtd" >
<svg xmlns="http://www.w3.org/2000/svg" xmlns:xlink="http://www.w3.org/1999/xlink" version="1.1">
<metadata>
Created by FontForge 20201107 at Tue Sep 10 16:43:20 2024
 By 
Copyright Coppers and Brasses (http://coppersandbrasses.com/)
</metadata>
<defs>
<font id="Triade-Slanted" horiz-adv-x="1312" >
  <font-face 
    font-family="Triade Slanted"
    font-weight="800"
    font-style="oblique"
    font-stretch="normal"
    units-per-em="2048"
    panose-1="0 0 0 0 0 0 0 0 0 0"
    ascent="1761"
    descent="-287"
    x-height="1147"
    cap-height="1536"
    bbox="-252 -549 3109 2497"
    underline-thickness="102"
    underline-position="-204"
    slope="-15"
    unicode-range="U+000D-1F6A9"
  />
<missing-glyph horiz-adv-x="1167" 
d="M731 -248l469 1745h-737l-469 -1745h737zM565 455h-41l15 53q36 123 159 225q84 71 141.5 169t57.5 192q0 65 -35 106t-104 41q-81 0 -156 -80t-117 -235l-39 2q47 179 132 265.5t186 86.5q83 0 128.5 -53t45.5 -133q0 -109 -65 -214t-162 -188q-106 -89 -131 -186z
M403 0l74 276h41l-74 -276h-41zM-57 -287l489 1823h819l-489 -1823h-819z" />
    <glyph glyph-name="f_b" unicode="fb" horiz-adv-x="2158" 
d="M791 635h-168l-170 -635h-473l170 635h-113l106 399h115l8 33q71 262 209 381t395 119q91 0 177 -21l-136 -372q-20 4 -39 4q-135 0 -174 -144h199zM1266 233h-25l-84 -233h-409l411 1536h471l-67 -250q-37 -133 -127 -321h24q138 213 373 213q139 0 222 -96t83 -263
q0 -93 -31 -211l-24 -92q-74 -280 -212 -413.5t-321 -133.5q-139 0 -208.5 70t-75.5 194zM1540 737q-56 0 -98 -40.5t-64 -112.5l-16 -54q-10 -33 -10 -61q0 -41 25.5 -65.5t70.5 -24.5q56 0 98 40.5t64 112.5l16 54q10 38 10 61q0 41 -25.5 65.5t-70.5 24.5z" />
    <glyph glyph-name="f_f" unicode="ff" horiz-adv-x="1548" 
d="M715 0l170 635h-262l-170 -635h-473l170 635h-113l106 399h115l8 33q71 262 209 381t395 119q91 0 177 -21l-136 -372q-20 4 -39 4q-135 0 -174 -144h295l8 33q47 175 120.5 282t192 162.5t292.5 55.5q128 0 249 -31l-147 -371q-54 13 -100 13q-135 0 -174 -144h198
l-106 -399h-168l-170 -635h-473z" />
    <glyph glyph-name="f_h" unicode="fh" horiz-adv-x="2121" 
d="M791 635h-168l-170 -635h-473l170 635h-113l106 399h115l8 33q71 262 209 381t395 119q91 0 177 -21l-136 -372q-20 4 -39 4q-135 0 -174 -144h199zM748 0l411 1536h473l-67 -250q-9 -36 -22 -75t-31.5 -86.5t-28.5 -73t-32.5 -79t-25.5 -59.5h25q58 118 163.5 191.5
t227.5 73.5q118 0 189 -78t71 -217q0 -75 -22 -162l-193 -721h-473l150 559q12 47 12 80q0 78 -68 78q-48 0 -80.5 -33.5t-52.5 -108.5l-153 -575h-473z" />
    <glyph glyph-name="f_hbar" unicode="f&#x127;" horiz-adv-x="2121" 
d="M791 635h-168l-170 -635h-473l170 635h-113l106 399h115l8 33q71 262 209 381t395 119q91 0 177 -21l-136 -372q-20 4 -39 4q-135 0 -174 -144h199zM1346 467l-125 -467h-473l315 1178h-62l56 204h61l41 154h473l-41 -154h234l-56 -204h-233q-8 -30 -20 -66.5
t-21.5 -63.5t-26.5 -70t-24 -60.5t-26 -62.5t-21 -50h24q58 118 163.5 191t227.5 73q118 0 189.5 -78t71.5 -217q0 -71 -23 -162l-164 -612h-473l121 451q12 47 12 79q0 78 -67 78q-48 0 -80.5 -33t-52.5 -108z" />
    <glyph glyph-name="f_i" unicode="fi" horiz-adv-x="1466" 
d="M791 635h-168l-170 -635h-473l170 635h-113l106 399h115l8 33q71 262 209 381t395 119q91 0 177 -21l-136 -372q-20 4 -39 4q-135 0 -174 -144h199zM1366 1260h-31q-102 0 -165.5 54t-63.5 146q0 108 84.5 187t212.5 79h31q102 0 165.5 -54t63.5 -146q0 -108 -84.5 -187
t-212.5 -79zM1055 1147h473l-307 -1147h-473z" />
    <glyph glyph-name="f_ij" unicode="f&#x133;" horiz-adv-x="2129" 
d="M791 635h-168l-170 -635h-473l170 635h-113l106 399h115l8 33q71 262 209 381t395 119q91 0 177 -21l-136 -372q-20 4 -39 4q-135 0 -174 -144h199zM1366 1260h-31q-102 0 -165.5 54t-63.5 146q0 108 84.5 187t212.5 79h31q102 0 165.5 -54t63.5 -146q0 -108 -84.5 -187
t-212.5 -79zM1055 1147h473l-307 -1147h-473zM2030 1260h-31q-102 0 -166 54t-64 146q0 108 84.5 187t212.5 79h31q102 0 166 -54t64 -146q0 -108 -84.5 -187t-212.5 -79zM1409 -317q-47 0 -104.5 10t-83.5 20l98 365q16 -4 33 -4q41 0 66 23t40 79l260 971h473l-274 -1026
q-62 -232 -183.5 -335t-324.5 -103z" />
    <glyph glyph-name="f_j" unicode="fj" horiz-adv-x="1466" 
d="M791 635h-168l-170 -635h-473l170 635h-113l106 399h115l8 33q71 262 209 381t395 119q91 0 177 -21l-136 -372q-20 4 -39 4q-135 0 -174 -144h199zM1366 1260h-31q-102 0 -165.5 54t-63.5 146q0 108 84.5 187t212.5 79h31q102 0 165.5 -54t63.5 -146q0 -108 -84.5 -187
t-212.5 -79zM745 -317q-47 0 -104.5 10t-83.5 20l98 365q16 -4 33 -4q41 0 66.5 23.5t40.5 78.5l260 971h473l-275 -1026q-62 -232 -183.5 -335t-324.5 -103z" />
    <glyph glyph-name="f_k" unicode="fk" horiz-adv-x="2121" 
d="M791 635h-168l-170 -635h-473l170 635h-113l106 399h115l8 33q71 262 209 381t395 119q91 0 177 -21l-136 -372q-20 4 -39 4q-135 0 -174 -144h199zM1751 530l238 -530h-516l-93 225q-42 103 -55 211h-25q-12 -183 -55 -342l-24 -94h-473l411 1536h473l-135 -504
q-43 -158 -129 -342h25q52 87 149 211l197 246h530z" />
    <glyph glyph-name="f_l" unicode="fl" horiz-adv-x="1466" 
d="M791 635h-168l-170 -635h-473l170 635h-113l106 399h115l8 33q71 262 209 381t395 119q91 0 177 -21l-136 -372q-20 4 -39 4q-135 0 -174 -144h199zM1159 1536h473l-411 -1536h-473z" />
    <glyph glyph-name="f_lcaron" unicode="f&#x13e;" horiz-adv-x="1796" 
d="M791 635h-168l-170 -635h-473l170 635h-113l106 399h115l8 33q71 262 209 381t395 119q91 0 177 -21l-136 -372q-20 4 -39 4q-135 0 -174 -144h199zM1751 1556l301 -67l-270 -668l-221 51zM1159 1536h473l-411 -1536h-473z" />
    <glyph glyph-name="f_t" unicode="ft" horiz-adv-x="1687" 
d="M1520 20q-172 -51 -322 -51q-188 0 -283.5 88t-95.5 240q0 73 21 152l59 227h-266l-180 -676h-473l182 676h-115l105 389h114v2q71 262 209 381t395 119q129 0 250 -31l-147 -371q-54 13 -101 13q-121 0 -163 -113h161q83 0 163 36t143 96t111.5 131t78.5 147h221
l-104 -390h270l-111 -409h-268l-43 -160q-10 -38 -10 -63q0 -41 23 -59.5t73 -18.5q55 0 127 22z" />
    <glyph glyph-name="f_f_b" unicode="ffb" horiz-adv-x="2893" 
d="M715 0l170 635h-262l-170 -635h-473l170 635h-113l106 399h115l8 33q71 262 209 381t395 119q91 0 177 -21l-136 -372q-20 4 -39 4q-135 0 -174 -144h295l8 33q47 175 120.5 282t192 162.5t292.5 55.5q90 0 176 -21l-135 -372q-20 4 -39 4q-135 0 -174 -144h198
l-106 -399h-168l-170 -635h-473zM2001 233h-25l-84 -233h-409l411 1536h471l-67 -250q-37 -133 -127 -321h24q138 213 373 213q139 0 222 -96t83 -263q0 -97 -30 -211l-25 -92q-74 -280 -211.5 -413.5t-320.5 -133.5q-139 0 -209 70t-76 194zM2275 737q-56 0 -97.5 -40.5
t-63.5 -112.5l-17 -54q-10 -33 -10 -61q0 -41 25.5 -65.5t70.5 -24.5q56 0 98 40.5t64 112.5l16 54q11 42 11 61q0 40 -26 65t-71 25z" />
    <glyph glyph-name="f_f_f" unicode="fff" horiz-adv-x="2283" 
d="M715 0l170 635h-262l-170 -635h-473l170 635h-113l106 399h115l8 33q71 262 209 381t395 119q91 0 177 -21l-136 -372q-20 4 -39 4q-135 0 -174 -144h295l8 33q47 175 120.5 282t192 162.5t292.5 55.5q90 0 176 -21l-135 -372q-20 4 -39 4q-135 0 -174 -144h295l8 33
q71 262 209 381t395 119q129 0 250 -31l-148 -371q-54 13 -100 13q-135 0 -174 -144h198l-106 -399h-168l-170 -635h-473l170 635h-262l-170 -635h-473z" />
    <glyph glyph-name="f_f_h" unicode="ffh" horiz-adv-x="2856" 
d="M715 0l170 635h-262l-170 -635h-473l170 635h-113l106 399h115l8 33q71 262 209 381t395 119q91 0 177 -21l-136 -372q-20 4 -39 4q-135 0 -174 -144h295l8 33q47 175 120.5 282t192 162.5t292.5 55.5q90 0 176 -21l-135 -372q-20 4 -39 4q-135 0 -174 -144h198
l-106 -399h-168l-170 -635h-473zM1483 0l411 1536h473l-67 -250q-8 -30 -20 -66.5t-21.5 -63.5t-26.5 -70t-24 -60.5t-26 -62.5t-21 -50h24q58 118 163.5 191.5t227.5 73.5q118 0 189 -78t71 -217q0 -75 -22 -162l-193 -721h-473l150 559q12 46 12 80q0 78 -67 78
q-48 0 -81 -33.5t-53 -108.5l-153 -575h-473z" />
    <glyph glyph-name="f_f_hbar" unicode="ff&#x127;" horiz-adv-x="2856" 
d="M715 0l170 635h-262l-170 -635h-473l170 635h-113l106 399h115l8 33q71 262 209 381t395 119q91 0 177 -21l-136 -372q-20 4 -39 4q-135 0 -174 -144h295l8 33q47 175 120.5 282t192 162.5t292.5 55.5q90 0 176 -21l-135 -372q-20 4 -39 4q-135 0 -174 -144h198
l-106 -399h-168l-170 -635h-473zM2081 467l-125 -467h-473l315 1178h-61l55 204h61l41 154h473l-40 -154h233l-55 -204h-234q-8 -30 -20 -66.5t-21.5 -63.5t-26.5 -70t-24 -60.5t-26 -62.5t-21 -50h25q58 118 163.5 191t227.5 73q118 0 189 -78t71 -217q0 -71 -23 -162
l-164 -612h-473l121 451q12 47 12 79q0 78 -67 78q-48 0 -80.5 -33t-52.5 -108z" />
    <glyph glyph-name="f_f_i" unicode="ffi" horiz-adv-x="2201" 
d="M715 0l170 635h-262l-170 -635h-473l170 635h-113l106 399h115l8 33q71 262 209 381t395 119q91 0 177 -21l-136 -372q-20 4 -39 4q-135 0 -174 -144h295l8 33q47 175 120.5 282t192 162.5t292.5 55.5q90 0 176 -21l-135 -372q-20 4 -39 4q-135 0 -174 -144h198
l-106 -399h-168l-170 -635h-473zM2101 1260h-30q-102 0 -166 54t-64 146q0 108 84.5 187t212.5 79h31q102 0 165.5 -54t63.5 -146q0 -108 -84.5 -187t-212.5 -79zM1790 1147h473l-307 -1147h-473z" />
    <glyph glyph-name="f_f_ij" unicode="ff&#x133;" horiz-adv-x="2865" 
d="M715 0l170 635h-262l-170 -635h-473l170 635h-113l106 399h115l8 33q71 262 209 381t395 119q91 0 177 -21l-136 -372q-20 4 -39 4q-135 0 -174 -144h295l8 33q47 175 120.5 282t192 162.5t292.5 55.5q90 0 176 -21l-135 -372q-20 4 -39 4q-135 0 -174 -144h198
l-106 -399h-168l-170 -635h-473zM2101 1260h-30q-102 0 -166 54t-64 146q0 108 84.5 187t212.5 79h31q102 0 165.5 -54t63.5 -146q0 -108 -84.5 -187t-212.5 -79zM1790 1147h473l-307 -1147h-473zM2765 1260h-31q-102 0 -165.5 54t-63.5 146q0 108 84.5 187t212.5 79h30
q102 0 166 -54t64 -146q0 -108 -84.5 -187t-212.5 -79zM2144 -317q-47 0 -104.5 10t-83.5 20l98 365q16 -4 33 -4q41 0 66 23t40 79l261 971h473l-275 -1026q-62 -232 -183.5 -335t-324.5 -103z" />
    <glyph glyph-name="f_f_j" unicode="ffj" horiz-adv-x="2201" 
d="M715 0l170 635h-262l-170 -635h-473l170 635h-113l106 399h115l8 33q71 262 209 381t395 119q91 0 177 -21l-136 -372q-20 4 -39 4q-135 0 -174 -144h295l8 33q47 175 120.5 282t192 162.5t292.5 55.5q90 0 176 -21l-135 -372q-20 4 -39 4q-135 0 -174 -144h198
l-106 -399h-168l-170 -635h-473zM2101 1260h-30q-102 0 -166 54t-64 146q0 108 84.5 187t212.5 79h31q102 0 165.5 -54t63.5 -146q0 -108 -84.5 -187t-212.5 -79zM1481 -317q-47 0 -105 10t-84 20l99 365q16 -4 32 -4q41 0 66.5 23.5t40.5 78.5l260 971h473l-274 -1026
q-62 -232 -183.5 -335t-324.5 -103z" />
    <glyph glyph-name="f_f_k" unicode="ffk" horiz-adv-x="2856" 
d="M715 0l170 635h-262l-170 -635h-473l170 635h-113l106 399h115l8 33q71 262 209 381t395 119q91 0 177 -21l-136 -372q-20 4 -39 4q-135 0 -174 -144h295l8 33q47 175 120.5 282t192 162.5t292.5 55.5q90 0 176 -21l-135 -372q-20 4 -39 4q-135 0 -174 -144h198
l-106 -399h-168l-170 -635h-473zM2486 530l238 -530h-516l-92 225q-43 107 -56 211h-24q-11 -178 -56 -342l-24 -94h-473l411 1536h473l-135 -504q-43 -158 -129 -342h25q52 87 149 211l197 246h530z" />
    <glyph glyph-name="f_f_l" unicode="ffl" horiz-adv-x="2201" 
d="M715 0l170 635h-262l-170 -635h-473l170 635h-113l106 399h115l8 33q71 262 209 381t395 119q91 0 177 -21l-136 -372q-20 4 -39 4q-135 0 -174 -144h295l8 33q47 175 120.5 282t192 162.5t292.5 55.5q90 0 176 -21l-135 -372q-20 4 -39 4q-135 0 -174 -144h198
l-106 -399h-168l-170 -635h-473zM1894 1536h473l-411 -1536h-473z" />
    <glyph glyph-name="f_f_lcaron" unicode="ff&#x13e;" horiz-adv-x="2531" 
d="M715 0l170 635h-262l-170 -635h-473l170 635h-113l106 399h115l8 33q71 262 209 381t395 119q91 0 177 -21l-136 -372q-20 4 -39 4q-135 0 -174 -144h295l8 33q47 175 120.5 282t192 162.5t292.5 55.5q90 0 176 -21l-135 -372q-20 4 -39 4q-135 0 -174 -144h198
l-106 -399h-168l-170 -635h-473zM2486 1556l301 -67l-270 -668l-221 51zM1894 1536h473l-411 -1536h-473z" />
    <glyph glyph-name="f_f_t" unicode="fft" horiz-adv-x="2422" 
d="M2255 20q-172 -51 -322 -51q-188 0 -283.5 88t-95.5 240q0 73 21 152l59 227h-266l-180 -676h-473l182 676h-264l-180 -676h-473l182 676h-115l105 389h114v2q71 262 209 381t395 119q91 0 177 -21l-136 -372q-20 4 -39 4q-121 0 -163 -113h292v2q47 175 120.5 282
t192 162.5t292.5 55.5q128 0 249 -31l-147 -371q-54 13 -100 13q-122 0 -164 -113h162q83 0 163 36t142.5 96t111 131t78.5 147h221l-104 -390h270l-110 -409h-269l-43 -160q-10 -38 -10 -63q0 -41 23 -59.5t73 -18.5q56 0 127 22z" />
    <glyph glyph-name=".notdef" horiz-adv-x="1167" 
d="M731 -248l469 1745h-737l-469 -1745h737zM565 455h-41l15 53q36 123 159 225q84 71 141.5 169t57.5 192q0 65 -35 106t-104 41q-81 0 -156 -80t-117 -235l-39 2q47 179 132 265.5t186 86.5q83 0 128.5 -53t45.5 -133q0 -109 -65 -214t-162 -188q-106 -89 -131 -186z
M403 0l74 276h41l-74 -276h-41zM-57 -287l489 1823h819l-489 -1823h-819z" />
    <glyph glyph-name=".null" horiz-adv-x="0" 
 />
    <glyph glyph-name="nonmarkingreturn" horiz-adv-x="682" 
 />
    <glyph glyph-name="NULL" horiz-adv-x="0" 
 />
    <glyph glyph-name="CR" unicode="&#xd;" horiz-adv-x="0" 
 />
    <glyph glyph-name="space" unicode=" " horiz-adv-x="409" 
 />
    <glyph glyph-name="exclam" unicode="!" horiz-adv-x="788" 
d="M399 1536h506l-104 -389l-228 -533h-337l59 533zM279 -31h-31q-101 0 -162 54t-61 147q0 109 81.5 187.5t208.5 78.5h31q101 0 162 -53.5t61 -146.5q0 -109 -81.5 -188t-208.5 -79z" />
    <glyph glyph-name="quotedbl" unicode="&#x22;" horiz-adv-x="1003" 
d="M309 1536h430l-49 -184l-209 -508h-286l65 508zM780 1536h430l-49 -184l-209 -508h-286l65 508z" />
    <glyph glyph-name="numbersign" unicode="#" horiz-adv-x="1230" 
d="M784 520l211 496h-442l-211 -496h442zM563 0l205 481h-442l-205 -481h-41l205 481h-248l10 39h254l211 496h-240l11 39h245l205 481h41l-205 -481h443l205 481h40l-204 -481h245l-10 -39h-252l-211 -496h238l-10 -39h-244l-205 -481h-41z" />
    <glyph glyph-name="dollar" unicode="$" horiz-adv-x="1163" 
d="M334 999q0 -71 47 -119.5t143 -62.5l133 496q-155 -28 -239 -118.5t-84 -195.5zM1036 535q0 -134 -102 -228t-293 -121l-49 -186h-41l412 1536h41l-52 -188q95 -22 152 -88t57 -160q0 -26 -6 -56l-41 -4q6 27 6 60q0 79 -46.5 134t-131.5 75l-141 -531
q116 -19 175.5 -85.5t59.5 -157.5zM995 532q0 77 -49.5 133.5t-154.5 75.5l-138 -514q160 23 251 108t91 197zM346 0h-41l51 188q-125 22 -194.5 91t-69.5 180q0 19 6 57l39 4q-6 -30 -6 -61q0 -94 63 -153.5t173 -78.5l147 553q-109 19 -165 75t-56 142q0 126 97 227.5
t278 129.5l49 182h41z" />
    <glyph glyph-name="percent" unicode="%" horiz-adv-x="1253" 
d="M492 983q-97 0 -154 57.5t-57 149.5q0 145 101 255.5t243 110.5q97 0 154 -57t57 -149q0 -145 -101 -256t-243 -111zM618 1518q-121 0 -208.5 -100.5t-87.5 -227.5q0 -77 46 -122.5t130 -45.5q121 0 209 100.5t88 227.5q0 77 -46 122.5t-131 45.5zM1223 1155l20 -35
l-1100 -714l-20 34zM733 -20q-97 0 -154 57t-57 149q0 145 101 256t243 111q97 0 154 -57.5t57 -149.5q0 -145 -101 -255.5t-243 -110.5zM860 514q-121 0 -209 -100.5t-88 -227.5q0 -77 46 -122.5t130 -45.5q121 0 209 100.5t88 227.5q0 77 -46 122.5t-130 45.5z" />
    <glyph glyph-name="ampersand" unicode="&#x26;" horiz-adv-x="1699" 
d="M424 709l16 22q-102 126 -102 277q0 115 46.5 216.5t132 178t215 120.5t286.5 44q214 0 335.5 -99.5t121.5 -277.5q0 -56 -19 -131l-465 -25q10 36 10 76q0 36 -22.5 56t-60.5 20q-44 0 -73.5 -31.5t-29.5 -77.5q0 -63 47 -110l180 -191q47 -49 70 -94h25q77 101 129 221
l436 -51q-36 -112 -124 -237.5t-189 -223.5l122 -121l-350 -321l-143 147q-242 -127 -533 -127q-232 0 -363.5 88.5t-131.5 235.5q0 170 124.5 287.5t309.5 128.5zM766 356l10 23q-34 15 -74 55l-53 53q-43 43 -55 70l-27 -4q-27 -26 -46 -63t-19 -68q0 -44 30.5 -69
t85.5 -25q72 0 148 28z" />
    <glyph glyph-name="quotesingle" unicode="'" horiz-adv-x="573" 
d="M309 1536h471l-49 -184l-209 -508h-327l65 508z" />
    <glyph glyph-name="parenleft" unicode="(" horiz-adv-x="446" 
d="M115 426l149 561q70 263 167.5 409t256.5 242l19 -34q-148 -88 -242 -229.5t-160 -387.5l-151 -567q-54 -202 -54 -326q0 -183 117 -291l-27 -28q-66 63 -97.5 138t-31.5 179q0 126 54 334z" />
    <glyph glyph-name="parenright" unicode=")" horiz-adv-x="446" 
d="M403 987l-149 -561q-70 -263 -167.5 -409t-256.5 -242l-18 35q148 88 241.5 229t159.5 387l152 567q53 198 53 326q0 183 -117 291l27 28q66 -63 97.5 -138t31.5 -179q0 -126 -54 -334z" />
    <glyph glyph-name="asterisk" unicode="*" horiz-adv-x="839" 
d="M842 954l-254 170l-92 -346h-41l92 342l-342 -170l-12 37l344 172l-252 170l24 31l256 -172l92 348h41l-92 -342l340 170l15 -37l-347 -172l254 -170z" />
    <glyph glyph-name="plus" unicode="+" horiz-adv-x="839" 
d="M809 686h-338l-90 -338h-41l90 338h-338l10 39h338l90 340h41l-90 -340h338z" />
    <glyph glyph-name="comma" unicode="," horiz-adv-x="651" 
d="M211 -287h-283l138 269q-113 58 -113 188q0 114 77.5 190t213.5 76h30q101 0 162.5 -53.5t61.5 -146.5q0 -117 -77.5 -255.5t-209.5 -267.5z" />
    <glyph glyph-name="hyphen" unicode="-" horiz-adv-x="796" 
d="M657 430h-594l113 420h594z" />
    <glyph glyph-name="period" unicode="." horiz-adv-x="647" 
d="M207 -31h-31q-101 0 -162 54t-61 147q0 109 82 187.5t209 78.5h30q101 0 162.5 -53.5t61.5 -146.5q0 -109 -82 -188t-209 -79z" />
    <glyph glyph-name="slash" unicode="/" horiz-adv-x="473" 
d="M-231 -287l899 1823h43l-899 -1823h-43z" />
    <glyph glyph-name="zero" unicode="0" horiz-adv-x="1372" 
d="M1389 860l-52 -184q-102 -378 -285 -542.5t-507 -164.5q-246 0 -371 113t-125 328q0 124 39 266l51 184q101 379 284.5 543t508.5 164q246 0 370.5 -113t124.5 -328q0 -128 -38 -266zM831 655l68 226q23 80 23 120q0 57 -24.5 81t-70.5 24q-65 0 -103.5 -47.5
t-78.5 -177.5l-67 -226q-23 -81 -23 -120q0 -57 24 -81t70 -24q65 0 103.5 47.5t78.5 177.5z" />
    <glyph glyph-name="one" unicode="1" horiz-adv-x="811" 
d="M313 1208q139 23 241 111.5t146 216.5h226l-412 -1536h-524z" />
    <glyph glyph-name="two" unicode="2" horiz-adv-x="1392" 
d="M911 440h365l-119 -440h-1210l94 348l473 279q235 137 321.5 223t86.5 168q0 41 -21 64.5t-59 23.5q-65 0 -111 -71t-63 -206l-496 25q64 345 266.5 529t505.5 184q228 0 362 -111.5t134 -304.5q0 -232 -138.5 -385.5t-427.5 -263.5l-122 -47l-7 -25q72 10 166 10z" />
    <glyph glyph-name="three" unicode="3" horiz-adv-x="1329" 
d="M541 -31q-277 0 -409 104t-132 298q0 74 18 157l490 45q-14 -55 -14 -94q0 -53 27 -81.5t75 -28.5q66 0 106.5 48t40.5 113q0 61 -37 89t-122 28h-49l67 258h51q113 0 170.5 54t57.5 135q0 37 -20.5 58.5t-55.5 21.5q-102 0 -146 -181l-481 45q70 270 247.5 399.5
t475.5 129.5q253 0 388.5 -93t135.5 -247q0 -177 -125 -290.5t-339 -113.5l-7 -24q139 -17 218 -95.5t79 -203.5q0 -85 -25.5 -162t-81.5 -145t-137.5 -117.5t-201 -78t-264.5 -28.5z" />
    <glyph glyph-name="four" unicode="4" horiz-adv-x="1386" 
d="M49 537l766 999h635l-236 -881h134l-119 -440h-133l-58 -215h-483l57 215h-596zM510 655h221l117 435h-25q-52 -101 -147 -228q-83 -111 -160 -182z" />
    <glyph glyph-name="five" unicode="5" horiz-adv-x="1325" 
d="M1260 588q0 -94 -28.5 -183.5t-88.5 -168.5t-144.5 -138.5t-204 -94t-259.5 -34.5q-250 0 -389.5 111.5t-139.5 292.5q0 52 17 135l493 45q-12 -47 -12 -96q0 -52 25.5 -80.5t68.5 -28.5q61 0 100 52.5t39 148.5q0 47 -24 72.5t-68 25.5t-92 -33l-449 76l318 846h1067
l-119 -440h-700l-43 -111q-22 -55 -58 -121l15 -12q135 109 329 109q161 0 254 -100.5t93 -272.5z" />
    <glyph glyph-name="six" unicode="6" horiz-adv-x="1368" 
d="M1296 618q0 -132 -49 -249.5t-138 -206.5t-224 -141t-297 -52q-261 0 -397 122.5t-136 342.5q0 125 41 273l35 122q110 394 297 566t506 172q496 0 496 -473l-502 -50q2 16 2 39q0 39 -23.5 61.5t-68.5 22.5q-64 0 -110 -55t-85 -201l-25 -92h25q122 142 313 142
q157 0 248.5 -89t91.5 -254zM801 545q0 40 -27.5 65t-71.5 25q-60 0 -104 -37.5t-63 -103.5l-5 -15q-6 -27 -6 -51q0 -40 27.5 -65t71.5 -25q60 0 104.5 37.5t63.5 103.5l4 15q6 27 6 51z" />
    <glyph glyph-name="seven" unicode="7" horiz-adv-x="1241" 
d="M672 1044h-504l131 492h1169l-94 -348l-309 -344q-169 -189 -276.5 -410t-120.5 -434h-600q41 240 193 483.5t380 409.5l188 137l7 25q-79 -11 -164 -11z" />
    <glyph glyph-name="eight" unicode="8" horiz-adv-x="1402" 
d="M791 915h6q66 0 113.5 58.5t47.5 136.5q0 44 -23 68t-65 24h-6q-67 0 -113 -58.5t-46 -137.5q0 -44 23 -67.5t63 -23.5zM580 -31q-280 0 -434 99.5t-154 269.5q0 179 132 291t363 108l9 25q-133 10 -209 94t-76 211q0 79 23.5 150.5t78 136t135 111.5t202 74.5
t272.5 27.5q283 0 428 -97.5t145 -257.5q0 -171 -128.5 -272t-338.5 -96l-6 -25q131 -14 217 -98t86 -217q0 -85 -24 -161t-80 -145.5t-140 -119.5t-212.5 -79.5t-288.5 -29.5zM645 348q55 0 96 32.5t58.5 75.5t17.5 87q0 94 -104 94q-55 0 -95.5 -32.5t-57.5 -75t-17 -83.5
q0 -98 102 -98z" />
    <glyph glyph-name="nine" unicode="9" horiz-adv-x="1370" 
d="M674 991q0 -40 27 -65t71 -25q60 0 104.5 37.5t63.5 103.5l4 15q6 27 6 51q0 40 -27 65t-71 25q-60 0 -104.5 -37.5t-63.5 -103.5l-4 -15q-6 -27 -6 -51zM178 918q0 105 30.5 202t91.5 178t145.5 141t198 94t243.5 34q261 0 396.5 -122t135.5 -343q0 -125 -41 -273
l-35 -122q-110 -394 -296.5 -566t-505.5 -172q-496 0 -496 473l502 50q-2 -16 -2 -39q0 -39 23.5 -61.5t68.5 -22.5q64 0 109.5 55t84.5 201l25 92h-25q-122 -142 -313 -142q-157 0 -248.5 89t-91.5 254z" />
    <glyph glyph-name="colon" unicode=":" horiz-adv-x="647" 
d="M207 -31h-31q-101 0 -162 54t-61 147q0 109 82 187.5t209 78.5h30q101 0 162.5 -53.5t61.5 -146.5q0 -109 -82 -188t-209 -79zM406 711h-31q-101 0 -162 53.5t-61 146.5q0 109 81.5 188t208.5 79h31q101 0 162 -54t61 -147q0 -109 -81.5 -187.5t-208.5 -78.5z" />
    <glyph glyph-name="semicolon" unicode=";" horiz-adv-x="651" 
d="M211 -287h-283l138 269q-113 58 -113 188q0 114 77.5 190t213.5 76h30q101 0 162.5 -53.5t61.5 -146.5q0 -117 -77.5 -255.5t-209.5 -267.5zM406 711h-31q-101 0 -162 53.5t-61 146.5q0 109 81.5 188t208.5 79h31q101 0 162 -54t61 -147q0 -109 -81.5 -187.5
t-208.5 -78.5z" />
    <glyph glyph-name="less" unicode="&#x3c;" horiz-adv-x="882" 
d="M731 389l-637 303l6 23l799 303l-12 -47l-721 -271l575 -272z" />
    <glyph glyph-name="equal" unicode="=" horiz-adv-x="921" 
d="M915 930l-10 -39h-717l11 39h716zM805 520l-10 -39h-717l10 39h717z" />
    <glyph glyph-name="greater" unicode="&#x3e;" horiz-adv-x="880" 
d="M852 692l-799 -303l13 47l720 271l-575 272l10 39l637 -303z" />
    <glyph glyph-name="question" unicode="?" horiz-adv-x="1372" 
d="M692 850q205 66 205 180q0 35 -22 55.5t-62 20.5q-61 0 -109.5 -58t-58.5 -157l-481 24q31 172 100.5 299t170 203.5t221 113t264.5 36.5q232 0 364.5 -111.5t132.5 -269.5q0 -168 -102.5 -297t-276.5 -195q-94 -36 -137.5 -68t-52.5 -69l-404 8q0 100 62 173t186 112z
M547 -31h-31q-101 0 -162 54t-61 147q0 109 82 187.5t209 78.5h30q101 0 162.5 -53.5t61.5 -146.5q0 -109 -82 -188t-209 -79z" />
    <glyph glyph-name="at" unicode="@" horiz-adv-x="1890" 
d="M739 -307q-306 0 -480.5 174t-174.5 483q0 232 87.5 452.5t234.5 386t353 266.5t431 101q301 0 476 -168.5t175 -457.5q0 -167 -40 -312.5t-105 -242.5t-148 -152t-170 -55q-80 0 -129 49.5t-49 144.5v27q-66 -110 -160.5 -169.5t-210.5 -59.5q-134 0 -208 74.5
t-74 197.5q0 73 20 152l17 61q52 192 177.5 308t295.5 116q111 0 177.5 -61t82.5 -154l51 195h41l-147 -553q-21 -73 -21 -127q0 -162 143 -162q75 0 149.5 53t133 145.5t95 230.5t36.5 294q0 272 -164 430t-454 158q-170 0 -332 -63.5t-291.5 -176t-228 -258.5t-152 -319.5
t-53.5 -350.5q0 -290 166.5 -454t455.5 -164q115 0 246.5 37t245.5 102l16 -37q-119 -67 -254.5 -104t-259.5 -37zM1280 788q0 112 -59 177t-174 65q-146 0 -259.5 -107.5t-158.5 -267.5l-23 -82q-18 -71 -18 -135q0 -111 62 -175t186 -64q137 0 247.5 105.5t155.5 268.5
l23 82q18 71 18 133z" />
    <glyph glyph-name="A" unicode="A" horiz-adv-x="1392" 
d="M713 629h2q47 0 71 -6l27 16q-2 18 -2 47q0 40 4 80l10 133q5 86 27 197h-25q-36 -103 -79 -197l-68 -149q-33 -71 -57 -111l14 -16q30 6 76 6zM748 0l22 260h-301l-117 -260h-516l776 1536h668l-31 -1536h-501z" />
    <glyph glyph-name="B" unicode="B" horiz-adv-x="1425" 
d="M850 1182h-59l-72 -267h59q92 0 138.5 54t46.5 133q0 80 -113 80zM682 637h-39l-72 -268h60q101 0 148.5 50t47.5 128q0 90 -145 90zM-31 0l412 1536h680q210 0 325 -80.5t115 -222.5q0 -84 -35 -162t-102 -137q-126 -108 -344 -111l-6 -24q146 -3 231.5 -74.5
t85.5 -206.5q0 -113 -45.5 -220.5t-136.5 -178.5q-149 -119 -428 -119h-752z" />
    <glyph glyph-name="C" unicode="C" horiz-adv-x="1402" 
d="M868 655l486 -37q-96 -344 -283.5 -496.5t-509.5 -152.5q-256 0 -384 113t-128 328q0 124 39 266l51 184q70 255 174 408.5t258 226t377 72.5q257 0 385.5 -113t128.5 -328q0 -90 -28 -211l-502 -34q20 72 20 120q0 58 -26.5 81.5t-81.5 23.5q-73 0 -116.5 -47.5
t-82.5 -177.5l-67 -226q-23 -81 -23 -120q0 -57 28 -81t83 -24q73 0 116.5 47.5t85.5 177.5z" />
    <glyph glyph-name="D" unicode="D" horiz-adv-x="1458" 
d="M809 1106h-39l-182 -676h39q132 0 204 121q51 84 86 198t35 201q0 156 -143 156zM-31 0l412 1536h625q231 0 355 -120t124 -345q0 -218 -82.5 -465t-214.5 -397q-91 -103 -221.5 -156t-286.5 -53h-711z" />
    <glyph glyph-name="E" unicode="E" horiz-adv-x="1310" 
d="M-31 0l412 1536h1085l-114 -430h-582l-47 -170h494l-87 -328h-493l-45 -168h602l-119 -440h-1106z" />
    <glyph glyph-name="F" unicode="F" horiz-adv-x="1228" 
d="M1098 485h-494l-131 -485h-504l412 1536h1085l-127 -471h-581l-51 -191h493z" />
    <glyph glyph-name="G" unicode="G" horiz-adv-x="1421" 
d="M465 -31q-197 0 -305.5 110.5t-108.5 305.5q0 158 37 291l51 184q70 255 174 408.5t258 226t377 72.5q257 0 385.5 -113t128.5 -328q0 -97 -24 -190l-500 -35q20 72 20 121q0 58 -26.5 81t-81.5 23q-73 0 -116.5 -47.5t-82.5 -177.5l-98 -328q-25 -78 -17.5 -123t34 -63
t77.5 -18q67 0 110 29t87 110l-13 16q-49 -12 -120 -12l77 287h613l-215 -799h-307l18 162h-25q-60 -85 -165 -139t-242 -54z" />
    <glyph glyph-name="H" unicode="H" horiz-adv-x="1536" 
d="M756 0l139 518h-283l-139 -518h-504l412 1536h504l-148 -547h283l147 547h504l-411 -1536h-504z" />
    <glyph glyph-name="I" unicode="I" horiz-adv-x="749" 
d="M381 1536h504l-412 -1536h-504z" />
    <glyph glyph-name="J" unicode="J" horiz-adv-x="1316" 
d="M1212 567q-84 -318 -245 -454q-168 -144 -475 -144q-242 0 -368 118.5t-126 326.5q0 91 25 207l491 34q-25 -95 -25 -143q0 -39 18.5 -60.5t51.5 -21.5q57 0 97 45t71 160l242 901h504z" />
    <glyph glyph-name="K" unicode="K" horiz-adv-x="1433" 
d="M1067 715l233 -715h-518l-114 389q-32 111 -37 221h-25q-20 -190 -63 -352l-70 -258h-504l412 1536h504l-80 -299q-37 -139 -125 -352h25q65 119 141 221l325 430h541z" />
    <glyph glyph-name="L" unicode="L" horiz-adv-x="1126" 
d="M-31 0l412 1536h504l-285 -1065h479l-127 -471h-983z" />
    <glyph glyph-name="M" unicode="M" horiz-adv-x="1947" 
d="M1229 512l-326 -512h-207l-51 512q-10 105 -10 207q0 41 2 74h-25q-29 -229 -69 -371l-113 -422h-461l412 1536h586l22 -530q2 -37 2 -113q0 -51 -4 -113h25q45 103 121 226l325 530h625l-412 -1536h-502l113 422q55 197 131 371h-27q-85 -169 -157 -281z" />
    <glyph glyph-name="N" unicode="N" horiz-adv-x="1536" 
d="M913 1536l72 -557q15 -116 12 -211l-2 -70h25q26 205 70 371l124 467h457l-411 -1536h-547l-70 512q-15 108 -12 197l2 84h-25q-27 -212 -69 -371l-113 -422h-457l412 1536h532z" />
    <glyph glyph-name="O" unicode="O" horiz-adv-x="1413" 
d="M1430 860l-52 -184q-105 -378 -293 -542.5t-520 -164.5q-257 0 -386.5 113t-129.5 328q0 124 39 266l51 184q104 379 292.5 543t520.5 164q257 0 386.5 -113t129.5 -328q0 -128 -38 -266zM872 655l68 226q23 80 23 120q0 57 -29.5 81t-85.5 24q-74 0 -119 -48t-84 -177
l-67 -226q-23 -81 -23 -120q0 -57 29.5 -81t85.5 -24q74 0 118.5 48t83.5 177z" />
    <glyph glyph-name="P" unicode="P" horiz-adv-x="1394" 
d="M817 1137h-39l-94 -349h39q60 0 106 21.5t72.5 57.5t39.5 78t13 87q0 105 -137 105zM791 410h-207l-111 -410h-504l412 1536h608q498 0 498 -389q0 -154 -56 -315.5t-155 -256.5q-171 -165 -485 -165z" />
    <glyph glyph-name="Q" unicode="Q" horiz-adv-x="1413" 
d="M713 -162q0 71 -38 101t-110 30q-257 0 -386.5 113t-129.5 328q0 124 39 266l51 184q104 379 292.5 543t520.5 164q257 0 386.5 -113t129.5 -328q0 -128 -38 -266l-35 -123q-67 -238 -172 -358.5t-260 -167.5l-27 -8l-8 -25l41 -6q243 -38 243 -276q0 -52 -12 -117
l-500 -35q13 60 13 94zM872 655l68 226q23 80 23 120q0 57 -29.5 81t-85.5 24q-74 0 -119 -48t-84 -177l-67 -226q-23 -81 -23 -120q0 -57 29.5 -81t85.5 -24q74 0 118.5 48t83.5 177z" />
    <glyph glyph-name="R" unicode="R" horiz-adv-x="1419" 
d="M860 1182h-69l-101 -369h64q91 0 151 82t60 184q0 54 -25 78.5t-80 24.5zM606 473h-6l-127 -473h-504l412 1536h690q212 0 322 -81.5t110 -233.5q0 -108 -40 -215t-115 -181q-122 -119 -351 -125l-8 -24l39 -6q104 -17 155.5 -91.5t63.5 -222.5l29 -356h-524l-21 369
q-3 59 -30.5 81.5t-94.5 22.5z" />
    <glyph glyph-name="S" unicode="S" horiz-adv-x="1320" 
d="M1260 557q0 -114 -56.5 -233t-161.5 -203q-194 -152 -538 -152q-252 0 -376 94.5t-124 290.5q0 51 10 123l500 25q-10 -42 -10 -64q0 -39 23 -55t67 -16q64 0 105.5 34t41.5 84q0 62 -84 88l-182 56q-282 84 -282 342q0 124 64.5 252t184.5 213q181 131 480 131
q471 0 471 -383q0 -42 -11 -125l-491 -25q12 46 12 74q0 70 -80 70q-62 0 -99.5 -37.5t-37.5 -87.5q0 -73 72 -90l209 -52q141 -34 217 -125t76 -229z" />
    <glyph glyph-name="T" unicode="T" horiz-adv-x="1269" 
d="M1360 1065h-342l-285 -1065h-504l285 1065h-342l127 471h1188z" />
    <glyph glyph-name="U" unicode="U" horiz-adv-x="1474" 
d="M864 1536l-241 -901q-19 -74 -19 -113q0 -51 26 -71.5t79 -20.5q75 0 120 44.5t76 160.5l242 901h483l-235 -881q-97 -363 -284 -524.5t-495 -161.5q-261 0 -394.5 109.5t-133.5 314.5q0 128 37 262l235 881h504z" />
    <glyph glyph-name="V" unicode="V" horiz-adv-x="1392" 
d="M1133 1536h528l-764 -1536h-692l43 1536h500l-74 -864q-8 -88 -29 -213h25q34 92 86 213z" />
    <glyph glyph-name="W" unicode="W" horiz-adv-x="2101" 
d="M1014 0l43 492q12 147 37 266h-25q-23 -71 -106 -266l-205 -492h-602l92 1536h506l-119 -834q-16 -117 -35 -215h25q43 124 82 215l358 834h469l-88 -834q-10 -108 -33 -215h25q4 13 82 215l323 834h527l-734 -1536h-622z" />
    <glyph glyph-name="X" unicode="X" horiz-adv-x="1376" 
d="M395 780l-125 756h521l24 -246q6 -63 6 -176h27q28 74 94 176l154 246h526l-530 -772l141 -764h-518l-33 272q-12 102 -12 179h-29q-43 -96 -98 -179l-176 -272h-531z" />
    <glyph glyph-name="Y" unicode="Y" horiz-adv-x="1372" 
d="M784 0h-503l131 485l-174 1051h522l16 -367v-63q0 -85 -14 -170h24q34 91 113 233l201 367h551l-738 -1057z" />
    <glyph glyph-name="Z" unicode="Z" horiz-adv-x="1259" 
d="M834 471h348l-127 -471h-1168l95 348l487 506q61 63 125 118t102 79v24q-72 -10 -166 -10h-327l127 471h1126l-98 -369l-463 -485q-61 -63 -125 -118t-102 -79v-24q72 10 166 10z" />
    <glyph glyph-name="bracketleft" unicode="[" horiz-adv-x="442" 
d="M-35 -205l490 1823h268l-10 -37h-228l-469 -1749h228l-11 -37h-268z" />
    <glyph glyph-name="backslash" unicode="\" horiz-adv-x="468" 
d="M240 -287h-41l80 1823h40z" />
    <glyph glyph-name="bracketright" unicode="]" horiz-adv-x="442" 
d="M-209 -205l10 37h228l469 1749h-228l11 37h268l-490 -1823h-268z" />
    <glyph glyph-name="asciicircum" unicode="^" horiz-adv-x="1208" 
d="M1085 655l-237 818l-672 -818h-51l727 881h20l256 -881h-43z" />
    <glyph glyph-name="underscore" unicode="_" horiz-adv-x="901" 
d="M748 0l-11 -39h-901l10 39h902z" />
    <glyph glyph-name="grave" unicode="`" horiz-adv-x="634" 
d="M418 1671l401 -266l-88 -162l-442 193z" />
    <glyph glyph-name="a" unicode="a" horiz-adv-x="1243" 
d="M565 467q-52 0 -86.5 -40.5t-34.5 -102.5q0 -33 18.5 -52.5t53.5 -19.5q52 0 86.5 40.5t34.5 102.5q0 33 -18.5 52.5t-53.5 19.5zM612 141h-24q-48 -75 -142 -123.5t-196 -48.5q-134 0 -207.5 71t-73.5 191q0 204 126 334.5t341 130.5q96 0 163.5 -25t92.5 -61h25
q10 30 10 60q0 65 -43.5 93t-151.5 28q-155 0 -307 -50v363q241 74 500 74q230 0 347.5 -111t117.5 -293q0 -91 -33 -219l-149 -555h-412z" />
    <glyph glyph-name="b" unicode="b" horiz-adv-x="1349" 
d="M457 233h-25l-84 -233h-409l411 1536h471l-67 -250q-37 -133 -127 -321h24q138 213 373 213q139 0 222 -96t83 -263q0 -93 -31 -211l-24 -92q-74 -280 -212 -413.5t-321 -133.5q-139 0 -208.5 70t-75.5 194zM731 737q-56 0 -98 -40.5t-64 -112.5l-16 -54q-10 -33 -10 -61
q0 -41 25.5 -65.5t70.5 -24.5q56 0 98 40.5t64 112.5l16 54q10 38 10 61q0 41 -25.5 65.5t-70.5 24.5z" />
    <glyph glyph-name="c" unicode="c" horiz-adv-x="1191" 
d="M457 -31q-209 0 -324 111t-115 295q0 68 23 162l27 98q73 274 238 408.5t442 134.5q204 0 316 -110.5t112 -293.5q0 -45 -9 -94l-454 -35q10 33 10 64q0 79 -64 79q-42 0 -70 -33t-50 -104l-43 -143q-15 -47 -15 -76q0 -34 18.5 -54t49.5 -20q42 0 71 32.5t48 111.5
l446 -35q-76 -251 -236 -374.5t-421 -123.5z" />
    <glyph glyph-name="d" unicode="d" horiz-adv-x="1363" 
d="M625 430q56 0 97.5 41t63.5 113l17 53q10 33 10 61q0 41 -25.5 65.5t-70.5 24.5q-56 0 -98 -40.5t-64 -112.5l-16 -53q-11 -42 -11 -62q0 -40 26 -65t71 -25zM1047 1536h483l-412 -1536h-422l41 233h-24q-59 -121 -165.5 -192.5t-234.5 -71.5q-130 0 -210 96.5t-80 262.5
q0 97 30 211l25 92q74 280 212 413.5t324 133.5q128 0 202 -60t93 -153h25q11 198 45 321z" />
    <glyph glyph-name="e" unicode="e" horiz-adv-x="1224" 
d="M555 696l-10 -34h200q19 75 19 102q0 35 -19.5 55.5t-54.5 20.5q-94 0 -135 -144zM1116 377q-71 -195 -233.5 -301.5t-399.5 -106.5q-222 0 -343.5 110.5t-121.5 295.5q0 80 23 162l27 98q74 273 243.5 408t450.5 135q198 0 326.5 -99t128.5 -260q0 -120 -62 -303h-651
l-17 -53q-12 -40 -12 -74q0 -30 21 -50t55 -20q40 0 69 27t54 88z" />
    <glyph glyph-name="f" unicode="f" horiz-adv-x="813" 
d="M791 635h-168l-170 -635h-473l170 635h-113l106 399h115l8 33q71 262 209 381t395 119q129 0 250 -31l-147 -371q-54 13 -101 13q-135 0 -174 -144h199z" />
    <glyph glyph-name="g" unicode="g" horiz-adv-x="1249" 
d="M258 395l6 25q-178 71 -178 235q0 56 14 105l9 26q60 194 223.5 293t453.5 99q86 0 141.5 50t84.5 175l461 -35q-56 -151 -147.5 -237.5t-205.5 -104.5l-39 -6l-6 -25l23 -10q70 -32 106.5 -84t36.5 -117q0 -48 -12 -94l-8 -28q-57 -198 -218 -285.5t-471 -87.5
q-155 0 -155 -80q0 -55 78 -55q31 0 108 4t105 4q182 0 269 -73t87 -228q0 -60 -16 -148l-502 -30q2 10 2 24q0 66 -80 66q-35 0 -102.5 -4.5t-98.5 -4.5q-148 0 -233.5 80.5t-85.5 196.5q0 124 98 225.5t252 128.5zM707 891q-55 0 -96 -37.5t-58 -101.5l-10 -37
q-8 -33 -8 -56q0 -84 94 -84q55 0 95 38t58 102l11 37q8 33 8 55q0 84 -94 84z" />
    <glyph glyph-name="h" unicode="h" 
d="M-61 0l411 1536h473l-67 -250q-9 -36 -22 -75t-31.5 -86.5t-28.5 -73t-32.5 -79t-25.5 -59.5h25q58 118 163.5 191.5t227.5 73.5q118 0 189 -78t71 -217q0 -75 -22 -162l-193 -721h-473l150 559q12 47 12 80q0 78 -68 78q-48 0 -80.5 -33.5t-52.5 -108.5l-153 -575h-473z
" />
    <glyph glyph-name="i" unicode="i" horiz-adv-x="655" 
d="M557 1260h-31q-102 0 -165.5 54t-63.5 146q0 108 84.5 187t212.5 79h31q102 0 165.5 -54t63.5 -146q0 -108 -84.5 -187t-212.5 -79zM246 1147h473l-307 -1147h-473z" />
    <glyph glyph-name="j" unicode="j" horiz-adv-x="655" 
d="M557 1260h-31q-102 0 -165.5 54t-63.5 146q0 108 84.5 187t212.5 79h31q102 0 165.5 -54t63.5 -146q0 -108 -84.5 -187t-212.5 -79zM-63 -317q-47 0 -105 10t-84 20l98 365q16 -4 33 -4q41 0 66.5 23.5t40.5 78.5l260 971h473l-275 -1026q-62 -233 -183 -335.5
t-324 -102.5z" />
    <glyph glyph-name="k" unicode="k" 
d="M942 530l238 -530h-516l-93 225q-42 103 -55 211h-24q-11 -178 -56 -342l-24 -94h-473l411 1536h473l-135 -504q-43 -158 -129 -342h25q52 87 149 211l197 246h530z" />
    <glyph glyph-name="l" unicode="l" horiz-adv-x="657" 
d="M350 1536h473l-411 -1536h-473z" />
    <glyph glyph-name="m" unicode="m" horiz-adv-x="1925" 
d="M1255 913h25q45 121 146.5 193t220.5 72q121 0 189.5 -77.5t68.5 -217.5q0 -71 -23 -162l-192 -721h-473l149 559q12 47 12 82q0 76 -57 76q-42 0 -69.5 -33t-47.5 -109l-153 -575h-473l149 559q12 47 12 82q0 76 -57 76q-42 0 -70.5 -33.5t-46.5 -108.5l-153 -575h-473
l307 1147h411l-41 -234h25q56 123 154 194t215 71q108 0 173 -69t72 -196z" />
    <glyph glyph-name="n" unicode="n" 
d="M766 639q0 78 -68 78q-48 0 -80.5 -33.5t-52.5 -108.5l-153 -575h-473l307 1147h411l-41 -234h25q58 118 163.5 191.5t227.5 73.5q118 0 189 -78t71 -217q0 -75 -22 -162l-193 -721h-473l150 559q12 47 12 80z" />
    <glyph glyph-name="o" unicode="o" horiz-adv-x="1245" 
d="M68 635q74 274 244.5 408.5t455.5 134.5q218 0 338.5 -110.5t120.5 -293.5q0 -82 -23 -164l-26 -98q-74 -273 -245 -408t-456 -135q-218 0 -338.5 111t-120.5 295q0 80 23 162zM539 645l-45 -143q-13 -41 -13 -64q0 -80 84 -80q98 0 142 144l45 143q12 37 12 64
q0 79 -84 79q-97 0 -141 -143z" />
    <glyph glyph-name="p" unicode="p" horiz-adv-x="1361" 
d="M739 717q-56 0 -97.5 -41t-63.5 -113l-17 -53q-10 -33 -10 -61q0 -41 25.5 -66t70.5 -25q56 0 98 41t64 113l16 53q11 42 11 62q0 40 -26 65t-71 25zM344 -287h-483l385 1434h422l-41 -234h24q59 122 166 193.5t234 71.5q130 0 210 -96.5t80 -262.5q0 -97 -30 -211
l-25 -92q-74 -280 -212 -413.5t-324 -133.5q-128 0 -202 60t-93 153h-25q-11 -198 -45 -321z" />
    <glyph glyph-name="q" unicode="q" horiz-adv-x="1349" 
d="M895 913h25l84 234h409l-385 -1434h-471l41 148q39 137 127 321h-25q-138 -213 -372 -213q-139 0 -222 96t-83 263q0 97 30 211l25 92q74 280 211.5 413.5t320.5 133.5q139 0 209 -70.5t76 -194.5zM621 410q56 0 97.5 40.5t63.5 112.5l17 53q10 33 10 62q0 41 -25.5 65.5
t-70.5 24.5q-56 0 -98 -41t-64 -113l-16 -53q-11 -42 -11 -61q0 -40 26 -65t71 -25z" />
    <glyph glyph-name="r" unicode="r" horiz-adv-x="1165" 
d="M555 532v3l-143 -535h-473l307 1147h411l-41 -234h25q67 125 158 195t192 70q95 0 157 -74t62 -217q0 -117 -36 -248l-447 -70q8 32 8 56q0 34 -14 52.5t-39 18.5q-84 0 -127 -164z" />
    <glyph glyph-name="s" unicode="s" horiz-adv-x="1150" 
d="M106 737q0 76 43.5 159t120.5 146q164 136 435 136q198 0 318 -78.5t120 -218.5q0 -49 -6 -86l-445 -27q6 18 6 35q0 49 -59 49q-39 0 -62.5 -22t-23.5 -50q0 -49 65 -61l173 -33q125 -24 196.5 -93.5t71.5 -174.5q0 -84 -45 -166t-131 -150q-81 -64 -198 -98.5
t-251 -34.5q-207 0 -334 79.5t-127 221.5q0 32 7 76l444 33q-4 -16 -4 -29q0 -53 67 -53q44 0 71.5 21t27.5 51q0 47 -66 63l-153 39q-118 30 -189.5 97t-71.5 169z" />
    <glyph glyph-name="t" unicode="t" horiz-adv-x="937" 
d="M770 20q-172 -51 -321 -51q-188 0 -283.5 88t-95.5 240q0 76 20 152l74 278h-113l90 338q165 53 288 161.5t196 248.5h213l-88 -328h270l-113 -420h-268l-57 -211q-11 -42 -11 -63q0 -41 23.5 -59.5t73.5 -18.5q56 0 127 22z" />
    <glyph glyph-name="u" unicode="u" 
d="M547 508q0 -78 67 -78q49 0 81.5 33t52.5 108l153 576h473l-307 -1147h-412l41 233h-24q-58 -118 -163.5 -191t-227.5 -73q-118 0 -189.5 78t-71.5 217q0 71 23 162l193 721h473l-150 -559q-12 -46 -12 -80z" />
    <glyph glyph-name="v" unicode="v" horiz-adv-x="1226" 
d="M879 1147h503l-587 -1147h-658l17 1147h483l-55 -529q-7 -76 -33 -212h24q37 108 82 212z" />
    <glyph glyph-name="w" unicode="w" horiz-adv-x="1820" 
d="M860 0l8 336q3 77 17 162h-21q-29 -85 -63 -162l-146 -336h-544l53 1147h473l-84 -529q-12 -86 -39 -212h25q39 112 84 212l235 529h393l-43 -529q-7 -103 -28 -212h24q38 118 74 212l195 529h493l-561 -1147h-545z" />
    <glyph glyph-name="x" unicode="x" horiz-adv-x="1179" 
d="M279 588l-115 559h481l17 -146q6 -40 6 -83q0 -25 -2 -48h24q22 58 66 131l88 146h479l-422 -584l135 -563h-481l-27 166q-10 52 -10 96q0 15 2 35h-24q-15 -42 -70 -131l-107 -166h-483z" />
    <glyph glyph-name="y" unicode="y" horiz-adv-x="1226" 
d="M879 1147h503l-741 -1434h-485l77 119q60 92 119 148l-2 20h-213l17 1147h483l-55 -529q-7 -76 -33 -212h24q37 108 82 212z" />
    <glyph glyph-name="z" unicode="z" horiz-adv-x="1044" 
d="M741 399h215l-106 -399h-963l74 276l279 271q125 119 231 186l6 25q-72 -10 -164 -10h-194l106 399h922l-80 -297l-252 -250q-109 -108 -231 -186l-6 -25q72 10 163 10z" />
    <glyph glyph-name="braceleft" unicode="{" horiz-adv-x="419" 
d="M395 1012q0 -103 -63.5 -183t-163.5 -124q41 -23 69.5 -72t28.5 -107q0 -64 -27.5 -126.5t-67 -112t-79 -97.5t-67 -102t-27.5 -106q0 -62 41 -103t129 -51l-12 -37q-95 10 -147 62t-52 129q0 58 27.5 115.5t67 106l79 97t67 107t27.5 118.5q0 51 -27.5 93t-74.5 67
l10 41q101 47 161 119.5t60 163.5q0 59 -17.5 153t-17.5 146q0 127 81 213.5t239 99.5v-39q-137 -13 -208 -89t-71 -175q0 -50 17.5 -146.5t17.5 -160.5z" />
    <glyph glyph-name="bar" unicode="|" horiz-adv-x="389" 
d="M-57 -287l489 1823h41l-489 -1823h-41z" />
    <glyph glyph-name="braceright" unicode="}" horiz-adv-x="419" 
d="M96 401q0 103 64 183.5t164 124.5q-41 23 -70 71.5t-29 106.5q0 64 27.5 126.5t67.5 112.5t79.5 98t67 102t27.5 106q0 62 -41 102.5t-129 50.5l12 37q95 -10 147 -61.5t52 -128.5q0 -58 -27.5 -115.5t-67.5 -106t-79.5 -97.5t-67 -107.5t-27.5 -118.5q0 -51 28 -92.5
t75 -67.5l-11 -41q-101 -47 -161 -119.5t-60 -163.5q0 -59 17.5 -153t17.5 -146q0 -127 -80.5 -213.5t-238.5 -99.5v39q137 13 207.5 88.5t70.5 175.5q0 50 -17.5 146.5t-17.5 160.5z" />
    <glyph glyph-name="asciitilde" unicode="~" horiz-adv-x="1103" 
d="M784 522q-57 0 -102 33t-75.5 80.5t-59.5 95t-69 80.5t-89 33q-69 0 -140 -76.5t-114 -224.5h-41q44 165 126.5 253.5t172.5 88.5q48 0 88.5 -24t65.5 -59.5t52.5 -77.5t50.5 -77.5t58.5 -59.5t77.5 -24q71 0 140.5 75t113.5 226h41q-44 -166 -125.5 -254t-171.5 -88z
" />
    <glyph glyph-name="uni00A0" unicode="&#xa0;" horiz-adv-x="409" 
 />
    <glyph glyph-name="exclamdown" unicode="&#xa1;" horiz-adv-x="788" 
d="M416 -287h-506l78 287l227 532h338l-59 -532zM475 711h-31q-101 0 -162 53.5t-61 146.5q0 109 82 188t209 79h31q101 0 162 -54t61 -147q0 -109 -82 -187.5t-209 -78.5z" />
    <glyph glyph-name="cent" unicode="&#xa2;" horiz-adv-x="909" 
d="M897 1026q-43 -132 -144 -204t-223 -72l-79 -299h-41l79 301q-110 10 -166.5 79.5t-56.5 174.5q0 49 17 122l12 50q41 165 153.5 271.5t258.5 106.5l69 267h41l-72 -269q105 -7 164.5 -67.5t59.5 -157.5q0 -19 -4 -39l-41 -4q4 24 4 43q0 88 -57 138.5t-162 50.5
q-130 0 -232.5 -97.5t-140.5 -240.5l-14 -54q-15 -62 -15 -120q0 -99 56 -158.5t169 -59.5q108 0 199.5 66.5t126.5 175.5z" />
    <glyph glyph-name="sterling" unicode="&#xa3;" horiz-adv-x="1282" 
d="M860 870h-614l10 39h195q29 312 162.5 479.5t357.5 167.5q124 0 204 -77t80 -199q0 -53 -16 -125l-41 -4q14 63 14 129q0 108 -67 173t-180 65q-204 0 -324.5 -160t-148.5 -449h378zM768 -20q-54 0 -100.5 14t-86.5 42.5t-68.5 53.5t-66.5 63.5t-59 57.5
q-39 -130 -92 -180.5t-127 -50.5q-63 0 -105.5 42.5t-42.5 104.5q0 84 59.5 140.5t147.5 56.5q76 0 138 -43q35 135 53 346h-238l10 39h615l-10 -39h-336q-25 -243 -60 -373q29 -23 79 -73t83.5 -80.5t90.5 -56.5t118 -26q87 0 153 65t66 155q0 37 -6 67l43 14q6 -38 6 -73
q0 -112 -77.5 -189t-186.5 -77zM174 18q56 0 100 48.5t80 171.5q-63 47 -133 47q-65 0 -112.5 -47.5t-47.5 -110.5q0 -47 31 -78t82 -31z" />
    <glyph glyph-name="currency" unicode="&#xa4;" horiz-adv-x="1470" 
d="M903 1241q-107 0 -215.5 -50.5t-192 -132.5t-136 -193t-52.5 -224q0 -156 99.5 -251t263.5 -95q107 0 215.5 50.5t192 132.5t136 193t52.5 224q0 156 -99.5 251t-263.5 95zM659 256q-201 0 -313 137l-289 -227l-24 33l289 229q-58 92 -58 213q0 134 65 259.5t175 219.5
l-160 219l33 25l160 -217q180 133 376 133q203 0 314 -139l291 229l24 -33l-291 -229q58 -92 58 -213q0 -133 -65 -259.5t-175 -219.5l162 -219l-33 -25l-160 219q-178 -135 -379 -135z" />
    <glyph glyph-name="yen" unicode="&#xa5;" horiz-adv-x="1208" 
d="M1024 651h-799l11 39h370l-246 846h43l236 -819l674 819h51l-698 -846h368zM958 408h-378l-109 -408h-41l109 408h-379l10 38h799z" />
    <glyph glyph-name="brokenbar" unicode="&#xa6;" horiz-adv-x="389" 
d="M272 788h-41l201 748h41zM-57 -287l200 748h41l-200 -748h-41z" />
    <glyph glyph-name="section" unicode="&#xa7;" horiz-adv-x="1247" 
d="M485 350l90 -24q236 25 372 121.5t136 218.5q0 79 -67 135.5t-225 97.5l-91 25q-236 -25 -371.5 -121.5t-135.5 -218.5q0 -79 67 -136t225 -98zM391 -307q-139 0 -221 64.5t-82 183.5q0 25 8 71l43 4q-8 -46 -8 -73q0 -106 69 -158.5t197 -52.5q179 0 290.5 94t111.5 221
q0 84 -52 144.5t-137 82.5l-145 39q-170 44 -242.5 109.5t-72.5 161.5q0 128 122.5 227t345.5 135q-83 33 -132.5 98t-49.5 158q0 143 125.5 248.5t323.5 105.5q140 0 221.5 -64t81.5 -183q0 -26 -8 -72l-43 -4q8 46 8 74q0 106 -69 158.5t-197 52.5q-179 0 -290.5 -94.5
t-111.5 -221.5q0 -84 52.5 -144.5t136.5 -82.5l145 -39q170 -44 242.5 -109.5t72.5 -160.5q0 -128 -122.5 -227.5t-346.5 -135.5q84 -32 133.5 -97.5t49.5 -158.5q0 -143 -125.5 -248.5t-323.5 -105.5z" />
    <glyph glyph-name="dieresis" unicode="&#xa8;" horiz-adv-x="921" 
d="M924 1274h-19q-65 0 -103 33.5t-38 91.5q0 69 51 118.5t131 49.5h21q64 0 102.5 -33.5t38.5 -91.5q0 -69 -52 -118.5t-132 -49.5zM428 1274h-18q-65 0 -103.5 33.5t-38.5 91.5q0 69 51.5 118.5t131.5 49.5h20q64 0 102.5 -33.5t38.5 -91.5q0 -69 -52 -118.5t-132 -49.5z
" />
    <glyph glyph-name="copyright" unicode="&#xa9;" horiz-adv-x="1769" 
d="M760 -20q-288 0 -456.5 165.5t-168.5 436.5q0 148 48.5 293t138.5 266.5t209.5 215t270.5 146.5t312 53q286 0 455.5 -166t169.5 -436q0 -148 -48.5 -293t-138.5 -266.5t-209.5 -215t-270.5 -146.5t-312 -53zM768 20q127 0 248.5 37t223 101.5t187.5 153.5t145.5 191.5
t92.5 218t33 230.5q0 257 -157 410.5t-435 153.5q-127 0 -248.5 -37t-223 -101.5t-187.5 -153.5t-145.5 -191.5t-92.5 -218t-33 -230.5q0 -257 157 -410.5t435 -153.5zM827 352q126 0 235 75.5t148 197.5l39 -4q-42 -142 -161 -225t-267 -83q-138 0 -213.5 75t-75.5 198
q0 68 21 151l16 62q52 192 179 308t301 116q128 0 205 -66.5t77 -169.5q0 -39 -6 -69l-41 -3q6 35 6 68q0 91 -66 146t-186 55q-150 0 -264.5 -107t-159.5 -268l-22 -82q-19 -74 -19 -135q0 -112 63 -176t191 -64z" />
    <glyph glyph-name="ordfeminine" unicode="&#xaa;" horiz-adv-x="905" 
d="M492 797q129 0 230 95t136 236l14 58q17 70 17 119q0 98 -53 155.5t-158 57.5q-122 0 -218 -94.5t-132 -237.5l-15 -58q-16 -66 -16 -118q0 -98 49.5 -155.5t145.5 -57.5zM766 778l43 160q-59 -86 -142.5 -133t-183.5 -47q-107 0 -167 69.5t-60 182.5q0 57 16 120l15 54
q44 171 149 271.5t250 100.5q99 0 160.5 -53t75.5 -143l47 176h41l-203 -758h-41z" />
    <glyph glyph-name="guillemotleft" unicode="&#xab;" horiz-adv-x="1333" 
d="M788 940l-315 -303l-6 -33q30 -47 63 -119l95 -206l-299 -173l-291 443l51 190l463 439zM1382 940l-315 -303l-6 -33q30 -47 63 -119l95 -206l-299 -173l-291 443l51 190l463 439z" />
    <glyph glyph-name="logicalnot" unicode="&#xac;" horiz-adv-x="880" 
d="M809 686l-78 -291h-39l78 291h-678l10 39h717z" />
    <glyph glyph-name="uni00AD" unicode="&#xad;" horiz-adv-x="796" 
d="M657 430h-594l113 420h594z" />
    <glyph glyph-name="registered" unicode="&#xae;" horiz-adv-x="1415" 
d="M676 356q-218 0 -347.5 125t-129.5 326q0 141 58.5 277t156.5 240t238 168t292 64q218 0 347.5 -124.5t129.5 -327.5q0 -140 -58.5 -275.5t-156.5 -240t-238 -168.5t-292 -64zM682 395q142 0 273.5 61t224 160t147.5 227.5t55 260.5q0 186 -119 300t-327 114
q-142 0 -272.5 -61.5t-223 -160.5t-147.5 -228t-55 -261q0 -185 118.5 -298.5t325.5 -113.5zM866 1311h-118l-101 -369h129q134 0 205.5 68t71.5 172q0 129 -187 129zM795 903h-158l-84 -311h-41l205 758h157q107 0 163.5 -44.5t56.5 -123.5q0 -95 -55.5 -166t-161.5 -96
q45 -23 57 -95l45 -233h-41l-41 227q-8 43 -31.5 63.5t-70.5 20.5z" />
    <glyph glyph-name="macron" unicode="&#xaf;" horiz-adv-x="655" 
d="M872 1536l-63 -236h-573l63 236h573z" />
    <glyph glyph-name="degree" unicode="&#xb0;" horiz-adv-x="909" 
d="M711 1556q123 0 194.5 -76.5t71.5 -205.5q0 -103 -38.5 -199t-101.5 -165t-148.5 -110.5t-176.5 -41.5q-123 0 -194.5 76.5t-71.5 205.5q0 103 38.5 199t101.5 165t148.5 110.5t176.5 41.5zM520 797q78 0 154 39t133.5 103.5t93 153t35.5 181.5q0 114 -61.5 179
t-172.5 65q-104 0 -200 -66t-155.5 -177t-59.5 -235q0 -114 61 -178.5t172 -64.5z" />
    <glyph glyph-name="plusminus" unicode="&#xb1;" horiz-adv-x="921" 
d="M877 788h-338l-80 -296h-41l80 296h-338l10 39h338l80 299h41l-80 -299h338zM754 326l-11 -39h-716l10 39h717z" />
    <glyph glyph-name="twosuperior" unicode="&#xb2;" horiz-adv-x="768" 
d="M690 778h-512l6 25l351 262q141 106 198.5 176.5t57.5 138.5q0 60 -45 99t-121 39q-190 0 -265 -230l-41 2q36 130 118.5 198t193.5 68q91 0 145.5 -50t54.5 -126q0 -77 -63 -159t-209 -189l-293 -215h434z" />
    <glyph glyph-name="threesuperior" unicode="&#xb3;" horiz-adv-x="770" 
d="M385 1333l-39 4q40 107 115 163t178 56q88 0 142.5 -48.5t54.5 -123.5q0 -74 -63 -135t-155 -80q54 -11 92 -57.5t38 -112.5q0 -101 -89 -171t-223 -70q-96 0 -151.5 51t-55.5 131q0 21 2 39l43 4q-2 -20 -2 -39q0 -147 174 -147q107 0 183 60.5t76 141.5q0 70 -49.5 110
t-143.5 40h-47l10 39h47q115 0 193 61t78 135q0 60 -43 97t-119 37q-176 0 -246 -185z" />
    <glyph glyph-name="acute" unicode="&#xb4;" horiz-adv-x="638" 
d="M737 1671l84 -266l-493 -162l-62 172z" />
    <glyph glyph-name="uni00B5" unicode="&#xb5;" horiz-adv-x="1329" 
d="M459 -20q-138 0 -222.5 90t-91.5 245l-161 -602h-41l385 1434h41l-156 -584q-65 -246 6 -395.5t246 -149.5q112 0 225 68.5t198 184.5t122 251l168 625h41l-250 -934q-13 -50 -13 -90q0 -48 28 -76.5t81 -28.5q50 0 104 23l-4 -41q-47 -20 -106 -20q-68 0 -106 39.5
t-38 103.5q0 45 13 92l20 78q-205 -313 -489 -313z" />
    <glyph glyph-name="paragraph" unicode="&#xb6;" horiz-adv-x="1400" 
d="M565 -287h-41l199 738h-174q-196 0 -296.5 91.5t-100.5 256.5q0 73 22 157l21 74q64 231 226 368.5t404 137.5h230zM913 -287l490 1823h41l-490 -1823h-41zM551 489h182l271 1008h-183q-222 0 -373 -128.5t-212 -340.5l-21 -72q-22 -76 -22 -157q0 -147 89.5 -228.5
t268.5 -81.5z" />
    <glyph glyph-name="periodcentered" unicode="&#xb7;" horiz-adv-x="612" 
d="M307 422h-28q-95 0 -152 50t-57 136q0 103 76 176.5t196 73.5h29q95 0 152 -50.5t57 -137.5q0 -101 -76.5 -174.5t-196.5 -73.5z" />
    <glyph glyph-name="cedilla" unicode="&#xb8;" horiz-adv-x="507" 
d="M-18 0h151q70 -10 106.5 -44.5t36.5 -88.5q0 -86 -69 -135t-203 -49q-111 0 -190 30l71 137q51 -28 101 -28q29 0 45 12t16 31q0 31 -43 31q-28 0 -61 -11z" />
    <glyph glyph-name="onesuperior" unicode="&#xb9;" horiz-adv-x="471" 
d="M270 778l197 733l31 25h16l-203 -758h-41z" />
    <glyph glyph-name="ordmasculine" unicode="&#xba;" horiz-adv-x="876" 
d="M494 758q-112 0 -175 69.5t-63 182.5q0 57 16 120l15 54q45 171 153 271.5t256 100.5q112 0 175 -69t63 -182q0 -58 -16 -121l-15 -54q-45 -171 -153 -271.5t-256 -100.5zM502 797q125 0 223.5 94t136.5 237l15 58q16 66 16 119q0 97 -52 155t-153 58
q-125 0 -223.5 -94.5t-136.5 -237.5l-15 -58q-16 -66 -16 -118q0 -97 52 -155t153 -58z" />
    <glyph glyph-name="guillemotright" unicode="&#xbb;" horiz-adv-x="1333" 
d="M584 344l315 303l6 33q-30 47 -63 119l-94 207l299 172l290 -443l-51 -190l-463 -439zM-10 344l315 303l6 33q-30 47 -63 119l-94 207l299 172l290 -443l-51 -190l-463 -439z" />
    <glyph glyph-name="onequarter" unicode="&#xbc;" horiz-adv-x="798" 
d="M502 1004l137 507l31 25h16l-143 -532h-41zM754 786l-11 -38h-593l10 38h594zM57 127l398 405h26l-106 -393h84l-10 -39h-84l-27 -100h-39l27 100h-277zM121 139h215l80 299z" />
    <glyph glyph-name="onehalf" unicode="&#xbd;" horiz-adv-x="798" 
d="M502 1004l137 507l31 25h16l-143 -532h-41zM754 786l-11 -38h-593l10 38h594zM438 0h-379l7 25l262 192q94 69 129 111.5t35 91.5q0 42 -30.5 68t-84.5 26q-63 0 -112.5 -42.5t-69.5 -111.5l-39 5q27 91 87.5 139.5t141.5 48.5q65 0 106 -37.5t41 -95.5q0 -59 -40 -112
t-142 -124l-205 -145h304z" />
    <glyph glyph-name="threequarters" unicode="&#xbe;" horiz-adv-x="798" 
d="M483 1395l-39 6q27 73 84 114t134 41q70 0 108.5 -34.5t38.5 -87.5q0 -51 -42.5 -95t-111.5 -59q44 -9 70.5 -38.5t26.5 -74.5q0 -73 -67.5 -128.5t-162.5 -55.5q-77 0 -120.5 37.5t-43.5 99.5q0 17 2 33l41 4q-2 -16 -2 -31q0 -104 131 -104q73 0 127 45t54 100
q0 41 -36 68t-102 27h-26l10 38h27q80 0 132 42t52 92q0 37 -28.5 60.5t-84.5 23.5q-60 0 -105 -33t-67 -90zM754 786l-11 -38h-593l10 38h594zM57 127l398 405h26l-106 -393h84l-10 -39h-84l-27 -100h-39l27 100h-277zM121 139h215l80 299z" />
    <glyph glyph-name="questiondown" unicode="&#xbf;" horiz-adv-x="1376" 
d="M838 1178h30q98 0 158.5 -49.5t60.5 -135.5q0 -99 -82 -170t-212 -71h-31q-99 0 -159 49t-60 135q0 99 82.5 170.5t212.5 71.5zM709 399q-205 -63 -205 -180q0 -35 22 -55.5t62 -20.5q61 0 109.5 58t58.5 157l481 -24q-31 -172 -100.5 -299t-170 -203t-221 -112.5
t-264.5 -36.5q-232 0 -364.5 111t-132.5 269q0 169 102 299.5t276 192.5q92 33 135 60.5t52 56.5l403 -8q0 -191 -243 -265z" />
    <glyph glyph-name="Agrave" unicode="&#xc0;" horiz-adv-x="1392" 
d="M713 629h2q47 0 71 -6l27 16q-2 18 -2 47q0 40 4 80l10 133q5 86 27 197h-25q-36 -103 -79 -197l-68 -149q-33 -71 -57 -111l14 -16q30 6 76 6zM748 0l22 260h-301l-117 -260h-516l776 1536h668l-31 -1536h-501zM795 2046l448 -246l-88 -162l-483 172z" />
    <glyph glyph-name="Aacute" unicode="&#xc1;" horiz-adv-x="1392" 
d="M713 629h2q47 0 71 -6l27 16q-2 18 -2 47q0 40 4 80l10 133q5 86 27 197h-25q-36 -103 -79 -197l-68 -149q-33 -71 -57 -111l14 -16q30 6 76 6zM748 0l22 260h-301l-117 -260h-516l776 1536h668l-31 -1536h-501zM1202 2046l70 -266l-539 -142l-57 172z" />
    <glyph glyph-name="Acircumflex" unicode="&#xc2;" horiz-adv-x="1392" 
d="M713 629h2q47 0 71 -6l27 16q-2 18 -2 47q0 40 4 80l10 133q5 86 27 197h-25q-36 -103 -79 -197l-68 -149q-33 -71 -57 -111l14 -16q30 6 76 6zM748 0l22 260h-301l-117 -260h-516l776 1536h668l-31 -1536h-501zM1272 1618l-283 139h-24l-359 -139l-71 166l419 241h148
l280 -262z" />
    <glyph glyph-name="Atilde" unicode="&#xc3;" horiz-adv-x="1392" 
d="M713 629h2q47 0 71 -6l27 16q-2 18 -2 47q0 40 4 80l10 133q5 86 27 197h-25q-36 -103 -79 -197l-68 -149q-33 -71 -57 -111l14 -16q30 6 76 6zM748 0l22 260h-301l-117 -260h-516l776 1536h668l-31 -1536h-501zM1184 1907q72 0 131 82l170 -107q-133 -244 -340 -244
q-59 0 -110.5 18.5t-82 41t-69 41t-74.5 18.5q-31 0 -63.5 -20.5t-57.5 -61.5l-170 107q129 243 330 243q59 0 110.5 -18.5t82 -40.5t69 -40.5t74.5 -18.5z" />
    <glyph glyph-name="Adieresis" unicode="&#xc4;" horiz-adv-x="1392" 
d="M713 629h2q47 0 71 -6l27 16q-2 18 -2 47q0 40 4 80l10 133q5 86 27 197h-25q-36 -103 -79 -197l-68 -149q-33 -71 -57 -111l14 -16q30 6 76 6zM748 0l22 260h-301l-117 -260h-516l776 1536h668l-31 -1536h-501zM1278 1638h-18q-65 0 -103.5 33.5t-38.5 91.5
q0 69 51 118.5t131 49.5h21q64 0 102.5 -33.5t38.5 -91.5q0 -69 -52 -118.5t-132 -49.5zM696 1638h-18q-65 0 -103 33.5t-38 91.5q0 69 51 118.5t131 49.5h20q64 0 103 -33.5t39 -91.5q0 -69 -52.5 -118.5t-132.5 -49.5z" />
    <glyph glyph-name="Aring" unicode="&#xc5;" horiz-adv-x="1392" 
d="M713 629h2q47 0 71 -6l27 16q-2 18 -2 47q0 40 4 80l10 133q5 86 27 197h-25q-36 -103 -79 -197l-68 -149q-33 -71 -57 -111l14 -16q30 6 76 6zM748 0l22 260h-301l-117 -260h-516l776 1536h668l-31 -1536h-501zM997 1638h-28q-101 0 -160 48.5t-59 134.5q0 101 79.5 172
t204.5 71h33q98 0 158.5 -48.5t60.5 -133.5q0 -100 -82 -172t-207 -72zM1026 1909q-30 0 -49 -23.5t-19 -50.5q0 -39 46 -39q30 0 48.5 23.5t18.5 50.5q0 39 -45 39z" />
    <glyph glyph-name="AE" unicode="&#xc6;" horiz-adv-x="1988" 
d="M752 621q50 8 92 8h43l35 129q37 139 125 352h-25q-47 -91 -102 -182l-109 -189q-23 -41 -74 -104zM530 260l-151 -260h-543l973 1536h1335l-114 -430h-510l-47 -170h421l-86 -328h-422l-45 -168h531l-119 -440h-1034l69 260h-258z" />
    <glyph glyph-name="Ccedilla" unicode="&#xc7;" horiz-adv-x="1402" 
d="M649 -23l-6 -24q58 -6 87.5 -33.5t29.5 -69.5q0 -70 -68.5 -118.5t-210.5 -48.5q-103 0 -182 30l72 137q51 -28 102 -28q59 0 59 39q0 35 -45 35q-27 0 -59 -11l33 92q-205 22 -308.5 132t-103.5 301q0 124 39 266l51 184q70 255 174 408.5t258 226t377 72.5
q257 0 385.5 -113t128.5 -328q0 -90 -28 -211l-502 -34q20 72 20 120q0 58 -26.5 81.5t-81.5 23.5q-73 0 -116.5 -47.5t-82.5 -177.5l-67 -226q-23 -81 -23 -120q0 -57 28 -81t83 -24q73 0 116.5 47.5t85.5 177.5l486 -37q-89 -319 -257 -470t-448 -171z" />
    <glyph glyph-name="Egrave" unicode="&#xc8;" horiz-adv-x="1310" 
d="M-31 0l412 1536h1085l-114 -430h-582l-47 -170h494l-87 -328h-493l-45 -168h602l-119 -440h-1106zM774 2046l449 -246l-88 -162l-484 172z" />
    <glyph glyph-name="Eacute" unicode="&#xc9;" horiz-adv-x="1310" 
d="M-31 0l412 1536h1085l-114 -430h-582l-47 -170h494l-87 -328h-493l-45 -168h602l-119 -440h-1106zM1182 2046l69 -266l-538 -142l-58 172z" />
    <glyph glyph-name="Ecircumflex" unicode="&#xca;" horiz-adv-x="1310" 
d="M-31 0l412 1536h1085l-114 -430h-582l-47 -170h494l-87 -328h-493l-45 -168h602l-119 -440h-1106zM1251 1618l-282 139h-25l-358 -139l-72 166l420 241h147l281 -262z" />
    <glyph glyph-name="Edieresis" unicode="&#xcb;" horiz-adv-x="1310" 
d="M-31 0l412 1536h1085l-114 -430h-582l-47 -170h494l-87 -328h-493l-45 -168h602l-119 -440h-1106zM1257 1638h-18q-65 0 -103 33.5t-38 91.5q0 69 51 118.5t131 49.5h20q64 0 103 -33.5t39 -91.5q0 -69 -52.5 -118.5t-132.5 -49.5zM676 1638h-19q-65 0 -103 33.5
t-38 91.5q0 69 51 118.5t131 49.5h21q64 0 102.5 -33.5t38.5 -91.5q0 -69 -52 -118.5t-132 -49.5z" />
    <glyph glyph-name="Igrave" unicode="&#xcc;" horiz-adv-x="749" 
d="M381 1536h504l-412 -1536h-504zM494 2046l448 -246l-88 -162l-483 172z" />
    <glyph glyph-name="Iacute" unicode="&#xcd;" horiz-adv-x="749" 
d="M381 1536h504l-412 -1536h-504zM901 2046l70 -266l-539 -142l-57 172z" />
    <glyph glyph-name="Icircumflex" unicode="&#xce;" horiz-adv-x="749" 
d="M381 1536h504l-412 -1536h-504zM971 1618l-283 139h-24l-359 -139l-72 166l420 241h148l280 -262z" />
    <glyph glyph-name="Idieresis" unicode="&#xcf;" horiz-adv-x="749" 
d="M915 1638h-18q-65 0 -103 33.5t-38 91.5q0 69 51 118.5t131 49.5h20q64 0 103 -33.5t39 -91.5q0 -69 -52.5 -118.5t-132.5 -49.5zM457 1638h-19q-65 0 -103 33.5t-38 91.5q0 69 51 118.5t131 49.5h21q64 0 102.5 -33.5t38.5 -91.5q0 -69 -52 -118.5t-132 -49.5zM381 1536
h504l-412 -1536h-504z" />
    <glyph glyph-name="Eth" unicode="&#xd0;" horiz-adv-x="1468" 
d="M690 0h-710l176 655h-123l55 205h123l180 676h625q231 0 355 -120t124 -345q0 -218 -82.5 -465t-214.5 -397q-91 -103 -221.5 -156t-286.5 -53zM598 430h39q133 0 205 121q51 84 86 198t35 201q0 156 -144 156h-39l-65 -246h131l-55 -205h-132z" />
    <glyph glyph-name="Ntilde" unicode="&#xd1;" horiz-adv-x="1536" 
d="M913 1536l72 -557q15 -116 12 -211l-2 -70h25q26 205 70 371l124 467h457l-411 -1536h-547l-70 512q-15 108 -12 197l2 84h-25q-27 -212 -69 -371l-113 -422h-457l412 1536h532zM1245 1907q72 0 131 82l170 -107q-133 -244 -340 -244q-59 0 -110.5 18.5t-82 41t-69 41
t-74.5 18.5q-70 0 -120 -82l-170 107q129 243 329 243q59 0 110.5 -18.5t82 -40.5t69 -40.5t74.5 -18.5z" />
    <glyph glyph-name="Ograve" unicode="&#xd2;" horiz-adv-x="1413" 
d="M1430 860l-52 -184q-105 -378 -293 -542.5t-520 -164.5q-257 0 -386.5 113t-129.5 328q0 124 39 266l51 184q104 379 292.5 543t520.5 164q257 0 386.5 -113t129.5 -328q0 -128 -38 -266zM872 655l68 226q23 80 23 120q0 57 -29.5 81t-85.5 24q-74 0 -119 -48t-84 -177
l-67 -226q-23 -81 -23 -120q0 -57 29.5 -81t85.5 -24q74 0 118.5 48t83.5 177zM811 2046l449 -246l-89 -162l-483 172z" />
    <glyph glyph-name="Oacute" unicode="&#xd3;" horiz-adv-x="1413" 
d="M1430 860l-52 -184q-105 -378 -293 -542.5t-520 -164.5q-257 0 -386.5 113t-129.5 328q0 124 39 266l51 184q104 379 292.5 543t520.5 164q257 0 386.5 -113t129.5 -328q0 -128 -38 -266zM872 655l68 226q23 80 23 120q0 57 -29.5 81t-85.5 24q-74 0 -119 -48t-84 -177
l-67 -226q-23 -81 -23 -120q0 -57 29.5 -81t85.5 -24q74 0 118.5 48t83.5 177zM1219 2046l69 -266l-538 -142l-58 172z" />
    <glyph glyph-name="Ocircumflex" unicode="&#xd4;" horiz-adv-x="1413" 
d="M1430 860l-52 -184q-105 -378 -293 -542.5t-520 -164.5q-257 0 -386.5 113t-129.5 328q0 124 39 266l51 184q104 379 292.5 543t520.5 164q257 0 386.5 -113t129.5 -328q0 -128 -38 -266zM872 655l68 226q23 80 23 120q0 57 -29.5 81t-85.5 24q-74 0 -119 -48t-84 -177
l-67 -226q-23 -81 -23 -120q0 -57 29.5 -81t85.5 -24q74 0 118.5 48t83.5 177zM1288 1618l-282 139h-25l-358 -139l-72 166l420 241h147l281 -262z" />
    <glyph glyph-name="Otilde" unicode="&#xd5;" horiz-adv-x="1413" 
d="M1430 860l-52 -184q-105 -378 -293 -542.5t-520 -164.5q-257 0 -386.5 113t-129.5 328q0 124 39 266l51 184q104 379 292.5 543t520.5 164q257 0 386.5 -113t129.5 -328q0 -128 -38 -266zM872 655l68 226q23 80 23 120q0 57 -29.5 81t-85.5 24q-74 0 -119 -48t-84 -177
l-67 -226q-23 -81 -23 -120q0 -57 29.5 -81t85.5 -24q74 0 118.5 48t83.5 177zM1200 1907q72 0 131 82l170 -107q-133 -244 -340 -244q-59 0 -110.5 18.5t-82 41t-69 41t-74.5 18.5q-70 0 -120 -82l-170 107q129 243 329 243q59 0 110.5 -18.5t82 -40.5t69 -40.5t74.5 -18.5
z" />
    <glyph glyph-name="Odieresis" unicode="&#xd6;" horiz-adv-x="1413" 
d="M1430 860l-52 -184q-105 -378 -293 -542.5t-520 -164.5q-257 0 -386.5 113t-129.5 328q0 124 39 266l51 184q104 379 292.5 543t520.5 164q257 0 386.5 -113t129.5 -328q0 -128 -38 -266zM872 655l68 226q23 80 23 120q0 57 -29.5 81t-85.5 24q-74 0 -119 -48t-84 -177
l-67 -226q-23 -81 -23 -120q0 -57 29.5 -81t85.5 -24q74 0 118.5 48t83.5 177zM1294 1638h-18q-65 0 -103 33.5t-38 91.5q0 69 51 118.5t131 49.5h20q64 0 103 -33.5t39 -91.5q0 -69 -52.5 -118.5t-132.5 -49.5zM713 1638h-19q-65 0 -103 33.5t-38 91.5q0 69 51 118.5
t131 49.5h21q64 0 102.5 -33.5t38.5 -91.5q0 -69 -52 -118.5t-132 -49.5z" />
    <glyph glyph-name="multiply" unicode="&#xd7;" horiz-adv-x="825" 
d="M651 395l-207 283l-358 -283l-25 33l359 283l-205 280l33 27l207 -283l358 283l23 -33l-359 -280l207 -283z" />
    <glyph glyph-name="Oslash" unicode="&#xd8;" horiz-adv-x="1439" 
d="M946 1053l12 22q-27 31 -96 31q-77 0 -129.5 -50t-85.5 -175q-22 -85 -39 -123l21 -8q41 64 110 127l125 118q44 41 82 58zM596 483l-12 -22q27 -31 96 -31q77 0 129.5 50t85.5 175q22 85 39 123l-21 8q-41 -64 -110 -127l-125 -118q-44 -41 -82 -58zM578 -31
q-258 0 -390 117l-133 -127l-141 141l168 158q-21 67 -21 152q0 124 39 266l52 184q104 379 292.5 543t520.5 164q250 0 383 -111l147 141l141 -141l-178 -168q23 -80 23 -162q0 -124 -39 -266l-51 -184q-105 -378 -293 -542.5t-520 -164.5z" />
    <glyph glyph-name="Ugrave" unicode="&#xd9;" horiz-adv-x="1474" 
d="M864 1536l-241 -901q-19 -74 -19 -113q0 -51 26 -71.5t79 -20.5q75 0 120 44.5t76 160.5l242 901h483l-235 -881q-97 -363 -284 -524.5t-495 -161.5q-261 0 -394.5 109.5t-133.5 314.5q0 128 37 262l235 881h504zM866 2046l449 -246l-88 -162l-484 172z" />
    <glyph glyph-name="Uacute" unicode="&#xda;" horiz-adv-x="1474" 
d="M864 1536l-241 -901q-19 -74 -19 -113q0 -51 26 -71.5t79 -20.5q75 0 120 44.5t76 160.5l242 901h483l-235 -881q-97 -363 -284 -524.5t-495 -161.5q-261 0 -394.5 109.5t-133.5 314.5q0 128 37 262l235 881h504zM1274 2046l69 -266l-538 -142l-57 172z" />
    <glyph glyph-name="Ucircumflex" unicode="&#xdb;" horiz-adv-x="1474" 
d="M864 1536l-241 -901q-19 -74 -19 -113q0 -51 26 -71.5t79 -20.5q75 0 120 44.5t76 160.5l242 901h483l-235 -881q-97 -363 -284 -524.5t-495 -161.5q-261 0 -394.5 109.5t-133.5 314.5q0 128 37 262l235 881h504zM1343 1618l-282 139h-25l-358 -139l-72 166l420 241h148
l280 -262z" />
    <glyph glyph-name="Udieresis" unicode="&#xdc;" horiz-adv-x="1474" 
d="M864 1536l-241 -901q-19 -74 -19 -113q0 -51 26 -71.5t79 -20.5q75 0 120 44.5t76 160.5l242 901h483l-235 -881q-97 -363 -284 -524.5t-495 -161.5q-261 0 -394.5 109.5t-133.5 314.5q0 128 37 262l235 881h504zM1350 1638h-19q-65 0 -103 33.5t-38 91.5q0 69 51 118.5
t131 49.5h21q64 0 102.5 -33.5t38.5 -91.5q0 -69 -52 -118.5t-132 -49.5zM768 1638h-18q-65 0 -103.5 33.5t-38.5 91.5q0 69 51.5 118.5t131.5 49.5h20q64 0 102.5 -33.5t38.5 -91.5q0 -69 -52 -118.5t-132 -49.5z" />
    <glyph glyph-name="Yacute" unicode="&#xdd;" horiz-adv-x="1372" 
d="M784 0h-503l131 485l-174 1051h522l16 -367v-63q0 -85 -14 -170h24q34 91 113 233l201 367h551l-738 -1057zM1198 2046l70 -266l-539 -142l-57 172z" />
    <glyph glyph-name="Thorn" unicode="&#xde;" horiz-adv-x="1392" 
d="M760 932h-37l-94 -348h37q60 0 106 21.5t72.5 57t39.5 77.5t13 87q0 105 -137 105zM733 205h-205l-55 -205h-504l412 1536h504l-56 -205h103q498 0 498 -389q0 -154 -56 -315t-155 -256q-172 -166 -486 -166z" />
    <glyph glyph-name="germandbls" unicode="&#xdf;" horiz-adv-x="1478" 
d="M1184 827q-49 -23 -66.5 -39t-17.5 -36q0 -16 11 -25.5t38 -19.5l39 -15q205 -74 205 -274q0 -186 -156.5 -317.5t-398.5 -131.5q-197 0 -338 76l192 322q84 -58 164 -58q38 0 59 18t21 52q0 45 -55 67l-27 13q-85 37 -122.5 82.5t-37.5 113.5q0 70 37 134.5t125 138.5
q102 85 102 166q0 40 -23 62t-67 22q-63 0 -111.5 -56t-84.5 -190l-250 -932h-473l258 965q56 209 146 339t234.5 196.5t354.5 66.5q116 0 212 -30t158 -81.5t96 -117.5t34 -140q0 -131 -71 -224t-187 -147z" />
    <glyph glyph-name="agrave" unicode="&#xe0;" horiz-adv-x="1243" 
d="M565 467q-52 0 -86.5 -40.5t-34.5 -102.5q0 -33 18.5 -52.5t53.5 -19.5q52 0 86.5 40.5t34.5 102.5q0 33 -18.5 52.5t-53.5 19.5zM612 141h-24q-48 -75 -142 -123.5t-196 -48.5q-134 0 -207.5 71t-73.5 191q0 204 126 334.5t341 130.5q96 0 163.5 -25t92.5 -61h25
q10 30 10 60q0 65 -43.5 93t-151.5 28q-155 0 -307 -50v363q241 74 500 74q230 0 347.5 -111t117.5 -293q0 -91 -33 -219l-149 -555h-412zM629 1671l401 -266l-88 -162l-442 193z" />
    <glyph glyph-name="aacute" unicode="&#xe1;" horiz-adv-x="1243" 
d="M565 467q-52 0 -86.5 -40.5t-34.5 -102.5q0 -33 18.5 -52.5t53.5 -19.5q52 0 86.5 40.5t34.5 102.5q0 33 -18.5 52.5t-53.5 19.5zM612 141h-24q-48 -75 -142 -123.5t-196 -48.5q-134 0 -207.5 71t-73.5 191q0 204 126 334.5t341 130.5q96 0 163.5 -25t92.5 -61h25
q10 30 10 60q0 65 -43.5 93t-151.5 28q-155 0 -307 -50v363q241 74 500 74q230 0 347.5 -111t117.5 -293q0 -91 -33 -219l-149 -555h-412zM1092 1671l84 -266l-494 -162l-61 172z" />
    <glyph glyph-name="acircumflex" unicode="&#xe2;" horiz-adv-x="1243" 
d="M565 467q-52 0 -86.5 -40.5t-34.5 -102.5q0 -33 18.5 -52.5t53.5 -19.5q52 0 86.5 40.5t34.5 102.5q0 33 -18.5 52.5t-53.5 19.5zM612 141h-24q-48 -75 -142 -123.5t-196 -48.5q-134 0 -207.5 71t-73.5 191q0 204 126 334.5t341 130.5q96 0 163.5 -25t92.5 -61h25
q10 30 10 60q0 65 -43.5 93t-151.5 28q-155 0 -307 -50v363q241 74 500 74q230 0 347.5 -111t117.5 -293q0 -91 -33 -219l-149 -555h-412zM1083 1243l-252 139h-24l-307 -139l-72 164l371 244h147l248 -262z" />
    <glyph glyph-name="atilde" unicode="&#xe3;" horiz-adv-x="1243" 
d="M565 467q-52 0 -86.5 -40.5t-34.5 -102.5q0 -33 18.5 -52.5t53.5 -19.5q52 0 86.5 40.5t34.5 102.5q0 33 -18.5 52.5t-53.5 19.5zM612 141h-24q-48 -75 -142 -123.5t-196 -48.5q-134 0 -207.5 71t-73.5 191q0 204 126 334.5t341 130.5q96 0 163.5 -25t92.5 -61h25
q10 30 10 60q0 65 -43.5 93t-151.5 28q-155 0 -307 -50v363q241 74 500 74q230 0 347.5 -111t117.5 -293q0 -91 -33 -219l-149 -555h-412zM1014 1522q68 0 121 82l170 -107q-129 -244 -330 -244q-56 0 -104.5 18.5t-77 41t-64.5 41t-70 18.5q-70 0 -120 -82l-170 107
q129 243 329 243q56 0 104.5 -18.5t77 -40.5t64.5 -40.5t70 -18.5z" />
    <glyph glyph-name="adieresis" unicode="&#xe4;" horiz-adv-x="1243" 
d="M565 467q-52 0 -86.5 -40.5t-34.5 -102.5q0 -33 18.5 -52.5t53.5 -19.5q52 0 86.5 40.5t34.5 102.5q0 33 -18.5 52.5t-53.5 19.5zM612 141h-24q-48 -75 -142 -123.5t-196 -48.5q-134 0 -207.5 71t-73.5 191q0 204 126 334.5t341 130.5q96 0 163.5 -25t92.5 -61h25
q10 30 10 60q0 65 -43.5 93t-151.5 28q-155 0 -307 -50v363q241 74 500 74q230 0 347.5 -111t117.5 -293q0 -91 -33 -219l-149 -555h-412zM1065 1274h-18q-65 0 -103.5 33.5t-38.5 91.5q0 69 51 118.5t131 49.5h21q64 0 102.5 -33.5t38.5 -91.5q0 -69 -52 -118.5t-132 -49.5
zM569 1274h-18q-65 0 -103 33.5t-38 91.5q0 69 51 118.5t131 49.5h20q64 0 103 -33.5t39 -91.5q0 -69 -52.5 -118.5t-132.5 -49.5z" />
    <glyph glyph-name="aring" unicode="&#xe5;" horiz-adv-x="1243" 
d="M565 467q-52 0 -86.5 -40.5t-34.5 -102.5q0 -33 18.5 -52.5t53.5 -19.5q52 0 86.5 40.5t34.5 102.5q0 33 -18.5 52.5t-53.5 19.5zM612 141h-24q-48 -75 -142 -123.5t-196 -48.5q-134 0 -207.5 71t-73.5 191q0 204 126 334.5t341 130.5q96 0 163.5 -25t92.5 -61h25
q10 30 10 60q0 65 -43.5 93t-151.5 28q-155 0 -307 -50v363q241 74 500 74q230 0 347.5 -111t117.5 -293q0 -91 -33 -219l-149 -555h-412zM825 1274h-28q-101 0 -160 48.5t-59 133.5q0 101 79.5 172.5t204.5 71.5h33q98 0 158.5 -48.5t60.5 -133.5q0 -100 -82 -172t-207 -72
zM854 1544q-30 0 -49 -23.5t-19 -50.5q0 -38 45 -38q30 0 49 23t19 50q0 39 -45 39z" />
    <glyph glyph-name="ae" unicode="&#xe6;" horiz-adv-x="1853" 
d="M1184 696l-10 -34h200q19 75 19 102q0 35 -19.5 55.5t-54.5 20.5q-94 0 -135 -144zM1745 377q-69 -195 -226 -301.5t-380 -106.5q-130 0 -222 55t-118 152h-25q-92 -106 -198 -156.5t-271 -50.5q-162 0 -249 71t-87 196q0 205 128 332.5t345 127.5q85 0 154.5 -24
t95.5 -62h25q10 30 10 60q0 65 -43.5 93t-151.5 28q-155 0 -307 -50v363q110 34 239 54t232 20q131 0 207.5 -53t93.5 -154h25q143 207 410 207q174 0 293.5 -100t119.5 -259q0 -123 -61 -303h-651l-17 -53q-12 -40 -12 -74q0 -30 21 -50t55 -20q40 0 69 27t54 88zM561 467
q-52 0 -86.5 -40.5t-34.5 -102.5q0 -33 18.5 -52.5t53.5 -19.5q52 0 86.5 40.5t34.5 102.5q0 33 -18.5 52.5t-53.5 19.5z" />
    <glyph glyph-name="ccedilla" unicode="&#xe7;" horiz-adv-x="1191" 
d="M1114 467q-73 -238 -217.5 -359t-382.5 -131l-6 -24q115 -19 115 -111q0 -73 -67 -116t-200 -43q-111 0 -190 30l72 137q51 -28 100 -28q29 0 45 12t16 31q0 31 -43 31q-28 0 -61 -11l33 97q-150 33 -230 136.5t-80 256.5q0 68 23 162l27 98q73 274 238 408.5t442 134.5
q204 0 316 -110.5t112 -293.5q0 -45 -9 -94l-454 -35q10 33 10 64q0 79 -64 79q-42 0 -70 -33t-50 -104l-43 -143q-15 -47 -15 -76q0 -34 18.5 -54t49.5 -20q42 0 71 32.5t48 111.5z" />
    <glyph glyph-name="egrave" unicode="&#xe8;" horiz-adv-x="1224" 
d="M555 696l-10 -34h200q19 75 19 102q0 35 -19.5 55.5t-54.5 20.5q-94 0 -135 -144zM1116 377q-71 -195 -233.5 -301.5t-399.5 -106.5q-222 0 -343.5 110.5t-121.5 295.5q0 80 23 162l27 98q74 273 243.5 408t450.5 135q198 0 326.5 -99t128.5 -260q0 -120 -62 -303h-651
l-17 -53q-12 -40 -12 -74q0 -30 21 -50t55 -20q40 0 69 27t54 88zM645 1671l402 -266l-89 -162l-442 193z" />
    <glyph glyph-name="eacute" unicode="&#xe9;" horiz-adv-x="1224" 
d="M555 696l-10 -34h200q19 75 19 102q0 35 -19.5 55.5t-54.5 20.5q-94 0 -135 -144zM1116 377q-71 -195 -233.5 -301.5t-399.5 -106.5q-222 0 -343.5 110.5t-121.5 295.5q0 80 23 162l27 98q74 273 243.5 408t450.5 135q198 0 326.5 -99t128.5 -260q0 -120 -62 -303h-651
l-17 -53q-12 -40 -12 -74q0 -30 21 -50t55 -20q40 0 69 27t54 88zM1108 1671l84 -266l-494 -162l-61 172z" />
    <glyph glyph-name="ecircumflex" unicode="&#xea;" horiz-adv-x="1224" 
d="M555 696l-10 -34h200q19 75 19 102q0 35 -19.5 55.5t-54.5 20.5q-94 0 -135 -144zM1116 377q-71 -195 -233.5 -301.5t-399.5 -106.5q-222 0 -343.5 110.5t-121.5 295.5q0 80 23 162l27 98q74 273 243.5 408t450.5 135q198 0 326.5 -99t128.5 -260q0 -120 -62 -303h-651
l-17 -53q-12 -40 -12 -74q0 -30 21 -50t55 -20q40 0 69 27t54 88zM1100 1243l-252 139h-25l-307 -139l-72 164l371 244h148l247 -262z" />
    <glyph glyph-name="edieresis" unicode="&#xeb;" horiz-adv-x="1224" 
d="M555 696l-10 -34h200q19 75 19 102q0 35 -19.5 55.5t-54.5 20.5q-94 0 -135 -144zM1116 377q-71 -195 -233.5 -301.5t-399.5 -106.5q-222 0 -343.5 110.5t-121.5 295.5q0 80 23 162l27 98q74 273 243.5 408t450.5 135q198 0 326.5 -99t128.5 -260q0 -120 -62 -303h-651
l-17 -53q-12 -40 -12 -74q0 -30 21 -50t55 -20q40 0 69 27t54 88zM1081 1274h-18q-65 0 -103 33.5t-38 91.5q0 69 51 118.5t131 49.5h20q64 0 103 -33.5t39 -91.5q0 -69 -52.5 -118.5t-132.5 -49.5zM586 1274h-19q-65 0 -103 33.5t-38 91.5q0 69 51 118.5t131 49.5h21
q64 0 102.5 -33.5t38.5 -91.5q0 -69 -52 -118.5t-132 -49.5z" />
    <glyph glyph-name="igrave" unicode="&#xec;" horiz-adv-x="657" 
d="M246 1147h473l-307 -1147h-473zM354 1671l402 -266l-88 -162l-443 193z" />
    <glyph glyph-name="iacute" unicode="&#xed;" horiz-adv-x="657" 
d="M246 1147h473l-307 -1147h-473zM817 1671l84 -266l-493 -162l-62 172z" />
    <glyph glyph-name="icircumflex" unicode="&#xee;" horiz-adv-x="657" 
d="M246 1147h473l-307 -1147h-473zM809 1243l-252 139h-25l-307 -139l-71 164l370 244h148l248 -262z" />
    <glyph glyph-name="idieresis" unicode="&#xef;" horiz-adv-x="657" 
d="M750 1274h-19q-65 0 -103 33.5t-38 91.5q0 69 51 118.5t131 49.5h21q64 0 102.5 -33.5t38.5 -91.5q0 -69 -52 -118.5t-132 -49.5zM336 1274h-19q-65 0 -103 33.5t-38 91.5q0 69 51 118.5t131 49.5h21q64 0 102.5 -33.5t38.5 -91.5q0 -69 -52 -118.5t-132 -49.5zM246 1147
h473l-307 -1147h-473z" />
    <glyph glyph-name="eth" unicode="&#xf0;" horiz-adv-x="1241" 
d="M489 -31q-115 0 -207 32t-150 86.5t-89 125.5t-31 152q0 69 21 141l8 26q74 239 210 350t359 111q150 0 230 -53l18 18q-62 102 -199 164l-69 -98l-172 94l47 68q-37 10 -98 20l184 361q73 -8 158 -35l71 102l174 -96l-63 -90q155 -95 248.5 -250t93.5 -348
q0 -115 -31 -232l-24 -90q-75 -272 -248 -415.5t-441 -143.5zM510 551l-16 -49q-13 -43 -13 -64q0 -80 84 -80q95 0 142 144l16 49q12 40 12 63q0 80 -84 80q-50 0 -83.5 -35.5t-57.5 -107.5z" />
    <glyph glyph-name="ntilde" unicode="&#xf1;" 
d="M766 639q0 78 -68 78q-48 0 -80.5 -33.5t-52.5 -108.5l-153 -575h-473l307 1147h411l-41 -234h25q58 118 163.5 191.5t227.5 73.5q118 0 189 -78t71 -217q0 -75 -22 -162l-193 -721h-473l150 559q12 47 12 80zM1057 1522q68 0 121 82l170 -107q-129 -244 -330 -244
q-56 0 -104.5 18.5t-77 41t-64.5 41t-70 18.5q-70 0 -120 -82l-170 107q129 243 329 243q56 0 104.5 -18.5t77 -40.5t64.5 -40.5t70 -18.5z" />
    <glyph glyph-name="ograve" unicode="&#xf2;" horiz-adv-x="1245" 
d="M68 635q74 274 244.5 408.5t455.5 134.5q218 0 338.5 -110.5t120.5 -293.5q0 -82 -23 -164l-26 -98q-74 -273 -245 -408t-456 -135q-218 0 -338.5 111t-120.5 295q0 80 23 162zM539 645l-45 -143q-13 -41 -13 -64q0 -80 84 -80q98 0 142 144l45 143q12 37 12 64
q0 79 -84 79q-97 0 -141 -143zM639 1671l401 -266l-88 -162l-442 193z" />
    <glyph glyph-name="oacute" unicode="&#xf3;" horiz-adv-x="1245" 
d="M68 635q74 274 244.5 408.5t455.5 134.5q218 0 338.5 -110.5t120.5 -293.5q0 -82 -23 -164l-26 -98q-74 -273 -245 -408t-456 -135q-218 0 -338.5 111t-120.5 295q0 80 23 162zM539 645l-45 -143q-13 -41 -13 -64q0 -80 84 -80q98 0 142 144l45 143q12 37 12 64
q0 79 -84 79q-97 0 -141 -143zM1102 1671l84 -266l-494 -162l-61 172z" />
    <glyph glyph-name="ocircumflex" unicode="&#xf4;" horiz-adv-x="1245" 
d="M68 635q74 274 244.5 408.5t455.5 134.5q218 0 338.5 -110.5t120.5 -293.5q0 -82 -23 -164l-26 -98q-74 -273 -245 -408t-456 -135q-218 0 -338.5 111t-120.5 295q0 80 23 162zM539 645l-45 -143q-13 -41 -13 -64q0 -80 84 -80q98 0 142 144l45 143q12 37 12 64
q0 79 -84 79q-97 0 -141 -143zM1094 1243l-252 139h-25l-307 -139l-72 164l371 244h147l248 -262z" />
    <glyph glyph-name="otilde" unicode="&#xf5;" horiz-adv-x="1245" 
d="M68 635q74 274 244.5 408.5t455.5 134.5q218 0 338.5 -110.5t120.5 -293.5q0 -82 -23 -164l-26 -98q-74 -273 -245 -408t-456 -135q-218 0 -338.5 111t-120.5 295q0 80 23 162zM539 645l-45 -143q-13 -41 -13 -64q0 -80 84 -80q98 0 142 144l45 143q12 37 12 64
q0 79 -84 79q-97 0 -141 -143zM1024 1522q68 0 121 82l170 -107q-129 -244 -330 -244q-56 0 -104.5 18.5t-76.5 41t-64 41t-70 18.5q-31 0 -63.5 -20.5t-57.5 -61.5l-170 107q129 243 330 243q56 0 104.5 -18.5t76.5 -40.5t64 -40.5t70 -18.5z" />
    <glyph glyph-name="odieresis" unicode="&#xf6;" horiz-adv-x="1245" 
d="M68 635q74 274 244.5 408.5t455.5 134.5q218 0 338.5 -110.5t120.5 -293.5q0 -82 -23 -164l-26 -98q-74 -273 -245 -408t-456 -135q-218 0 -338.5 111t-120.5 295q0 80 23 162zM539 645l-45 -143q-13 -41 -13 -64q0 -80 84 -80q98 0 142 144l45 143q12 37 12 64
q0 79 -84 79q-97 0 -141 -143zM1075 1274h-18q-65 0 -103.5 33.5t-38.5 91.5q0 69 51.5 118.5t131.5 49.5h20q64 0 103 -33.5t39 -91.5q0 -69 -52.5 -118.5t-132.5 -49.5zM580 1274h-19q-65 0 -103 33.5t-38 91.5q0 69 51 118.5t131 49.5h21q64 0 102.5 -33.5t38.5 -91.5
q0 -69 -52 -118.5t-132 -49.5z" />
    <glyph glyph-name="divide" unicode="&#xf7;" horiz-adv-x="839" 
d="M535 922h-39l36 143h39zM819 725l-10 -39h-717l10 39h717zM379 346h-39l39 143h39z" />
    <glyph glyph-name="oslash" unicode="&#xf8;" horiz-adv-x="1282" 
d="M547 707q-13 -53 -39 -107l20 -8q35 41 115 106q113 90 156 113l12 23q-36 36 -90 36q-61 0 -106.5 -43t-67.5 -120zM735 440q13 53 39 107l-20 8q-35 -41 -115 -106q-113 -90 -156 -113l-12 -23q37 -37 90 -37q61 0 106.5 43.5t67.5 120.5zM496 -31q-208 0 -332 105
l-144 -115l-118 160l155 121q-20 59 -20 135q0 84 22 162l27 98q74 274 244.5 408.5t455.5 134.5q211 0 334 -107l144 117l118 -160l-155 -121q18 -61 18 -133q0 -86 -22 -164l-27 -98q-74 -274 -244.5 -408.5t-455.5 -134.5z" />
    <glyph glyph-name="ugrave" unicode="&#xf9;" 
d="M547 508q0 -78 67 -78q49 0 81.5 33t52.5 108l153 576h473l-307 -1147h-412l41 233h-24q-58 -118 -163.5 -191t-227.5 -73q-118 0 -189.5 78t-71.5 217q0 71 23 162l193 721h473l-150 -559q-12 -46 -12 -80zM670 1671l401 -266l-88 -162l-442 193z" />
    <glyph glyph-name="uacute" unicode="&#xfa;" 
d="M547 508q0 -78 67 -78q49 0 81.5 33t52.5 108l153 576h473l-307 -1147h-412l41 233h-24q-58 -118 -163.5 -191t-227.5 -73q-118 0 -189.5 78t-71.5 217q0 71 23 162l193 721h473l-150 -559q-12 -46 -12 -80zM1133 1671l84 -266l-494 -162l-61 172z" />
    <glyph glyph-name="ucircumflex" unicode="&#xfb;" 
d="M547 508q0 -78 67 -78q49 0 81.5 33t52.5 108l153 576h473l-307 -1147h-412l41 233h-24q-58 -118 -163.5 -191t-227.5 -73q-118 0 -189.5 78t-71.5 217q0 71 23 162l193 721h473l-150 -559q-12 -46 -12 -80zM1124 1243l-252 139h-24l-307 -139l-72 164l371 244h147
l248 -262z" />
    <glyph glyph-name="udieresis" unicode="&#xfc;" 
d="M547 508q0 -78 67 -78q49 0 81.5 33t52.5 108l153 576h473l-307 -1147h-412l41 233h-24q-58 -118 -163.5 -191t-227.5 -73q-118 0 -189.5 78t-71.5 217q0 71 23 162l193 721h473l-150 -559q-12 -46 -12 -80zM1106 1274h-19q-65 0 -103 33.5t-38 91.5q0 69 51 118.5
t131 49.5h21q64 0 102.5 -33.5t38.5 -91.5q0 -69 -52 -118.5t-132 -49.5zM610 1274h-18q-65 0 -103 33.5t-38 91.5q0 69 51 118.5t131 49.5h20q64 0 103 -33.5t39 -91.5q0 -69 -52.5 -118.5t-132.5 -49.5z" />
    <glyph glyph-name="yacute" unicode="&#xfd;" horiz-adv-x="1226" 
d="M879 1147h503l-741 -1434h-485l77 119q60 92 119 148l-2 20h-213l17 1147h483l-55 -529q-7 -76 -33 -212h24q37 108 82 212zM1090 1671l84 -266l-494 -162l-62 172z" />
    <glyph glyph-name="thorn" unicode="&#xfe;" horiz-adv-x="1361" 
d="M739 717q-56 0 -97.5 -41t-63.5 -113l-17 -53q-10 -33 -10 -61q0 -41 25.5 -66t70.5 -25q56 0 98 41t64 113l16 53q11 42 11 62q0 40 -26 65t-71 25zM350 1536h469l-80 -301q-43 -155 -123 -322h25q61 121 170.5 193t239.5 72t210 -96.5t80 -262.5q0 -97 -30 -211
l-25 -92q-74 -280 -212 -413.5t-324 -133.5q-128 0 -202 60t-93 153h-25q-11 -198 -45 -321l-41 -148h-483z" />
    <glyph glyph-name="ydieresis" unicode="&#xff;" horiz-adv-x="1226" 
d="M879 1147h503l-741 -1434h-485l77 119q60 92 119 148l-2 20h-213l17 1147h483l-55 -529q-7 -76 -33 -212h24q37 108 82 212zM1063 1274h-19q-65 0 -103 33.5t-38 91.5q0 69 51 118.5t131 49.5h21q64 0 102.5 -33.5t38.5 -91.5q0 -69 -52 -118.5t-132 -49.5zM567 1274h-18
q-65 0 -103 33.5t-38 91.5q0 69 51 118.5t131 49.5h20q64 0 103 -33.5t39 -91.5q0 -69 -52.5 -118.5t-132.5 -49.5z" />
    <glyph glyph-name="Amacron" unicode="&#x100;" horiz-adv-x="1392" 
d="M713 629h2q47 0 71 -6l27 16q-2 18 -2 47q0 40 4 80l10 133q5 86 27 197h-25q-36 -103 -79 -197l-68 -149q-33 -71 -57 -111l14 -16q30 6 76 6zM748 0l22 260h-301l-117 -260h-516l776 1536h668l-31 -1536h-501zM1358 1894l-64 -235h-655l63 235h656z" />
    <glyph glyph-name="amacron" unicode="&#x101;" horiz-adv-x="1243" 
d="M565 467q-52 0 -86.5 -40.5t-34.5 -102.5q0 -33 18.5 -52.5t53.5 -19.5q52 0 86.5 40.5t34.5 102.5q0 33 -18.5 52.5t-53.5 19.5zM612 141h-24q-48 -75 -142 -123.5t-196 -48.5q-134 0 -207.5 71t-73.5 191q0 204 126 334.5t341 130.5q96 0 163.5 -25t92.5 -61h25
q10 30 10 60q0 65 -43.5 93t-151.5 28q-155 0 -307 -50v363q241 74 500 74q230 0 347.5 -111t117.5 -293q0 -91 -33 -219l-149 -555h-412zM1147 1536l-64 -236h-573l63 236h574z" />
    <glyph glyph-name="Abreve" unicode="&#x102;" horiz-adv-x="1392" 
d="M713 629h2q47 0 71 -6l27 16q-2 18 -2 47q0 40 4 80l10 133q5 86 27 197h-25q-36 -103 -79 -197l-68 -149q-33 -71 -57 -111l14 -16q30 6 76 6zM748 0l22 260h-301l-117 -260h-516l776 1536h668l-31 -1536h-501zM991 1638h-18q-126 0 -210.5 72.5t-84.5 192.5q0 26 6 61
l199 10q0 -45 33.5 -73.5t99.5 -28.5h8q60 0 111 29t73 73l203 -10q-46 -158 -159.5 -242t-260.5 -84z" />
    <glyph glyph-name="abreve" unicode="&#x103;" horiz-adv-x="1243" 
d="M565 467q-52 0 -86.5 -40.5t-34.5 -102.5q0 -33 18.5 -52.5t53.5 -19.5q52 0 86.5 40.5t34.5 102.5q0 33 -18.5 52.5t-53.5 19.5zM612 141h-24q-48 -75 -142 -123.5t-196 -48.5q-134 0 -207.5 71t-73.5 191q0 204 126 334.5t341 130.5q96 0 163.5 -25t92.5 -61h25
q10 30 10 60q0 65 -43.5 93t-151.5 28q-155 0 -307 -50v363q241 74 500 74q230 0 347.5 -111t117.5 -293q0 -91 -33 -219l-149 -555h-412zM815 1274h-18q-114 0 -189.5 72.5t-75.5 195.5q0 34 9 78l198 10q-2 -12 -2 -24q0 -44 26.5 -71.5t76.5 -27.5h8q58 0 107 35t71 88
l199 -10q-43 -163 -151 -254.5t-259 -91.5z" />
    <glyph glyph-name="Aogonek" unicode="&#x104;" horiz-adv-x="1392" 
d="M748 0l22 260h-301l-117 -260h-516l776 1536h668l-31 -1536q-127 -54 -180 -89.5t-53 -62.5q0 -26 33 -26q46 0 116 28l6 -137q-88 -30 -184 -30q-107 0 -158 35t-51 96q0 59 49.5 106t141.5 68l8 24q-49 -12 -127 -12h-102zM713 629h2q47 0 71 -6l27 16q-2 18 -2 47
q0 40 4 80l10 133q5 86 27 197h-25q-36 -103 -79 -197l-68 -149q-33 -71 -57 -111l14 -16q30 6 76 6z" />
    <glyph glyph-name="aogonek" unicode="&#x105;" horiz-adv-x="1243" 
d="M565 467q-52 0 -86.5 -40.5t-34.5 -102.5q0 -33 18.5 -52.5t53.5 -19.5q52 0 86.5 40.5t34.5 102.5q0 33 -18.5 52.5t-53.5 19.5zM735 12q-47 -12 -123 -12h-16l16 141h-24q-48 -75 -142 -123.5t-196 -48.5q-134 0 -207.5 71t-73.5 191q0 204 126 334.5t341 130.5
q96 0 163.5 -25t92.5 -61h25q10 30 10 60q0 65 -43.5 93t-151.5 28q-155 0 -307 -50v363q241 74 500 74q230 0 347.5 -111t117.5 -293q0 -91 -33 -219l-149 -555q-127 -54 -180.5 -89.5t-53.5 -62.5q0 -26 33 -26q47 0 117 28l6 -137q-88 -30 -185 -30q-107 0 -157.5 35
t-50.5 96q0 59 49 106t141 68z" />
    <glyph glyph-name="Cacute" unicode="&#x106;" horiz-adv-x="1402" 
d="M868 655l486 -37q-96 -344 -283.5 -496.5t-509.5 -152.5q-256 0 -384 113t-128 328q0 124 39 266l51 184q70 255 174 408.5t258 226t377 72.5q257 0 385.5 -113t128.5 -328q0 -90 -28 -211l-502 -34q20 72 20 120q0 58 -26.5 81.5t-81.5 23.5q-73 0 -116.5 -47.5
t-82.5 -177.5l-67 -226q-23 -81 -23 -120q0 -57 28 -81t83 -24q73 0 116.5 47.5t85.5 177.5zM1212 2046l70 -266l-539 -142l-57 172z" />
    <glyph glyph-name="cacute" unicode="&#x107;" horiz-adv-x="1191" 
d="M457 -31q-209 0 -324 111t-115 295q0 68 23 162l27 98q73 274 238 408.5t442 134.5q204 0 316 -110.5t112 -293.5q0 -45 -9 -94l-454 -35q10 33 10 64q0 79 -64 79q-42 0 -70 -33t-50 -104l-43 -143q-15 -47 -15 -76q0 -34 18.5 -54t49.5 -20q42 0 71 32.5t48 111.5
l446 -35q-76 -251 -236 -374.5t-421 -123.5zM1087 1671l84 -266l-493 -162l-62 172z" />
    <glyph glyph-name="Ccircumflex" unicode="&#x108;" horiz-adv-x="1402" 
d="M868 655l486 -37q-96 -344 -283.5 -496.5t-509.5 -152.5q-256 0 -384 113t-128 328q0 124 39 266l51 184q70 255 174 408.5t258 226t377 72.5q257 0 385.5 -113t128.5 -328q0 -90 -28 -211l-502 -34q20 72 20 120q0 58 -26.5 81.5t-81.5 23.5q-73 0 -116.5 -47.5
t-82.5 -177.5l-67 -226q-23 -81 -23 -120q0 -57 28 -81t83 -24q73 0 116.5 47.5t85.5 177.5zM1282 1618l-283 139h-24l-359 -139l-71 166l420 241h147l281 -262z" />
    <glyph glyph-name="ccircumflex" unicode="&#x109;" horiz-adv-x="1191" 
d="M457 -31q-209 0 -324 111t-115 295q0 68 23 162l27 98q73 274 238 408.5t442 134.5q204 0 316 -110.5t112 -293.5q0 -45 -9 -94l-454 -35q10 33 10 64q0 79 -64 79q-42 0 -70 -33t-50 -104l-43 -143q-15 -47 -15 -76q0 -34 18.5 -54t49.5 -20q42 0 71 32.5t48 111.5
l446 -35q-76 -251 -236 -374.5t-421 -123.5zM1079 1243l-252 139h-24l-307 -139l-72 164l371 244h147l248 -262z" />
    <glyph glyph-name="Cdotaccent" unicode="&#x10a;" horiz-adv-x="1402" 
d="M868 655l486 -37q-96 -344 -283.5 -496.5t-509.5 -152.5q-256 0 -384 113t-128 328q0 124 39 266l51 184q70 255 174 408.5t258 226t377 72.5q257 0 385.5 -113t128.5 -328q0 -90 -28 -211l-502 -34q20 72 20 120q0 58 -26.5 81.5t-81.5 23.5q-73 0 -116.5 -47.5
t-82.5 -177.5l-67 -226q-23 -81 -23 -120q0 -57 28 -81t83 -24q73 0 116.5 47.5t85.5 177.5zM1014 1638h-25q-82 0 -131 42.5t-49 115.5q0 84 66 145.5t169 61.5h25q80 0 130 -42.5t50 -113.5q0 -86 -66 -147.5t-169 -61.5z" />
    <glyph glyph-name="cdotaccent" unicode="&#x10b;" horiz-adv-x="1191" 
d="M457 -31q-209 0 -324 111t-115 295q0 68 23 162l27 98q73 274 238 408.5t442 134.5q204 0 316 -110.5t112 -293.5q0 -45 -9 -94l-454 -35q10 33 10 64q0 79 -64 79q-42 0 -70 -33t-50 -104l-43 -143q-15 -47 -15 -76q0 -34 18.5 -54t49.5 -20q42 0 71 32.5t48 111.5
l446 -35q-76 -251 -236 -374.5t-421 -123.5zM821 1274h-24q-82 0 -131.5 42.5t-49.5 115.5q0 84 66.5 145t169.5 61h25q80 0 130 -42t50 -113q0 -86 -66.5 -147.5t-169.5 -61.5z" />
    <glyph glyph-name="Ccaron" unicode="&#x10c;" horiz-adv-x="1402" 
d="M868 655l486 -37q-96 -344 -283.5 -496.5t-509.5 -152.5q-256 0 -384 113t-128 328q0 124 39 266l51 184q70 255 174 408.5t258 226t377 72.5q257 0 385.5 -113t128.5 -328q0 -90 -28 -211l-502 -34q20 72 20 120q0 58 -26.5 81.5t-81.5 23.5q-73 0 -116.5 -47.5
t-82.5 -177.5l-67 -226q-23 -81 -23 -120q0 -57 28 -81t83 -24q73 0 116.5 47.5t85.5 177.5zM721 2066l283 -139h24l358 139l72 -165l-420 -242h-147l-281 262z" />
    <glyph glyph-name="ccaron" unicode="&#x10d;" horiz-adv-x="1191" 
d="M457 -31q-209 0 -324 111t-115 295q0 68 23 162l27 98q73 274 238 408.5t442 134.5q204 0 316 -110.5t112 -293.5q0 -45 -9 -94l-454 -35q10 33 10 64q0 79 -64 79q-42 0 -70 -33t-50 -104l-43 -143q-15 -47 -15 -76q0 -34 18.5 -54t49.5 -20q42 0 71 32.5t48 111.5
l446 -35q-76 -251 -236 -374.5t-421 -123.5zM565 1671l252 -139h25l307 139l72 -164l-371 -243h-148l-247 262z" />
    <glyph glyph-name="Dcaron" unicode="&#x10e;" horiz-adv-x="1458" 
d="M809 1106h-39l-182 -676h39q132 0 204 121q51 84 86 198t35 201q0 156 -143 156zM-31 0l412 1536h625q231 0 355 -120t124 -345q0 -218 -82.5 -465t-214.5 -397q-91 -103 -221.5 -156t-286.5 -53h-711zM723 2066l283 -139h24l359 139l71 -165l-420 -242h-147l-281 262z
" />
    <glyph glyph-name="dcaron" unicode="&#x10f;" horiz-adv-x="1693" 
d="M1649 1556l301 -67l-271 -668l-221 51zM625 430q56 0 97.5 41t63.5 113l17 53q10 33 10 61q0 41 -25.5 65.5t-70.5 24.5q-56 0 -98 -40.5t-64 -112.5l-16 -53q-11 -42 -11 -62q0 -40 26 -65t71 -25zM1047 1536h483l-412 -1536h-422l41 233h-24q-59 -121 -165.5 -192.5
t-234.5 -71.5q-130 0 -210 96.5t-80 262.5q0 97 30 211l25 92q74 280 212 413.5t324 133.5q128 0 202 -60t93 -153h25q11 198 45 321z" />
    <glyph glyph-name="Dcroat" unicode="&#x110;" horiz-adv-x="1468" 
d="M690 0h-710l176 655h-123l55 205h123l180 676h625q231 0 355 -120t124 -345q0 -218 -82.5 -465t-214.5 -397q-91 -103 -221.5 -156t-286.5 -53zM598 430h39q133 0 205 121q51 84 86 198t35 201q0 156 -144 156h-39l-65 -246h131l-55 -205h-132z" />
    <glyph glyph-name="dcroat" unicode="&#x111;" horiz-adv-x="1363" 
d="M621 420q107 0 153 139q8 27 8 57q0 36 -24.5 58t-69.5 22q-107 0 -153 -139q-9 -35 -9 -57q0 -36 25 -58t70 -22zM711 233q-59 -121 -165.5 -192.5t-234.5 -71.5q-130 0 -211.5 93.5t-81.5 254.5q0 93 31 211q74 275 213 408t324 133q127 0 199.5 -58.5t91.5 -148.5h24
q10 170 47 312l2 4h-235l55 204h234l40 154h484l-41 -154h94l-55 -204h-94l-316 -1178h-422l41 233h-24z" />
    <glyph glyph-name="Emacron" unicode="&#x112;" horiz-adv-x="1310" 
d="M-31 0l412 1536h1085l-114 -430h-582l-47 -170h494l-87 -328h-493l-45 -168h602l-119 -440h-1106zM1337 1894l-63 -235h-656l64 235h655z" />
    <glyph glyph-name="emacron" unicode="&#x113;" horiz-adv-x="1224" 
d="M555 696l-10 -34h200q19 75 19 102q0 35 -19.5 55.5t-54.5 20.5q-94 0 -135 -144zM1116 377q-71 -195 -233.5 -301.5t-399.5 -106.5q-222 0 -343.5 110.5t-121.5 295.5q0 80 23 162l27 98q74 273 243.5 408t450.5 135q198 0 326.5 -99t128.5 -260q0 -120 -62 -303h-651
l-17 -53q-12 -40 -12 -74q0 -30 21 -50t55 -20q40 0 69 27t54 88zM1163 1536l-63 -236h-574l64 236h573z" />
    <glyph glyph-name="Ebreve" unicode="&#x114;" horiz-adv-x="1310" 
d="M-31 0l412 1536h1085l-114 -430h-582l-47 -170h494l-87 -328h-493l-45 -168h602l-119 -440h-1106zM971 1638h-19q-126 0 -210.5 72.5t-84.5 192.5q0 21 7 61l198 10q0 -45 33.5 -73.5t99.5 -28.5h9q60 0 111 29t73 73l203 -10q-46 -158 -159.5 -242t-260.5 -84z" />
    <glyph glyph-name="ebreve" unicode="&#x115;" horiz-adv-x="1224" 
d="M555 696l-10 -34h200q19 75 19 102q0 35 -19.5 55.5t-54.5 20.5q-94 0 -135 -144zM1116 377q-71 -195 -233.5 -301.5t-399.5 -106.5q-222 0 -343.5 110.5t-121.5 295.5q0 80 23 162l27 98q74 273 243.5 408t450.5 135q198 0 326.5 -99t128.5 -260q0 -120 -62 -303h-651
l-17 -53q-12 -40 -12 -74q0 -30 21 -50t55 -20q40 0 69 27t54 88zM831 1274h-18q-114 0 -189 72.5t-75 195.5q0 39 8 78l199 10q-2 -12 -2 -24q0 -44 26 -71.5t76 -27.5h8q58 0 107 35t71 88l199 -10q-43 -163 -151 -254.5t-259 -91.5z" />
    <glyph glyph-name="Edotaccent" unicode="&#x116;" horiz-adv-x="1310" 
d="M-31 0l412 1536h1085l-114 -430h-582l-47 -170h494l-87 -328h-493l-45 -168h602l-119 -440h-1106zM983 1638h-25q-82 0 -131 42.5t-49 115.5q0 84 66.5 145.5t169.5 61.5h24q80 0 130.5 -42.5t50.5 -113.5q0 -86 -66.5 -147.5t-169.5 -61.5z" />
    <glyph glyph-name="edotaccent" unicode="&#x117;" horiz-adv-x="1224" 
d="M555 696l-10 -34h200q19 75 19 102q0 35 -19.5 55.5t-54.5 20.5q-94 0 -135 -144zM1116 377q-71 -195 -233.5 -301.5t-399.5 -106.5q-222 0 -343.5 110.5t-121.5 295.5q0 80 23 162l27 98q74 273 243.5 408t450.5 135q198 0 326.5 -99t128.5 -260q0 -120 -62 -303h-651
l-17 -53q-12 -40 -12 -74q0 -30 21 -50t55 -20q40 0 69 27t54 88zM842 1274h-25q-82 0 -131 42.5t-49 115.5q0 84 66 145t169 61h25q80 0 130 -42t50 -113q0 -86 -66 -147.5t-169 -61.5z" />
    <glyph glyph-name="Eogonek" unicode="&#x118;" horiz-adv-x="1310" 
d="M997 -287q-88 -30 -184 -30q-107 0 -158 35t-51 96q0 59 49.5 106t141.5 68l8 24q-49 -12 -127 -12h-707l412 1536h1085l-114 -430h-582l-47 -170h494l-87 -328h-493l-45 -168h602l-119 -440q-127 -54 -180 -89.5t-53 -62.5q0 -26 32 -26q47 0 117 28z" />
    <glyph glyph-name="eogonek" unicode="&#x119;" horiz-adv-x="1224" 
d="M555 696l-10 -34h200q19 75 19 102q0 35 -19.5 55.5t-54.5 20.5q-94 0 -135 -144zM635 -287q-88 -30 -184 -30q-107 0 -158 35t-51 96q0 53 43.5 95t126.5 60l8 25q-192 17 -297 118.5t-105 262.5q0 80 23 162l27 98q74 273 243.5 408t450.5 135q198 0 326.5 -99
t128.5 -260q0 -120 -62 -303h-651l-17 -53q-12 -40 -12 -74q0 -30 21 -50t55 -20q40 0 69 27t54 88l442 -57q-50 -138 -146 -232.5t-231 -136.5q-97 -31 -158 -62.5t-81.5 -53.5t-20.5 -42q0 -28 31 -28q49 0 119 28z" />
    <glyph glyph-name="Ecaron" unicode="&#x11a;" horiz-adv-x="1310" 
d="M-31 0l412 1536h1085l-114 -430h-582l-47 -170h494l-87 -328h-493l-45 -168h602l-119 -440h-1106zM690 2066l283 -139h24l359 139l71 -165l-419 -242h-148l-280 262z" />
    <glyph glyph-name="ecaron" unicode="&#x11b;" horiz-adv-x="1224" 
d="M555 696l-10 -34h200q19 75 19 102q0 35 -19.5 55.5t-54.5 20.5q-94 0 -135 -144zM1116 377q-71 -195 -233.5 -301.5t-399.5 -106.5q-222 0 -343.5 110.5t-121.5 295.5q0 80 23 162l27 98q74 273 243.5 408t450.5 135q198 0 326.5 -99t128.5 -260q0 -120 -62 -303h-651
l-17 -53q-12 -40 -12 -74q0 -30 21 -50t55 -20q40 0 69 27t54 88zM586 1671l252 -139h24l307 139l72 -164l-371 -243h-147l-248 262z" />
    <glyph glyph-name="Gcircumflex" unicode="&#x11c;" horiz-adv-x="1421" 
d="M465 -31q-197 0 -305.5 110.5t-108.5 305.5q0 158 37 291l51 184q70 255 174 408.5t258 226t377 72.5q257 0 385.5 -113t128.5 -328q0 -97 -24 -190l-500 -35q20 72 20 121q0 58 -26.5 81t-81.5 23q-73 0 -116.5 -47.5t-82.5 -177.5l-98 -328q-25 -78 -17.5 -123t34 -63
t77.5 -18q67 0 110 29t87 110l-13 16q-49 -12 -120 -12l77 287h613l-215 -799h-307l18 162h-25q-60 -85 -165 -139t-242 -54zM1284 1618l-283 139h-24l-359 -139l-71 166l420 241h147l281 -262z" />
    <glyph glyph-name="gcircumflex" unicode="&#x11d;" horiz-adv-x="1247" 
d="M774 1178q225 0 351 -94t126 -242q0 -72 -18 -142l-8 -28q-54 -192 -224.5 -287.5t-468.5 -95.5q-155 0 -155 -80q0 -55 78 -55q31 0 108 4t105 4q182 0 269 -73t87 -228q0 -60 -16 -148l-502 -30q2 10 2 24q0 66 -80 66q-35 0 -102.5 -4.5t-98.5 -4.5
q-148 0 -233.5 80.5t-85.5 196.5q0 124 98 225.5t252 128.5l6 25q-178 71 -178 235q0 56 14 105l9 26q60 194 221.5 293t443.5 99zM707 891q-55 0 -96 -37.5t-58 -101.5l-10 -37q-8 -33 -8 -56q0 -84 94 -84q55 0 95 38t58 102l11 37q8 33 8 55q0 84 -94 84zM1092 1243
l-252 139h-25l-307 -139l-72 164l371 244h147l248 -262z" />
    <glyph glyph-name="Gbreve" unicode="&#x11e;" horiz-adv-x="1421" 
d="M465 -31q-197 0 -305.5 110.5t-108.5 305.5q0 158 37 291l51 184q70 255 174 408.5t258 226t377 72.5q257 0 385.5 -113t128.5 -328q0 -97 -24 -190l-500 -35q20 72 20 121q0 58 -26.5 81t-81.5 23q-73 0 -116.5 -47.5t-82.5 -177.5l-98 -328q-25 -78 -17.5 -123t34 -63
t77.5 -18q67 0 110 29t87 110l-13 16q-49 -12 -120 -12l77 287h613l-215 -799h-307l18 162h-25q-60 -85 -165 -139t-242 -54zM1004 1638h-19q-126 0 -210.5 72.5t-84.5 192.5q0 26 6 61l199 10q0 -45 33.5 -73.5t99.5 -28.5h8q60 0 111.5 29t73.5 73l202 -10
q-46 -158 -159 -242t-260 -84z" />
    <glyph glyph-name="gbreve" unicode="&#x11f;" horiz-adv-x="1247" 
d="M774 1178q225 0 351 -94t126 -242q0 -72 -18 -142l-8 -28q-54 -192 -224.5 -287.5t-468.5 -95.5q-155 0 -155 -80q0 -55 78 -55q31 0 108 4t105 4q182 0 269 -73t87 -228q0 -60 -16 -148l-502 -30q2 10 2 24q0 66 -80 66q-35 0 -102.5 -4.5t-98.5 -4.5
q-148 0 -233.5 80.5t-85.5 196.5q0 124 98 225.5t252 128.5l6 25q-178 71 -178 235q0 56 14 105l9 26q60 194 221.5 293t443.5 99zM707 891q-55 0 -96 -37.5t-58 -101.5l-10 -37q-8 -33 -8 -56q0 -84 94 -84q55 0 95 38t58 102l11 37q8 33 8 55q0 84 -94 84zM823 1274h-18
q-114 0 -189 72.5t-75 195.5q0 39 8 78l199 10q-3 -18 -3 -24q0 -44 26.5 -71.5t76.5 -27.5h8q58 0 107 35t71 88l199 -10q-43 -163 -151 -254.5t-259 -91.5z" />
    <glyph glyph-name="Gdotaccent" unicode="&#x120;" horiz-adv-x="1421" 
d="M465 -31q-197 0 -305.5 110.5t-108.5 305.5q0 158 37 291l51 184q70 255 174 408.5t258 226t377 72.5q257 0 385.5 -113t128.5 -328q0 -97 -24 -190l-500 -35q20 72 20 121q0 58 -26.5 81t-81.5 23q-73 0 -116.5 -47.5t-82.5 -177.5l-98 -328q-25 -78 -17.5 -123t34 -63
t77.5 -18q67 0 110 29t87 110l-13 16q-49 -12 -120 -12l77 287h613l-215 -799h-307l18 162h-25q-60 -85 -165 -139t-242 -54zM1016 1638h-25q-82 0 -131 42.5t-49 115.5q0 84 66.5 145.5t169.5 61.5h24q80 0 130 -42.5t50 -113.5q0 -86 -66 -147.5t-169 -61.5z" />
    <glyph glyph-name="gdotaccent" unicode="&#x121;" horiz-adv-x="1247" 
d="M774 1178q225 0 351 -94t126 -242q0 -72 -18 -142l-8 -28q-54 -192 -224.5 -287.5t-468.5 -95.5q-155 0 -155 -80q0 -55 78 -55q31 0 108 4t105 4q182 0 269 -73t87 -228q0 -60 -16 -148l-502 -30q2 10 2 24q0 66 -80 66q-35 0 -102.5 -4.5t-98.5 -4.5
q-148 0 -233.5 80.5t-85.5 196.5q0 124 98 225.5t252 128.5l6 25q-178 71 -178 235q0 56 14 105l9 26q60 194 221.5 293t443.5 99zM707 891q-55 0 -96 -37.5t-58 -101.5l-10 -37q-8 -33 -8 -56q0 -84 94 -84q55 0 95 38t58 102l11 37q8 33 8 55q0 84 -94 84zM834 1274h-25
q-82 0 -131 42.5t-49 115.5q0 84 66 145t169 61h25q80 0 130 -42t50 -113q0 -86 -66 -147.5t-169 -61.5z" />
    <glyph glyph-name="uni0122" unicode="&#x122;" horiz-adv-x="1421" 
d="M465 -31q-197 0 -305.5 110.5t-108.5 305.5q0 158 37 291l51 184q70 255 174 408.5t258 226t377 72.5q257 0 385.5 -113t128.5 -328q0 -97 -24 -190l-500 -35q20 72 20 121q0 58 -26.5 81t-81.5 23q-73 0 -116.5 -47.5t-82.5 -177.5l-98 -328q-25 -78 -17.5 -123t34 -63
t77.5 -18q67 0 110 29t87 110l-13 16q-49 -12 -120 -12l77 287h613l-215 -799h-307l18 162h-25q-60 -85 -165 -139t-242 -54zM522 -549h-192l73 129q-84 41 -84 123q0 74 52 124t145 50h21q71 0 114 -36.5t43 -102.5q0 -65 -49.5 -144.5t-122.5 -142.5z" />
    <glyph glyph-name="uni0123" unicode="&#x123;" horiz-adv-x="1247" 
d="M774 1178q225 0 351 -94t126 -242q0 -72 -18 -142l-8 -28q-54 -192 -224.5 -287.5t-468.5 -95.5q-155 0 -155 -80q0 -55 78 -55q31 0 108 4t105 4q182 0 269 -73t87 -228q0 -60 -16 -148l-502 -30q2 10 2 24q0 66 -80 66q-35 0 -102.5 -4.5t-98.5 -4.5
q-148 0 -233.5 80.5t-85.5 196.5q0 124 98 225.5t252 128.5l6 25q-178 71 -178 235q0 56 14 105l9 26q60 194 221.5 293t443.5 99zM707 891q-55 0 -96 -37.5t-58 -101.5l-10 -37q-8 -33 -8 -56q0 -84 94 -84q55 0 95 38t58 102l11 37q8 33 8 55q0 84 -94 84zM821 1700h193
l-74 -129q84 -41 84 -123q0 -74 -52 -124t-145 -50h-20q-71 0 -114.5 36.5t-43.5 102.5q0 65 49.5 144.5t122.5 142.5z" />
    <glyph glyph-name="Hcircumflex" unicode="&#x124;" horiz-adv-x="1536" 
d="M756 0l139 518h-283l-139 -518h-504l412 1536h504l-148 -547h283l147 547h504l-411 -1536h-504zM1364 1618l-283 139h-24l-359 -139l-71 166l420 241h147l281 -262z" />
    <glyph glyph-name="hcircumflex" unicode="&#x125;" 
d="M-61 0l411 1536h473l-67 -250q-9 -36 -22 -75t-31.5 -86.5t-28.5 -73t-32.5 -79t-25.5 -59.5h25q58 118 163.5 191.5t227.5 73.5q118 0 189 -78t71 -217q0 -75 -22 -162l-193 -721h-473l150 559q12 47 12 80q0 78 -68 78q-48 0 -80.5 -33.5t-52.5 -108.5l-153 -575h-473z
M918 1618l-283 139h-25l-358 -139l-72 166l420 241h148l280 -262z" />
    <glyph glyph-name="Hbar" unicode="&#x126;" horiz-adv-x="1554" 
d="M993 846l58 219h-283l-57 -219h282zM766 0l100 375h-282l-101 -375h-503l284 1065h-123l56 205h122l72 266h504l-72 -266h283l72 266h503l-71 -266h123l-56 -205h-123l-284 -1065h-504z" />
    <glyph glyph-name="hbar" unicode="&#x127;" 
d="M537 467l-125 -467h-473l315 1178h-92l55 204h92l41 154h473l-41 -154h234l-55 -204h-234q-8 -30 -20 -66.5t-21.5 -63.5t-26.5 -70t-24 -60.5t-26 -62.5t-21 -50h24q58 118 164 191t228 73q118 0 189 -78t71 -217q0 -71 -23 -162l-164 -612h-473l121 451q12 46 12 79
q0 78 -67 78q-48 0 -80.5 -33t-52.5 -108z" />
    <glyph glyph-name="Itilde" unicode="&#x128;" horiz-adv-x="749" 
d="M381 1536h504l-412 -1536h-504zM883 1907q72 0 131 82l170 -107q-133 -244 -340 -244q-59 0 -110.5 18.5t-82 41t-69 41t-74.5 18.5q-31 0 -63.5 -20.5t-57.5 -61.5l-170 107q129 243 330 243q59 0 110.5 -18.5t82 -40.5t69 -40.5t74.5 -18.5z" />
    <glyph glyph-name="itilde" unicode="&#x129;" horiz-adv-x="657" 
d="M246 1147h473l-307 -1147h-473zM739 1522q68 0 121 82l170 -107q-129 -244 -330 -244q-56 0 -104.5 18.5t-76.5 41t-64 41t-70 18.5q-31 0 -63.5 -20.5t-57.5 -61.5l-170 107q129 243 330 243q56 0 104.5 -18.5t76.5 -40.5t64 -40.5t70 -18.5z" />
    <glyph glyph-name="Imacron" unicode="&#x12a;" horiz-adv-x="749" 
d="M381 1536h504l-412 -1536h-504zM1057 1894l-64 -235h-655l63 235h656z" />
    <glyph glyph-name="imacron" unicode="&#x12b;" horiz-adv-x="657" 
d="M246 1147h473l-307 -1147h-473zM872 1536l-63 -236h-573l63 236h573z" />
    <glyph glyph-name="Ibreve" unicode="&#x12c;" horiz-adv-x="749" 
d="M381 1536h504l-412 -1536h-504zM690 1638h-18q-126 0 -210.5 72.5t-84.5 192.5q0 26 6 61l199 10q0 -45 33.5 -73.5t99.5 -28.5h8q60 0 111 29t73 73l203 -10q-46 -158 -159.5 -242t-260.5 -84z" />
    <glyph glyph-name="ibreve" unicode="&#x12d;" horiz-adv-x="657" 
d="M246 1147h473l-307 -1147h-473zM541 1274h-19q-114 0 -189 72.5t-75 195.5q0 39 8 78l199 10q-2 -12 -2 -24q0 -44 26 -71.5t76 -27.5h8q58 0 107.5 35t71.5 88l198 -10q-43 -163 -151 -254.5t-258 -91.5z" />
    <glyph glyph-name="Iogonek" unicode="&#x12e;" horiz-adv-x="749" 
d="M201 12q-47 -12 -123 -12h-109l412 1536h504l-412 -1536q-127 -54 -180 -89.5t-53 -62.5q0 -26 32 -26q47 0 117 28l6 -137q-88 -30 -184 -30q-107 0 -158 35t-51 96q0 59 49.5 106t141.5 68z" />
    <glyph glyph-name="iogonek" unicode="&#x12f;" horiz-adv-x="655" 
d="M557 1260h-31q-102 0 -165.5 54t-63.5 146q0 108 84.5 187t212.5 79h31q102 0 165.5 -54t63.5 -146q0 -108 -84.5 -187t-212.5 -79zM334 -287q-88 -30 -184 -30q-107 0 -158 35t-51 96q0 59 49 106t141 68l8 24q-78 -12 -184 -12h-16l307 1147h473l-307 -1147
q-127 -54 -180.5 -89.5t-53.5 -62.5q0 -26 33 -26q47 0 117 28z" />
    <glyph glyph-name="Idotaccent" unicode="&#x130;" horiz-adv-x="749" 
d="M735 1638h-106q-82 0 -131 42.5t-49 115.5q0 84 66 145.5t169 61.5h107q80 0 130 -42.5t50 -113.5q0 -86 -66.5 -147.5t-169.5 -61.5zM381 1536h504l-412 -1536h-504z" />
    <glyph glyph-name="dotlessi" unicode="&#x131;" horiz-adv-x="657" 
d="M246 1147h473l-307 -1147h-473z" />
    <glyph glyph-name="IJ" unicode="&#x132;" horiz-adv-x="1640" 
d="M604 0l117 432q51 -14 98 -14q90 0 144 46t84 157l245 915h504l-260 -969q-84 -316 -246 -454q-84 -72 -199 -108t-227 -36q-69 0 -145 10t-115 21zM381 1536h504l-412 -1536h-504z" />
    <glyph glyph-name="ij" unicode="&#x133;" horiz-adv-x="1320" 
d="M557 1260h-31q-102 0 -165.5 54t-63.5 146q0 108 84.5 187t212.5 79h31q102 0 165.5 -54t63.5 -146q0 -108 -84.5 -187t-212.5 -79zM246 1147h473l-307 -1147h-473zM1221 1260h-31q-102 0 -165.5 54t-63.5 146q0 108 84 187t212 79h31q102 0 166 -54t64 -146
q0 -108 -84.5 -187t-212.5 -79zM600 -317q-47 0 -104.5 10t-83.5 20l98 365q16 -4 33 -4q41 0 66 23t40 79l260 971h473l-274 -1026q-62 -232 -183.5 -335t-324.5 -103z" />
    <glyph glyph-name="Jcircumflex" unicode="&#x134;" horiz-adv-x="1316" 
d="M1212 567q-84 -318 -245 -454q-168 -144 -475 -144q-242 0 -368 118.5t-126 326.5q0 91 25 207l491 34q-25 -95 -25 -143q0 -39 18.5 -60.5t51.5 -21.5q57 0 97 45t71 160l242 901h504zM1559 1618l-283 139h-25l-358 -139l-72 166l420 241h148l280 -262z" />
    <glyph glyph-name="jcircumflex" unicode="&#x135;" horiz-adv-x="655" 
d="M-63 -317q-47 0 -105 10t-84 20l98 365q16 -4 33 -4q41 0 66.5 23.5t40.5 78.5l260 971h473l-275 -1026q-62 -233 -183 -335.5t-324 -102.5zM809 1243l-252 139h-25l-307 -139l-71 164l370 244h148l248 -262z" />
    <glyph glyph-name="uni0136" unicode="&#x136;" horiz-adv-x="1433" 
d="M1067 715l233 -715h-518l-114 389q-32 111 -37 221h-25q-20 -190 -63 -352l-70 -258h-504l412 1536h504l-80 -299q-37 -139 -125 -352h25q65 119 141 221l325 430h541zM567 -549h-192l74 129q-84 41 -84 123q0 74 51.5 124t144.5 50h21q71 0 114 -36.5t43 -102.5
q0 -65 -49.5 -144.5t-122.5 -142.5z" />
    <glyph glyph-name="uni0137" unicode="&#x137;" 
d="M942 530l238 -530h-516l-93 225q-42 103 -55 211h-24q-11 -178 -56 -342l-24 -94h-473l411 1536h473l-135 -504q-43 -158 -129 -342h25q52 87 149 211l197 246h530zM469 -549h-193l74 129q-84 41 -84 123q0 74 52 124t145 50h20q71 0 114.5 -36.5t43.5 -102.5
q0 -65 -49.5 -144.5t-122.5 -142.5z" />
    <glyph glyph-name="kgreenlandic" unicode="&#x138;" 
d="M942 530l238 -530h-516l-93 225q-42 103 -55 211h-24q-11 -178 -56 -342l-24 -94h-473l307 1147h473l-31 -115q-43 -158 -129 -342h25q52 87 149 211l197 246h530z" />
    <glyph glyph-name="Lacute" unicode="&#x139;" horiz-adv-x="1126" 
d="M-31 0l412 1536h504l-285 -1065h479l-127 -471h-983zM901 2046l70 -266l-539 -142l-57 172z" />
    <glyph glyph-name="lacute" unicode="&#x13a;" horiz-adv-x="657" 
d="M350 1536h473l-411 -1536h-473zM854 2046l70 -266l-539 -142l-57 172z" />
    <glyph glyph-name="uni013B" unicode="&#x13b;" horiz-adv-x="1126" 
d="M-31 0l412 1536h504l-285 -1065h479l-127 -471h-983zM397 -549h-192l74 129q-84 41 -84 123q0 74 51.5 124t144.5 50h21q71 0 114 -36.5t43 -102.5q0 -65 -49.5 -144.5t-122.5 -142.5z" />
    <glyph glyph-name="uni013C" unicode="&#x13c;" horiz-adv-x="657" 
d="M350 1536h473l-411 -1536h-473zM109 -549h-193l74 129q-84 41 -84 123q0 74 51.5 124t144.5 50h21q71 0 114.5 -36.5t43.5 -102.5q0 -65 -49.5 -144.5t-122.5 -142.5z" />
    <glyph glyph-name="Lcaron" unicode="&#x13d;" horiz-adv-x="1126" 
d="M1057 1556l301 -67l-271 -668l-221 51zM-31 0l412 1536h504l-285 -1065h479l-127 -471h-983z" />
    <glyph glyph-name="lcaron" unicode="&#x13e;" horiz-adv-x="987" 
d="M942 1556l301 -67l-270 -668l-221 51zM350 1536h473l-411 -1536h-473z" />
    <glyph glyph-name="Ldot" unicode="&#x13f;" horiz-adv-x="1124" 
d="M1198 872l-12 -51q-25 -99 -85.5 -154t-144.5 -55q-71 0 -108 35.5t-37 93.5q0 35 10 80l13 51q25 99 84.5 152t146.5 53q70 0 106.5 -34.5t36.5 -90.5q0 -35 -10 -80zM-31 0l412 1536h504l-285 -1065h479l-127 -471h-983z" />
    <glyph glyph-name="ldot" unicode="&#x140;" horiz-adv-x="1021" 
d="M1047 668l-13 -52q-25 -99 -85 -153.5t-144 -54.5q-71 0 -108.5 35.5t-37.5 93.5q0 29 11 79l12 52q25 99 84.5 151.5t146.5 52.5q70 0 107 -34t37 -90q0 -35 -10 -80zM350 1536h473l-411 -1536h-473z" />
    <glyph glyph-name="Lslash" unicode="&#x141;" horiz-adv-x="1167" 
d="M10 0l66 246q40 143 92 252l-16 12q-61 -36 -93 -49l-24 -10l-45 200l219 90l213 795h491l-84 -313q-40 -143 -92 -252l17 -13q70 41 92 50l100 41l49 -199l-299 -123l-67 -256h491l-127 -471h-983z" />
    <glyph glyph-name="lslash" unicode="&#x142;" horiz-adv-x="788" 
d="M635 610l-164 -610h-461l39 143q40 143 92 252l-16 13q-58 -35 -94 -50l-23 -10l-45 201l219 90l240 897h461l-115 -430q-29 -120 -92 -252l18 -12q58 34 82 45l29 12l49 -199z" />
    <glyph glyph-name="Nacute" unicode="&#x143;" horiz-adv-x="1536" 
d="M913 1536l72 -557q15 -116 12 -211l-2 -70h25q26 205 70 371l124 467h457l-411 -1536h-547l-70 512q-15 108 -12 197l2 84h-25q-27 -212 -69 -371l-113 -422h-457l412 1536h532zM1264 2046l69 -266l-538 -142l-58 172z" />
    <glyph glyph-name="nacute" unicode="&#x144;" 
d="M766 639q0 78 -68 78q-48 0 -80.5 -33.5t-52.5 -108.5l-153 -575h-473l307 1147h411l-41 -234h25q58 118 163.5 191.5t227.5 73.5q118 0 189 -78t71 -217q0 -75 -22 -162l-193 -721h-473l150 559q12 47 12 80zM1135 1671l84 -266l-494 -162l-61 172z" />
    <glyph glyph-name="uni0145" unicode="&#x145;" horiz-adv-x="1536" 
d="M913 1536l72 -557q15 -116 12 -211l-2 -70h25q26 205 70 371l124 467h457l-411 -1536h-547l-70 512q-15 108 -12 197l2 84h-25q-27 -212 -69 -371l-113 -422h-457l412 1536h532zM616 -549h-192l74 129q-84 41 -84 123q0 74 51.5 124t144.5 50h21q71 0 114 -36.5
t43 -102.5q0 -65 -49.5 -144.5t-122.5 -142.5z" />
    <glyph glyph-name="uni0146" unicode="&#x146;" 
d="M766 639q0 78 -68 78q-48 0 -80.5 -33.5t-52.5 -108.5l-153 -575h-473l307 1147h411l-41 -234h25q58 118 163.5 191.5t227.5 73.5q118 0 189 -78t71 -217q0 -75 -22 -162l-193 -721h-473l150 559q12 47 12 80zM455 -549h-193l74 129q-84 41 -84 123q0 74 52 124t145 50
h20q71 0 114.5 -36.5t43.5 -102.5q0 -65 -49.5 -144.5t-122.5 -142.5z" />
    <glyph glyph-name="Ncaron" unicode="&#x147;" horiz-adv-x="1536" 
d="M913 1536l72 -557q15 -116 12 -211l-2 -70h25q26 205 70 371l124 467h457l-411 -1536h-547l-70 512q-15 108 -12 197l2 84h-25q-27 -212 -69 -371l-113 -422h-457l412 1536h532zM772 2066l283 -139h24l359 139l71 -165l-419 -242h-148l-280 262z" />
    <glyph glyph-name="ncaron" unicode="&#x148;" 
d="M766 639q0 78 -68 78q-48 0 -80.5 -33.5t-52.5 -108.5l-153 -575h-473l307 1147h411l-41 -234h25q58 118 163.5 191.5t227.5 73.5q118 0 189 -78t71 -217q0 -75 -22 -162l-193 -721h-473l150 559q12 47 12 80zM612 1671l252 -139h25l307 139l72 -164l-371 -243h-147
l-248 262z" />
    <glyph glyph-name="uni0149" unicode="&#x149;" horiz-adv-x="1966" 
d="M514 844h-283l138 268q-113 58 -113 188q0 114 77.5 190.5t213.5 76.5h31q101 0 162 -54t61 -147q0 -117 -77.5 -255t-209.5 -267zM1419 639q0 78 -67 78q-48 0 -80.5 -33.5t-52.5 -108.5l-154 -575h-473l307 1147h412l-41 -234h24q58 118 164 191.5t228 73.5
q118 0 189 -78t71 -217q0 -71 -23 -162l-192 -721h-474l150 559q12 47 12 80z" />
    <glyph glyph-name="Eng" unicode="&#x14a;" horiz-adv-x="1536" 
d="M686 193l-43 319q-15 108 -12 197l2 84h-25q-27 -212 -69 -371l-113 -422h-457l412 1536h532l72 -557q15 -116 12 -211l-2 -70h25q26 205 70 371l124 467h457l-379 -1415q-65 -241 -204 -339.5t-369 -98.5q-153 0 -260 30l100 371q24 -6 43 -6q45 0 66.5 15.5t21.5 53.5
q0 21 -4 46z" />
    <glyph glyph-name="eng" unicode="&#x14b;" 
d="M1110 121q-62 -232 -183.5 -335t-324.5 -103q-47 0 -104.5 10t-83.5 20l98 365q16 -4 33 -4q41 0 66 23t40 79l103 383q12 47 12 80q0 78 -68 78q-48 0 -80.5 -33.5t-52.5 -108.5l-153 -575h-473l307 1147h411l-41 -234h25q58 118 163.5 191.5t227.5 73.5q118 0 189 -78
t71 -217q0 -75 -22 -162z" />
    <glyph glyph-name="Omacron" unicode="&#x14c;" horiz-adv-x="1413" 
d="M1430 860l-52 -184q-105 -378 -293 -542.5t-520 -164.5q-257 0 -386.5 113t-129.5 328q0 124 39 266l51 184q104 379 292.5 543t520.5 164q257 0 386.5 -113t129.5 -328q0 -128 -38 -266zM872 655l68 226q23 80 23 120q0 57 -29.5 81t-85.5 24q-74 0 -119 -48t-84 -177
l-67 -226q-23 -81 -23 -120q0 -57 29.5 -81t85.5 -24q74 0 118.5 48t83.5 177zM1374 1894l-63 -235h-656l64 235h655z" />
    <glyph glyph-name="omacron" unicode="&#x14d;" horiz-adv-x="1245" 
d="M68 635q74 274 244.5 408.5t455.5 134.5q218 0 338.5 -110.5t120.5 -293.5q0 -82 -23 -164l-26 -98q-74 -273 -245 -408t-456 -135q-218 0 -338.5 111t-120.5 295q0 80 23 162zM539 645l-45 -143q-13 -41 -13 -64q0 -80 84 -80q98 0 142 144l45 143q12 37 12 64
q0 79 -84 79q-97 0 -141 -143zM1157 1536l-63 -236h-574l64 236h573z" />
    <glyph glyph-name="Obreve" unicode="&#x14e;" horiz-adv-x="1413" 
d="M1430 860l-52 -184q-105 -378 -293 -542.5t-520 -164.5q-257 0 -386.5 113t-129.5 328q0 124 39 266l51 184q104 379 292.5 543t520.5 164q257 0 386.5 -113t129.5 -328q0 -128 -38 -266zM872 655l68 226q23 80 23 120q0 57 -29.5 81t-85.5 24q-74 0 -119 -48t-84 -177
l-67 -226q-23 -81 -23 -120q0 -57 29.5 -81t85.5 -24q74 0 118.5 48t83.5 177zM1008 1638h-19q-126 0 -210.5 72.5t-84.5 192.5q0 26 6 61l199 10q0 -45 33.5 -73.5t99.5 -28.5h8q60 0 111.5 29t73.5 73l202 -10q-46 -158 -159 -242t-260 -84z" />
    <glyph glyph-name="obreve" unicode="&#x14f;" horiz-adv-x="1245" 
d="M68 635q74 274 244.5 408.5t455.5 134.5q218 0 338.5 -110.5t120.5 -293.5q0 -82 -23 -164l-26 -98q-74 -273 -245 -408t-456 -135q-218 0 -338.5 111t-120.5 295q0 80 23 162zM539 645l-45 -143q-13 -41 -13 -64q0 -80 84 -80q98 0 142 144l45 143q12 37 12 64
q0 79 -84 79q-97 0 -141 -143zM825 1274h-18q-114 0 -189 72.5t-75 195.5q0 39 8 78l199 10q-2 -12 -2 -24q0 -44 26 -71.5t76 -27.5h8q58 0 107 35t71 88l199 -10q-43 -163 -151 -254.5t-259 -91.5z" />
    <glyph glyph-name="Ohungarumlaut" unicode="&#x150;" horiz-adv-x="1413" 
d="M1430 860l-52 -184q-105 -378 -293 -542.5t-520 -164.5q-257 0 -386.5 113t-129.5 328q0 124 39 266l51 184q104 379 292.5 543t520.5 164q257 0 386.5 -113t129.5 -328q0 -128 -38 -266zM872 655l68 226q23 80 23 120q0 57 -29.5 81t-85.5 24q-74 0 -119 -48t-84 -177
l-67 -226q-23 -81 -23 -120q0 -57 29.5 -81t85.5 -24q74 0 118.5 48t83.5 177zM1364 2058l158 -166l-334 -256l-117 121zM981 2058l158 -166l-334 -256l-117 121z" />
    <glyph glyph-name="ohungarumlaut" unicode="&#x151;" horiz-adv-x="1245" 
d="M68 635q74 274 244.5 408.5t455.5 134.5q218 0 338.5 -110.5t120.5 -293.5q0 -82 -23 -164l-26 -98q-74 -273 -245 -408t-456 -135q-218 0 -338.5 111t-120.5 295q0 80 23 162zM539 645l-45 -143q-13 -41 -13 -64q0 -80 84 -80q98 0 142 144l45 143q12 37 12 64
q0 79 -84 79q-97 0 -141 -143zM1137 1665l178 -166l-314 -256l-127 121zM768 1665l178 -166l-313 -256l-127 121z" />
    <glyph glyph-name="OE" unicode="&#x152;" horiz-adv-x="1916" 
d="M872 655l68 226q23 80 23 120q0 57 -29.5 81t-85.5 24q-74 0 -119 -48t-84 -177l-67 -226q-23 -81 -23 -120q0 -57 29.5 -81t85.5 -24q74 0 118.5 48t83.5 177zM616 0q-282 0 -424.5 105.5t-142.5 304.5q0 124 39 266l51 184q111 362 311 519t554 157h1069l-115 -430
h-500l-47 -170h412l-86 -328h-412l-45 -168h520l-119 -440h-1065z" />
    <glyph glyph-name="oe" unicode="&#x153;" horiz-adv-x="1873" 
d="M1204 696l-10 -34h201q18 71 18 102q0 35 -19.5 55.5t-54.5 20.5q-94 0 -135 -144zM539 645l-45 -143q-13 -41 -13 -64q0 -80 84 -80q98 0 142 144l45 143q12 37 12 64q0 79 -84 79q-97 0 -141 -143zM1765 377q-68 -195 -222 -301.5t-374 -106.5q-123 0 -208.5 55
t-110.5 152h-25q-133 -207 -399 -207q-189 0 -298.5 111.5t-109.5 294.5q0 80 23 162l27 98q71 272 224.5 407.5t397.5 135.5q120 0 214.5 -57.5t133.5 -149.5h25q137 207 389 207q174 0 294 -100t120 -259q0 -120 -62 -303h-651l-16 -53q-13 -44 -13 -74t21 -50t55 -20
q40 0 69 27t54 88z" />
    <glyph glyph-name="Racute" unicode="&#x154;" horiz-adv-x="1419" 
d="M860 1182h-69l-101 -369h64q91 0 151 82t60 184q0 54 -25 78.5t-80 24.5zM606 473h-6l-127 -473h-504l412 1536h690q212 0 322 -81.5t110 -233.5q0 -108 -40 -215t-115 -181q-122 -119 -351 -125l-8 -24l39 -6q104 -17 155.5 -91.5t63.5 -222.5l29 -356h-524l-21 369
q-3 59 -30.5 81.5t-94.5 22.5zM1200 2046l70 -266l-539 -142l-57 172z" />
    <glyph glyph-name="racute" unicode="&#x155;" horiz-adv-x="1165" 
d="M555 532v3l-143 -535h-473l307 1147h411l-41 -234h25q67 125 158 195t192 70q95 0 157 -74t62 -217q0 -117 -36 -248l-447 -70q8 32 8 56q0 34 -14 52.5t-39 18.5q-84 0 -127 -164zM1071 1671l84 -266l-493 -162l-62 172z" />
    <glyph glyph-name="uni0156" unicode="&#x156;" horiz-adv-x="1419" 
d="M860 1182h-69l-101 -369h64q91 0 151 82t60 184q0 54 -25 78.5t-80 24.5zM606 473h-6l-127 -473h-504l412 1536h690q212 0 322 -81.5t110 -233.5q0 -108 -40 -215t-115 -181q-122 -119 -351 -125l-8 -24l39 -6q104 -17 155.5 -91.5t63.5 -222.5l29 -356h-524l-21 369
q-3 59 -30.5 81.5t-94.5 22.5zM578 -549h-193l74 129q-84 41 -84 123q0 74 51.5 124t144.5 50h21q71 0 114.5 -36.5t43.5 -102.5q0 -65 -49.5 -144.5t-122.5 -142.5z" />
    <glyph glyph-name="uni0157" unicode="&#x157;" horiz-adv-x="1165" 
d="M555 532v3l-143 -535h-473l307 1147h411l-41 -234h25q67 125 158 195t192 70q95 0 157 -74t62 -217q0 -117 -36 -248l-447 -70q8 32 8 56q0 34 -14 52.5t-39 18.5q-84 0 -127 -164zM125 -549h-193l74 129q-84 41 -84 123q0 74 52 124t145 50h20q71 0 114.5 -36.5
t43.5 -102.5q0 -65 -49.5 -144.5t-122.5 -142.5z" />
    <glyph glyph-name="Rcaron" unicode="&#x158;" horiz-adv-x="1419" 
d="M860 1182h-69l-101 -369h64q91 0 151 82t60 184q0 54 -25 78.5t-80 24.5zM606 473h-6l-127 -473h-504l412 1536h690q212 0 322 -81.5t110 -233.5q0 -108 -40 -215t-115 -181q-122 -119 -351 -125l-8 -24l39 -6q104 -17 155.5 -91.5t63.5 -222.5l29 -356h-524l-21 369
q-3 59 -30.5 81.5t-94.5 22.5zM709 2066l282 -139h25l358 139l72 -165l-420 -242h-147l-281 262z" />
    <glyph glyph-name="rcaron" unicode="&#x159;" horiz-adv-x="1165" 
d="M555 532v3l-143 -535h-473l307 1147h411l-41 -234h25q67 125 158 195t192 70q95 0 157 -74t62 -217q0 -117 -36 -248l-447 -70q8 32 8 56q0 34 -14 52.5t-39 18.5q-84 0 -127 -164zM549 1671l252 -139h24l308 139l71 -164l-370 -243h-148l-248 262z" />
    <glyph glyph-name="Sacute" unicode="&#x15a;" horiz-adv-x="1320" 
d="M1260 557q0 -114 -56.5 -233t-161.5 -203q-194 -152 -538 -152q-252 0 -376 94.5t-124 290.5q0 51 10 123l500 25q-10 -42 -10 -64q0 -39 23 -55t67 -16q64 0 105.5 34t41.5 84q0 62 -84 88l-182 56q-282 84 -282 342q0 124 64.5 252t184.5 213q181 131 480 131
q471 0 471 -383q0 -42 -11 -125l-491 -25q12 46 12 74q0 70 -80 70q-62 0 -99.5 -37.5t-37.5 -87.5q0 -73 72 -90l209 -52q141 -34 217 -125t76 -229zM1174 2042l69 -266l-538 -142l-58 172z" />
    <glyph glyph-name="sacute" unicode="&#x15b;" horiz-adv-x="1150" 
d="M106 737q0 76 43.5 159t120.5 146q164 136 435 136q198 0 318 -78.5t120 -218.5q0 -49 -6 -86l-445 -27q6 18 6 35q0 49 -59 49q-39 0 -62.5 -22t-23.5 -50q0 -49 65 -61l173 -33q125 -24 196.5 -93.5t71.5 -174.5q0 -84 -45 -166t-131 -150q-81 -64 -198 -98.5
t-251 -34.5q-207 0 -334 79.5t-127 221.5q0 32 7 76l444 33q-4 -16 -4 -29q0 -53 67 -53q44 0 71.5 21t27.5 51q0 47 -66 63l-153 39q-118 30 -189.5 97t-71.5 169zM1036 1671l84 -266l-493 -162l-62 172z" />
    <glyph glyph-name="Scircumflex" unicode="&#x15c;" horiz-adv-x="1320" 
d="M1260 557q0 -114 -56.5 -233t-161.5 -203q-194 -152 -538 -152q-252 0 -376 94.5t-124 290.5q0 51 10 123l500 25q-10 -42 -10 -64q0 -39 23 -55t67 -16q64 0 105.5 34t41.5 84q0 62 -84 88l-182 56q-282 84 -282 342q0 124 64.5 252t184.5 213q181 131 480 131
q471 0 471 -383q0 -42 -11 -125l-491 -25q12 46 12 74q0 70 -80 70q-62 0 -99.5 -37.5t-37.5 -87.5q0 -73 72 -90l209 -52q141 -34 217 -125t76 -229zM1243 1614l-282 139h-25l-358 -139l-72 166l420 241h147l281 -262z" />
    <glyph glyph-name="scircumflex" unicode="&#x15d;" horiz-adv-x="1150" 
d="M106 737q0 76 43.5 159t120.5 146q164 136 435 136q198 0 318 -78.5t120 -218.5q0 -49 -6 -86l-445 -27q6 18 6 35q0 49 -59 49q-39 0 -62.5 -22t-23.5 -50q0 -49 65 -61l173 -33q125 -24 196.5 -93.5t71.5 -174.5q0 -84 -45 -166t-131 -150q-81 -64 -198 -98.5
t-251 -34.5q-207 0 -334 79.5t-127 221.5q0 32 7 76l444 33q-4 -16 -4 -29q0 -53 67 -53q44 0 71.5 21t27.5 51q0 47 -66 63l-153 39q-118 30 -189.5 97t-71.5 169zM1028 1243l-252 139h-24l-308 -139l-71 164l370 244h148l248 -262z" />
    <glyph glyph-name="uni015E" unicode="&#x15e;" horiz-adv-x="1320" 
d="M600 -23l-6 -24q58 -6 87.5 -33.5t29.5 -69.5q0 -70 -68.5 -118.5t-210.5 -48.5q-103 0 -182 30l72 137q51 -28 102 -28q59 0 59 39q0 35 -45 35q-27 0 -59 -11l33 88q-205 15 -306.5 109t-101.5 272q0 51 10 123l500 25q-10 -42 -10 -64q0 -39 23 -55t67 -16
q64 0 105.5 34t41.5 84q0 62 -84 88l-182 56q-282 84 -282 342q0 124 64.5 252t184.5 213q181 131 480 131q471 0 471 -383q0 -42 -11 -125l-491 -25q12 46 12 74q0 70 -80 70q-62 0 -99.5 -37.5t-37.5 -87.5q0 -73 72 -90l209 -52q141 -34 217 -125t76 -229
q0 -114 -56.5 -233t-161.5 -203q-158 -126 -442 -144z" />
    <glyph glyph-name="uni015F" unicode="&#x15f;" horiz-adv-x="1150" 
d="M336 -27q-168 19 -265.5 96t-97.5 201q0 32 7 76l444 33q-4 -16 -4 -29q0 -53 67 -53q44 0 71.5 21t27.5 51q0 47 -66 63l-153 39q-118 30 -189.5 97t-71.5 169q0 76 43.5 159t120.5 146q164 136 435 136q198 0 318 -78.5t120 -218.5q0 -49 -6 -86l-445 -27q6 18 6 35
q0 49 -59 49q-39 0 -62.5 -22t-23.5 -50q0 -49 65 -61l173 -33q125 -24 196.5 -93.5t71.5 -174.5q0 -84 -45 -166t-131 -150q-128 -102 -357 -125l-6 -24q115 -19 115 -111q0 -74 -66.5 -116.5t-199.5 -42.5q-112 0 -191 30l72 137q51 -28 100 -28q29 0 45.5 12t16.5 31
q0 31 -43 31q-29 0 -62 -11z" />
    <glyph glyph-name="Scaron" unicode="&#x160;" horiz-adv-x="1320" 
d="M1260 557q0 -114 -56.5 -233t-161.5 -203q-194 -152 -538 -152q-252 0 -376 94.5t-124 290.5q0 51 10 123l500 25q-10 -42 -10 -64q0 -39 23 -55t67 -16q64 0 105.5 34t41.5 84q0 62 -84 88l-182 56q-282 84 -282 342q0 124 64.5 252t184.5 213q181 131 480 131
q471 0 471 -383q0 -42 -11 -125l-491 -25q12 46 12 74q0 70 -80 70q-62 0 -99.5 -37.5t-37.5 -87.5q0 -73 72 -90l209 -52q141 -34 217 -125t76 -229zM682 2062l283 -139h24l359 139l71 -166l-420 -241h-147l-281 262z" />
    <glyph glyph-name="scaron" unicode="&#x161;" horiz-adv-x="1150" 
d="M106 737q0 76 43.5 159t120.5 146q164 136 435 136q198 0 318 -78.5t120 -218.5q0 -49 -6 -86l-445 -27q6 18 6 35q0 49 -59 49q-39 0 -62.5 -22t-23.5 -50q0 -49 65 -61l173 -33q125 -24 196.5 -93.5t71.5 -174.5q0 -84 -45 -166t-131 -150q-81 -64 -198 -98.5
t-251 -34.5q-207 0 -334 79.5t-127 221.5q0 32 7 76l444 33q-4 -16 -4 -29q0 -53 67 -53q44 0 71.5 21t27.5 51q0 47 -66 63l-153 39q-118 30 -189.5 97t-71.5 169zM514 1671l252 -139h25l307 139l71 -164l-370 -243h-148l-248 262z" />
    <glyph glyph-name="Tcommaaccent" unicode="&#x162;" horiz-adv-x="1269" 
d="M371 0h-142l285 1065h-342l127 471h1188l-127 -471h-342l-285 -1065h-61q-82 0 -144 12l-8 -24q146 -22 146 -127q0 -81 -69.5 -129.5t-203.5 -48.5q-111 0 -190 30l71 137q51 -28 101 -28q29 0 45 12t16 31q0 31 -43 31q-28 0 -61 -11z" />
    <glyph glyph-name="tcommaaccent" unicode="&#x163;" horiz-adv-x="937" 
d="M285 -317q-112 0 -191 30l72 137q51 -28 100 -28q29 0 45.5 12t16.5 31q0 31 -43 31q-29 0 -62 -11l37 115q-96 38 -143 115.5t-47 181.5q0 76 20 152l74 278h-113l90 338q165 53 288 161.5t196 248.5h213l-88 -328h270l-113 -420h-268l-57 -211q-11 -42 -11 -63
q0 -41 23.5 -59.5t73.5 -18.5q56 0 127 22l-25 -377q-128 -43 -328 -43l-6 -24q115 -19 115 -111q0 -74 -66.5 -116.5t-199.5 -42.5z" />
    <glyph glyph-name="Tcaron" unicode="&#x164;" horiz-adv-x="1269" 
d="M1360 1065h-342l-285 -1065h-504l285 1065h-342l127 471h1188zM670 2066l282 -139h25l358 139l72 -165l-420 -242h-147l-281 262z" />
    <glyph glyph-name="tcaron" unicode="&#x165;" horiz-adv-x="1232" 
d="M1188 1556l301 -67l-270 -668l-222 51zM770 20q-172 -51 -321 -51q-188 0 -283.5 88t-95.5 240q0 76 20 152l74 278h-113l90 338q165 53 288 161.5t196 248.5h213l-88 -328h249l-112 -420h-248l-57 -211q-11 -42 -11 -63q0 -41 23.5 -59.5t73.5 -18.5q56 0 127 22z" />
    <glyph glyph-name="Tbar" unicode="&#x166;" horiz-adv-x="1269" 
d="M1071 481h-209l-129 -481h-504l129 481h-208l55 205h209l100 379h-342l127 471h1188l-127 -471h-342l-100 -379h208z" />
    <glyph glyph-name="tbar" unicode="&#x167;" horiz-adv-x="937" 
d="M770 20q-172 -51 -321 -51q-188 0 -283.5 88t-95.5 240q0 76 20 152l14 57h-102l55 205h103l22 88h-110l69 266q165 53 288 161.5t196 248.5h213l-88 -328h270l-92 -348h-271l-24 -88h178l-55 -205h-176q-9 -27 -9 -53q0 -41 23.5 -59.5t73.5 -18.5q56 0 127 22z" />
    <glyph glyph-name="Utilde" unicode="&#x168;" horiz-adv-x="1474" 
d="M864 1536l-241 -901q-19 -74 -19 -113q0 -51 26 -71.5t79 -20.5q75 0 120 44.5t76 160.5l242 901h483l-235 -881q-97 -363 -284 -524.5t-495 -161.5q-261 0 -394.5 109.5t-133.5 314.5q0 128 37 262l235 881h504zM1255 1907q72 0 131 82l170 -107q-133 -244 -339 -244
q-59 0 -110.5 18.5t-82 41t-69 41t-74.5 18.5q-31 0 -63.5 -20.5t-57.5 -61.5l-170 107q129 243 330 243q59 0 110.5 -18.5t81.5 -40.5t68.5 -40.5t74.5 -18.5z" />
    <glyph glyph-name="utilde" unicode="&#x169;" 
d="M547 508q0 -78 67 -78q49 0 81.5 33t52.5 108l153 576h473l-307 -1147h-412l41 233h-24q-58 -118 -163.5 -191t-227.5 -73q-118 0 -189.5 78t-71.5 217q0 71 23 162l193 721h473l-150 -559q-12 -46 -12 -80zM1055 1522q68 0 121 82l170 -107q-129 -244 -330 -244
q-56 0 -104.5 18.5t-77 41t-64.5 41t-70 18.5q-70 0 -120 -82l-170 107q129 243 329 243q56 0 104.5 -18.5t77 -40.5t64.5 -40.5t70 -18.5z" />
    <glyph glyph-name="Umacron" unicode="&#x16a;" horiz-adv-x="1474" 
d="M864 1536l-241 -901q-19 -74 -19 -113q0 -51 26 -71.5t79 -20.5q75 0 120 44.5t76 160.5l242 901h483l-235 -881q-97 -363 -284 -524.5t-495 -161.5q-261 0 -394.5 109.5t-133.5 314.5q0 128 37 262l235 881h504zM1430 1894l-64 -235h-655l63 235h656z" />
    <glyph glyph-name="umacron" unicode="&#x16b;" 
d="M547 508q0 -78 67 -78q49 0 81.5 33t52.5 108l153 576h473l-307 -1147h-412l41 233h-24q-58 -118 -163.5 -191t-227.5 -73q-118 0 -189.5 78t-71.5 217q0 71 23 162l193 721h473l-150 -559q-12 -46 -12 -80zM1188 1536l-64 -236h-573l63 236h574z" />
    <glyph glyph-name="Ubreve" unicode="&#x16c;" horiz-adv-x="1474" 
d="M864 1536l-241 -901q-19 -74 -19 -113q0 -51 26 -71.5t79 -20.5q75 0 120 44.5t76 160.5l242 901h483l-235 -881q-97 -363 -284 -524.5t-495 -161.5q-261 0 -394.5 109.5t-133.5 314.5q0 128 37 262l235 881h504zM1063 1638h-19q-126 0 -210 72.5t-84 192.5q0 26 6 61
l198 10q0 -45 33.5 -73.5t99.5 -28.5h9q60 0 111 29t73 73l203 -10q-46 -158 -159.5 -242t-260.5 -84z" />
    <glyph glyph-name="ubreve" unicode="&#x16d;" 
d="M547 508q0 -78 67 -78q49 0 81.5 33t52.5 108l153 576h473l-307 -1147h-412l41 233h-24q-58 -118 -163.5 -191t-227.5 -73q-118 0 -189.5 78t-71.5 217q0 71 23 162l193 721h473l-150 -559q-12 -46 -12 -80zM856 1274h-18q-114 0 -189.5 72.5t-75.5 195.5q0 34 9 78
l198 10q-2 -12 -2 -24q0 -44 26.5 -71.5t76.5 -27.5h8q58 0 107 35t71 88l199 -10q-43 -163 -151 -254.5t-259 -91.5z" />
    <glyph glyph-name="Uring" unicode="&#x16e;" horiz-adv-x="1474" 
d="M864 1536l-241 -901q-19 -74 -19 -113q0 -51 26 -71.5t79 -20.5q75 0 120 44.5t76 160.5l242 901h483l-235 -881q-97 -363 -284 -524.5t-495 -161.5q-261 0 -394.5 109.5t-133.5 314.5q0 128 37 262l235 881h504zM1069 1638h-29q-101 0 -160 48.5t-59 134.5q0 101 80 172
t205 71h33q98 0 158.5 -48.5t60.5 -133.5q0 -100 -82 -172t-207 -72zM1098 1909q-30 0 -49 -23.5t-19 -50.5q0 -39 45 -39q30 0 49 23.5t19 50.5q0 39 -45 39z" />
    <glyph glyph-name="uring" unicode="&#x16f;" 
d="M547 508q0 -78 67 -78q49 0 81.5 33t52.5 108l153 576h473l-307 -1147h-412l41 233h-24q-58 -118 -163.5 -191t-227.5 -73q-118 0 -189.5 78t-71.5 217q0 71 23 162l193 721h473l-150 -559q-12 -46 -12 -80zM866 1274h-28q-101 0 -160.5 48.5t-59.5 133.5q0 101 80 172.5
t205 71.5h33q98 0 158.5 -48.5t60.5 -133.5q0 -100 -82 -172t-207 -72zM895 1544q-30 0 -49 -23.5t-19 -50.5q0 -38 45 -38q30 0 49 23t19 50q0 39 -45 39z" />
    <glyph glyph-name="Uhungarumlaut" unicode="&#x170;" horiz-adv-x="1474" 
d="M864 1536l-241 -901q-19 -74 -19 -113q0 -51 26 -71.5t79 -20.5q75 0 120 44.5t76 160.5l242 901h483l-235 -881q-97 -363 -284 -524.5t-495 -161.5q-261 0 -394.5 109.5t-133.5 314.5q0 128 37 262l235 881h504zM1419 2058l158 -166l-334 -256l-117 121zM1036 2058
l158 -166l-334 -256l-117 121z" />
    <glyph glyph-name="uhungarumlaut" unicode="&#x171;" 
d="M547 508q0 -78 67 -78q49 0 81.5 33t52.5 108l153 576h473l-307 -1147h-412l41 233h-24q-58 -118 -163.5 -191t-227.5 -73q-118 0 -189.5 78t-71.5 217q0 71 23 162l193 721h473l-150 -559q-12 -46 -12 -80zM1167 1665l179 -166l-314 -256l-127 121zM799 1665l178 -166
l-313 -256l-127 121z" />
    <glyph glyph-name="Uogonek" unicode="&#x172;" horiz-adv-x="1474" 
d="M846 -4q-77 -18 -132 -39t-82 -41t-38.5 -36.5t-11.5 -31.5q0 -26 32 -26q47 0 117 28l6 -137q-88 -30 -184 -30q-107 0 -158 35t-51 96q0 53 46 95t134 60l8 25q-207 17 -325.5 121.5t-118.5 277.5q0 128 37 262l235 881h504l-241 -901q-19 -74 -19 -113q0 -51 26 -71.5
t79 -20.5q75 0 120 44.5t76 160.5l242 901h483l-235 -881q-78 -291 -210.5 -450t-338.5 -209z" />
    <glyph glyph-name="uogonek" unicode="&#x173;" 
d="M795 12q-49 -12 -127 -12h-13l41 233h-24q-58 -118 -163.5 -191t-227.5 -73q-118 0 -189.5 78t-71.5 217q0 71 23 162l193 721h473l-150 -559q-12 -46 -12 -80q0 -78 67 -78q49 0 81.5 33t52.5 108l153 576h473l-307 -1147q-127 -54 -180 -89.5t-53 -62.5q0 -26 32 -26
q47 0 117 28l6 -137q-88 -30 -184 -30q-107 0 -158 35t-51 96q0 59 49 106t141 68z" />
    <glyph glyph-name="Wcircumflex" unicode="&#x174;" horiz-adv-x="2101" 
d="M1014 0l43 492q12 147 37 266h-25q-23 -71 -106 -266l-205 -492h-602l92 1536h506l-119 -834q-16 -117 -35 -215h25q43 124 82 215l358 834h469l-88 -834q-10 -108 -33 -215h25q4 13 82 215l323 834h527l-734 -1536h-622zM1640 1618l-282 139h-25l-358 -139l-72 166
l420 241h147l281 -262z" />
    <glyph glyph-name="wcircumflex" unicode="&#x175;" horiz-adv-x="1820" 
d="M860 0l8 336q3 77 17 162h-21q-29 -85 -63 -162l-146 -336h-544l53 1147h473l-84 -529q-12 -86 -39 -212h25q39 112 84 212l235 529h393l-43 -529q-7 -103 -28 -212h24q38 118 74 212l195 529h493l-561 -1147h-545zM1386 1243l-251 139h-25l-307 -139l-72 164l371 244
h147l248 -262z" />
    <glyph glyph-name="Ycircumflex" unicode="&#x176;" horiz-adv-x="1372" 
d="M784 0h-503l131 485l-174 1051h522l16 -367v-63q0 -85 -14 -170h24q34 91 113 233l201 367h551l-738 -1057zM1268 1618l-283 139h-24l-359 -139l-72 166l420 241h148l280 -262z" />
    <glyph glyph-name="ycircumflex" unicode="&#x177;" horiz-adv-x="1226" 
d="M879 1147h503l-741 -1434h-485l77 119q60 92 119 148l-2 20h-213l17 1147h483l-55 -529q-7 -76 -33 -212h24q37 108 82 212zM1081 1243l-252 139h-24l-307 -139l-72 164l371 244h147l248 -262z" />
    <glyph glyph-name="Ydieresis" unicode="&#x178;" horiz-adv-x="1372" 
d="M784 0h-503l131 485l-174 1051h522l16 -367v-63q0 -85 -14 -170h24q34 91 113 233l201 367h551l-738 -1057zM1274 1638h-19q-65 0 -103 33.5t-38 91.5q0 69 51 118.5t131 49.5h21q64 0 102.5 -33.5t38.5 -91.5q0 -69 -52 -118.5t-132 -49.5zM692 1638h-18
q-65 0 -103.5 33.5t-38.5 91.5q0 69 51.5 118.5t131.5 49.5h20q64 0 103 -33.5t39 -91.5q0 -69 -52.5 -118.5t-132.5 -49.5z" />
    <glyph glyph-name="Zacute" unicode="&#x179;" horiz-adv-x="1259" 
d="M834 471h348l-127 -471h-1168l95 348l487 506q61 63 125 118t102 79v24q-72 -10 -166 -10h-327l127 471h1126l-98 -369l-463 -485q-61 -63 -125 -118t-102 -79v-24q72 10 166 10zM1147 2046l70 -266l-539 -142l-57 172z" />
    <glyph glyph-name="zacute" unicode="&#x17a;" horiz-adv-x="1044" 
d="M741 399h215l-106 -399h-963l74 276l279 271q125 119 231 186l6 25q-72 -10 -164 -10h-194l106 399h922l-80 -297l-252 -250q-109 -108 -231 -186l-6 -25q72 10 163 10zM1001 1671l84 -266l-493 -162l-62 172z" />
    <glyph glyph-name="Zdotaccent" unicode="&#x17b;" horiz-adv-x="1259" 
d="M834 471h348l-127 -471h-1168l95 348l487 506q61 63 125 118t102 79v24q-72 -10 -166 -10h-327l127 471h1126l-98 -369l-463 -485q-61 -63 -125 -118t-102 -79v-24q72 10 166 10zM948 1638h-24q-82 0 -131.5 42.5t-49.5 115.5q0 84 66.5 145.5t169.5 61.5h25
q80 0 130 -42.5t50 -113.5q0 -86 -66.5 -147.5t-169.5 -61.5z" />
    <glyph glyph-name="zdotaccent" unicode="&#x17c;" horiz-adv-x="1044" 
d="M741 399h215l-106 -399h-963l74 276l279 271q125 119 231 186l6 25q-72 -10 -164 -10h-194l106 399h922l-80 -297l-252 -250q-109 -108 -231 -186l-6 -25q72 10 163 10zM743 1274h-24q-82 0 -131 42.5t-49 115.5q0 84 66 145t169 61h25q80 0 130 -42t50 -113
q0 -86 -66.5 -147.5t-169.5 -61.5z" />
    <glyph glyph-name="Zcaron" unicode="&#x17d;" horiz-adv-x="1259" 
d="M834 471h348l-127 -471h-1168l95 348l487 506q61 63 125 118t102 79v24q-72 -10 -166 -10h-327l127 471h1126l-98 -369l-463 -485q-61 -63 -125 -118t-102 -79v-24q72 10 166 10zM655 2066l283 -139h25l358 139l72 -165l-420 -242h-148l-280 262z" />
    <glyph glyph-name="zcaron" unicode="&#x17e;" horiz-adv-x="1044" 
d="M741 399h215l-106 -399h-963l74 276l279 271q125 119 231 186l6 25q-72 -10 -164 -10h-194l106 399h922l-80 -297l-252 -250q-109 -108 -231 -186l-6 -25q72 10 163 10zM479 1671l252 -139h25l307 139l72 -164l-371 -243h-148l-247 262z" />
    <glyph glyph-name="longs" unicode="&#x17f;" horiz-adv-x="733" 
d="M440 0h-460l170 635h-113l106 399h115l8 33q69 259 208.5 379.5t389.5 120.5q98 0 183 -21l-136 -375q-28 7 -49 7q-54 0 -89.5 -34.5t-55.5 -109.5z" />
    <glyph glyph-name="uni018F" unicode="&#x18f;" horiz-adv-x="1413" 
d="M565 -31q-257 0 -386.5 113t-129.5 328q0 124 39 266l41 137h791l20 68q23 80 23 120q0 57 -29.5 81t-85.5 24q-68 0 -111.5 -40.5t-79.5 -145.5l-487 45q107 321 290 461.5t492 140.5q257 0 386.5 -113t129.5 -328q0 -128 -38 -266l-52 -184q-105 -378 -293 -542.5
t-520 -164.5zM670 430q71 0 115 44t81 161h-295q-16 -62 -16 -100q0 -57 29.5 -81t85.5 -24z" />
    <glyph glyph-name="uni0192" unicode="&#x192;" horiz-adv-x="866" 
d="M834 1026h-574l10 39h234l45 166q44 167 136.5 246t242.5 79q75 0 145 -20l-16 -37q-65 19 -135 19q-256 0 -332 -287l-45 -166h299zM35 -20q-59 0 -117 20l16 37q55 -19 107 -19q186 0 250 246l137 518h-233l10 39h573l-10 -39h-299l-137 -518q-40 -150 -113.5 -217
t-183.5 -67z" />
    <glyph glyph-name="uni019D" unicode="&#x19d;" horiz-adv-x="1536" 
d="M16 176l365 1360h532l72 -557q15 -116 12 -211l-2 -70h25q26 205 70 371l124 467h457l-411 -1536h-547l-70 512q-15 108 -12 197l2 84h-25q-27 -212 -69 -371l-80 -301q-63 -235 -177 -336.5t-315 -101.5q-47 0 -104.5 10t-83.5 20l98 365q16 -4 33 -4q41 0 66 23t40 79z
" />
    <glyph glyph-name="uni01E6" unicode="&#x1e6;" horiz-adv-x="1421" 
d="M465 -31q-197 0 -305.5 110.5t-108.5 305.5q0 158 37 291l51 184q70 255 174 408.5t258 226t377 72.5q257 0 385.5 -113t128.5 -328q0 -97 -24 -190l-500 -35q20 72 20 121q0 58 -26.5 81t-81.5 23q-73 0 -116.5 -47.5t-82.5 -177.5l-98 -328q-25 -78 -17.5 -123t34 -63
t77.5 -18q67 0 110 29t87 110l-13 16q-49 -12 -120 -12l77 287h613l-215 -799h-307l18 162h-25q-60 -85 -165 -139t-242 -54zM723 2066l283 -139h24l359 139l71 -165l-420 -242h-147l-281 262z" />
    <glyph glyph-name="uni01E7" unicode="&#x1e7;" horiz-adv-x="1247" 
d="M774 1178q225 0 351 -94t126 -242q0 -72 -18 -142l-8 -28q-54 -192 -224.5 -287.5t-468.5 -95.5q-155 0 -155 -80q0 -55 78 -55q31 0 108 4t105 4q182 0 269 -73t87 -228q0 -60 -16 -148l-502 -30q2 10 2 24q0 66 -80 66q-35 0 -102.5 -4.5t-98.5 -4.5
q-148 0 -233.5 80.5t-85.5 196.5q0 124 98 225.5t252 128.5l6 25q-178 71 -178 235q0 56 14 105l9 26q60 194 221.5 293t443.5 99zM707 891q-55 0 -96 -37.5t-58 -101.5l-10 -37q-8 -33 -8 -56q0 -84 94 -84q55 0 95 38t58 102l11 37q8 33 8 55q0 84 -94 84zM578 1671
l251 -139h25l307 139l72 -164l-371 -243h-147l-248 262z" />
    <glyph glyph-name="uni01EA" unicode="&#x1ea;" horiz-adv-x="1413" 
d="M811 -4q-77 -18 -132 -39t-82 -41t-38.5 -36.5t-11.5 -31.5q0 -26 33 -26q46 0 116 28l6 -137q-88 -30 -184 -30q-107 0 -158 35t-51 96q0 53 46 95t134 60l9 25q-225 17 -337 119t-112 297q0 124 39 266l51 184q104 379 292.5 543t520.5 164q257 0 386.5 -113
t129.5 -328q0 -128 -38 -266l-52 -184q-84 -302 -218 -465t-349 -215zM872 655l68 226q23 80 23 120q0 57 -29.5 81t-85.5 24q-74 0 -119 -48t-84 -177l-67 -226q-23 -81 -23 -120q0 -57 29.5 -81t85.5 -24q74 0 118.5 48t83.5 177z" />
    <glyph glyph-name="uni01EB" unicode="&#x1eb;" horiz-adv-x="1245" 
d="M739 4q-260 -83 -260 -154q0 -28 31 -28q49 0 119 28l6 -137q-88 -30 -184 -30q-107 0 -158 35t-51 96q0 53 43.5 95t126.5 60l8 25q-192 17 -297 118.5t-105 262.5q0 80 23 162l27 98q74 274 244.5 408.5t455.5 134.5q218 0 338.5 -110.5t120.5 -293.5q0 -82 -23 -164
l-26 -98q-112 -406 -439 -508zM539 645l-45 -143q-13 -41 -13 -64q0 -80 84 -80q98 0 142 144l45 143q12 37 12 64q0 79 -84 79q-97 0 -141 -143z" />
    <glyph glyph-name="Aringacute" unicode="&#x1fa;" horiz-adv-x="1392" 
d="M1448 2497l70 -267l-539 -141l-57 172zM713 629h2q47 0 71 -6l27 16q-2 18 -2 47q0 40 4 80l10 133q5 86 27 197h-25q-36 -103 -79 -197l-68 -149q-33 -71 -57 -111l14 -16q30 6 76 6zM748 0l22 260h-301l-117 -260h-516l776 1536h668l-31 -1536h-501zM1012 1614h-29
q-101 0 -160 48.5t-59 133.5q0 101 80 172.5t205 71.5h32q98 0 158.5 -48.5t60.5 -133.5q0 -101 -81.5 -172.5t-206.5 -71.5zM1040 1884q-30 0 -48.5 -23.5t-18.5 -50.5q0 -38 45 -38q30 0 48.5 23t18.5 50q0 39 -45 39z" />
    <glyph glyph-name="aringacute" unicode="&#x1fb;" horiz-adv-x="1243" 
d="M565 467q-52 0 -86.5 -40.5t-34.5 -102.5q0 -33 18.5 -52.5t53.5 -19.5q52 0 86.5 40.5t34.5 102.5q0 33 -18.5 52.5t-53.5 19.5zM612 141h-24q-48 -75 -142 -123.5t-196 -48.5q-134 0 -207.5 71t-73.5 191q0 204 126 334.5t341 130.5q96 0 163.5 -25t92.5 -61h25
q10 30 10 60q0 65 -43.5 93t-151.5 28q-155 0 -307 -50v363q241 74 500 74q230 0 347.5 -111t117.5 -293q0 -91 -33 -219l-149 -555h-412zM825 1274h-28q-101 0 -160 48.5t-59 133.5q0 101 79.5 172.5t204.5 71.5h33q98 0 158.5 -48.5t60.5 -133.5q0 -100 -82 -172t-207 -72
zM854 1544q-30 0 -49 -23.5t-19 -50.5q0 -38 45 -38q30 0 49 23t19 50q0 39 -45 39zM1196 2204l84 -267l-494 -161l-61 172z" />
    <glyph glyph-name="AEacute" unicode="&#x1fc;" horiz-adv-x="1988" 
d="M752 621q50 8 92 8h43l35 129q37 139 125 352h-25q-47 -91 -102 -182l-109 -189q-23 -41 -74 -104zM530 260l-151 -260h-543l973 1536h1335l-114 -430h-510l-47 -170h421l-86 -328h-422l-45 -168h531l-119 -440h-1034l69 260h-258zM1718 2046l70 -266l-539 -142l-57 172z
" />
    <glyph glyph-name="aeacute" unicode="&#x1fd;" horiz-adv-x="1853" 
d="M1184 696l-10 -34h200q19 75 19 102q0 35 -19.5 55.5t-54.5 20.5q-94 0 -135 -144zM1745 377q-69 -195 -226 -301.5t-380 -106.5q-130 0 -222 55t-118 152h-25q-92 -106 -198 -156.5t-271 -50.5q-162 0 -249 71t-87 196q0 205 128 332.5t345 127.5q85 0 154.5 -24
t95.5 -62h25q10 30 10 60q0 65 -43.5 93t-151.5 28q-155 0 -307 -50v363q110 34 239 54t232 20q131 0 207.5 -53t93.5 -154h25q143 207 410 207q174 0 293.5 -100t119.5 -259q0 -123 -61 -303h-651l-17 -53q-12 -40 -12 -74q0 -30 21 -50t55 -20q40 0 69 27t54 88zM561 467
q-52 0 -86.5 -40.5t-34.5 -102.5q0 -33 18.5 -52.5t53.5 -19.5q52 0 86.5 40.5t34.5 102.5q0 33 -18.5 52.5t-53.5 19.5zM1413 1671l84 -266l-493 -162l-62 172z" />
    <glyph glyph-name="Oslashacute" unicode="&#x1fe;" horiz-adv-x="1441" 
d="M948 1053l13 22q-27 31 -97 31q-77 0 -129.5 -50t-85.5 -175q-22 -85 -39 -123l21 -8q41 64 110 127l125 118q44 41 82 58zM598 483l-12 -22q27 -31 96 -31q77 0 129.5 50t85.5 175q22 85 39 123l-21 8q-41 -64 -110 -127l-125 -118q-44 -41 -82 -58zM580 -31
q-258 0 -390 117l-133 -127l-141 141l168 158q-21 67 -21 152q0 124 39 266l52 184q104 379 292.5 543t520.5 164q250 0 383 -111l147 141l141 -141l-178 -168q23 -80 23 -162q0 -124 -39 -266l-51 -184q-105 -378 -293 -542.5t-520 -164.5zM1229 2046l69 -266l-538 -142
l-58 172z" />
    <glyph glyph-name="oslashacute" unicode="&#x1ff;" horiz-adv-x="1282" 
d="M547 707q-13 -53 -39 -107l20 -8q35 41 115 106q113 90 156 113l12 23q-36 36 -90 36q-61 0 -106.5 -43t-67.5 -120zM735 440q13 53 39 107l-20 8q-35 -41 -115 -106q-113 -90 -156 -113l-12 -23q37 -37 90 -37q61 0 106.5 43.5t67.5 120.5zM496 -31q-208 0 -332 105
l-144 -115l-118 160l155 121q-20 59 -20 135q0 84 22 162l27 98q74 274 244.5 408.5t455.5 134.5q211 0 334 -107l144 117l118 -160l-155 -121q18 -61 18 -133q0 -86 -22 -164l-27 -98q-74 -274 -244.5 -408.5t-455.5 -134.5zM1122 1671l84 -266l-493 -162l-62 172z" />
    <glyph glyph-name="uni0218" unicode="&#x218;" horiz-adv-x="1320" 
d="M1260 557q0 -114 -56.5 -233t-161.5 -203q-194 -152 -538 -152q-252 0 -376 94.5t-124 290.5q0 51 10 123l500 25q-10 -42 -10 -64q0 -39 23 -55t67 -16q64 0 105.5 34t41.5 84q0 62 -84 88l-182 56q-282 84 -282 342q0 124 64.5 252t184.5 213q181 131 480 131
q471 0 471 -383q0 -42 -11 -125l-491 -25q12 46 12 74q0 70 -80 70q-62 0 -99.5 -37.5t-37.5 -87.5q0 -73 72 -90l209 -52q141 -34 217 -125t76 -229zM489 -549h-192l74 129q-84 41 -84 123q0 74 51.5 124t144.5 50h21q71 0 114.5 -36.5t43.5 -102.5q0 -65 -49.5 -144.5
t-123.5 -142.5z" />
    <glyph glyph-name="uni0219" unicode="&#x219;" horiz-adv-x="1150" 
d="M106 737q0 76 43.5 159t120.5 146q164 136 435 136q198 0 318 -78.5t120 -218.5q0 -49 -6 -86l-445 -27q6 18 6 35q0 49 -59 49q-39 0 -62.5 -22t-23.5 -50q0 -49 65 -61l173 -33q125 -24 196.5 -93.5t71.5 -174.5q0 -84 -45 -166t-131 -150q-81 -64 -198 -98.5
t-251 -34.5q-207 0 -334 79.5t-127 221.5q0 32 7 76l444 33q-4 -16 -4 -29q0 -53 67 -53q44 0 71.5 21t27.5 51q0 47 -66 63l-153 39q-118 30 -189.5 97t-71.5 169zM379 -549h-193l74 129q-84 41 -84 123q0 74 52 124t145 50h20q71 0 114.5 -36.5t43.5 -102.5
q0 -65 -49.5 -144.5t-122.5 -142.5z" />
    <glyph glyph-name="uni021A" unicode="&#x21a;" horiz-adv-x="1269" 
d="M1360 1065h-342l-285 -1065h-504l285 1065h-342l127 471h1188zM416 -549h-193l74 129q-84 41 -84 123q0 74 52 124t145 50h20q71 0 114.5 -36.5t43.5 -102.5q0 -65 -49.5 -144.5t-122.5 -142.5z" />
    <glyph glyph-name="uni021B" unicode="&#x21b;" horiz-adv-x="937" 
d="M770 20q-172 -51 -321 -51q-188 0 -283.5 88t-95.5 240q0 76 20 152l74 278h-113l90 338q165 53 288 161.5t196 248.5h213l-88 -328h270l-113 -420h-268l-57 -211q-11 -42 -11 -63q0 -41 23.5 -59.5t73.5 -18.5q56 0 127 22zM328 -549h-193l74 129q-84 41 -84 123
q0 74 52 124t145 50h20q71 0 114.5 -36.5t43.5 -102.5q0 -65 -49.5 -144.5t-122.5 -142.5z" />
    <glyph glyph-name="uni0232" unicode="&#x232;" horiz-adv-x="1372" 
d="M784 0h-503l131 485l-174 1051h522l16 -367v-63q0 -85 -14 -170h24q34 91 113 233l201 367h551l-738 -1057zM1354 1894l-64 -235h-655l63 235h656z" />
    <glyph glyph-name="uni0233" unicode="&#x233;" horiz-adv-x="1226" 
d="M879 1147h503l-741 -1434h-485l77 119q60 92 119 148l-2 20h-213l17 1147h483l-55 -529q-7 -76 -33 -212h24q37 108 82 212zM1145 1536l-64 -236h-573l63 236h574z" />
    <glyph glyph-name="uni0237" unicode="&#x237;" horiz-adv-x="655" 
d="M-63 -317q-47 0 -105 10t-84 20l98 365q16 -4 33 -4q41 0 66.5 23.5t40.5 78.5l260 971h473l-275 -1026q-62 -233 -183 -335.5t-324 -102.5z" />
    <glyph glyph-name="uni0259" unicode="&#x259;" horiz-adv-x="1226" 
d="M672 451l10 34h-201q-18 -71 -18 -102q0 -35 19.5 -55.5t54.5 -20.5q94 0 135 144zM111 770q71 196 233 302t399 106q222 0 343.5 -110.5t121.5 -295.5q0 -84 -22 -162l-27 -98q-74 -273 -243.5 -408t-450.5 -135q-198 0 -326.5 99t-128.5 260q0 120 62 303h651l16 53
q13 44 13 74t-20.5 49.5t-55.5 19.5q-40 0 -69.5 -26.5t-53.5 -87.5z" />
    <glyph glyph-name="uni0272" unicode="&#x272;" 
d="M-14 176l260 971h411l-41 -234h25q58 118 163.5 191.5t227.5 73.5q118 0 189 -78t71 -217q0 -75 -22 -162l-193 -721h-473l150 559q12 47 12 80q0 78 -68 78q-48 0 -80.5 -33.5t-52.5 -108.5l-121 -454q-62 -233 -183 -335.5t-324 -102.5q-47 0 -105 10t-84 20l98 365
q16 -4 33 -4q41 0 66.5 23.5t40.5 78.5z" />
    <glyph glyph-name="circumflex" unicode="&#x2c6;" horiz-adv-x="851" 
d="M920 1243l-252 139h-25l-307 -139l-72 164l371 244h147l248 -262z" />
    <glyph glyph-name="caron" unicode="&#x2c7;" horiz-adv-x="851" 
d="M408 1671l251 -139h25l307 139l72 -164l-371 -243h-147l-248 262z" />
    <glyph glyph-name="breve" unicode="&#x2d8;" horiz-adv-x="765" 
d="M596 1274h-18q-114 0 -189.5 72.5t-75.5 195.5q0 34 9 78l198 10q-2 -12 -2 -24q0 -44 26.5 -71.5t76.5 -27.5h8q58 0 107 35t71 88l199 -10q-43 -163 -151 -254.5t-259 -91.5z" />
    <glyph glyph-name="dotaccent" unicode="&#x2d9;" horiz-adv-x="522" 
d="M483 1274h-24q-82 0 -131 42.5t-49 115.5q0 84 66 145t169 61h25q80 0 130 -42t50 -113q0 -86 -66.5 -147.5t-169.5 -61.5z" />
    <glyph glyph-name="ring" unicode="&#x2da;" horiz-adv-x="616" 
d="M532 1274h-28q-101 0 -160 48.5t-59 133.5q0 101 79.5 172.5t204.5 71.5h33q98 0 158.5 -48.5t60.5 -133.5q0 -100 -82 -172t-207 -72zM561 1544q-30 0 -48.5 -23.5t-18.5 -50.5q0 -38 45 -38q30 0 48.5 23t18.5 50q0 39 -45 39z" />
    <glyph glyph-name="ogonek" unicode="&#x2db;" horiz-adv-x="507" 
d="M41 12l272 -12q-127 -54 -180 -89.5t-53 -62.5q0 -26 33 -26q46 0 116 28l7 -137q-88 -30 -185 -30q-107 0 -158 35t-51 96q0 59 49.5 106t141.5 68z" />
    <glyph glyph-name="tilde" unicode="&#x2dc;" horiz-adv-x="991" 
d="M907 1522q68 0 121 82l170 -107q-129 -244 -330 -244q-56 0 -104.5 18.5t-76.5 41t-64 41t-70 18.5q-31 0 -63.5 -20.5t-57.5 -61.5l-170 107q129 243 330 243q56 0 104.5 -18.5t76.5 -40.5t64 -40.5t70 -18.5z" />
    <glyph glyph-name="hungarumlaut" unicode="&#x2dd;" horiz-adv-x="854" 
d="M883 1665l178 -166l-313 -256l-127 121zM514 1665l178 -166l-313 -256l-127 121z" />
    <glyph glyph-name="uni0394" unicode="&#x394;" horiz-adv-x="1271" 
d="M1022 39l-148 1413l-905 -1413h1053zM-102 0l985 1536h22l162 -1536h-1169z" />
    <glyph glyph-name="uni03A9" unicode="&#x3a9;" horiz-adv-x="1636" 
d="M4 0l94 348h41l-84 -307h389l119 442q-163 20 -251.5 122.5t-88.5 266.5q0 188 108 345.5t294 248t407 90.5h82q261 0 394.5 -115.5t133.5 -305.5q0 -116 -47 -230t-127.5 -203.5t-196.5 -149t-247 -69.5l-119 -442h389l84 307h41l-94 -348h-471l139 522q126 3 240 58
t193.5 141.5t126 195.5t46.5 218q0 175 -122.5 279t-362.5 104h-102q-148 0 -285.5 -52t-238.5 -138.5t-161.5 -206.5t-60.5 -249q0 -161 90.5 -253.5t257.5 -96.5l-139 -522h-471z" />
    <glyph glyph-name="uni03BC" unicode="&#x3bc;" horiz-adv-x="1329" 
d="M459 -20q-138 0 -222.5 90t-91.5 245l-161 -602h-41l385 1434h41l-156 -584q-65 -246 6 -395.5t246 -149.5q112 0 225 68.5t198 184.5t122 251l168 625h41l-250 -934q-13 -50 -13 -90q0 -48 28 -76.5t81 -28.5q50 0 104 23l-4 -41q-47 -20 -106 -20q-68 0 -106 39.5
t-38 103.5q0 45 13 92l20 78q-205 -313 -489 -313z" />
    <glyph glyph-name="pi" unicode="&#x3c0;" horiz-adv-x="1421" 
d="M1196 0q-62 -20 -127 -20q-89 0 -145 51t-56 137q0 50 21 133l217 807h-584l-377 -1108h-41l377 1108h-235l10 39h1198l-10 -39h-297l-217 -809q-21 -86 -21 -131q0 -71 45.5 -111.5t120.5 -40.5q52 0 125 25z" />
    <glyph glyph-name="uni0E3F" unicode="&#xe3f;" horiz-adv-x="1177" 
d="M569 0h-41l412 1536h41l-53 -197q117 -12 177 -67t60 -144q0 -119 -89.5 -218t-223.5 -122q96 -20 145.5 -75t49.5 -138q0 -49 -16 -98t-50 -96.5t-82.5 -85.5t-120 -63.5t-155.5 -30.5zM324 0h-41l53 197h-262l307 1146h262l51 193h41zM500 809l133 496h-221l-133 -496
h221zM918 1303l-132 -492q80 7 146 39t107 78t63 98t22 102q0 73 -51.5 119t-154.5 56zM346 236l143 536h-221l-143 -536h221zM1006 575q0 80 -58.5 131t-171.5 64l-143 -530q91 7 164.5 41t118 82.5t67.5 103t23 108.5z" />
    <glyph glyph-name="Wgrave" unicode="&#x1e80;" horiz-adv-x="2101" 
d="M1014 0l43 492q12 147 37 266h-25q-23 -71 -106 -266l-205 -492h-602l92 1536h506l-119 -834q-16 -117 -35 -215h25q43 124 82 215l358 834h469l-88 -834q-10 -108 -33 -215h25q4 13 82 215l323 834h527l-734 -1536h-622zM1163 2046l449 -246l-88 -162l-484 172z" />
    <glyph glyph-name="wgrave" unicode="&#x1e81;" horiz-adv-x="1820" 
d="M860 0l8 336q3 77 17 162h-21q-29 -85 -63 -162l-146 -336h-544l53 1147h473l-84 -529q-12 -86 -39 -212h25q39 112 84 212l235 529h393l-43 -529q-7 -103 -28 -212h24q38 118 74 212l195 529h493l-561 -1147h-545zM932 1671l401 -266l-88 -162l-442 193z" />
    <glyph glyph-name="Wacute" unicode="&#x1e82;" horiz-adv-x="2101" 
d="M1014 0l43 492q12 147 37 266h-25q-23 -71 -106 -266l-205 -492h-602l92 1536h506l-119 -834q-16 -117 -35 -215h25q43 124 82 215l358 834h469l-88 -834q-10 -108 -33 -215h25q4 13 82 215l323 834h527l-734 -1536h-622zM1571 2046l69 -266l-538 -142l-58 172z" />
    <glyph glyph-name="wacute" unicode="&#x1e83;" horiz-adv-x="1820" 
d="M860 0l8 336q3 77 17 162h-21q-29 -85 -63 -162l-146 -336h-544l53 1147h473l-84 -529q-12 -86 -39 -212h25q39 112 84 212l235 529h393l-43 -529q-7 -103 -28 -212h24q38 118 74 212l195 529h493l-561 -1147h-545zM1395 1671l84 -266l-494 -162l-61 172z" />
    <glyph glyph-name="Wdieresis" unicode="&#x1e84;" horiz-adv-x="2101" 
d="M1014 0l43 492q12 147 37 266h-25q-23 -71 -106 -266l-205 -492h-602l92 1536h506l-119 -834q-16 -117 -35 -215h25q43 124 82 215l358 834h469l-88 -834q-10 -108 -33 -215h25q4 13 82 215l323 834h527l-734 -1536h-622zM1647 1638h-19q-65 0 -103 33.5t-38 91.5
q0 69 51 118.5t131 49.5h21q64 0 102.5 -33.5t38.5 -91.5q0 -69 -52 -118.5t-132 -49.5zM1065 1638h-18q-65 0 -103.5 33.5t-38.5 91.5q0 69 51 118.5t131 49.5h21q64 0 102.5 -33.5t38.5 -91.5q0 -69 -52 -118.5t-132 -49.5z" />
    <glyph glyph-name="wdieresis" unicode="&#x1e85;" horiz-adv-x="1820" 
d="M860 0l8 336q3 77 17 162h-21q-29 -85 -63 -162l-146 -336h-544l53 1147h473l-84 -529q-12 -86 -39 -212h25q39 112 84 212l235 529h393l-43 -529q-7 -103 -28 -212h24q38 118 74 212l195 529h493l-561 -1147h-545zM1368 1274h-18q-65 0 -103.5 33.5t-38.5 91.5
q0 69 51.5 118.5t131.5 49.5h20q64 0 102.5 -33.5t38.5 -91.5q0 -69 -52 -118.5t-132 -49.5zM872 1274h-18q-65 0 -103 33.5t-38 91.5q0 69 51 118.5t131 49.5h20q64 0 103 -33.5t39 -91.5q0 -69 -52.5 -118.5t-132.5 -49.5z" />
    <glyph glyph-name="uni1E9E" unicode="&#x1e9e;" horiz-adv-x="2639" 
d="M1260 557q0 -114 -56.5 -233t-161.5 -203q-194 -152 -538 -152q-252 0 -376 94.5t-124 290.5q0 51 10 123l500 25q-10 -42 -10 -64q0 -39 23 -55t67 -16q64 0 105.5 34t41.5 84q0 62 -84 88l-182 56q-282 84 -282 342q0 124 64.5 252t184.5 213q181 131 480 131
q471 0 471 -383q0 -42 -11 -125l-491 -25q12 46 12 74q0 70 -80 70q-62 0 -99.5 -37.5t-37.5 -87.5q0 -73 72 -90l209 -52q141 -34 217 -125t76 -229zM2578 557q0 -114 -56 -233t-161 -203q-194 -152 -538 -152q-252 0 -376 94.5t-124 290.5q0 51 10 123l500 25
q-10 -42 -10 -64q0 -39 23 -55t67 -16q64 0 105.5 34t41.5 84q0 62 -84 88l-182 56q-283 85 -283 342q0 124 65 252t185 213q181 131 480 131q471 0 471 -383q0 -42 -11 -125l-491 -25q12 46 12 74q0 70 -80 70q-62 0 -99.5 -37.5t-37.5 -87.5q0 -73 72 -90l209 -52
q141 -34 216.5 -125t75.5 -229z" />
    <glyph glyph-name="uni1EA0" unicode="&#x1ea0;" horiz-adv-x="1392" 
d="M713 629h2q47 0 71 -6l27 16q-2 18 -2 47q0 40 4 80l10 133q5 86 27 197h-25q-36 -103 -79 -197l-68 -149q-33 -71 -57 -111l14 -16q30 6 76 6zM748 0l22 260h-301l-117 -260h-516l776 1536h668l-31 -1536h-501zM467 -446h-25q-82 0 -131 42t-49 115q0 84 66.5 145.5
t169.5 61.5h24q80 0 130 -42.5t50 -113.5q0 -86 -66 -147t-169 -61z" />
    <glyph glyph-name="uni1EA1" unicode="&#x1ea1;" horiz-adv-x="1243" 
d="M565 467q-52 0 -86.5 -40.5t-34.5 -102.5q0 -33 18.5 -52.5t53.5 -19.5q52 0 86.5 40.5t34.5 102.5q0 33 -18.5 52.5t-53.5 19.5zM612 141h-24q-48 -75 -142 -123.5t-196 -48.5q-134 0 -207.5 71t-73.5 191q0 204 126 334.5t341 130.5q96 0 163.5 -25t92.5 -61h25
q10 30 10 60q0 65 -43.5 93t-151.5 28q-155 0 -307 -50v363q241 74 500 74q230 0 347.5 -111t117.5 -293q0 -91 -33 -219l-149 -555h-412zM406 -446h-25q-82 0 -131 42t-49 115q0 84 66 145.5t169 61.5h25q80 0 130 -42.5t50 -113.5q0 -86 -66 -147t-169 -61z" />
    <glyph glyph-name="uni1EB8" unicode="&#x1eb8;" horiz-adv-x="1310" 
d="M-31 0l412 1536h1085l-114 -430h-582l-47 -170h494l-87 -328h-493l-45 -168h602l-119 -440h-1106zM426 -446h-25q-82 0 -131 42t-49 115q0 84 66.5 145.5t169.5 61.5h24q80 0 130.5 -42.5t50.5 -113.5q0 -86 -66.5 -147t-169.5 -61z" />
    <glyph glyph-name="uni1EB9" unicode="&#x1eb9;" horiz-adv-x="1224" 
d="M555 696l-10 -34h200q19 75 19 102q0 35 -19.5 55.5t-54.5 20.5q-94 0 -135 -144zM1116 377q-71 -195 -233.5 -301.5t-399.5 -106.5q-222 0 -343.5 110.5t-121.5 295.5q0 80 23 162l27 98q74 273 243.5 408t450.5 135q198 0 326.5 -99t128.5 -260q0 -120 -62 -303h-651
l-17 -53q-12 -40 -12 -74q0 -30 21 -50t55 -20q40 0 69 27t54 88zM391 -446h-24q-82 0 -131.5 42t-49.5 115q0 84 66.5 145.5t169.5 61.5h24q80 0 130.5 -42.5t50.5 -113.5q0 -86 -66.5 -147t-169.5 -61z" />
    <glyph glyph-name="uni1EBC" unicode="&#x1ebc;" horiz-adv-x="1310" 
d="M-31 0l412 1536h1085l-114 -430h-582l-47 -170h494l-87 -328h-493l-45 -168h602l-119 -440h-1106zM1163 1907q72 0 131 82l170 -107q-133 -244 -340 -244q-59 0 -110.5 18.5t-82 41t-69 41t-74.5 18.5q-70 0 -120 -82l-170 107q129 243 329 243q59 0 110.5 -18.5
t82 -40.5t69 -40.5t74.5 -18.5z" />
    <glyph glyph-name="uni1EBD" unicode="&#x1ebd;" horiz-adv-x="1224" 
d="M555 696l-10 -34h200q19 75 19 102q0 35 -19.5 55.5t-54.5 20.5q-94 0 -135 -144zM1116 377q-71 -195 -233.5 -301.5t-399.5 -106.5q-222 0 -343.5 110.5t-121.5 295.5q0 80 23 162l27 98q74 273 243.5 408t450.5 135q198 0 326.5 -99t128.5 -260q0 -120 -62 -303h-651
l-17 -53q-12 -40 -12 -74q0 -30 21 -50t55 -20q40 0 69 27t54 88zM1030 1522q68 0 121 82l170 -107q-129 -244 -330 -244q-56 0 -104.5 18.5t-76.5 41t-64 41t-70 18.5q-31 0 -63.5 -20.5t-57.5 -61.5l-170 107q129 243 330 243q56 0 104.5 -18.5t76.5 -40.5t64 -40.5
t70 -18.5z" />
    <glyph glyph-name="uni1ECA" unicode="&#x1eca;" horiz-adv-x="749" 
d="M381 1536h504l-412 -1536h-504zM135 -446h-24q-82 0 -131.5 42t-49.5 115q0 84 66.5 145.5t169.5 61.5h24q80 0 130.5 -42.5t50.5 -113.5q0 -86 -66.5 -147t-169.5 -61z" />
    <glyph glyph-name="uni1ECB" unicode="&#x1ecb;" horiz-adv-x="655" 
d="M557 1260h-31q-102 0 -165.5 54t-63.5 146q0 108 84.5 187t212.5 79h31q102 0 165.5 -54t63.5 -146q0 -108 -84.5 -187t-212.5 -79zM246 1147h473l-307 -1147h-473zM88 -446h-25q-82 0 -131 42t-49 115q0 84 66.5 145.5t169.5 61.5h24q80 0 130.5 -42.5t50.5 -113.5
q0 -86 -66.5 -147t-169.5 -61z" />
    <glyph glyph-name="uni1ECC" unicode="&#x1ecc;" horiz-adv-x="1413" 
d="M1430 860l-52 -184q-105 -378 -293 -542.5t-520 -164.5q-257 0 -386.5 113t-129.5 328q0 124 39 266l51 184q104 379 292.5 543t520.5 164q257 0 386.5 -113t129.5 -328q0 -128 -38 -266zM872 655l68 226q23 80 23 120q0 57 -29.5 81t-85.5 24q-74 0 -119 -48t-84 -177
l-67 -226q-23 -81 -23 -120q0 -57 29.5 -81t85.5 -24q74 0 118.5 48t83.5 177zM479 -446h-24q-82 0 -131.5 42t-49.5 115q0 84 66.5 145.5t169.5 61.5h25q80 0 130 -42.5t50 -113.5q0 -86 -66.5 -147t-169.5 -61z" />
    <glyph glyph-name="uni1ECD" unicode="&#x1ecd;" horiz-adv-x="1245" 
d="M68 635q74 274 244.5 408.5t455.5 134.5q218 0 338.5 -110.5t120.5 -293.5q0 -82 -23 -164l-26 -98q-74 -273 -245 -408t-456 -135q-218 0 -338.5 111t-120.5 295q0 80 23 162zM539 645l-45 -143q-13 -41 -13 -64q0 -80 84 -80q98 0 142 144l45 143q12 37 12 64
q0 79 -84 79q-97 0 -141 -143zM393 -446h-24q-82 0 -131.5 42t-49.5 115q0 84 66.5 145.5t169.5 61.5h25q80 0 130 -42.5t50 -113.5q0 -86 -66.5 -147t-169.5 -61z" />
    <glyph glyph-name="uni1EE4" unicode="&#x1ee4;" horiz-adv-x="1474" 
d="M864 1536l-241 -901q-19 -74 -19 -113q0 -51 26 -71.5t79 -20.5q75 0 120 44.5t76 160.5l242 901h483l-235 -881q-97 -363 -284 -524.5t-495 -161.5q-261 0 -394.5 109.5t-133.5 314.5q0 128 37 262l235 881h504zM528 -446h-24q-82 0 -131 42t-49 115q0 84 66 145.5
t169 61.5h25q80 0 130 -42.5t50 -113.5q0 -86 -66.5 -147t-169.5 -61z" />
    <glyph glyph-name="uni1EE5" unicode="&#x1ee5;" 
d="M547 508q0 -78 67 -78q49 0 81.5 33t52.5 108l153 576h473l-307 -1147h-412l41 233h-24q-58 -118 -163.5 -191t-227.5 -73q-118 0 -189.5 78t-71.5 217q0 71 23 162l193 721h473l-150 -559q-12 -46 -12 -80zM455 -446h-25q-82 0 -131 42t-49 115q0 84 66 145.5t169 61.5
h25q80 0 130 -42.5t50 -113.5q0 -86 -66 -147t-169 -61z" />
    <glyph glyph-name="Ygrave" unicode="&#x1ef2;" horiz-adv-x="1372" 
d="M784 0h-503l131 485l-174 1051h522l16 -367v-63q0 -85 -14 -170h24q34 91 113 233l201 367h551l-738 -1057zM791 2046l448 -246l-88 -162l-483 172z" />
    <glyph glyph-name="ygrave" unicode="&#x1ef3;" horiz-adv-x="1226" 
d="M879 1147h503l-741 -1434h-485l77 119q60 92 119 148l-2 20h-213l17 1147h483l-55 -529q-7 -76 -33 -212h24q37 108 82 212zM627 1671l401 -266l-88 -162l-442 193z" />
    <glyph glyph-name="uni1EF8" unicode="&#x1ef8;" horiz-adv-x="1372" 
d="M784 0h-503l131 485l-174 1051h522l16 -367v-63q0 -85 -14 -170h24q34 91 113 233l201 367h551l-738 -1057zM1180 1907q72 0 131 82l170 -107q-133 -244 -340 -244q-59 0 -110.5 18.5t-82 41t-69 41t-74.5 18.5q-31 0 -63.5 -20.5t-57.5 -61.5l-170 107q129 243 330 243
q59 0 110.5 -18.5t82 -40.5t69 -40.5t74.5 -18.5z" />
    <glyph glyph-name="uni1EF9" unicode="&#x1ef9;" horiz-adv-x="1226" 
d="M879 1147h503l-741 -1434h-485l77 119q60 92 119 148l-2 20h-213l17 1147h483l-55 -529q-7 -76 -33 -212h24q37 108 82 212zM1012 1522q68 0 121 82l170 -107q-129 -244 -330 -244q-56 0 -104.5 18.5t-77 41t-64.5 41t-70 18.5q-70 0 -120 -82l-170 107q129 243 329 243
q56 0 104.5 -18.5t77 -40.5t64.5 -40.5t70 -18.5z" />
    <glyph glyph-name="uni2009" unicode="&#x2009;" horiz-adv-x="256" 
 />
    <glyph glyph-name="endash" unicode="&#x2013;" horiz-adv-x="1103" 
d="M965 430h-902l113 420h901z" />
    <glyph glyph-name="emdash" unicode="&#x2014;" horiz-adv-x="1431" 
d="M1354 430h-1352l113 420h1351z" />
    <glyph glyph-name="quoteleft" unicode="&#x2018;" horiz-adv-x="651" 
d="M469 1536h283l-138 -268q113 -58 113 -189q0 -114 -77.5 -190t-213.5 -76h-30q-101 0 -162.5 54t-61.5 147q0 117 77.5 255t209.5 267z" />
    <glyph glyph-name="quoteright" unicode="&#x2019;" horiz-adv-x="651" 
d="M514 844h-283l138 268q-113 58 -113 188q0 114 77.5 190.5t213.5 76.5h31q101 0 162 -54t61 -147q0 -117 -77.5 -255t-209.5 -267z" />
    <glyph glyph-name="quotesinglbase" unicode="&#x201a;" horiz-adv-x="651" 
d="M211 -287h-283l138 269q-113 58 -113 188q0 114 77.5 190t213.5 76h30q101 0 162.5 -53.5t61.5 -146.5q0 -117 -77.5 -255.5t-209.5 -267.5z" />
    <glyph glyph-name="quotedblleft" unicode="&#x201c;" horiz-adv-x="1159" 
d="M446 1536h273l-144 -268q113 -58 113 -189q0 -114 -71 -190t-195 -76h-23q-96 0 -155.5 56t-59.5 155q0 195 262 512zM991 1536h273l-144 -268q113 -58 113 -189q0 -114 -71 -190t-195 -76h-23q-96 0 -155.5 56t-59.5 155q0 195 262 512z" />
    <glyph glyph-name="quotedblright" unicode="&#x201d;" horiz-adv-x="1159" 
d="M1044 844h-272l143 268q-112 57 -112 188q0 114 71 190.5t195 76.5h23q96 0 155.5 -56t59.5 -155q0 -194 -263 -512zM500 844h-273l144 268q-113 58 -113 188q0 114 71 190.5t195 76.5h23q96 0 155.5 -56t59.5 -155q0 -195 -262 -512z" />
    <glyph glyph-name="quotedblbase" unicode="&#x201e;" horiz-adv-x="1159" 
d="M741 -287h-272l143 269q-112 57 -112 188q0 114 71 190t195 76h22q96 0 156 -56t60 -155q0 -194 -263 -512zM197 -287h-273l144 269q-113 58 -113 188q0 114 71 190t195 76h23q96 0 155.5 -56t59.5 -155q0 -195 -262 -512z" />
    <glyph glyph-name="dagger" unicode="&#x2020;" horiz-adv-x="921" 
d="M963 1108h-338l-297 -1108h-41l297 1108h-338l10 39h338l104 389h41l-104 -389h338z" />
    <glyph glyph-name="daggerdbl" unicode="&#x2021;" horiz-adv-x="921" 
d="M770 389h-338l-104 -389h-41l104 389h-338l10 39h338l183 680h-338l10 39h338l104 389h41l-104 -389h338l-10 -39h-338l-183 -680h338z" />
    <glyph glyph-name="bullet" unicode="&#x2022;" horiz-adv-x="765" 
d="M379 358h-37q-123 0 -197.5 65.5t-74.5 178.5q0 133 100 229.5t254 96.5h37q124 0 198 -66t74 -180q0 -133 -99.5 -228.5t-254.5 -95.5z" />
    <glyph glyph-name="ellipsis" unicode="&#x2026;" horiz-adv-x="1916" 
d="M1477 -31h-31q-101 0 -162 54t-61 147q0 109 81.5 187.5t208.5 78.5h31q101 0 162 -53.5t61 -146.5q0 -109 -81.5 -188t-208.5 -79zM207 -31h-31q-101 0 -162 54t-61 147q0 109 82 187.5t209 78.5h30q101 0 162.5 -53.5t61.5 -146.5q0 -109 -82 -188t-209 -79zM842 -31
h-31q-101 0 -162 54t-61 147q0 109 82 187.5t209 78.5h30q101 0 162.5 -53.5t61.5 -146.5q0 -109 -82 -188t-209 -79z" />
    <glyph glyph-name="perthousand" unicode="&#x2030;" horiz-adv-x="1908" 
d="M492 983q-97 0 -154 57.5t-57 149.5q0 145 101 255.5t243 110.5q97 0 154 -57t57 -149q0 -145 -101 -256t-243 -111zM618 1518q-121 0 -208.5 -100.5t-87.5 -227.5q0 -77 46 -122.5t130 -45.5q121 0 209 100.5t88 227.5q0 77 -46 122.5t-131 45.5zM1223 1155l20 -35
l-1100 -714l-20 34zM1409 -20q-97 0 -154 57t-57 149q0 145 101 256t243 111q97 0 154 -57.5t57 -149.5q0 -145 -101 -255.5t-243 -110.5zM733 -20q-97 0 -154 57t-57 149q0 145 101 256t243 111q97 0 154 -57.5t57 -149.5q0 -145 -101 -255.5t-243 -110.5zM1536 514
q-121 0 -209 -100.5t-88 -227.5q0 -77 46 -122.5t130 -45.5q121 0 209 100.5t88 227.5q0 77 -46 122.5t-130 45.5zM860 514q-121 0 -209 -100.5t-88 -227.5q0 -77 46 -122.5t130 -45.5q121 0 209 100.5t88 227.5q0 77 -46 122.5t-130 45.5z" />
    <glyph glyph-name="guilsinglleft" unicode="&#x2039;" horiz-adv-x="741" 
d="M788 940l-315 -303l-6 -33q30 -47 63 -119l95 -206l-299 -173l-291 443l51 190l463 439z" />
    <glyph glyph-name="guilsinglright" unicode="&#x203a;" horiz-adv-x="741" 
d="M-10 344l315 303l6 33q-30 47 -63 119l-94 207l299 172l290 -443l-51 -190l-463 -439z" />
    <glyph glyph-name="fraction" unicode="&#x2044;" horiz-adv-x="798" 
d="M754 786l-11 -38h-593l10 38h594z" />
    <glyph glyph-name="uni20A9" unicode="&#x20a9;" horiz-adv-x="1992" 
d="M1190 848l-14 387l-238 -387h252zM1944 809h-1768l10 39h226l10 688h41l-10 -688h440l295 483h24l19 -483h432l377 688h47l-379 -688h246zM440 104l281 461h-272zM1260 106l251 459h-270zM422 0h-23l9 565h-297l10 39h1767l-10 -39h-324l-309 -565h-22l-23 565h-434z" />
    <glyph glyph-name="uni20AA" unicode="&#x20aa;" horiz-adv-x="1433" 
d="M719 1483l-256 12l-402 -1495h-41l412 1536l299 -16q163 -9 242.5 -98.5t79.5 -241.5q0 -65 -27 -176l-164 -615h-41l164 615q27 111 27 174q0 291 -293 305zM1106 0l-299 16q-163 9 -242.5 98.5t-79.5 241.5q0 65 27 176l164 615h41l-164 -615q-27 -111 -27 -174
q0 -291 293 -305l256 -12l402 1495h41z" />
    <glyph glyph-name="Euro" unicode="&#x20ac;" horiz-adv-x="1413" 
d="M793 870h-672l10 39h207q200 647 688 647q177 0 280 -105t103 -282q0 -55 -8 -112l-41 -4q8 55 8 116q0 162 -92.5 255.5t-255.5 93.5q-448 0 -641 -609h424zM1245 479q-89 -239 -250 -369t-368 -130q-186 0 -292 110t-106 301q0 104 33 236h-207l11 39h671l-10 -39h-424
q-33 -145 -33 -236q0 -175 96 -274t271 -99q185 0 335.5 123.5t233.5 347.5z" />
    <glyph glyph-name="uni20B9" unicode="&#x20b9;" horiz-adv-x="1105" 
d="M1262 1536l-11 -39h-870l10 39h871zM350 696h-125l432 -696h-49l-438 713l6 22h180q118 0 214.5 30.5t160 81t107 118.5t63.5 139.5t23 148.5h-609l11 39h870l-10 -39h-221q-3 -86 -25.5 -164.5t-70.5 -151t-117.5 -125.5t-172.5 -84.5t-229 -31.5z" />
    <glyph glyph-name="uni20BA" unicode="&#x20ba;" horiz-adv-x="1136" 
d="M133 766l-10 39l199 82l174 649h41l-170 -631l358 148l12 -39zM84 0l158 592l-174 -72l-11 39l602 248l13 -39l-383 -158l-154 -571h236q202 0 364.5 123.5t251.5 343.5l39 -6q-95 -241 -266 -370.5t-391 -129.5h-285z" />
    <glyph glyph-name="uni20BD" unicode="&#x20bd;" horiz-adv-x="1142" 
d="M563 696h-469l10 39h177l213 801h290q187 0 295.5 -86.5t108.5 -230.5q0 -69 -22 -139.5t-71.5 -140t-120 -123t-177.5 -87t-234 -33.5zM778 1497h-254l-202 -762h245q119 0 218 31t164.5 81t111.5 114.5t66 129.5t20 128q0 128 -96.5 203t-272.5 75zM684 453h-440
l-121 -453h-41l121 453h-174l10 39h655z" />
    <glyph glyph-name="uni20BE" unicode="&#x20be;" horiz-adv-x="1206" 
d="M1157 948q0 109 -51 185.5t-143 101.5l-111 -410h-41l190 711h41l-69 -262q101 -25 163 -112t62 -214q0 -54 -12 -106l-41 -4q12 59 12 110zM932 0h-942l10 39h426q-148 46 -223.5 154.5t-75.5 257.5q0 93 27 198l14 51q67 240 198 391t320 185l70 260h41l-191 -711h-41
l111 410q-170 -34 -287.5 -176t-179.5 -359l-14 -51q-27 -99 -27 -198q0 -184 123.5 -298t363.5 -114h287z" />
    <glyph glyph-name="uni2113" unicode="&#x2113;" horiz-adv-x="1015" 
d="M494 -20q-134 0 -206.5 72t-72.5 196l-274 -268l-31 26l307 301q5 63 31 164l174 651q58 219 163.5 326.5t245.5 107.5q102 0 162 -59.5t60 -163.5q0 -267 -383 -641l-414 -403v-29q0 -242 242 -242q100 0 209 41l6 -39q-114 -40 -219 -40zM289 469q-18 -74 -25 -117
l375 367q180 176 275.5 333t95.5 281q0 85 -49 135t-136 50q-116 0 -213 -102.5t-149 -299.5z" />
    <glyph glyph-name="uni2116" unicode="&#x2116;" horiz-adv-x="2121" 
d="M1855 983q-96 0 -156.5 60.5t-60.5 158.5q0 86 43.5 167.5t122.5 134t172 52.5q96 0 156.5 -60.5t60.5 -158.5q0 -86 -43.5 -167.5t-122.5 -134t-172 -52.5zM1970 1518q-77 0 -145.5 -47.5t-107 -120t-38.5 -148.5q0 -84 49.5 -132t133.5 -48q77 0 145 47t106.5 119.5
t38.5 148.5q0 84 -49 132.5t-133 48.5zM1077 0l-598 1485l-397 -1485h-41l412 1536h49l598 -1485l397 1485h41l-412 -1536h-49zM2013 797l-10 -39h-451l11 39h450z" />
    <glyph glyph-name="uni2117" unicode="&#x2117;" horiz-adv-x="1771" 
d="M760 -20q-288 0 -456.5 165.5t-168.5 436.5q0 148 48.5 293t138.5 266.5t209.5 215t270.5 146.5t312 53q286 0 455.5 -166t169.5 -436q0 -148 -48.5 -293t-138.5 -266.5t-209.5 -215t-270.5 -146.5t-312 -53zM768 20q127 0 248.5 37t223 101.5t187.5 153.5t145.5 191.5
t92.5 218t33 230.5q0 257 -157 410.5t-435 153.5q-127 0 -248.5 -37t-223 -101.5t-187.5 -153.5t-145.5 -191.5t-92.5 -218t-33 -230.5q0 -257 157 -410.5t435 -153.5zM1020 1163h-168l-137 -516h180q188 0 289.5 93t101.5 233q0 190 -266 190zM893 608h-188l-74 -274h-41
l231 868h209q147 0 223 -60t76 -169q0 -157 -112.5 -261t-323.5 -104z" />
    <glyph glyph-name="uni2120" unicode="&#x2120;" horiz-adv-x="1710" 
d="M1288 983l-141 502l-189 -707h-40l202 758h54l145 -510l416 510h61l-203 -758h-41l189 703l-408 -498h-45zM571 1133l-96 22q-153 37 -153 162q0 92 87 165.5t222 73.5q95 0 153 -47t58 -129q0 -17 -4 -41l-43 -4q4 20 4 41q0 71 -45.5 106.5t-128.5 35.5
q-115 0 -189 -63t-74 -138q0 -95 125 -123l99 -23q168 -40 168 -167q0 -105 -85.5 -175.5t-228.5 -70.5q-112 0 -182 48t-70 138q0 16 5 41l43 4q-3 -30 -3 -39q0 -77 57 -115t159 -38q119 0 190.5 58.5t71.5 148.5q0 95 -140 129z" />
    <glyph glyph-name="trademark" unicode="&#x2122;" horiz-adv-x="1617" 
d="M862 1495h-276l-193 -717h-41l193 717h-277l11 41h593zM1194 983l-141 502l-189 -707h-41l203 758h53l146 -510l415 510h62l-203 -758h-41l189 703l-408 -498h-45z" />
    <glyph glyph-name="uni2126" unicode="&#x2126;" horiz-adv-x="1634" 
d="M4 0l94 348h41l-84 -307h389l119 442q-163 20 -251.5 122.5t-88.5 266.5q0 188 108 345.5t294 248t407 90.5h82q261 0 394.5 -115.5t133.5 -305.5q0 -116 -47 -230t-127.5 -203.5t-196.5 -149t-247 -69.5l-119 -442h389l84 307h41l-94 -348h-471l139 522q126 3 240 58
t193.5 141.5t126 195.5t46.5 218q0 175 -122.5 279t-362.5 104h-102q-148 0 -285.5 -52t-238.5 -138.5t-161.5 -206.5t-60.5 -249q0 -161 90.5 -253.5t257.5 -96.5l-139 -522h-471z" />
    <glyph glyph-name="estimated" unicode="&#x212e;" horiz-adv-x="1753" 
d="M1120 1518q-243 0 -463 -148l-161 -604h872l158 594q-152 158 -406 158zM199 549q0 -200 108 -336l301 1122q-186 -142 -297.5 -352.5t-111.5 -433.5zM1667 987q0 200 -111 336l-147 -557h221q37 122 37 221zM1513 385q-153 -194 -348 -299.5t-428 -105.5
q-258 0 -418.5 158.5t-160.5 410.5q0 151 50 300.5t141.5 275t211 223.5t267 153t300.5 55q255 0 417.5 -160t162.5 -409q0 -114 -47 -260h-1176l-147 -549q154 -160 407 -160q213 0 403 105t333 287z" />
    <glyph glyph-name="uni2153" unicode="&#x2153;" horiz-adv-x="798" 
d="M502 1004l137 507l31 25h16l-143 -532h-41zM754 786l-11 -38h-593l10 38h594zM215 391l-39 6q27 73 83.5 114.5t133.5 41.5q70 0 109 -35t39 -88q0 -51 -42.5 -95t-111.5 -59q44 -9 70 -38t26 -74q0 -73 -67 -128.5t-162 -55.5q-77 0 -120.5 37.5t-43.5 99.5q0 17 2 33
l41 4q-2 -16 -2 -31q0 -105 131 -105q73 0 126.5 45t53.5 101q0 41 -35.5 67.5t-101.5 26.5h-26l10 39h26q80 0 132.5 42t52.5 91q0 37 -28.5 60.5t-84.5 23.5q-60 0 -105 -33t-67 -90z" />
    <glyph glyph-name="uni2154" unicode="&#x2154;" horiz-adv-x="798" 
d="M707 1004h-379l6 24l262 193q94 69 129 111t35 91q0 42 -30.5 68.5t-84.5 26.5q-63 0 -112.5 -42.5t-69.5 -111.5l-39 4q27 91 87.5 139.5t141.5 48.5q65 0 106.5 -37.5t41.5 -95.5q0 -59 -40.5 -111t-142.5 -124l-204 -146h303zM754 786l-11 -38h-593l10 38h594z
M215 391l-39 6q27 73 83.5 114.5t133.5 41.5q70 0 109 -35t39 -88q0 -51 -42.5 -95t-111.5 -59q44 -9 70 -38t26 -74q0 -73 -67 -128.5t-162 -55.5q-77 0 -120.5 37.5t-43.5 99.5q0 17 2 33l41 4q-2 -16 -2 -31q0 -105 131 -105q73 0 126.5 45t53.5 101q0 41 -35.5 67.5
t-101.5 26.5h-26l10 39h26q80 0 132.5 42t52.5 91q0 37 -28.5 60.5t-84.5 23.5q-60 0 -105 -33t-67 -90z" />
    <glyph glyph-name="uni2190" unicode="&#x2190;" horiz-adv-x="1638" 
d="M225 758l305 -424l-30 -27l-342 475l594 467l22 -32l-532 -418h1355l-12 -41h-1360z" />
    <glyph glyph-name="arrowup" unicode="&#x2191;" horiz-adv-x="1185" 
d="M815 1475l-530 -420l-25 32l594 469l348 -469l-31 -26l-313 422l-397 -1483h-41z" />
    <glyph glyph-name="uni2192" unicode="&#x2192;" horiz-adv-x="1638" 
d="M1524 799l-305 424l30 26l342 -475l-594 -467l-22 33l532 418h-1355l12 41h1360z" />
    <glyph glyph-name="arrowdown" unicode="&#x2193;" horiz-adv-x="1187" 
d="M477 61l531 420l24 -32l-594 -469l-348 469l31 26l313 -422l397 1483h41z" />
    <glyph glyph-name="uni2196" unicode="&#x2196;" horiz-adv-x="1372" 
d="M383 1262l-102 -603l-41 5l116 665l666 -61l-6 -39l-602 55l768 -1044l-33 -25z" />
    <glyph glyph-name="uni2197" unicode="&#x2197;" horiz-adv-x="1374" 
d="M1305 1196l-1266 -985l-25 33l1266 985l-528 59l6 41l600 -69l-113 -596l-39 8z" />
    <glyph glyph-name="uni2198" unicode="&#x2198;" horiz-adv-x="1372" 
d="M1098 283l102 602l41 -4l-117 -666l-665 61l6 39l602 -55l-768 1045l33 24z" />
    <glyph glyph-name="uni2199" unicode="&#x2199;" horiz-adv-x="1372" 
d="M174 344l1266 985l24 -33l-1265 -985l528 -59l-6 -41l-600 70l112 596l39 -9z" />
    <glyph glyph-name="partialdiff" unicode="&#x2202;" horiz-adv-x="1058" 
d="M352 -20q-145 0 -224 86t-79 235q0 86 28 181.5t83 185.5t127 162.5t169 116.5t201 44q120 0 202 -74.5t91 -209.5q54 213 54 378q0 197 -82.5 315t-229.5 118q-121 0 -268 -78l-18 35q151 81 292 81q160 0 253 -126.5t93 -339.5q0 -119 -22.5 -247.5t-63.5 -252
t-103 -234.5t-136.5 -194.5t-169.5 -132.5t-197 -49zM90 305q0 -134 68 -210.5t194 -76.5q89 0 177 46.5t155.5 121t120 162t80.5 173.5t28 153q0 126 -71.5 202t-194.5 76q-93 0 -181 -42.5t-154.5 -112t-117.5 -154t-77.5 -173t-26.5 -165.5z" />
    <glyph glyph-name="uni2206" unicode="&#x2206;" horiz-adv-x="1271" 
d="M1022 39l-148 1413l-905 -1413h1053zM-102 0l985 1536h22l162 -1536h-1169z" />
    <glyph glyph-name="product" unicode="&#x220f;" horiz-adv-x="1515" 
d="M1014 0l401 1497h-819l-401 -1497h-41l401 1497h-256l10 39h1413l-10 -39h-256l-401 -1497h-41z" />
    <glyph glyph-name="summation" unicode="&#x2211;" horiz-adv-x="1298" 
d="M-82 0l8 29l770 755l-374 723l8 29h1042l-104 -389h-41l94 350h-948l372 -719l-751 -739h956l94 350h41l-104 -389h-1063z" />
    <glyph glyph-name="minus" unicode="&#x2212;" horiz-adv-x="839" 
d="M819 725l-10 -39h-717l10 39h717z" />
    <glyph glyph-name="uni2219" unicode="&#x2219;" horiz-adv-x="786" 
d="M621 555l-181 119l-65 -244h-41l65 240l-241 -121l-11 39l242 121l-178 118l27 31l180 -119l65 244h41l-65 -240l241 121l11 -39l-242 -120l178 -119z" />
    <glyph glyph-name="radical" unicode="&#x221a;" horiz-adv-x="1263" 
d="M514 0h-22l-76 1108h-252l10 39h281l69 -1055l869 1444h47z" />
    <glyph glyph-name="infinity" unicode="&#x221e;" horiz-adv-x="1869" 
d="M1313 307q-224 0 -307 240l-41 119l-117 -134q-194 -225 -414 -225q-126 0 -206.5 81t-80.5 212q0 127 63.5 243t176 189.5t244.5 73.5q224 0 307 -240l41 -118l117 133q194 225 413 225q126 0 206.5 -81t80.5 -212q0 -127 -63 -243t-175.5 -189.5t-244.5 -73.5z
M1319 346q89 0 171 41t139.5 106.5t91.5 150t34 169.5q0 115 -69.5 184.5t-182.5 69.5q-96 0 -193.5 -56.5t-183.5 -156.5l-131 -152l47 -137q38 -109 104.5 -164t172.5 -55zM440 346q96 0 193.5 56.5t183.5 156.5l131 152l-47 137q-38 109 -104.5 164t-171.5 55
q-119 0 -221 -69t-159 -176.5t-57 -221.5q0 -115 69.5 -184.5t182.5 -69.5z" />
    <glyph glyph-name="integral" unicode="&#x222b;" horiz-adv-x="710" 
d="M201 70l342 1271q77 285 301 285q56 0 114 -20l-18 -37q-46 18 -102 18q-92 0 -157.5 -63t-96.5 -183l-342 -1271q-75 -285 -303 -285q-55 0 -113 20l18 37q47 -18 105 -18q91 0 155.5 63t96.5 183z" />
    <glyph glyph-name="approxequal" unicode="&#x2248;" horiz-adv-x="921" 
d="M393 928q-106 0 -213 -62l13 49q106 52 206 52q69 0 158 -36t152 -36q108 0 213 61l-13 -49q-104 -51 -207 -51q-68 0 -157 36t-152 36zM283 518q-108 0 -213 -61l12 49q104 51 207 51q69 0 158 -36t151 -36q106 0 213 62l-12 -49q-106 -52 -207 -52q-68 0 -157 36
t-152 36z" />
    <glyph glyph-name="notequal" unicode="&#x2260;" horiz-adv-x="921" 
d="M795 481h-420l-162 -250l-35 21l150 229h-250l10 39h264l242 371h-406l11 39h419l162 248l35 -21l-147 -227h247l-10 -39h-264l-240 -371h404z" />
    <glyph glyph-name="lessequal" unicode="&#x2264;" horiz-adv-x="921" 
d="M803 512l-641 283v2l6 20l793 283l-13 -47l-706 -250l571 -252zM37 326h717l-11 -39h-716z" />
    <glyph glyph-name="greaterequal" unicode="&#x2265;" horiz-adv-x="921" 
d="M86 512l12 47l707 250l-572 252l11 39l641 -283v-2l-6 -20zM754 326l-11 -39h-716l10 39h717z" />
    <glyph glyph-name="lozenge" unicode="&#x25ca;" horiz-adv-x="987" 
d="M907 768l-555 -768h-22l-146 768l557 768h23zM356 74l508 704l-127 684l-510 -702z" />
    <glyph glyph-name="uni2661" unicode="&#x2661;" horiz-adv-x="2123" 
d="M557 543q180 -75 273.5 -182t103.5 -259q157 288 604 441q145 49 258.5 124t183 161.5t105 180t35.5 187.5q0 153 -94 237.5t-257 84.5q-192 0 -339 -134.5t-242 -388.5h-25q17 104 17 168q0 175 -83 265t-245 90q-117 0 -225.5 -48.5t-186.5 -129.5t-125 -192.5
t-47 -232.5q0 -129 70.5 -219.5t218.5 -152.5zM922 0h-25q2 20 2 57q0 157 -88.5 267t-275.5 186q-308 129 -308 405q0 174 84.5 321.5t230 233.5t316.5 86q173 0 266 -95t93 -273q0 -21 -3 -39q202 407 562 407q175 0 280 -95.5t105 -264.5q0 -135 -67 -265.5
t-208.5 -245.5t-337.5 -181q-243 -83 -396 -204.5t-230 -299.5z" />
    <glyph glyph-name="uni2690" unicode="&#x2690;" horiz-adv-x="1802" 
d="M1288 430q125 0 268 31l248 919q-127 -26 -264 -26q-131 0 -257 22.5t-212 49t-215 49t-264 22.5h-109l-247 -924h108q140 0 270.5 -22.5t215.5 -49t208 -49t250 -22.5zM334 535h-109l-143 -535h-41l412 1536h149q140 0 270.5 -22.5t215.5 -49t208 -49t250 -22.5
q153 0 314 41l-271 -1004q-134 -39 -307 -39q-131 0 -257 22.5t-212 49.5t-215 49.5t-264 22.5z" />
    <glyph glyph-name="uni270F" unicode="&#x270f;" horiz-adv-x="2867" 
d="M2032 258h-1620l-162 281v471l162 280h1620l798 -516zM760 539l-137 -240h1384l145 252v446l-145 252h-1384l137 -239v-471zM719 551v446l-146 252h-137l-145 -252v-446l145 -252h137zM2552 643q37 23 37 131t-37 131l-473 303l114 -198v-471l-114 -199zM504 948
q41 0 65.5 -48.5t24.5 -125.5t-24.5 -124.5t-65.5 -47.5t-65.5 47.5t-24.5 124.5t24.5 125.5t65.5 48.5zM504 909q-22 0 -35.5 -37t-13.5 -98q0 -60 13.5 -96.5t35.5 -36.5t35.5 36.5t13.5 96.5q0 61 -13.5 98t-35.5 37zM2630 774q0 -40 -11 -86l138 86l-138 86
q11 -46 11 -86z" />
    <glyph glyph-name="uni2712" unicode="&#x2712;" horiz-adv-x="2856" 
d="M1987 0q55 0 102 16.5t78.5 39t64.5 65.5t52 75t50 89q9 16 13 24q31 55 49.5 86t53 81t65.5 83t76.5 69.5t95.5 61.5l-375 -4q-18 -96 -73.5 -150.5t-143.5 -54.5q-103 0 -162 73.5t-59 195.5v34q0 121 59.5 196t161.5 75q86 0 142.5 -55.5t74.5 -149.5l375 -4
q-50 25 -95.5 61.5t-76.5 69.5t-65.5 83t-53 81t-49.5 86q-73 132 -104 175q-86 115 -208 131q-23 3 -48 3q-52 0 -96 -11t-76.5 -27.5t-61.5 -45t-47.5 -53.5t-38 -63.5t-31 -65.5t-27.5 -68q-2 -5 -3 -8q-23 -57 -40 -91t-42.5 -69.5t-58.5 -52t-74 -16.5h-107
q-34 0 -61 7t-52.5 25t-39.5 30.5t-41 39.5q-44 48 -91.5 74t-126.5 26h-378q-112 0 -180 -105t-68 -294t68 -294t180 -105h378q79 0 126.5 26t91.5 74q27 27 41 39.5t39.5 30.5t52.5 25t61 7h107q41 0 74 -16.5t58.5 -52t42.5 -69.5t40 -91q53 -136 91 -192
q100 -150 290 -150zM1118 440q-32 -34 -58 -55t-76 -39t-112 -18h-378q-128 0 -208.5 112.5t-80.5 327.5t80.5 327.5t208.5 112.5h378q89 0 143 -29.5t103 -82.5q51 -51 76 -66q40 -24 90 -24h107q28 0 52.5 12.5t39.5 27t33.5 48.5t26 52t26.5 64q19 48 30 74.5t34 71
t43 70.5t53 58.5t68 50t84 30t106 12.5q32 0 61 -4t54.5 -14t47.5 -19.5t43.5 -28.5t37 -32.5t35 -39.5t31.5 -42.5t30 -48l28 -49t29 -52.5q32 -57 57 -98t65 -94t80 -90.5t95.5 -73.5t118.5 -57v-25h-525q-8 95 -56 150t-124 55q-86 0 -133 -64.5t-47 -165.5v-34
q0 -102 46.5 -165t133.5 -63q78 0 125 54t55 151h525v-25q-63 -21 -118.5 -57t-95.5 -73.5t-80 -90.5t-65 -94t-57 -98q-19 -35 -29 -52.5l-28 -49t-30 -48t-31.5 -42.5t-35 -39.5t-37 -32.5t-43.5 -28.5t-47.5 -19.5t-54.5 -14t-61 -4q-57 0 -106 12.5t-84 30t-68 50
t-53 58.5t-43 70.5t-34 71t-30 74.5q-19 46 -26.5 64t-26 52t-33.5 48.5t-39.5 27t-52.5 12.5h-107q-36 0 -67 -13.5t-47 -26.5t-43 -41z" />
    <glyph glyph-name="uni2762" unicode="&#x2762;" horiz-adv-x="1052" 
d="M762 1556h31q151 0 243 -73t92 -201q0 -73 -25.5 -134.5t-69 -105.5t-96.5 -83t-111.5 -75.5t-110.5 -74t-97.5 -88t-68.5 -107.5h-25q2 18 2 33q0 56 -26.5 106t-64 90t-75 82.5t-64 100.5t-26.5 125q0 78 34 150.5t95.5 129.5t156 91t206.5 34zM793 1518h-48
q-98 0 -181 -31.5t-137.5 -83.5t-85 -117.5t-30.5 -134.5q0 -49 18 -95t44.5 -79.5t58 -69t58.5 -65t45.5 -67.5t19.5 -77q28 47 73 90.5t93.5 76t101 66t99 68t84 74t59.5 92.5t22 115q0 112 -80 175t-214 63zM516 565q104 0 168 -65t64 -162q0 -146 -110 -252t-261 -106
q-104 0 -168 65t-64 162q0 146 110 252t261 106zM508 526q-127 0 -224.5 -96.5t-97.5 -222.5q0 -82 54 -135.5t145 -53.5q127 0 224.5 97t97.5 223q0 82 -53.5 135t-145.5 53z" />
    <glyph glyph-name="uni2763" unicode="&#x2763;" horiz-adv-x="1214" 
d="M629 614h-25q2 16 2 31q0 45 -17.5 87.5t-46 77t-62.5 68.5t-68.5 70t-63 73.5t-46 85.5t-17.5 101q0 139 94 243.5t221 104.5q98 0 149.5 -59t59.5 -154q52 99 128 156t165 57q92 0 148.5 -60.5t56.5 -158.5q0 -70 -30 -131.5t-81 -108.5t-113 -90.5t-130.5 -86.5
t-129.5 -86.5t-114 -100.5t-80 -119zM326 1208q0 -63 29.5 -120t73 -101.5t87.5 -87t78.5 -95t40.5 -106.5q31 52 83.5 101t110 87.5t120 77.5t118.5 78.5t101 82t71.5 97t26.5 115.5q0 83 -47 132t-125 49q-82 0 -159.5 -72t-129.5 -176h-25q-3 112 -49 180t-139 68
q-101 0 -183.5 -94t-82.5 -216zM598 565q104 0 167.5 -65t63.5 -162q0 -146 -109.5 -252t-260.5 -106q-104 0 -168 65t-64 162q0 146 110 252t261 106zM590 526q-127 0 -224.5 -96.5t-97.5 -222.5q0 -82 54 -135.5t145 -53.5q127 0 224 97t97 223q0 82 -53.5 135t-144.5 53z
" />
    <glyph glyph-name="uni27B3" unicode="&#x27b3;" horiz-adv-x="2369" 
d="M39 340l559 438l-317 445l30 26l340 -477l-588 -465zM244 340l559 438l-318 445l31 26l340 -477l-588 -465zM449 340l559 438l-318 445l31 26l340 -477l-588 -465zM1747 307l-33 21q210 259 500 430h-967l-569 -451l-25 33l559 438l-317 445l31 26l321 -450h983
q-193 163 -270 432l35 18q81 -285 323 -475q-335 -185 -571 -467z" />
    <glyph glyph-name="uni27BD" unicode="&#x27bd;" horiz-adv-x="2641" 
d="M1663 -20q-41 0 -67.5 29t-26.5 67q0 29 14 67l162 387h-131q-44 0 -76.5 -20t-69.5 -66l-286 -368q-58 -76 -142 -76h-884q-52 0 -79.5 26t-27.5 66q0 31 23 72l342 606l-17 582v28q0 74 42 115t118 41h889q42 0 69.5 -20t36.5 -56l90 -368q11 -45 33.5 -65.5
t67.5 -20.5h131l45 395q9 80 48 117.5t97 37.5q74 0 111 -63l391 -649q19 -36 19 -58q0 -45 -58 -94l-762 -672q-46 -40 -102 -40zM1786 524l-166 -397q-10 -25 -10 -49q0 -25 14.5 -41.5t40.5 -16.5q33 0 72 31l764 672q43 37 43 63q0 13 -9 31l-395 656q-24 43 -76 43
q-41 0 -69.5 -28.5t-34.5 -82.5l-45 -395q-3 -25 -15 -35t-40 -10h-123q-55 0 -87 27.5t-46 84.5l-88 363q-12 55 -78 55h-887q-54 0 -84.5 -30t-30.5 -85v-16l19 -598l-346 -619q-19 -36 -19 -51q0 -55 70 -55h884q60 0 105 57l285 367q44 57 88.5 81.5t103.5 24.5h127
q37 0 37 -26q0 -9 -4 -21z" />
    <glyph glyph-name="uni27F7" unicode="&#x27f7;" horiz-adv-x="2232" 
d="M2099 758h-1874l305 -424l-30 -27l-342 475l594 467l22 -32l-532 -418h1874l-306 424l31 26l342 -475l-594 -467l-22 33z" />
    <glyph glyph-name="uniF8FF" unicode="&#xf8ff;" horiz-adv-x="2658" 
d="M2255 -287h-1823v1823h1823v-1823zM1040 1073q0 49 -24 80t-58 31q-33 0 -55 -31t-22 -80t22 -79.5t55 -30.5q34 0 58 30.5t24 79.5zM1485 1182v-217h119v18h-101v86h80v16h-80v80h96v17h-114zM1315 1055h37q32 0 53.5 17.5t21.5 45.5q0 30 -21.5 47t-53.5 17h-58v-217
h21v90zM1126 1055h37q32 0 54 17.5t22 45.5q0 30 -22 47t-54 17h-57v-217h20v90zM1686 1165h30q26 0 41 -12.5t15 -34.5q0 -45 -56 -45h-30v92zM1315 1165h37q26 0 40.5 -12.5t14.5 -34.5q0 -45 -55 -45h-37v92zM1126 1165h37q25 0 40.5 -12.5t15.5 -34.5q0 -21 -15.5 -33
t-40.5 -12h-37v92zM901 1073q0 40 16 66t41 26q26 0 44 -26t18 -66t-18 -67t-44 -27q-25 0 -41 27t-16 67zM836 1143q-18 41 -62 41q-33 0 -56.5 -31.5t-23.5 -79.5t23.5 -79t56.5 -31q21 0 38.5 13t25.5 34l-17 8q-16 -39 -47 -39q-26 0 -42.5 27t-16.5 67t16.5 66t42.5 26
q28 0 47 -30zM1729 1055l53 -90h20l-55 96q45 14 45 57q0 30 -22 47t-54 17h-49v-217h19v90h43zM1982 1151q-29 33 -61 33q-23 0 -40 -14.5t-17 -36.5q0 -34 43 -56l28 -16q31 -17 31 -41q0 -18 -11 -29.5t-32 -11.5q-28 0 -55 31l-13 -13q23 -34 68 -34q26 0 44 16t18 41
q0 39 -41 59l-29 15q-31 17 -31 39q0 14 10 23t27 9q21 0 47 -26zM1491 727v-219h35q47 0 75.5 29.5t28.5 80.5q0 50 -28.5 79.5t-75.5 29.5h-35zM1509 709h17q39 0 61.5 -25t22.5 -66q0 -42 -22.5 -67t-61.5 -25h-17v183zM1126 707l39 -119h-73zM1290 696l92 -188h25v219
h-18v-188l-95 188h-22v-219h18v188zM1169 569l19 -61h20l-67 219h-27l-65 -219h20l16 61h84zM1690 270v-217h118v19h-98v86h78v16h-78v80h94v16h-114zM711 270v-217h59q35 0 54.5 16.5t19.5 43.5q0 39 -43 53q33 15 33 47q0 27 -18.5 42t-53.5 15h-51zM936 254h33
q25 0 40 -12.5t15 -34.5q0 -21 -15 -33t-40 -12h-33v92zM731 254h31q26 0 40.5 -11t14.5 -30q0 -18 -14 -29.5t-37 -11.5h-35v82zM1182 252l37 -121h-74zM823 113q0 -41 -53 -41h-39v84h35q57 0 57 -43zM979 143l53 -90h23l-56 97q43 14 43 57q0 30 -20.5 46.5t-52.5 16.5
h-51v-217h18v90h43zM1225 113l16 -60h21l-66 217h-27l-67 -217h20l19 60h84zM1982 240q-28 32 -61 32q-23 0 -40 -14.5t-17 -36.5q0 -33 43 -55l28 -16q31 -17 31 -41q0 -18 -11 -29.5t-32 -11.5q-29 0 -55 30l-13 -14q25 -33 68 -33q26 0 44 16.5t18 41.5q0 39 -41 59
l-29 14q-31 17 -31 39q0 14 10 23.5t27 9.5q20 0 47 -27zM1618 240q-28 32 -62 32q-23 0 -40 -14.5t-17 -36.5q0 -33 43 -55l29 -16q31 -17 31 -41q0 -18 -11 -29.5t-32 -11.5q-30 0 -56 30l-12 -14q25 -33 68 -33q26 0 43.5 16.5t17.5 41.5q0 39 -41 59l-29 14
q-30 17 -30 39q0 14 9.5 23.5t26.5 9.5q21 0 48 -27zM1436 240q-28 32 -62 32q-23 0 -40 -14.5t-17 -36.5q0 -33 43 -55l29 -16q30 -17 30 -41q0 -18 -11 -29.5t-32 -11.5q-29 0 -55 30l-12 -14q25 -33 67 -33q26 0 44 16.5t18 41.5q0 39 -41 59l-29 14q-31 17 -31 39
q0 14 10 23.5t27 9.5q20 0 47 -27z" />
    <glyph glyph-name="fi" unicode="&#xfb01;" horiz-adv-x="1466" 
d="M791 635h-168l-170 -635h-473l170 635h-113l106 399h115l8 33q71 262 209 381t395 119q91 0 177 -21l-136 -372q-20 4 -39 4q-135 0 -174 -144h199zM1366 1260h-31q-102 0 -165.5 54t-63.5 146q0 108 84.5 187t212.5 79h31q102 0 165.5 -54t63.5 -146q0 -108 -84.5 -187
t-212.5 -79zM1055 1147h473l-307 -1147h-473z" />
    <glyph glyph-name="fl" unicode="&#xfb02;" horiz-adv-x="1466" 
d="M791 635h-168l-170 -635h-473l170 635h-113l106 399h115l8 33q71 262 209 381t395 119q91 0 177 -21l-136 -372q-20 4 -39 4q-135 0 -174 -144h199zM1159 1536h473l-411 -1536h-473z" />
    <glyph glyph-name="u1F3F3" unicode="&#x1f3f3;" horiz-adv-x="1802" 
d="M229 551q138 43 326 43q248 0 317 -57l236 874q6 21 6 29q0 36 -83 57t-228 21q-178 0 -328 -52zM793 360q0 -45 198 -45q117 0 270 42t295 106l244 905q-124 -52 -280.5 -90.5t-278.5 -38.5q-77 0 -135 10l-209 -778q-5 -20 -22.5 -38t-35.5 -28t-32 -22t-14 -23z
M797 528q-89 27 -252 27q-196 0 -328 -49l-135 -506h-41l401 1495q147 61 369 61q346 0 346 -106q0 -14 -10 -47l-31 -115q55 -10 133 -10q123 0 292 46t319 110l-269 -1002q-132 -60 -304.5 -108t-303.5 -48q-116 0 -174.5 19.5t-58.5 54.5q0 8 8 35zM811 426q47 29 47 49
q0 21 -24 37z" />
    <glyph glyph-name="u1F480" unicode="&#x1f480;" horiz-adv-x="1724" 
d="M1217 604q-69 0 -109.5 41.5t-40.5 108.5q0 115 76.5 208t181.5 93q69 0 109.5 -41.5t40.5 -108.5q0 -115 -76.5 -208t-181.5 -93zM643 604q-69 0 -109 41.5t-40 108.5q0 115 76.5 208t181.5 93q69 0 109 -41.5t40 -108.5q0 -115 -76.5 -208t-181.5 -93zM1223 643
q83 0 147 82t64 180q0 54 -30.5 82.5t-84.5 28.5q-83 0 -147 -82t-64 -180q0 -54 30.5 -82.5t84.5 -28.5zM649 643q83 0 147 82t64 180q0 54 -30.5 82.5t-84.5 28.5q-83 0 -146.5 -82t-63.5 -180q0 -54 30 -82.5t84 -28.5zM258 705l37 -15q-19 -51 -19 -98q0 -60 45.5 -102
t129.5 -46l-11 -38q-97 9 -150.5 59.5t-53.5 126.5q0 55 22 113zM926 623h24q0 -50 39 -70q45 -22 45 -66q0 -33 -24.5 -55t-57.5 -22q-48 0 -55 45q-7 -20 -27 -32.5t-43 -12.5q-27 0 -44 17t-17 40q0 30 20 51t62 39q30 12 48 27t30 39zM963 524q-33 16 -35 45
q-14 -27 -64 -47q-55 -24 -55 -51q0 -22 22 -22q15 0 32.5 10.5t27.5 29.5h24q1 -19 12.5 -29.5t26.5 -10.5q17 0 28 11.5t11 26.5q0 20 -30 37zM1085 256l-55 -213h144l86 326q80 1 145.5 33t106 82t62 110.5t21.5 122.5q0 25 -7 72t-7 75q0 37 10 78l31 115q18 71 18 131
q0 161 -128.5 245.5t-362.5 84.5h-102q-280 0 -471 -118.5t-252 -342.5l-31 -115q-16 -59 -43 -123.5t-41 -114t-14 -112.5q0 -91 67.5 -149.5t188.5 -73.5q91 -82 51 -232l-25 -94h144l55 213h41l-55 -213h143l55 213h41l-55 -213h143l55 213h41zM424 0l37 137
q34 121 -27 193q-130 21 -205 89t-75 173q0 58 14.5 108.5t41.5 117.5t42 124l31 115q65 247 267 373t517 126h76q257 0 398.5 -95t141.5 -273q0 -49 -20 -131l-31 -115q-10 -36 -10 -78q0 -22 7 -69.5t7 -77.5q0 -92 -37 -173.5t-117 -141t-190 -70.5l-90 -332h-778z" />
    <glyph glyph-name="u1F4CD" unicode="&#x1f4cd;" horiz-adv-x="1073" 
d="M387 -20h-20l10 71l190 715q-130 9 -207 94t-77 215q0 94 40.5 182t108 154t162 105.5t197.5 39.5q143 0 229 -86.5t86 -224.5q0 -125 -67.5 -236t-183 -178t-247.5 -67l-190 -713zM606 803q123 0 230 63.5t168 165t61 213.5q0 121 -77 197t-206 76q-93 0 -178.5 -38
t-146 -99t-97 -142t-36.5 -164q0 -121 76.5 -196.5t205.5 -75.5z" />
    <glyph glyph-name="u1F6A9" unicode="&#x1f6a9;" horiz-adv-x="1802" 
d="M82 0h-41l418 1556q87 0 189 -28t200.5 -73.5t202.5 -100.5t206.5 -111t199 -103.5t195 -79t179.5 -36.5l-6 -23q-131 -80 -297.5 -134.5t-329 -87t-326.5 -64.5t-340 -88.5t-319 -137.5zM227 541q133 73 299.5 126.5t324 85t312.5 61.5t309.5 76t270.5 109
q-95 13 -225.5 70t-260 128t-262 142t-267.5 122.5t-239 58.5z" />
    <glyph glyph-name="thinspace" horiz-adv-x="256" 
 />
    <glyph glyph-name="AEacute.alt" horiz-adv-x="1988" 
d="M752 621q50 8 92 8h43l35 129q37 139 125 352h-25q-47 -91 -102 -182l-109 -189q-23 -41 -74 -104zM530 260l-151 -260h-543l973 1536h1335l-114 -430h-510l-47 -170h421l-86 -328h-422l-45 -168h531l-119 -440h-1034l69 260h-258zM1804 1874l6 -39l-522 -104l-6 34z" />
    <glyph glyph-name="Aacute.alt" horiz-adv-x="1392" 
d="M713 629h2q47 0 71 -6l27 16q-2 18 -2 47q0 40 4 80l10 133q5 86 27 197h-25q-36 -103 -79 -197l-68 -149q-33 -71 -57 -111l14 -16q30 6 76 6zM748 0l22 260h-301l-117 -260h-516l776 1536h668l-31 -1536h-501zM1288 1874l6 -39l-522 -104l-6 34z" />
    <glyph glyph-name="Abreve.alt" horiz-adv-x="1392" 
d="M713 629h2q47 0 71 -6l27 16q-2 18 -2 47q0 40 4 80l10 133q5 86 27 197h-25q-36 -103 -79 -197l-68 -149q-33 -71 -57 -111l14 -16q30 6 76 6zM748 0l22 260h-301l-117 -260h-516l776 1536h668l-31 -1536h-501zM991 1739q199 0 295 155l35 -12q-100 -182 -336 -182
q-111 0 -180.5 50.5t-69.5 133.5l39 10q0 -73 58 -114t159 -41z" />
    <glyph glyph-name="Acircumflex.alt" horiz-adv-x="1392" 
d="M713 629h2q47 0 71 -6l27 16q-2 18 -2 47q0 40 4 80l10 133q5 86 27 197h-25q-36 -103 -79 -197l-68 -149q-33 -71 -57 -111l14 -16q30 6 76 6zM748 0l22 260h-301l-117 -260h-516l776 1536h668l-31 -1536h-501zM1333 1731l-317 104l-393 -104l-11 34l396 109h20
l322 -109z" />
    <glyph glyph-name="Adieresis.alt" horiz-adv-x="1392" 
d="M713 629h2q47 0 71 -6l27 16q-2 18 -2 47q0 40 4 80l10 133q5 86 27 197h-25q-36 -103 -79 -197l-68 -149q-33 -71 -57 -111l14 -16q30 6 76 6zM748 0l22 260h-301l-117 -260h-516l776 1536h668l-31 -1536h-501zM870 1790l-10 -39h-299l10 39h299zM1432 1790l-11 -39
h-299l11 39h299z" />
    <glyph glyph-name="uni1EA0.alt" horiz-adv-x="1392" 
d="M713 629h2q47 0 71 -6l27 16q-2 18 -2 47q0 40 4 80l10 133q5 86 27 197h-25q-36 -103 -79 -197l-68 -149q-33 -71 -57 -111l14 -16q30 6 76 6zM748 0l22 260h-301l-117 -260h-516l776 1536h668l-31 -1536h-501zM678 -248l-10 -39h-381l10 39h381z" />
    <glyph glyph-name="Agrave.alt" horiz-adv-x="1392" 
d="M713 629h2q47 0 71 -6l27 16q-2 18 -2 47q0 40 4 80l10 133q5 86 27 197h-25q-36 -103 -79 -197l-68 -149q-33 -71 -57 -111l14 -16q30 6 76 6zM748 0l22 260h-301l-117 -260h-516l776 1536h668l-31 -1536h-501zM748 1874l475 -111l-13 -32l-477 106z" />
    <glyph glyph-name="Amacron.alt" horiz-adv-x="1392" 
d="M713 629h2q47 0 71 -6l27 16q-2 18 -2 47q0 40 4 80l10 133q5 86 27 197h-25q-36 -103 -79 -197l-68 -149q-33 -71 -57 -111l14 -16q30 6 76 6zM748 0l22 260h-301l-117 -260h-516l776 1536h668l-31 -1536h-501zM1315 1790l-10 -39h-627l10 39h627z" />
    <glyph glyph-name="Aogonek.alt" horiz-adv-x="1392" 
d="M713 629h2q47 0 71 -6l27 16q-2 18 -2 47q0 40 4 80l10 133q5 86 27 197h-25q-36 -103 -79 -197l-68 -149q-33 -71 -57 -111l14 -16q30 6 76 6zM1094 0h-346l22 260h-301l-117 -260h-516l776 1536h668l-31 -1536q-154 -17 -245 -74t-91 -127q0 -36 27.5 -57t83.5 -21
q57 0 139 29l8 -37q-82 -30 -155 -30q-68 0 -106 33t-38 83q0 60 59.5 115.5t162.5 85.5z" />
    <glyph glyph-name="Aring.alt" horiz-adv-x="1392" 
d="M713 629h2q47 0 71 -6l27 16q-2 18 -2 47q0 40 4 80l10 133q5 86 27 197h-25q-36 -103 -79 -197l-68 -149q-33 -71 -57 -111l14 -16q30 6 76 6zM748 0l22 260h-301l-117 -260h-516l776 1536h668l-31 -1536h-501zM1057 2036q81 0 130.5 -42.5t49.5 -107.5
q0 -95 -72.5 -156t-181.5 -61q-81 0 -130.5 42.5t-49.5 107.5q0 95 72.5 156t181.5 61zM993 1708q85 0 144 50.5t59 125.5q0 51 -38.5 82t-110.5 31q-85 0 -144 -50.5t-59 -125.5q0 -51 38.5 -82t110.5 -31z" />
    <glyph glyph-name="Aringacute.alt" horiz-adv-x="1392" 
d="M713 629h2q47 0 71 -6l27 16q-2 18 -2 47q0 40 4 80l10 133q5 86 27 197h-25q-36 -103 -79 -197l-68 -149q-33 -71 -57 -111l14 -16q30 6 76 6zM748 0l22 260h-301l-117 -260h-516l776 1536h668l-31 -1536h-501zM1401 2181l6 -39l-522 -104l-6 35zM1071 1985
q81 0 130.5 -42.5t49.5 -107.5q0 -95 -72.5 -156t-181.5 -61q-82 0 -131 42.5t-49 106.5q0 95 72.5 156.5t181.5 61.5zM1008 1657q85 0 143.5 50.5t58.5 125.5q0 51 -38.5 82t-110.5 31q-85 0 -144 -51t-59 -126q0 -51 39 -81.5t111 -30.5z" />
    <glyph glyph-name="Atilde.alt" horiz-adv-x="1392" 
d="M713 629h2q47 0 71 -6l27 16q-2 18 -2 47q0 40 4 80l10 133q5 86 27 197h-25q-36 -103 -79 -197l-68 -149q-33 -71 -57 -111l14 -16q30 6 76 6zM748 0l22 260h-301l-117 -260h-516l776 1536h668l-31 -1536h-501zM840 1884q-47 0 -94.5 -33.5t-83.5 -83.5l-33 23
q96 135 215 135q48 0 93 -21.5t74 -47t71.5 -47t86.5 -21.5q48 0 95.5 34t81.5 83l34 -23q-96 -135 -215 -135q-48 0 -93 21.5t-74 47t-71.5 47t-86.5 21.5z" />
    <glyph glyph-name="Cacute.alt" horiz-adv-x="1402" 
d="M868 655l486 -37q-96 -344 -283.5 -496.5t-509.5 -152.5q-256 0 -384 113t-128 328q0 124 39 266l51 184q70 255 174 408.5t258 226t377 72.5q257 0 385.5 -113t128.5 -328q0 -90 -28 -211l-502 -34q20 72 20 120q0 58 -26.5 81.5t-81.5 23.5q-73 0 -116.5 -47.5
t-82.5 -177.5l-67 -226q-23 -81 -23 -120q0 -57 28 -81t83 -24q73 0 116.5 47.5t85.5 177.5zM1298 1874l7 -39l-523 -104l-6 34z" />
    <glyph glyph-name="Ccaron.alt" horiz-adv-x="1402" 
d="M868 655l486 -37q-96 -344 -283.5 -496.5t-509.5 -152.5q-256 0 -384 113t-128 328q0 124 39 266l51 184q70 255 174 408.5t258 226t377 72.5q257 0 385.5 -113t128.5 -328q0 -90 -28 -211l-502 -34q20 72 20 120q0 58 -26.5 81.5t-81.5 23.5q-73 0 -116.5 -47.5
t-82.5 -177.5l-67 -226q-23 -81 -23 -120q0 -57 28 -81t83 -24q73 0 116.5 47.5t85.5 177.5zM1001 1741h-20l-322 108l17 35l317 -104l393 104l11 -35z" />
    <glyph glyph-name="Ccedilla.alt" horiz-adv-x="1402" 
d="M479 -317q-72 0 -149 30l18 37q67 -29 137 -29q78 0 115 24.5t37 57.5q0 60 -105 60q-39 0 -71 -4l53 110q-232 10 -348.5 123t-116.5 318q0 124 39 266l51 184q70 255 174 408.5t258 226t377 72.5q257 0 385.5 -113t128.5 -328q0 -90 -28 -211l-502 -34q20 72 20 120
q0 58 -26.5 81.5t-81.5 23.5q-73 0 -116.5 -47.5t-82.5 -177.5l-67 -226q-23 -81 -23 -120q0 -57 28 -81t83 -24q73 0 116.5 47.5t85.5 177.5l486 -37q-96 -344 -283.5 -496.5t-509.5 -152.5h-6l-33 -69h17q66 0 103.5 -25t37.5 -68q0 -53 -51 -88.5t-150 -35.5z" />
    <glyph glyph-name="Ccircumflex.alt" horiz-adv-x="1402" 
d="M868 655l486 -37q-96 -344 -283.5 -496.5t-509.5 -152.5q-256 0 -384 113t-128 328q0 124 39 266l51 184q70 255 174 408.5t258 226t377 72.5q257 0 385.5 -113t128.5 -328q0 -90 -28 -211l-502 -34q20 72 20 120q0 58 -26.5 81.5t-81.5 23.5q-73 0 -116.5 -47.5
t-82.5 -177.5l-67 -226q-23 -81 -23 -120q0 -57 28 -81t83 -24q73 0 116.5 47.5t85.5 177.5zM1343 1731l-317 104l-393 -104l-10 34l395 109h20l322 -109z" />
    <glyph glyph-name="Cdotaccent.alt" horiz-adv-x="1402" 
d="M868 655l486 -37q-96 -344 -283.5 -496.5t-509.5 -152.5q-256 0 -384 113t-128 328q0 124 39 266l51 184q70 255 174 408.5t258 226t377 72.5q257 0 385.5 -113t128.5 -328q0 -90 -28 -211l-502 -34q20 72 20 120q0 58 -26.5 81.5t-81.5 23.5q-73 0 -116.5 -47.5
t-82.5 -177.5l-67 -226q-23 -81 -23 -120q0 -57 28 -81t83 -24q73 0 116.5 47.5t85.5 177.5zM1202 1790l-10 -39h-381l10 39h381z" />
    <glyph glyph-name="Dcaron.alt" horiz-adv-x="1458" 
d="M809 1106h-39l-182 -676h39q132 0 204 121q51 84 86 198t35 201q0 156 -143 156zM-31 0l412 1536h625q231 0 355 -120t124 -345q0 -218 -82.5 -465t-214.5 -397q-91 -103 -221.5 -156t-286.5 -53h-711zM1004 1741h-21l-321 108l16 35l317 -104l394 104l10 -35z" />
    <glyph glyph-name="Dcroat.alt" horiz-adv-x="1468" 
d="M690 0h-710l198 743h-123l11 39h122l203 754h625q231 0 355 -120t124 -345q0 -218 -82.5 -465t-214.5 -397q-91 -103 -221.5 -156t-286.5 -53zM598 430h39q133 0 205 121q51 84 86 198t35 201q0 156 -144 156h-39l-88 -324h131l-10 -39h-131z" />
    <glyph glyph-name="Eth.alt" horiz-adv-x="1468" 
d="M690 0h-710l198 743h-123l11 39h122l203 754h625q231 0 355 -120t124 -345q0 -218 -82.5 -465t-214.5 -397q-91 -103 -221.5 -156t-286.5 -53zM598 430h39q133 0 205 121q51 84 86 198t35 201q0 156 -144 156h-39l-88 -324h131l-10 -39h-131z" />
    <glyph glyph-name="Eacute.alt" horiz-adv-x="1310" 
d="M-31 0l412 1536h1085l-114 -430h-582l-47 -170h494l-87 -328h-493l-45 -168h602l-119 -440h-1106zM1268 1874l6 -39l-522 -104l-7 34z" />
    <glyph glyph-name="Ebreve.alt" horiz-adv-x="1310" 
d="M-31 0l412 1536h1085l-114 -430h-582l-47 -170h494l-87 -328h-493l-45 -168h602l-119 -440h-1106zM971 1739q199 0 295 155l34 -12q-100 -182 -335 -182q-111 0 -180.5 50.5t-69.5 133.5l39 10q0 -73 58 -114t159 -41z" />
    <glyph glyph-name="Ecaron.alt" horiz-adv-x="1310" 
d="M-31 0l412 1536h1085l-114 -430h-582l-47 -170h494l-87 -328h-493l-45 -168h602l-119 -440h-1106zM971 1741h-21l-321 108l16 35l318 -104l393 104l10 -35z" />
    <glyph glyph-name="Ecircumflex.alt" horiz-adv-x="1310" 
d="M-31 0l412 1536h1085l-114 -430h-582l-47 -170h494l-87 -328h-493l-45 -168h602l-119 -440h-1106zM1313 1731l-318 104l-393 -104l-10 34l395 109h21l321 -109z" />
    <glyph glyph-name="Edieresis.alt" horiz-adv-x="1310" 
d="M-31 0l412 1536h1085l-114 -430h-582l-47 -170h494l-87 -328h-493l-45 -168h602l-119 -440h-1106zM850 1790l-10 -39h-299l10 39h299zM1411 1790l-10 -39h-299l10 39h299z" />
    <glyph glyph-name="Edotaccent.alt" horiz-adv-x="1310" 
d="M-31 0l412 1536h1085l-114 -430h-582l-47 -170h494l-87 -328h-493l-45 -168h602l-119 -440h-1106zM1171 1790l-10 -39h-381l11 39h380z" />
    <glyph glyph-name="uni1EB8.alt" horiz-adv-x="1310" 
d="M-31 0l412 1536h1085l-114 -430h-582l-47 -170h494l-87 -328h-493l-45 -168h602l-119 -440h-1106zM637 -248l-10 -39h-381l10 39h381z" />
    <glyph glyph-name="Egrave.alt" horiz-adv-x="1310" 
d="M-31 0l412 1536h1085l-114 -430h-582l-47 -170h494l-87 -328h-493l-45 -168h602l-119 -440h-1106zM727 1874l475 -111l-12 -32l-477 106z" />
    <glyph glyph-name="Emacron.alt" horiz-adv-x="1310" 
d="M-31 0l412 1536h1085l-114 -430h-582l-47 -170h494l-87 -328h-493l-45 -168h602l-119 -440h-1106zM1294 1790l-10 -39h-627l11 39h626z" />
    <glyph glyph-name="Eogonek.alt" horiz-adv-x="1310" 
d="M920 0h-951l412 1536h1085l-114 -430h-582l-47 -170h494l-87 -328h-493l-45 -168h602l-119 -440q-154 -17 -245 -74t-91 -127q0 -36 27.5 -57t83.5 -21q57 0 139 29l8 -37q-82 -30 -155 -30q-68 0 -106 33t-38 83q0 60 59.5 115.5t162.5 85.5z" />
    <glyph glyph-name="uni1EBC.alt" horiz-adv-x="1310" 
d="M-31 0l412 1536h1085l-114 -430h-582l-47 -170h494l-87 -328h-493l-45 -168h602l-119 -440h-1106zM819 1884q-47 0 -94.5 -33.5t-83.5 -83.5l-33 23q96 135 215 135q48 0 93 -21.5t74.5 -47t72 -47t86.5 -21.5q48 0 95 34t81 83l35 -23q-96 -135 -215 -135
q-48 0 -93 21.5t-74.5 47t-72 47t-86.5 21.5z" />
    <glyph glyph-name="Gbreve.alt" horiz-adv-x="1421" 
d="M465 -31q-197 0 -305.5 110.5t-108.5 305.5q0 158 37 291l51 184q70 255 174 408.5t258 226t377 72.5q257 0 385.5 -113t128.5 -328q0 -97 -24 -190l-500 -35q20 72 20 121q0 58 -26.5 81t-81.5 23q-73 0 -116.5 -47.5t-82.5 -177.5l-98 -328q-25 -78 -17.5 -123t34 -63
t77.5 -18q67 0 110 29t87 110l-13 16q-49 -12 -120 -12l77 287h613l-215 -799h-307l18 162h-25q-60 -85 -165 -139t-242 -54zM1004 1739q198 0 294 155l35 -12q-100 -182 -336 -182q-111 0 -180 50.5t-69 133.5l38 10q0 -73 58.5 -114t159.5 -41z" />
    <glyph glyph-name="uni01E6.alt" horiz-adv-x="1421" 
d="M465 -31q-197 0 -305.5 110.5t-108.5 305.5q0 158 37 291l51 184q70 255 174 408.5t258 226t377 72.5q257 0 385.5 -113t128.5 -328q0 -97 -24 -190l-500 -35q20 72 20 121q0 58 -26.5 81t-81.5 23q-73 0 -116.5 -47.5t-82.5 -177.5l-98 -328q-25 -78 -17.5 -123t34 -63
t77.5 -18q67 0 110 29t87 110l-13 16q-49 -12 -120 -12l77 287h613l-215 -799h-307l18 162h-25q-60 -85 -165 -139t-242 -54zM1004 1741h-21l-321 108l16 35l317 -104l394 104l10 -35z" />
    <glyph glyph-name="Gcircumflex.alt" horiz-adv-x="1421" 
d="M465 -31q-197 0 -305.5 110.5t-108.5 305.5q0 158 37 291l51 184q70 255 174 408.5t258 226t377 72.5q257 0 385.5 -113t128.5 -328q0 -97 -24 -190l-500 -35q20 72 20 121q0 58 -26.5 81t-81.5 23q-73 0 -116.5 -47.5t-82.5 -177.5l-98 -328q-25 -78 -17.5 -123t34 -63
t77.5 -18q67 0 110 29t87 110l-13 16q-49 -12 -120 -12l77 287h613l-215 -799h-307l18 162h-25q-60 -85 -165 -139t-242 -54zM1346 1731l-318 104l-393 -104l-10 34l395 109h20l322 -109z" />
    <glyph glyph-name="uni0122.alt" horiz-adv-x="1421" 
d="M465 -31q-197 0 -305.5 110.5t-108.5 305.5q0 158 37 291l51 184q70 255 174 408.5t258 226t377 72.5q257 0 385.5 -113t128.5 -328q0 -97 -24 -190l-500 -35q20 72 20 121q0 58 -26.5 81t-81.5 23q-73 0 -116.5 -47.5t-82.5 -177.5l-98 -328q-25 -78 -17.5 -123t34 -63
t77.5 -18q67 0 110 29t87 110l-13 16q-49 -12 -120 -12l77 287h613l-215 -799h-307l18 162h-25q-60 -85 -165 -139t-242 -54zM563 -174l-31 -113q-27 -102 -63.5 -149.5t-106.5 -91.5l-18 34q60 36 93.5 82.5t54.5 126.5l28 111h43z" />
    <glyph glyph-name="Gdotaccent.alt" horiz-adv-x="1421" 
d="M465 -31q-197 0 -305.5 110.5t-108.5 305.5q0 158 37 291l51 184q70 255 174 408.5t258 226t377 72.5q257 0 385.5 -113t128.5 -328q0 -97 -24 -190l-500 -35q20 72 20 121q0 58 -26.5 81t-81.5 23q-73 0 -116.5 -47.5t-82.5 -177.5l-98 -328q-25 -78 -17.5 -123t34 -63
t77.5 -18q67 0 110 29t87 110l-13 16q-49 -12 -120 -12l77 287h613l-215 -799h-307l18 162h-25q-60 -85 -165 -139t-242 -54zM1204 1790l-10 -39h-381l10 39h381z" />
    <glyph glyph-name="uni00470303" horiz-adv-x="1421" 
d="M465 -31q-197 0 -305.5 110.5t-108.5 305.5q0 158 37 291l51 184q70 255 174 408.5t258 226t377 72.5q257 0 385.5 -113t128.5 -328q0 -97 -24 -190l-500 -35q20 72 20 121q0 58 -26.5 81t-81.5 23q-73 0 -116.5 -47.5t-82.5 -177.5l-98 -328q-25 -78 -17.5 -123t34 -63
t77.5 -18q67 0 110 29t87 110l-13 16q-49 -12 -120 -12l77 287h613l-215 -799h-307l18 162h-25q-60 -85 -165 -139t-242 -54zM1196 1907q72 0 131 82l170 -107q-133 -244 -340 -244q-59 0 -110.5 18.5t-82 41t-69 41t-74.5 18.5q-31 0 -63.5 -20.5t-57.5 -61.5l-170 107
q129 243 330 243q59 0 110.5 -18.5t82 -40.5t69 -40.5t74.5 -18.5z" />
    <glyph glyph-name="uni00470303.alt" horiz-adv-x="1421" 
d="M465 -31q-197 0 -305.5 110.5t-108.5 305.5q0 158 37 291l51 184q70 255 174 408.5t258 226t377 72.5q257 0 385.5 -113t128.5 -328q0 -97 -24 -190l-500 -35q20 72 20 121q0 58 -26.5 81t-81.5 23q-73 0 -116.5 -47.5t-82.5 -177.5l-98 -328q-25 -78 -17.5 -123t34 -63
t77.5 -18q67 0 110 29t87 110l-13 16q-49 -12 -120 -12l77 287h613l-215 -799h-307l18 162h-25q-60 -85 -165 -139t-242 -54zM852 1884q-47 0 -94.5 -33.5t-83.5 -83.5l-33 23q96 135 215 135q48 0 93 -21.5t74.5 -47t72 -47t86.5 -21.5q48 0 95 34t81 83l35 -23
q-96 -135 -215 -135q-48 0 -93 21.5t-74.5 47t-72 47t-86.5 21.5z" />
    <glyph glyph-name="Hbar.alt" horiz-adv-x="1554" 
d="M997 866l76 281h-282l-76 -281h282zM766 0l106 395h-282l-107 -395h-503l307 1147h-123l10 39h123l94 350h504l-94 -350h282l95 350h503l-94 -350h123l-10 -39h-123l-307 -1147h-504z" />
    <glyph glyph-name="Hcircumflex.alt" horiz-adv-x="1536" 
d="M756 0l139 518h-283l-139 -518h-504l412 1536h504l-148 -547h283l147 547h504l-411 -1536h-504zM1425 1731l-317 104l-393 -104l-10 34l395 109h20l322 -109z" />
    <glyph glyph-name="Iacute.alt" horiz-adv-x="749" 
d="M381 1536h504l-412 -1536h-504zM987 1874l6 -39l-522 -104l-6 34z" />
    <glyph glyph-name="Ibreve.alt" horiz-adv-x="749" 
d="M381 1536h504l-412 -1536h-504zM690 1739q199 0 295 155l35 -12q-100 -182 -336 -182q-111 0 -180.5 50.5t-69.5 133.5l39 10q0 -73 58 -114t159 -41z" />
    <glyph glyph-name="Icircumflex.alt" horiz-adv-x="749" 
d="M381 1536h504l-412 -1536h-504zM1032 1731l-317 104l-393 -104l-11 34l396 109h20l322 -109z" />
    <glyph glyph-name="Idieresis.alt" horiz-adv-x="749" 
d="M610 1790l-10 -39h-299l10 39h299zM1090 1790l-11 -39h-299l11 39h299zM381 1536h504l-412 -1536h-504z" />
    <glyph glyph-name="Idotaccent.alt" horiz-adv-x="749" 
d="M952 1790l-10 -39h-504l11 39h503zM381 1536h504l-412 -1536h-504z" />
    <glyph glyph-name="uni1ECA.alt" horiz-adv-x="749" 
d="M381 1536h504l-412 -1536h-504zM346 -248l-10 -39h-381l10 39h381z" />
    <glyph glyph-name="Igrave.alt" horiz-adv-x="749" 
d="M381 1536h504l-412 -1536h-504zM446 1874l476 -111l-13 -32l-477 106z" />
    <glyph glyph-name="Imacron.alt" horiz-adv-x="749" 
d="M381 1536h504l-412 -1536h-504zM1014 1790l-10 -39h-627l10 39h627z" />
    <glyph glyph-name="Iogonek.alt" horiz-adv-x="749" 
d="M317 0h-348l412 1536h504l-412 -1536q-154 -17 -245 -74t-91 -127q0 -36 27.5 -57t83.5 -21q57 0 139 29l8 -37q-82 -30 -155 -30q-68 0 -106 33t-38 83q0 60 59 115.5t162 85.5z" />
    <glyph glyph-name="Itilde.alt" horiz-adv-x="749" 
d="M381 1536h504l-412 -1536h-504zM539 1884q-48 0 -95.5 -34t-83.5 -83l-32 23q96 135 215 135q48 0 93 -21.5t74 -47t71.5 -47t86.5 -21.5q48 0 95 34t81 83l35 -23q-96 -135 -215 -135q-48 0 -93 21.5t-74 47t-71.5 47t-86.5 21.5z" />
    <glyph glyph-name="IJacute" horiz-adv-x="1640" 
d="M604 0l117 432q51 -14 98 -14q90 0 144 46t84 157l245 915h504l-260 -969q-84 -316 -246 -454q-84 -72 -199 -108t-227 -36q-69 0 -145 10t-115 21zM381 1536h504l-412 -1536h-504zM901 2046l70 -266l-539 -142l-57 172zM1812 2046l70 -266l-539 -142l-57 172z" />
    <glyph glyph-name="IJacute.alt" horiz-adv-x="1640" 
d="M604 0l117 432q51 -14 98 -14q90 0 144 46t84 157l245 915h504l-260 -969q-84 -316 -246 -454q-84 -72 -199 -108t-227 -36q-69 0 -145 10t-115 21zM381 1536h504l-412 -1536h-504zM987 1874l6 -39l-522 -104l-6 34zM1898 1874l7 -39l-523 -104l-6 34z" />
    <glyph glyph-name="Jcircumflex.alt" horiz-adv-x="1316" 
d="M1212 567q-84 -318 -245 -454q-168 -144 -475 -144q-242 0 -368 118.5t-126 326.5q0 91 25 207l491 34q-25 -95 -25 -143q0 -39 18.5 -60.5t51.5 -21.5q57 0 97 45t71 160l242 901h504zM1620 1731l-317 104l-394 -104l-10 34l395 109h21l321 -109z" />
    <glyph glyph-name="uni0136.alt" horiz-adv-x="1433" 
d="M1067 715l233 -715h-518l-114 389q-32 111 -37 221h-25q-20 -190 -63 -352l-70 -258h-504l412 1536h504l-80 -299q-37 -139 -125 -352h25q65 119 141 221l325 430h541zM608 -174l-30 -113q-27 -102 -63.5 -149.5t-106.5 -91.5l-19 34q60 36 93.5 82.5t54.5 126.5l28 111
h43z" />
    <glyph glyph-name="Lacute.alt" horiz-adv-x="1126" 
d="M-31 0l412 1536h504l-285 -1065h479l-127 -471h-983zM987 1874l6 -39l-522 -104l-6 34z" />
    <glyph glyph-name="Lcaron.alt" horiz-adv-x="1126" 
d="M1026 905l-39 10l199 631l39 -10zM-31 0l412 1536h504l-285 -1065h479l-127 -471h-983z" />
    <glyph glyph-name="uni013B.alt" horiz-adv-x="1126" 
d="M-31 0l412 1536h504l-285 -1065h479l-127 -471h-983zM438 -174l-30 -113q-27 -102 -63.5 -149.5t-106.5 -91.5l-19 34q60 36 93.5 82.5t54.5 126.5l28 111h43z" />
    <glyph glyph-name="Ldot.alt" horiz-adv-x="1126" 
d="M981 655h-41l102 381h41zM-31 0l412 1536h504l-285 -1065h479l-127 -471h-983z" />
    <glyph glyph-name="Lslash.alt" horiz-adv-x="1146" 
d="M973 0h-983l153 571l-137 -57l-12 39l162 68l245 915h504l-182 -680l227 94l13 -39l-252 -104l-90 -336h479z" />
    <glyph glyph-name="Nacute.alt" horiz-adv-x="1536" 
d="M913 1536l72 -557q15 -116 12 -211l-2 -70h25q26 205 70 371l124 467h457l-411 -1536h-547l-70 512q-15 108 -12 197l2 84h-25q-27 -212 -69 -371l-113 -422h-457l412 1536h532zM1350 1874l6 -39l-522 -104l-7 34z" />
    <glyph glyph-name="Ncaron.alt" horiz-adv-x="1536" 
d="M913 1536l72 -557q15 -116 12 -211l-2 -70h25q26 205 70 371l124 467h457l-411 -1536h-547l-70 512q-15 108 -12 197l2 84h-25q-27 -212 -69 -371l-113 -422h-457l412 1536h532zM1053 1741h-21l-321 108l16 35l317 -104l394 104l10 -35z" />
    <glyph glyph-name="uni0145.alt" horiz-adv-x="1536" 
d="M913 1536l72 -557q15 -116 12 -211l-2 -70h25q26 205 70 371l124 467h457l-411 -1536h-547l-70 512q-15 108 -12 197l2 84h-25q-27 -212 -69 -371l-113 -422h-457l412 1536h532zM657 -174l-30 -113q-27 -102 -63.5 -149.5t-106.5 -91.5l-19 34q60 36 93.5 82.5
t54.5 126.5l28 111h43z" />
    <glyph glyph-name="Ntilde.alt" horiz-adv-x="1536" 
d="M913 1536l72 -557q15 -116 12 -211l-2 -70h25q26 205 70 371l124 467h457l-411 -1536h-547l-70 512q-15 108 -12 197l2 84h-25q-27 -212 -69 -371l-113 -422h-457l412 1536h532zM901 1884q-47 0 -94.5 -33.5t-83.5 -83.5l-33 23q96 135 215 135q48 0 93 -21.5t74.5 -47
t72 -47t86.5 -21.5q48 0 95 34t81 83l35 -23q-96 -135 -215 -135q-48 0 -93 21.5t-74.5 47t-72 47t-86.5 21.5z" />
    <glyph glyph-name="Oacute.alt" horiz-adv-x="1413" 
d="M1430 860l-52 -184q-105 -378 -293 -542.5t-520 -164.5q-257 0 -386.5 113t-129.5 328q0 124 39 266l51 184q104 379 292.5 543t520.5 164q257 0 386.5 -113t129.5 -328q0 -128 -38 -266zM872 655l68 226q23 80 23 120q0 57 -29.5 81t-85.5 24q-74 0 -119 -48t-84 -177
l-67 -226q-23 -81 -23 -120q0 -57 29.5 -81t85.5 -24q74 0 118.5 48t83.5 177zM1305 1874l6 -39l-523 -104l-6 34z" />
    <glyph glyph-name="Obreve.alt" horiz-adv-x="1413" 
d="M1430 860l-52 -184q-105 -378 -293 -542.5t-520 -164.5q-257 0 -386.5 113t-129.5 328q0 124 39 266l51 184q104 379 292.5 543t520.5 164q257 0 386.5 -113t129.5 -328q0 -128 -38 -266zM872 655l68 226q23 80 23 120q0 57 -29.5 81t-85.5 24q-74 0 -119 -48t-84 -177
l-67 -226q-23 -81 -23 -120q0 -57 29.5 -81t85.5 -24q74 0 118.5 48t83.5 177zM1008 1739q199 0 295 155l34 -12q-100 -182 -336 -182q-111 0 -180 50.5t-69 133.5l39 10q0 -73 58 -114t159 -41z" />
    <glyph glyph-name="Ocircumflex.alt" horiz-adv-x="1413" 
d="M1430 860l-52 -184q-105 -378 -293 -542.5t-520 -164.5q-257 0 -386.5 113t-129.5 328q0 124 39 266l51 184q104 379 292.5 543t520.5 164q257 0 386.5 -113t129.5 -328q0 -128 -38 -266zM872 655l68 226q23 80 23 120q0 57 -29.5 81t-85.5 24q-74 0 -119 -48t-84 -177
l-67 -226q-23 -81 -23 -120q0 -57 29.5 -81t85.5 -24q74 0 118.5 48t83.5 177zM1350 1731l-318 104l-393 -104l-10 34l395 109h20l322 -109z" />
    <glyph glyph-name="Odieresis.alt" horiz-adv-x="1413" 
d="M1430 860l-52 -184q-105 -378 -293 -542.5t-520 -164.5q-257 0 -386.5 113t-129.5 328q0 124 39 266l51 184q104 379 292.5 543t520.5 164q257 0 386.5 -113t129.5 -328q0 -128 -38 -266zM872 655l68 226q23 80 23 120q0 57 -29.5 81t-85.5 24q-74 0 -119 -48t-84 -177
l-67 -226q-23 -81 -23 -120q0 -57 29.5 -81t85.5 -24q74 0 118.5 48t83.5 177zM887 1790l-10 -39h-299l10 39h299zM1448 1790l-10 -39h-299l10 39h299z" />
    <glyph glyph-name="uni1ECC.alt" horiz-adv-x="1413" 
d="M1430 860l-52 -184q-105 -378 -293 -542.5t-520 -164.5q-257 0 -386.5 113t-129.5 328q0 124 39 266l51 184q104 379 292.5 543t520.5 164q257 0 386.5 -113t129.5 -328q0 -128 -38 -266zM872 655l68 226q23 80 23 120q0 57 -29.5 81t-85.5 24q-74 0 -119 -48t-84 -177
l-67 -226q-23 -81 -23 -120q0 -57 29.5 -81t85.5 -24q74 0 118.5 48t83.5 177zM690 -248l-10 -39h-381l10 39h381z" />
    <glyph glyph-name="Ograve.alt" horiz-adv-x="1413" 
d="M1430 860l-52 -184q-105 -378 -293 -542.5t-520 -164.5q-257 0 -386.5 113t-129.5 328q0 124 39 266l51 184q104 379 292.5 543t520.5 164q257 0 386.5 -113t129.5 -328q0 -128 -38 -266zM872 655l68 226q23 80 23 120q0 57 -29.5 81t-85.5 24q-74 0 -119 -48t-84 -177
l-67 -226q-23 -81 -23 -120q0 -57 29.5 -81t85.5 -24q74 0 118.5 48t83.5 177zM764 1874l475 -111l-12 -32l-477 106z" />
    <glyph glyph-name="Ohungarumlaut.alt" horiz-adv-x="1413" 
d="M1430 860l-52 -184q-105 -378 -293 -542.5t-520 -164.5q-257 0 -386.5 113t-129.5 328q0 124 39 266l51 184q104 379 292.5 543t520.5 164q257 0 386.5 -113t129.5 -328q0 -128 -38 -266zM872 655l68 226q23 80 23 120q0 57 -29.5 81t-85.5 24q-74 0 -119 -48t-84 -177
l-67 -226q-23 -81 -23 -120q0 -57 29.5 -81t85.5 -24q74 0 118.5 48t83.5 177zM1497 1927l14 -39l-383 -157l-12 32zM1118 1927l15 -39l-383 -157l-13 32z" />
    <glyph glyph-name="Omacron.alt" horiz-adv-x="1413" 
d="M1430 860l-52 -184q-105 -378 -293 -542.5t-520 -164.5q-257 0 -386.5 113t-129.5 328q0 124 39 266l51 184q104 379 292.5 543t520.5 164q257 0 386.5 -113t129.5 -328q0 -128 -38 -266zM872 655l68 226q23 80 23 120q0 57 -29.5 81t-85.5 24q-74 0 -119 -48t-84 -177
l-67 -226q-23 -81 -23 -120q0 -57 29.5 -81t85.5 -24q74 0 118.5 48t83.5 177zM1331 1790l-10 -39h-627l11 39h626z" />
    <glyph glyph-name="uni01EA.alt" horiz-adv-x="1413" 
d="M733 -20q-152 -21 -236.5 -70t-84.5 -111q0 -36 27 -57t83 -21q58 0 140 29l8 -37q-82 -30 -156 -30q-68 0 -105.5 33t-37.5 83q0 49 43.5 94.5t124.5 75.5q-243 6 -366.5 119.5t-123.5 321.5q0 124 39 266l51 184q104 379 292.5 543t520.5 164q257 0 386.5 -113
t129.5 -328q0 -128 -38 -266l-52 -184q-92 -329 -243.5 -495t-401.5 -201zM872 655l68 226q23 80 23 120q0 57 -29.5 81t-85.5 24q-74 0 -119 -48t-84 -177l-67 -226q-23 -81 -23 -120q0 -57 29.5 -81t85.5 -24q74 0 118.5 48t83.5 177z" />
    <glyph glyph-name="Oslash.alt" horiz-adv-x="1431" 
d="M575 -31q-329 0 -450 187l-195 -176l-26 30l200 183q-45 89 -45 217q0 124 39 266l52 184q104 379 292.5 543t520.5 164q326 0 450 -187l193 176l26 -30l-198 -180q45 -89 45 -220q0 -124 -39 -266l-51 -184q-105 -378 -293.5 -542.5t-520.5 -164.5zM588 655
q-5 -15 -8 -30l391 356q2 8 2 20q0 57 -29.5 81t-85.5 24q-74 0 -119 -48t-84 -177zM680 430q74 0 119 48t84 177l78 260l-394 -358q-2 -8 -2 -22q0 -57 29.5 -81t85.5 -24z" />
    <glyph glyph-name="Oslashacute.alt" horiz-adv-x="1431" 
d="M575 -31q-329 0 -450 187l-195 -176l-26 30l200 183q-45 89 -45 217q0 124 39 266l52 184q104 379 292.5 543t520.5 164q326 0 450 -187l193 176l26 -30l-198 -180q45 -89 45 -220q0 -124 -39 -266l-51 -184q-105 -378 -293.5 -542.5t-520.5 -164.5zM588 655
q-5 -15 -8 -30l391 356q2 8 2 20q0 57 -29.5 81t-85.5 24q-74 0 -119 -48t-84 -177zM680 430q74 0 119 48t84 177l78 260l-394 -358q-2 -8 -2 -22q0 -57 29.5 -81t85.5 -24zM1329 1874l6 -39l-522 -104l-6 34z" />
    <glyph glyph-name="Otilde.alt" horiz-adv-x="1413" 
d="M1430 860l-52 -184q-105 -378 -293 -542.5t-520 -164.5q-257 0 -386.5 113t-129.5 328q0 124 39 266l51 184q104 379 292.5 543t520.5 164q257 0 386.5 -113t129.5 -328q0 -128 -38 -266zM872 655l68 226q23 80 23 120q0 57 -29.5 81t-85.5 24q-74 0 -119 -48t-84 -177
l-67 -226q-23 -81 -23 -120q0 -57 29.5 -81t85.5 -24q74 0 118.5 48t83.5 177zM856 1884q-47 0 -94.5 -33.5t-83.5 -83.5l-33 23q96 135 215 135q48 0 93 -21.5t74.5 -47t72 -47t86.5 -21.5q48 0 95 34t81 83l35 -23q-96 -135 -215 -135q-48 0 -93 21.5t-74.5 47t-72 47
t-86.5 21.5z" />
    </font>
</defs>
</svg>
