<?xml version="1.0" standalone="no"?>
<!DOCTYPE svg PUBLIC "-//W3C//DTD SVG 1.1//EN" "http://www.w3.org/Graphics/SVG/1.1/DTD/svg11.dtd" >
<svg xmlns="http://www.w3.org/2000/svg" xmlns:xlink="http://www.w3.org/1999/xlink" version="1.1">
<metadata>
Created by FontForge 20201107 at Mon Sep 30 16:48:28 2024
 By 
Copyright 2006 House Industries/Brand Design Co., Inc. All Rights Reserved.
</metadata>
<defs>
<font id="UnitedSansCond-Black" horiz-adv-x="829" >
  <font-face 
    font-family="United Sans Cd Bk"
    font-weight="800"
    font-stretch="normal"
    units-per-em="2048"
    panose-1="0 0 0 0 0 0 0 0 0 0"
    ascent="1638"
    descent="-410"
    x-height="1051"
    cap-height="1413"
    bbox="-92 -360 1950 1792"
    underline-thickness="102"
    underline-position="-204"
    unicode-range="U+0020-FB02"
  />
<missing-glyph horiz-adv-x="1210" 
d="M61 1577h1088v-1741h-1088v1741zM375 705v-310h323v131l37 37h119l152 152v516l-183 182h-436l-182 -182v-270h323v139l47 47h60l47 -47v-207l-37 -37h-119zM375 283v-283h323v283h-323z" />
    <glyph glyph-name=".notdef" horiz-adv-x="1210" 
d="M61 1577h1088v-1741h-1088v1741zM375 705v-310h323v131l37 37h119l152 152v516l-183 182h-436l-182 -182v-270h323v139l47 47h60l47 -47v-207l-37 -37h-119zM375 283v-283h323v283h-323z" />
    <glyph glyph-name=".null" horiz-adv-x="0" 
 />
    <glyph glyph-name="nonmarkingreturn" horiz-adv-x="682" 
 />
    <glyph glyph-name="space" unicode=" " horiz-adv-x="337" 
 />
    <glyph glyph-name="exclam" unicode="!" horiz-adv-x="487" 
d="M82 399v1014h324v-1014h-324zM82 0v283h324v-283h-324z" />
    <glyph glyph-name="quotedbl" unicode="&#x22;" horiz-adv-x="626" 
d="M352 866v547h234v-547h-234zM41 866v547h231v-547h-231z" />
    <glyph glyph-name="numbersign" unicode="#" horiz-adv-x="899" 
d="M150 340v205h-119v221h119v221h-119v221h119v205h233v-205h133v205h234v-205h118v-221h-118v-221h118v-221h-118v-205h-234v205h-133v-205h-233zM383 766h133v221h-133v-221z" />
    <glyph glyph-name="dollar" unicode="$" horiz-adv-x="903" 
d="M229 41l-182 182v230h324v-99l47 -47h67l47 47v172l-36 37h-291l-152 152v475l183 182h77v195h281v-195h78l182 -182v-229h-324v98l-47 47h-59l-47 -47v-166l37 -37h291l151 -151v-482l-182 -182h-80v-195h-281v195h-84z" />
    <glyph glyph-name="percent" unicode="%" horiz-adv-x="1341" 
d="M154 723l-134 133v426l132 131h305l131 -131v-428l-131 -131h-303zM268 895h72l27 27v301l-27 26h-72l-26 -26v-301zM885 0l-131 131v428l131 131h303l133 -133v-426l-131 -131h-305zM1001 166h72l27 27v303l-27 26h-72l-26 -26v-303zM264 0l619 1413h194l-618 -1413
h-195z" />
    <glyph glyph-name="ampersand" unicode="&#x26;" horiz-adv-x="954" 
d="M233 0l-182 182v393l146 146l-146 145v365l182 182h441l182 -182v-213h-324v92l-47 47h-63l-47 -47v-227l47 -47h522v-256h-88v-398l-182 -182h-441zM422 256h63l47 47v277h-110l-47 -48v-229z" />
    <glyph glyph-name="quotesingle" unicode="'" horiz-adv-x="313" 
d="M41 866v547h231v-547h-231z" />
    <glyph glyph-name="parenleft" unicode="(" horiz-adv-x="614" 
d="M274 -115l-182 183v1275l182 183h310v-277h-121l-47 -47v-993l47 -47h121v-277h-310z" />
    <glyph glyph-name="parenright" unicode=")" horiz-adv-x="614" 
d="M522 68l-182 -183h-309v277h121l47 47v993l-47 47h-121v277h309l182 -183v-1275z" />
    <glyph glyph-name="asterisk" unicode="*" horiz-adv-x="598" 
d="M225 842l-176 129l135 121l-174 26l72 207l141 -96l-43 184h238l-43 -184l141 96l72 -207l-174 -24l135 -123l-176 -129l-74 166z" />
    <glyph glyph-name="plus" unicode="+" horiz-adv-x="684" 
d="M20 588v246h195v231h254v-231h195v-246h-195v-234h-254v234h-195z" />
    <glyph glyph-name="comma" unicode="," horiz-adv-x="366" 
d="M41 -223v129h90l16 16v78h-106v324h285v-441l-107 -106h-178z" />
    <glyph glyph-name="hyphen" unicode="-" horiz-adv-x="448" 
d="M20 571v275h408v-275h-408z" />
    <glyph glyph-name="period" unicode="." horiz-adv-x="366" 
d="M41 0v324h285v-324h-285z" />
    <glyph glyph-name="slash" unicode="/" horiz-adv-x="581" 
d="M-20 -135l348 1681h274l-348 -1681h-274z" />
    <glyph glyph-name="zero" unicode="0" horiz-adv-x="935" 
d="M244 0l-183 182v1049l183 182h448l182 -182v-1049l-182 -182h-448zM432 266h72l47 47v787l-47 47h-72l-47 -47v-787z" />
    <glyph glyph-name="one" unicode="1" horiz-adv-x="763" 
d="M51 0v276h174v861h-174v276h498v-1137h174v-276h-672z" />
    <glyph glyph-name="two" unicode="2" horiz-adv-x="864" 
d="M61 0v647l152 152h250l37 37v284l-27 27h-59l-27 -27v-159h-324v270l183 182h395l182 -182v-574l-151 -151h-250l-37 -37v-182h438v-287h-762z" />
    <glyph glyph-name="three" unicode="3" horiz-adv-x="894" 
d="M223 0l-182 182v264h324v-143l47 -47h61l47 47v229l-47 48h-295v274h295l47 47v199l-47 47h-61l-47 -47v-133h-324v264l182 182h439l182 -182v-365l-146 -145l146 -146v-393l-182 -182h-439z" />
    <glyph glyph-name="four" unicode="4" horiz-adv-x="929" 
d="M508 0v369h-488v217l146 827h274l-104 -770h172v770h319v-770h82v-274h-82v-369h-319z" />
    <glyph glyph-name="five" unicode="5" horiz-adv-x="874" 
d="M233 0l-182 182v269h324v-138l47 -47h41l47 47v344l-37 37h-49l-80 -80h-293v799h764v-287h-440v-270l104 105h183l172 -173v-606l-183 -182h-418z" />
    <glyph glyph-name="six" unicode="6" horiz-adv-x="927" 
d="M244 0l-183 182v1049l183 182h450l183 -182v-240h-324v109l-47 47h-74l-47 -47v-309l104 104h216l172 -172v-541l-183 -182h-450zM432 266h74l47 47v279l-37 37h-82l-49 -49v-267z" />
    <glyph glyph-name="seven" unicode="7" horiz-adv-x="798" 
d="M209 0v530l219 586h-408v297h758v-223l-246 -666v-524h-323z" />
    <glyph glyph-name="eight" unicode="8" horiz-adv-x="931" 
d="M233 0l-182 182v393l146 146l-146 145v365l182 182h465l183 -182v-365l-146 -145l146 -146v-393l-183 -182h-465zM422 256h88l47 47v242l-47 47h-88l-47 -47v-242zM422 846h88l47 47v217l-47 47h-88l-47 -47v-217z" />
    <glyph glyph-name="nine" unicode="9" horiz-adv-x="923" 
d="M233 0l-182 182v254h324v-123l47 -47h70l47 47v324l-105 -105h-211l-172 173v526l182 182h447l182 -182v-1049l-182 -182h-447zM412 799h77l50 49v252l-47 47h-70l-47 -47v-264z" />
    <glyph glyph-name="colon" unicode=":" horiz-adv-x="387" 
d="M51 0v324h285v-324h-285zM51 547v323h285v-323h-285z" />
    <glyph glyph-name="semicolon" unicode=";" horiz-adv-x="387" 
d="M51 -223v129h90l17 16v78h-107v324h285v-441l-107 -106h-178zM51 547v323h285v-323h-285z" />
    <glyph glyph-name="less" unicode="&#x3c;" horiz-adv-x="708" 
d="M647 266l-616 291v301l616 291v-289l-368 -153l368 -152v-289z" />
    <glyph glyph-name="equal" unicode="=" horiz-adv-x="636" 
d="M51 756v262h535v-262h-535zM51 383v262h535v-262h-535z" />
    <glyph glyph-name="greater" unicode="&#x3e;" horiz-adv-x="708" 
d="M678 557l-617 -291v289l369 152l-369 153v289l617 -291v-301z" />
    <glyph glyph-name="question" unicode="?" horiz-adv-x="862" 
d="M201 395v310l151 151h119l37 37v207l-47 47h-60l-47 -47v-139h-323v270l182 182h436l182 -182v-516l-151 -152h-119l-37 -37v-131h-323zM201 0v283h323v-283h-323z" />
    <glyph glyph-name="at" unicode="@" horiz-adv-x="1648" 
d="M346 -332l-285 285v1159l285 285h957l284 -285v-909l-203 -203h-423l-15 131l-131 -131h-215l-164 164v301l164 164h277v194l-25 25h-66l-24 -25v-102h-307v166l163 164h402l164 -164v-684h73l48 47v762l-150 149h-657l-150 -149v-959l150 -149h706v-236h-858zM768 223
h53l56 56v178h-109l-25 -25v-184z" />
    <glyph glyph-name="A" unicode="A" horiz-adv-x="907" 
d="M10 0l203 1413h481l203 -1413h-322l-30 287h-199l-31 -287h-305zM446 1206l-71 -655h141z" />
    <glyph glyph-name="B" unicode="B" horiz-adv-x="937" 
d="M72 0v1413h633l182 -182v-365l-146 -145l146 -146v-393l-182 -182h-633zM395 256h121l47 47v242l-47 47h-121v-336zM395 846h121l47 47v217l-47 47h-121v-311z" />
    <glyph glyph-name="C" unicode="C" horiz-adv-x="894" 
d="M244 0l-183 182v1049l183 182h428l182 -182v-316h-324v185l-47 47h-51l-47 -47v-797l47 -47h51l47 47v195h324v-316l-182 -182h-428z" />
    <glyph glyph-name="D" unicode="D" horiz-adv-x="942" 
d="M72 0v1413h626l183 -182v-1049l-183 -182h-626zM395 266h115l47 47v787l-47 47h-115v-881z" />
    <glyph glyph-name="E" unicode="E" horiz-adv-x="802" 
d="M72 0v1413h676v-287h-353v-260h316v-286h-316v-293h357v-287h-680z" />
    <glyph glyph-name="F" unicode="F" horiz-adv-x="761" 
d="M72 0v1413h659v-287h-336v-303h299v-284h-299v-539h-323z" />
    <glyph glyph-name="G" unicode="G" horiz-adv-x="925" 
d="M244 0l-183 182v1049l183 182h448l182 -182v-275h-323v144l-47 47h-72l-47 -47v-797l47 -47h72l47 47v207h-102v274h425v-602l-182 -182h-448z" />
    <glyph glyph-name="H" unicode="H" horiz-adv-x="970" 
d="M72 0v1413h323v-565h180v565h324v-1413h-324v522h-180v-522h-323z" />
    <glyph glyph-name="I" unicode="I" horiz-adv-x="692" 
d="M31 0v246h153v921h-153v246h631v-246h-154v-921h154v-246h-631z" />
    <glyph glyph-name="J" unicode="J" horiz-adv-x="653" 
d="M20 0v276h197l47 48v1089h324v-1231l-182 -182h-386z" />
    <glyph glyph-name="K" unicode="K" horiz-adv-x="948" 
d="M590 0l-107 514l-88 -250v-264h-323v1413h323v-682l201 682h326l-209 -586l215 -827h-338z" />
    <glyph glyph-name="L" unicode="L" horiz-adv-x="718" 
d="M72 0v1413h323v-1126h293v-287h-616z" />
    <glyph glyph-name="M" unicode="M" horiz-adv-x="1341" 
d="M72 0v1413h483l117 -1061l114 1061h484v-1413h-295v1139l-154 -1139h-336l-153 1139v-1139h-260z" />
    <glyph glyph-name="N" unicode="N" horiz-adv-x="968" 
d="M72 0v1413h274l264 -731v731h287v-1413h-276l-263 748v-748h-286z" />
    <glyph glyph-name="O" unicode="O" horiz-adv-x="935" 
d="M244 0l-183 182v1049l183 182h448l182 -182v-1049l-182 -182h-448zM432 266h72l47 47v787l-47 47h-72l-47 -47v-787z" />
    <glyph glyph-name="P" unicode="P" horiz-adv-x="915" 
d="M72 0v1413h630l183 -182v-563l-183 -183h-307v-485h-323zM395 731h119l47 47v342l-47 47h-119v-436z" />
    <glyph glyph-name="Q" unicode="Q" horiz-adv-x="935" 
d="M612 -313l-178 178v135h-190l-183 182v1049l183 182h448l182 -182v-1049l-182 -182v-12l111 -111zM432 266h72l47 47v787l-47 47h-72l-47 -47v-787z" />
    <glyph glyph-name="R" unicode="R" horiz-adv-x="942" 
d="M72 0v1413h651l182 -182v-500l-141 -141l164 -590h-328l-145 553h-60v-553h-323zM395 799h140l47 47v274l-47 47h-140v-368z" />
    <glyph glyph-name="S" unicode="S" horiz-adv-x="903" 
d="M229 0l-182 182v271h324v-140l47 -47h67l47 47v213l-36 37h-291l-152 152v516l183 182h436l182 -182v-270h-324v139l-47 47h-59l-47 -47v-207l37 -37h291l151 -151v-523l-182 -182h-445z" />
    <glyph glyph-name="T" unicode="T" horiz-adv-x="819" 
d="M248 0v1116h-238v297h799v-297h-238v-1116h-323z" />
    <glyph glyph-name="U" unicode="U" horiz-adv-x="933" 
d="M248 0l-182 182v1231h323v-1089l47 -48h62l47 48v1089h323v-1231l-182 -182h-438z" />
    <glyph glyph-name="V" unicode="V" horiz-adv-x="876" 
d="M203 0l-193 1413h330l109 -1143l110 1143h307l-192 -1413h-471z" />
    <glyph glyph-name="W" unicode="W" horiz-adv-x="1304" 
d="M156 0l-156 1413h297l68 -1073l96 1073h418l96 -1073l67 1073h263l-156 -1413h-393l-105 1079l-102 -1079h-393z" />
    <glyph glyph-name="X" unicode="X" horiz-adv-x="911" 
d="M10 0l178 731l-161 682h331l103 -563l100 563h322l-168 -688l186 -725h-334l-114 571l-115 -571h-328z" />
    <glyph glyph-name="Y" unicode="Y" horiz-adv-x="931" 
d="M305 0v414l-295 999h342l121 -604l137 604h312l-295 -999v-414h-322z" />
    <glyph glyph-name="Z" unicode="Z" horiz-adv-x="757" 
d="M31 0v236l336 880h-334v297h692v-235l-336 -881h338v-297h-696z" />
    <glyph glyph-name="bracketleft" unicode="[" horiz-adv-x="614" 
d="M102 -115v1641h482v-277h-158v-1087h158v-277h-482z" />
    <glyph glyph-name="backslash" unicode="\" horiz-adv-x="581" 
d="M254 1546l348 -1681h-274l-348 1681h274z" />
    <glyph glyph-name="bracketright" unicode="]" horiz-adv-x="614" 
d="M512 1526v-1641h-481v277h157v1087h-157v277h481z" />
    <glyph glyph-name="asciicircum" unicode="^" horiz-adv-x="778" 
d="M10 737l201 676h356l201 -676h-266l-113 492l-113 -492h-266z" />
    <glyph glyph-name="underscore" unicode="_" horiz-adv-x="786" 
d="M-10 -272v215h807v-215h-807z" />
    <glyph glyph-name="grave" unicode="`" horiz-adv-x="485" 
d="M238 1116l-136 135v162h146l135 -135v-162h-145z" />
    <glyph glyph-name="a" unicode="a" horiz-adv-x="845" 
d="M205 0l-164 164v301l164 164h276v194l-24 25h-66l-24 -25v-102h-308v166l164 164h402l163 -164v-887h-223l-14 131l-131 -131h-215zM373 223h53l55 56v178h-108l-25 -25v-184z" />
    <glyph glyph-name="b" unicode="b" horiz-adv-x="870" 
d="M61 0v1413h308v-465l102 103h184l164 -164v-723l-164 -164h-225l-131 131l-14 -131h-224zM424 223h63l25 25v545l-25 24h-43l-75 -76v-462z" />
    <glyph glyph-name="c" unicode="c" horiz-adv-x="813" 
d="M215 0l-164 164v723l164 164h403l164 -164v-213h-307v139l-24 25h-68l-25 -25v-575l25 -25h68l24 25v139h307v-213l-164 -164h-403z" />
    <glyph glyph-name="d" unicode="d" horiz-adv-x="870" 
d="M215 0l-164 164v723l164 164h184l103 -103v465h307v-1413h-223l-15 131l-131 -131h-225zM383 223h63l56 56v462l-76 76h-43l-25 -24v-545z" />
    <glyph glyph-name="e" unicode="e" horiz-adv-x="849" 
d="M215 0l-164 164v723l164 164h420l164 -164v-441h-441v-219l25 -24h84l25 24v113h307v-176l-164 -164h-420zM358 639h134v184l-25 25h-84l-25 -25v-184z" />
    <glyph glyph-name="f" unicode="f" horiz-adv-x="606" 
d="M113 0v807h-93v244h93v209l153 153h330v-244h-141l-35 -34v-84h164v-244h-164v-807h-307z" />
    <glyph glyph-name="g" unicode="g" horiz-adv-x="860" 
d="M221 -348l-164 164v151h308v-78l34 -34h68l35 34v250l-103 -102h-184l-164 164v686l164 164h225l131 -131l15 131h223v-1235l-164 -164h-424zM383 260h43l76 76v436l-56 55h-63l-25 -24v-518z" />
    <glyph glyph-name="h" unicode="h" horiz-adv-x="856" 
d="M61 0v1413h308v-465l102 103h164l164 -164v-887h-307v762l-25 24h-23l-75 -75v-711h-308z" />
    <glyph glyph-name="i" unicode="i" horiz-adv-x="450" 
d="M379 0h-307v1051h307v-1051zM72 1147v266h307v-266h-307z" />
    <glyph glyph-name="j" unicode="j" horiz-adv-x="446" 
d="M-92 -348v254h135l25 24v1121h307v-1225l-174 -174h-293zM68 1147v266h307v-266h-307z" />
    <glyph glyph-name="k" unicode="k" horiz-adv-x="880" 
d="M537 0l-95 377l-73 -158v-219h-308v1413h308v-807l155 445h326l-188 -392l198 -659h-323z" />
    <glyph glyph-name="l" unicode="l" horiz-adv-x="450" 
d="M379 0h-307v1413h307v-1413z" />
    <glyph glyph-name="m" unicode="m" horiz-adv-x="1286" 
d="M61 0v1051h224l16 -140l139 140h195l119 -119l118 119h193l164 -164v-887h-307v762l-25 24h-23l-75 -75v-711h-307v762l-25 24h-23l-75 -75v-711h-308z" />
    <glyph glyph-name="n" unicode="n" horiz-adv-x="856" 
d="M61 0v1051h224l16 -140l139 140h195l164 -164v-887h-307v762l-25 24h-23l-75 -75v-711h-308z" />
    <glyph glyph-name="o" unicode="o" horiz-adv-x="849" 
d="M215 0l-164 164v723l164 164h420l164 -164v-723l-164 -164h-420zM383 213h84l25 25v575l-25 25h-84l-25 -25v-575z" />
    <glyph glyph-name="p" unicode="p" horiz-adv-x="870" 
d="M61 -348v1399h224l14 -131l131 131h225l164 -164v-723l-164 -164h-204l-82 82v-430h-308zM424 233h63l25 25v545l-25 24h-63l-55 -55v-483z" />
    <glyph glyph-name="q" unicode="q" horiz-adv-x="870" 
d="M502 -348v450l-103 -102h-184l-164 164v723l164 164h225l131 -131l15 131h223v-1399h-307zM383 233h43l76 76v463l-56 55h-63l-25 -24v-545z" />
    <glyph glyph-name="r" unicode="r" horiz-adv-x="616" 
d="M61 0v1051h224l16 -140l139 140h146v-295h-142l-75 -76v-680h-308z" />
    <glyph glyph-name="s" unicode="s" horiz-adv-x="827" 
d="M205 0l-164 164v162h307v-88l25 -25h80l24 25v151l-24 25h-277l-123 123v350l164 164h406l163 -164v-160h-307v86l-24 25h-70l-25 -25v-151l25 -25h277l122 -123v-350l-163 -164h-416z" />
    <glyph glyph-name="t" unicode="t" horiz-adv-x="626" 
d="M287 0l-164 164v643h-103v244h103v245h307v-245h156v-244h-156v-518l25 -25h131v-264h-299z" />
    <glyph glyph-name="u" unicode="u" horiz-adv-x="856" 
d="M221 0l-164 164v887h308v-762l24 -25h23l75 76v711h308v-1051h-224l-16 139l-139 -139h-195z" />
    <glyph glyph-name="v" unicode="v" horiz-adv-x="770" 
d="M176 0l-176 1051h305l86 -856l86 856h293l-176 -1051h-418z" />
    <glyph glyph-name="w" unicode="w" horiz-adv-x="1269" 
d="M125 0l-115 1051h291l57 -842l97 842h399l96 -842l58 842h252l-115 -1051h-410l-98 809l-98 -809h-414z" />
    <glyph glyph-name="x" unicode="x" horiz-adv-x="833" 
d="M506 0l-92 377l-88 -377h-316l170 524l-160 527h330l78 -375l78 375h307l-160 -500l170 -551h-317z" />
    <glyph glyph-name="y" unicode="y" horiz-adv-x="772" 
d="M178 0l-178 1051h307l86 -834l86 834h293l-213 -1256l-143 -143h-367v254h225l45 45l11 49h-152z" />
    <glyph glyph-name="z" unicode="z" horiz-adv-x="690" 
d="M20 0v193l281 600h-270v258h631v-193l-279 -600h287v-258h-650z" />
    <glyph glyph-name="braceleft" unicode="{" horiz-adv-x="614" 
d="M289 -115l-183 183v464l-43 43h-73v285h73l43 43v440l183 183h295v-277h-107l-47 -47v-368l-113 -113l113 -113v-399l47 -47h107v-277h-295z" />
    <glyph glyph-name="bar" unicode="|" horiz-adv-x="538" 
d="M123 -135v1681h293v-1681h-293z" />
    <glyph glyph-name="braceright" unicode="}" horiz-adv-x="614" 
d="M508 68l-182 -183h-295v277h106l47 47v399l113 113l-113 113v368l-47 47h-106v277h295l182 -183v-440l43 -43h74v-285h-74l-43 -43v-464z" />
    <glyph glyph-name="asciitilde" unicode="~" horiz-adv-x="788" 
d="M20 1057v225l132 131h210l156 -156h19l16 17v139h215v-225l-131 -131h-211l-156 155h-18l-16 -16v-139h-216z" />
    <glyph glyph-name="exclamdown" unicode="&#xa1;" horiz-adv-x="487" 
d="M406 1014v-1014h-324v1014h324zM406 1413v-283h-324v283h324z" />
    <glyph glyph-name="cent" unicode="&#xa2;" horiz-adv-x="905" 
d="M244 154l-183 182v741l183 183h80v153h280v-153h78l182 -183v-262h-323v131l-47 47h-62l-47 -47v-489l47 -47h62l47 47v139h323v-260l-182 -182h-78v-154h-280v154h-80z" />
    <glyph glyph-name="sterling" unicode="&#xa3;" horiz-adv-x="921" 
d="M43 0v270l86 86v176h-88v287h88v412l182 182h398l182 -182v-275h-324v154l-37 37h-41l-36 -37v-291h295v-287h-295v-172l-74 -73h512v-287h-848z" />
    <glyph glyph-name="yen" unicode="&#xa5;" horiz-adv-x="931" 
d="M51 477v172h185l-226 764h342l121 -604l137 604h312l-226 -764h185v-172h-236l-18 -63h254v-172h-254v-242h-322v242h-254v172h254l-18 63h-236z" />
    <glyph glyph-name="section" unicode="&#xa7;" horiz-adv-x="911" 
d="M233 -195l-182 183v233h324v-102l47 -47h67l48 47v194h-369l-111 111v127h803v-563l-182 -183h-445zM57 664v567l183 182h436l182 -182v-234h-323v103l-48 47h-59l-47 -47v-199h369l110 -110v-127h-803z" />
    <glyph glyph-name="dieresis" unicode="&#xa8;" horiz-adv-x="727" 
d="M408 1149v209h217v-209h-217zM102 1149v209h217v-209h-217z" />
    <glyph glyph-name="copyright" unicode="&#xa9;" horiz-adv-x="1411" 
d="M532 324l-102 102v563l102 103h347l102 -103v-203h-227v105l-23 22h-53l-23 -22v-367l23 -22h53l23 22v105h227v-203l-102 -102h-347zM305 0l-244 244v925l244 244h801l244 -244v-925l-244 -244h-801zM436 219h537l119 119v737l-119 119h-537l-119 -119v-737z" />
    <glyph glyph-name="ordfeminine" unicode="&#xaa;" horiz-adv-x="673" 
d="M168 707l-117 116v207l117 117h229v82l-20 20h-68l-20 -20v-23h-226v90l117 117h326l117 -117v-589h-166l-21 90l-90 -90h-178zM297 870h78l20 21v117h-98l-21 -21v-96z" />
    <glyph glyph-name="guillemotleft" unicode="&#xab;" horiz-adv-x="835" 
d="M205 297l-195 414l195 415h248l-193 -415l193 -414h-248zM545 297l-193 414l193 415h250l-195 -415l195 -414h-250z" />
    <glyph glyph-name="registered" unicode="&#xae;" horiz-adv-x="768" 
d="M229 770v463h248l68 -68v-143l-53 -53l61 -199h-104l-50 172h-67v-172h-103zM166 588l-135 135v555l135 135h436l135 -135v-555l-135 -135h-436zM217 694h336l72 72v469l-72 72h-336l-72 -72v-469zM332 1034h92l18 19v69l-18 19h-92v-107z" />
    <glyph glyph-name="macron" unicode="&#xaf;" horiz-adv-x="636" 
d="M102 1157v197h433v-197h-433z" />
    <glyph glyph-name="degree" unicode="&#xb0;" horiz-adv-x="571" 
d="M137 879l-96 96v342l96 96h297l96 -96v-342l-96 -96h-297zM227 1018h115l27 26v203l-27 27h-115l-26 -27v-203z" />
    <glyph glyph-name="twosuperior" unicode="&#xb2;" horiz-adv-x="661" 
d="M51 649v334l105 104h209l14 17v115l-19 18h-57l-18 -18v-62h-232v139l117 117h324l116 -117v-276l-104 -105h-207l-16 -16v-63h327v-187h-559z" />
    <glyph glyph-name="threesuperior" unicode="&#xb3;" horiz-adv-x="643" 
d="M147 649l-116 117v121h231v-49l19 -19h73l19 19v96l-19 18h-196v164h196l19 19v90l-19 18h-73l-19 -18v-49h-231v120l116 117h338l117 -117v-178l-84 -84l84 -84v-184l-117 -117h-338z" />
    <glyph glyph-name="acute" unicode="&#xb4;" horiz-adv-x="485" 
d="M102 1116v162l136 135h145v-162l-135 -135h-146z" />
    <glyph glyph-name="paragraph" unicode="&#xb6;" horiz-adv-x="1339" 
d="M401 444h109v723h-109l-47 -47v-628zM944 1167h-110v-1362h-324v394h-297l-182 182v850l182 182h1055v-1608h-324v1362z" />
    <glyph glyph-name="periodcentered" unicode="&#xb7;" horiz-adv-x="387" 
d="M51 547v323h285v-323h-285z" />
    <glyph glyph-name="cedilla" unicode="&#xb8;" horiz-adv-x="571" 
d="M102 -360v124h181l8 9v45l-8 8h-84l-43 43v131h153v-61h86l74 -74v-152l-74 -73h-293z" />
    <glyph glyph-name="onesuperior" unicode="&#xb9;" horiz-adv-x="532" 
d="M31 649v187h125v391h-117v186h348v-577h125v-187h-481z" />
    <glyph glyph-name="ordmasculine" unicode="&#xba;" horiz-adv-x="673" 
d="M168 707l-117 116v473l117 117h338l117 -117v-473l-117 -116h-338zM307 881h58l30 30v297l-30 31h-58l-31 -31v-297z" />
    <glyph glyph-name="guillemotright" unicode="&#xbb;" horiz-adv-x="835" 
d="M825 711l-194 -414h-248l192 414l-192 415h248zM483 711l-192 -414h-250l195 414l-195 415h250z" />
    <glyph glyph-name="onequarter" unicode="&#xbc;" horiz-adv-x="1476" 
d="M31 649v187h125v391h-117v186h348v-577h125v-187h-481zM297 0l618 1413h195l-618 -1413h-195zM1176 0v180h-349v119l91 465h196l-53 -410h115v410h227v-410h43v-174h-43v-180h-227z" />
    <glyph glyph-name="onehalf" unicode="&#xbd;" horiz-adv-x="1464" 
d="M31 649v187h125v391h-117v186h348v-577h125v-187h-481zM297 0l618 1413h195l-618 -1413h-195zM854 0v334l104 104h209l15 17v114l-19 19h-57l-19 -19v-61h-231v139l117 117h323l117 -117v-276l-104 -105h-207l-17 -16v-64h328v-186h-559z" />
    <glyph glyph-name="threequarters" unicode="&#xbe;" horiz-adv-x="1525" 
d="M147 649l-116 117v121h231v-49l19 -19h73l19 19v96l-19 18h-196v164h196l19 19v90l-19 18h-73l-19 -18v-49h-231v120l116 117h338l117 -117v-178l-84 -84l84 -84v-184l-117 -117h-338zM346 0l619 1413h194l-618 -1413h-195zM1225 0v180h-348v119l90 465h196l-53 -410h115
v410h227v-410h43v-174h-43v-180h-227z" />
    <glyph glyph-name="questiondown" unicode="&#xbf;" horiz-adv-x="862" 
d="M662 1018v-309l-152 -152h-119l-37 -37v-207l47 -47h60l47 47v140h323v-271l-182 -182h-436l-182 182v516l151 152h119l37 37v131h324zM662 1413v-283h-324v283h324z" />
    <glyph glyph-name="Agrave" unicode="&#xc0;" horiz-adv-x="907" 
d="M10 0l203 1413h481l203 -1413h-322l-30 287h-199l-31 -287h-305zM446 1206l-71 -655h141zM420 1495l-135 135v162h145l135 -135v-162h-145z" />
    <glyph glyph-name="Aacute" unicode="&#xc1;" horiz-adv-x="907" 
d="M10 0l203 1413h481l203 -1413h-322l-30 287h-199l-31 -287h-305zM446 1206l-71 -655h141zM342 1495v162l135 135h146v-162l-136 -135h-145z" />
    <glyph glyph-name="Acircumflex" unicode="&#xc2;" horiz-adv-x="907" 
d="M10 0l203 1413h481l203 -1413h-322l-30 287h-199l-31 -287h-305zM446 1206l-71 -655h141zM197 1503v139l133 134h245l134 -134v-139h-123l-129 129h-6l-129 -129h-125z" />
    <glyph glyph-name="Atilde" unicode="&#xc3;" horiz-adv-x="907" 
d="M10 0l203 1413h481l203 -1413h-322l-30 287h-199l-31 -287h-305zM446 1206l-71 -655h141zM193 1511v164l90 90h145l98 -98h23l8 8v90h158v-163l-90 -91h-146l-98 99h-23l-8 -8v-91h-157z" />
    <glyph glyph-name="Adieresis" unicode="&#xc4;" horiz-adv-x="907" 
d="M10 0l203 1413h481l203 -1413h-322l-30 287h-199l-31 -287h-305zM446 1206l-71 -655h141zM498 1528v209h217v-209h-217zM193 1528v209h217v-209h-217z" />
    <glyph glyph-name="Aring" unicode="&#xc5;" horiz-adv-x="907" 
d="M10 0l203 1413h481l203 -1413h-322l-30 287h-199l-31 -287h-305zM446 1206l-71 -655h141zM336 1470l-76 76v170l76 76h235l76 -76v-170l-76 -76h-235zM401 1569h103l16 16v92l-16 17h-103l-16 -17v-92z" />
    <glyph glyph-name="AE" unicode="&#xc6;" horiz-adv-x="1226" 
d="M10 0l203 1413h958v-287h-436l37 -260h363v-286h-322l43 -293h320v-287h-601l-30 287h-199l-31 -287h-305zM446 1206l-71 -655h141z" />
    <glyph glyph-name="Ccedilla" unicode="&#xc7;" horiz-adv-x="894" 
d="M244 0l-183 182v1049l183 182h428l182 -182v-316h-324v185l-47 47h-51l-47 -47v-797l47 -47h51l47 47v195h324v-316l-182 -182h-129v-61h86l73 -74v-152l-73 -73h-293v124h180l8 9v45l-8 8h-84l-43 43v131h-145z" />
    <glyph glyph-name="Egrave" unicode="&#xc8;" horiz-adv-x="802" 
d="M72 0v1413h676v-287h-353v-260h316v-286h-316v-293h357v-287h-680zM379 1495l-135 135v162h145l135 -135v-162h-145z" />
    <glyph glyph-name="Eacute" unicode="&#xc9;" horiz-adv-x="802" 
d="M72 0v1413h676v-287h-353v-260h316v-286h-316v-293h357v-287h-680zM301 1495v162l135 135h146v-162l-136 -135h-145z" />
    <glyph glyph-name="Ecircumflex" unicode="&#xca;" horiz-adv-x="802" 
d="M72 0v1413h676v-287h-353v-260h316v-286h-316v-293h357v-287h-680zM156 1503v139l133 134h246l133 -134v-139h-123l-129 129h-6l-129 -129h-125z" />
    <glyph glyph-name="Edieresis" unicode="&#xcb;" horiz-adv-x="802" 
d="M72 0v1413h676v-287h-353v-260h316v-286h-316v-293h357v-287h-680zM457 1528v209h217v-209h-217zM152 1528v209h217v-209h-217z" />
    <glyph glyph-name="Igrave" unicode="&#xcc;" horiz-adv-x="692" 
d="M31 0v246h153v921h-153v246h631v-246h-154v-921h154v-246h-631zM313 1495l-135 135v162h146l135 -135v-162h-146z" />
    <glyph glyph-name="Iacute" unicode="&#xcd;" horiz-adv-x="692" 
d="M31 0v246h153v921h-153v246h631v-246h-154v-921h154v-246h-631zM236 1495v162l135 135h145v-162l-135 -135h-145z" />
    <glyph glyph-name="Icircumflex" unicode="&#xce;" horiz-adv-x="692" 
d="M31 0v246h153v921h-153v246h631v-246h-154v-921h154v-246h-631zM90 1503v139l133 134h246l133 -134v-139h-123l-129 129h-6l-129 -129h-125z" />
    <glyph glyph-name="Idieresis" unicode="&#xcf;" horiz-adv-x="692" 
d="M31 0v246h153v921h-153v246h631v-246h-154v-921h154v-246h-631zM391 1528v209h217v-209h-217zM86 1528v209h217v-209h-217z" />
    <glyph glyph-name="Eth" unicode="&#xd0;" horiz-adv-x="952" 
d="M10 571v275h72v567h627l182 -182v-1049l-182 -182h-627v571h-72zM406 266h114l47 47v787l-47 47h-114v-301h81v-275h-81v-305z" />
    <glyph glyph-name="Ntilde" unicode="&#xd1;" horiz-adv-x="968" 
d="M72 0v1413h274l264 -731v731h287v-1413h-276l-263 748v-748h-286zM223 1511v164l90 90h146l98 -98h23l8 8v90h157v-163l-90 -91h-145l-98 99h-23l-8 -8v-91h-158z" />
    <glyph glyph-name="Ograve" unicode="&#xd2;" horiz-adv-x="935" 
d="M244 0l-183 182v1049l183 182h448l182 -182v-1049l-182 -182h-448zM432 266h72l47 47v787l-47 47h-72l-47 -47v-787zM434 1495l-135 135v162h145l136 -135v-162h-146z" />
    <glyph glyph-name="Oacute" unicode="&#xd3;" horiz-adv-x="935" 
d="M244 0l-183 182v1049l183 182h448l182 -182v-1049l-182 -182h-448zM432 266h72l47 47v787l-47 47h-72l-47 -47v-787zM356 1495v162l136 135h145v-162l-135 -135h-146z" />
    <glyph glyph-name="Ocircumflex" unicode="&#xd4;" horiz-adv-x="935" 
d="M244 0l-183 182v1049l183 182h448l182 -182v-1049l-182 -182h-448zM432 266h72l47 47v787l-47 47h-72l-47 -47v-787zM211 1503v139l133 134h246l133 -134v-139h-123l-129 129h-6l-129 -129h-125z" />
    <glyph glyph-name="Otilde" unicode="&#xd5;" horiz-adv-x="935" 
d="M244 0l-183 182v1049l183 182h448l182 -182v-1049l-182 -182h-448zM432 266h72l47 47v787l-47 47h-72l-47 -47v-787zM207 1511v164l90 90h145l99 -98h22l8 8v90h158v-163l-90 -91h-145l-99 99h-22l-8 -8v-91h-158z" />
    <glyph glyph-name="Odieresis" unicode="&#xd6;" horiz-adv-x="935" 
d="M244 0l-183 182v1049l183 182h448l182 -182v-1049l-182 -182h-448zM432 266h72l47 47v787l-47 47h-72l-47 -47v-787zM512 1528v209h217v-209h-217zM207 1528v209h217v-209h-217z" />
    <glyph glyph-name="multiply" unicode="&#xd7;" horiz-adv-x="727" 
d="M193 367l-173 172l170 170l-170 172l173 172l169 -172l173 172l172 -172l-172 -172l172 -170l-172 -172l-173 170z" />
    <glyph glyph-name="Oslash" unicode="&#xd8;" horiz-adv-x="935" 
d="M244 0l-183 182v1049l183 182h448l182 -182v-1049l-182 -182h-448zM446 246h82l47 47v799l-2 2l-129 -846zM362 322l130 843l-3 2h-81l-48 -47v-796z" />
    <glyph glyph-name="Ugrave" unicode="&#xd9;" horiz-adv-x="933" 
d="M248 0l-182 182v1231h323v-1089l47 -48h62l47 48v1089h323v-1231l-182 -182h-438zM434 1495l-135 135v162h145l136 -135v-162h-146z" />
    <glyph glyph-name="Uacute" unicode="&#xda;" horiz-adv-x="933" 
d="M248 0l-182 182v1231h323v-1089l47 -48h62l47 48v1089h323v-1231l-182 -182h-438zM356 1495v162l136 135h145v-162l-135 -135h-146z" />
    <glyph glyph-name="Ucircumflex" unicode="&#xdb;" horiz-adv-x="933" 
d="M248 0l-182 182v1231h323v-1089l47 -48h62l47 48v1089h323v-1231l-182 -182h-438zM211 1503v139l133 134h246l133 -134v-139h-123l-129 129h-6l-129 -129h-125z" />
    <glyph glyph-name="Udieresis" unicode="&#xdc;" horiz-adv-x="933" 
d="M248 0l-182 182v1231h323v-1089l47 -48h62l47 48v1089h323v-1231l-182 -182h-438zM512 1528v209h217v-209h-217zM207 1528v209h217v-209h-217z" />
    <glyph glyph-name="Yacute" unicode="&#xdd;" horiz-adv-x="931" 
d="M305 0v414l-295 999h342l121 -604l137 604h312l-295 -999v-414h-322zM354 1495v162l135 135h146v-162l-135 -135h-146z" />
    <glyph glyph-name="Thorn" unicode="&#xde;" horiz-adv-x="935" 
d="M72 0v1413h323v-225h318l182 -182v-564l-182 -182h-318v-260h-323zM395 506h129l47 47v342l-47 47h-129v-436z" />
    <glyph glyph-name="germandbls" unicode="&#xdf;" horiz-adv-x="913" 
d="M61 0v1249l164 164h484l163 -164v-399l-114 -115l114 -114v-457l-163 -164h-289v213h121l24 25v368l-22 23h-123v213h123l22 22v312l-24 24h-148l-24 -24v-1176h-308z" />
    <glyph glyph-name="agrave" unicode="&#xe0;" horiz-adv-x="845" 
d="M205 0l-164 164v301l164 164h276v194l-24 25h-66l-24 -25v-102h-308v166l164 164h402l163 -164v-887h-223l-14 131l-131 -131h-215zM373 223h53l55 56v178h-108l-25 -25v-184zM381 1116l-135 135v162h145l135 -135v-162h-145z" />
    <glyph glyph-name="aacute" unicode="&#xe1;" horiz-adv-x="845" 
d="M205 0l-164 164v301l164 164h276v194l-24 25h-66l-24 -25v-102h-308v166l164 164h402l163 -164v-887h-223l-14 131l-131 -131h-215zM303 1116v162l135 135h146v-162l-135 -135h-146zM373 223h53l55 56v178h-108l-25 -25v-184z" />
    <glyph glyph-name="acircumflex" unicode="&#xe2;" horiz-adv-x="845" 
d="M205 0l-164 164v301l164 164h276v194l-24 25h-66l-24 -25v-102h-308v166l164 164h402l163 -164v-887h-223l-14 131l-131 -131h-215zM373 223h53l55 56v178h-108l-25 -25v-184zM158 1124v140l133 133h246l133 -133v-140h-123l-129 129h-6l-129 -129h-125z" />
    <glyph glyph-name="atilde" unicode="&#xe3;" horiz-adv-x="845" 
d="M205 0l-164 164v301l164 164h276v194l-24 25h-66l-24 -25v-102h-308v166l164 164h402l163 -164v-887h-223l-14 131l-131 -131h-215zM373 223h53l55 56v178h-108l-25 -25v-184zM154 1133v163l90 90h145l98 -98h23l8 8v90h158v-163l-90 -90h-146l-98 98h-23l-8 -8v-90h-157
z" />
    <glyph glyph-name="adieresis" unicode="&#xe4;" horiz-adv-x="845" 
d="M205 0l-164 164v301l164 164h276v194l-24 25h-66l-24 -25v-102h-308v166l164 164h402l163 -164v-887h-223l-14 131l-131 -131h-215zM373 223h53l55 56v178h-108l-25 -25v-184zM459 1149v209h217v-209h-217zM154 1149v209h217v-209h-217z" />
    <glyph glyph-name="aring" unicode="&#xe5;" horiz-adv-x="845" 
d="M205 0l-164 164v301l164 164h276v194l-24 25h-66l-24 -25v-102h-308v166l164 164h402l163 -164v-887h-223l-14 131l-131 -131h-215zM373 223h53l55 56v178h-108l-25 -25v-184zM297 1092l-76 75v170l76 76h235l76 -76v-170l-76 -75h-235zM362 1190h103l16 16v92l-16 17
h-103l-16 -17v-92z" />
    <glyph glyph-name="ae" unicode="&#xe6;" horiz-adv-x="1280" 
d="M205 0l-164 164v305l164 164h276v190l-24 25h-66l-24 -25v-102h-308v166l164 164h330l82 -82l82 82h348l164 -164v-434h-441v-226l25 -24h84l25 24v113h307v-176l-164 -164h-348l-82 82l-82 -82h-348zM373 223h53l55 56v174h-108l-25 -25v-180zM788 633h134v190l-25 25
h-84l-25 -25v-190z" />
    <glyph glyph-name="ccedilla" unicode="&#xe7;" horiz-adv-x="813" 
d="M215 0l-164 164v723l164 164h403l164 -164v-213h-307v139l-24 25h-68l-25 -25v-575l25 -25h68l24 25v139h307v-213l-164 -164h-116v-61h86l74 -74v-152l-74 -73h-293v124h180l8 9v45l-8 8h-84l-43 43v131h-133z" />
    <glyph glyph-name="egrave" unicode="&#xe8;" horiz-adv-x="849" 
d="M215 0l-164 164v723l164 164h420l164 -164v-441h-441v-219l25 -24h84l25 24v113h307v-176l-164 -164h-420zM358 639h134v184l-25 25h-84l-25 -25v-184zM391 1116l-135 135v162h145l136 -135v-162h-146z" />
    <glyph glyph-name="eacute" unicode="&#xe9;" horiz-adv-x="849" 
d="M215 0l-164 164v723l164 164h420l164 -164v-441h-441v-219l25 -24h84l25 24v113h307v-176l-164 -164h-420zM313 1116v162l136 135h145v-162l-135 -135h-146zM358 639h134v184l-25 25h-84l-25 -25v-184z" />
    <glyph glyph-name="ecircumflex" unicode="&#xea;" horiz-adv-x="849" 
d="M215 0l-164 164v723l164 164h420l164 -164v-441h-441v-219l25 -24h84l25 24v113h307v-176l-164 -164h-420zM358 639h134v184l-25 25h-84l-25 -25v-184zM168 1124v140l133 133h246l133 -133v-140h-123l-129 129h-6l-129 -129h-125z" />
    <glyph glyph-name="edieresis" unicode="&#xeb;" horiz-adv-x="849" 
d="M215 0l-164 164v723l164 164h420l164 -164v-441h-441v-219l25 -24h84l25 24v113h307v-176l-164 -164h-420zM358 639h134v184l-25 25h-84l-25 -25v-184zM469 1149v209h217v-209h-217zM164 1149v209h217v-209h-217z" />
    <glyph glyph-name="igrave" unicode="&#xec;" horiz-adv-x="450" 
d="M379 0h-307v1051h307v-1051zM193 1116l-136 135v162h146l135 -135v-162h-145z" />
    <glyph glyph-name="iacute" unicode="&#xed;" horiz-adv-x="450" 
d="M379 0h-307v1051h307v-1051zM115 1116v162l135 135h145v-162l-135 -135h-145z" />
    <glyph glyph-name="icircumflex" unicode="&#xee;" horiz-adv-x="450" 
d="M379 0h-307v1051h307v-1051zM-31 1124v140l133 133h246l133 -133v-140h-123l-129 129h-6l-129 -129h-125z" />
    <glyph glyph-name="idieresis" unicode="&#xef;" horiz-adv-x="450" 
d="M379 0h-307v1051h307v-1051zM270 1149v209h217v-209h-217zM-35 1149v209h217v-209h-217z" />
    <glyph glyph-name="eth" unicode="&#xf0;" horiz-adv-x="866" 
d="M215 0l-164 164v723l164 164h184l103 -103v158l-228 227v80h279l195 -194l94 94h59v-209l-92 -92v-848l-164 -164h-430zM383 213h94l25 25v514l-66 65h-53l-25 -24v-555z" />
    <glyph glyph-name="ntilde" unicode="&#xf1;" horiz-adv-x="856" 
d="M61 0v1051h224l16 -140l139 140h195l164 -164v-887h-307v762l-25 24h-23l-75 -75v-711h-308zM180 1133v163l90 90h146l98 -98h23l8 8v90h157v-163l-90 -90h-145l-98 98h-23l-8 -8v-90h-158z" />
    <glyph glyph-name="ograve" unicode="&#xf2;" horiz-adv-x="849" 
d="M215 0l-164 164v723l164 164h420l164 -164v-723l-164 -164h-420zM383 213h84l25 25v575l-25 25h-84l-25 -25v-575zM391 1116l-135 135v162h145l136 -135v-162h-146z" />
    <glyph glyph-name="oacute" unicode="&#xf3;" horiz-adv-x="849" 
d="M215 0l-164 164v723l164 164h420l164 -164v-723l-164 -164h-420zM383 213h84l25 25v575l-25 25h-84l-25 -25v-575zM313 1116v162l136 135h145v-162l-135 -135h-146z" />
    <glyph glyph-name="ocircumflex" unicode="&#xf4;" horiz-adv-x="849" 
d="M215 0l-164 164v723l164 164h420l164 -164v-723l-164 -164h-420zM383 213h84l25 25v575l-25 25h-84l-25 -25v-575zM168 1124v140l133 133h246l133 -133v-140h-123l-129 129h-6l-129 -129h-125z" />
    <glyph glyph-name="otilde" unicode="&#xf5;" horiz-adv-x="849" 
d="M215 0l-164 164v723l164 164h420l164 -164v-723l-164 -164h-420zM383 213h84l25 25v575l-25 25h-84l-25 -25v-575zM164 1133v163l90 90h145l99 -98h22l8 8v90h158v-163l-90 -90h-145l-99 98h-22l-8 -8v-90h-158z" />
    <glyph glyph-name="odieresis" unicode="&#xf6;" horiz-adv-x="849" 
d="M215 0l-164 164v723l164 164h420l164 -164v-723l-164 -164h-420zM383 213h84l25 25v575l-25 25h-84l-25 -25v-575zM469 1149v209h217v-209h-217zM164 1149v209h217v-209h-217z" />
    <glyph glyph-name="divide" unicode="&#xf7;" horiz-adv-x="657" 
d="M213 295v211h231v-211h-231zM20 575v263h617v-263h-617zM213 907v211h231v-211h-231z" />
    <glyph glyph-name="oslash" unicode="&#xf8;" horiz-adv-x="849" 
d="M215 0l-164 164v723l164 164h420l164 -164v-723l-164 -164h-420zM369 199h108l35 34v429l-2 2l-143 -463zM340 377l143 473l-2 2h-108l-35 -35v-438z" />
    <glyph glyph-name="ugrave" unicode="&#xf9;" horiz-adv-x="856" 
d="M221 0l-164 164v887h308v-762l24 -25h23l75 76v711h308v-1051h-224l-16 139l-139 -139h-195zM393 1116l-135 135v162h145l136 -135v-162h-146z" />
    <glyph glyph-name="uacute" unicode="&#xfa;" horiz-adv-x="856" 
d="M221 0l-164 164v887h308v-762l24 -25h23l75 76v711h308v-1051h-224l-16 139l-139 -139h-195zM315 1116v162l136 135h145v-162l-135 -135h-146z" />
    <glyph glyph-name="ucircumflex" unicode="&#xfb;" horiz-adv-x="856" 
d="M221 0l-164 164v887h308v-762l24 -25h23l75 76v711h308v-1051h-224l-16 139l-139 -139h-195zM170 1124v140l133 133h246l133 -133v-140h-123l-129 129h-6l-129 -129h-125z" />
    <glyph glyph-name="udieresis" unicode="&#xfc;" horiz-adv-x="856" 
d="M221 0l-164 164v887h308v-762l24 -25h23l75 76v711h308v-1051h-224l-16 139l-139 -139h-195zM471 1149v209h217v-209h-217zM166 1149v209h217v-209h-217z" />
    <glyph glyph-name="yacute" unicode="&#xfd;" horiz-adv-x="772" 
d="M178 0l-178 1051h307l86 -834l86 834h293l-213 -1256l-143 -143h-367v254h225l45 45l11 49h-152zM274 1116v162l136 135h145v-162l-135 -135h-146z" />
    <glyph glyph-name="thorn" unicode="&#xfe;" horiz-adv-x="870" 
d="M61 -348v1761h308v-465l102 103h184l164 -164v-723l-164 -164h-204l-82 82v-430h-308zM424 233h63l25 25v545l-25 24h-63l-55 -55v-483z" />
    <glyph glyph-name="ydieresis" unicode="&#xff;" horiz-adv-x="772" 
d="M178 0l-178 1051h307l86 -834l86 834h293l-213 -1256l-143 -143h-367v254h225l45 45l11 49h-152zM430 1149v209h217v-209h-217zM125 1149v209h217v-209h-217z" />
    <glyph glyph-name="Amacron" unicode="&#x100;" horiz-adv-x="907" 
d="M10 0l203 1413h481l203 -1413h-322l-30 287h-199l-31 -287h-305zM446 1206l-71 -655h141zM238 1536v197h432v-197h-432z" />
    <glyph glyph-name="amacron" unicode="&#x101;" horiz-adv-x="845" 
d="M205 0l-164 164v301l164 164h276v194l-24 25h-66l-24 -25v-102h-308v166l164 164h402l163 -164v-887h-223l-14 131l-131 -131h-215zM373 223h53l55 56v178h-108l-25 -25v-184zM199 1157v197h432v-197h-432z" />
    <glyph glyph-name="Abreve" unicode="&#x102;" horiz-adv-x="907" 
d="M10 0l203 1413h481l203 -1413h-322l-30 287h-199l-31 -287h-305zM446 1206l-71 -655h141zM283 1503l-90 90v152h186v-76l20 -20h111l20 20v76h185v-152l-90 -90h-342z" />
    <glyph glyph-name="abreve" unicode="&#x103;" horiz-adv-x="845" 
d="M205 0l-164 164v301l164 164h276v194l-24 25h-66l-24 -25v-102h-308v166l164 164h402l163 -164v-887h-223l-14 131l-131 -131h-215zM373 223h53l55 56v178h-108l-25 -25v-184zM244 1124l-90 90v152h186v-76l20 -20h111l21 20v76h184v-152l-90 -90h-342z" />
    <glyph glyph-name="Aogonek" unicode="&#x104;" horiz-adv-x="907" 
d="M10 0l203 1413h481l203 -1413h-121l-143 -143v-84l8 -9h135v-124h-248l-73 73v166l120 121l-30 287h-199l-31 -287h-305zM446 1206l-71 -655h141z" />
    <glyph glyph-name="aogonek" unicode="&#x105;" horiz-adv-x="845" 
d="M205 0l-164 164v301l164 164h276v194l-24 25h-66l-24 -25v-102h-308v166l164 164h402l163 -164v-887h-22l-143 -143v-84l8 -9h135v-124h-248l-74 73v166l121 121l-14 131l-131 -131h-215zM373 223h53l55 56v178h-108l-25 -25v-184z" />
    <glyph glyph-name="Cacute" unicode="&#x106;" horiz-adv-x="894" 
d="M244 0l-183 182v1049l183 182h428l182 -182v-316h-324v185l-47 47h-51l-47 -47v-797l47 -47h51l47 47v195h324v-316l-182 -182h-428zM346 1495v162l135 135h146v-162l-135 -135h-146z" />
    <glyph glyph-name="cacute" unicode="&#x107;" horiz-adv-x="813" 
d="M215 0l-164 164v723l164 164h403l164 -164v-213h-307v139l-24 25h-68l-25 -25v-575l25 -25h68l24 25v139h307v-213l-164 -164h-403zM305 1116v162l135 135h146v-162l-135 -135h-146z" />
    <glyph glyph-name="Ccircumflex" unicode="&#x108;" horiz-adv-x="894" 
d="M244 0l-183 182v1049l183 182h428l182 -182v-316h-324v185l-47 47h-51l-47 -47v-797l47 -47h51l47 47v195h324v-316l-182 -182h-428zM201 1503v139l133 134h246l133 -134v-139h-123l-129 129h-6l-129 -129h-125z" />
    <glyph glyph-name="ccircumflex" unicode="&#x109;" horiz-adv-x="813" 
d="M215 0l-164 164v723l164 164h403l164 -164v-213h-307v139l-24 25h-68l-25 -25v-575l25 -25h68l24 25v139h307v-213l-164 -164h-403zM160 1124v140l133 133h246l133 -133v-140h-123l-129 129h-6l-129 -129h-125z" />
    <glyph glyph-name="Ccaron" unicode="&#x10c;" horiz-adv-x="894" 
d="M244 0l-183 182v1049l183 182h428l182 -182v-316h-324v185l-47 47h-51l-47 -47v-797l47 -47h51l47 47v195h324v-316l-182 -182h-428zM334 1503l-133 133v140h125l129 -129h6l129 129h123v-140l-133 -133h-246z" />
    <glyph glyph-name="ccaron" unicode="&#x10d;" horiz-adv-x="813" 
d="M215 0l-164 164v723l164 164h403l164 -164v-213h-307v139l-24 25h-68l-25 -25v-575l25 -25h68l24 25v139h307v-213l-164 -164h-403zM293 1124l-133 133v140h125l129 -129h6l129 129h123v-140l-133 -133h-246z" />
    <glyph glyph-name="Dcaron" unicode="&#x10e;" horiz-adv-x="942" 
d="M72 0v1413h626l183 -182v-1049l-183 -182h-626zM395 266h115l47 47v787l-47 47h-115v-881zM311 1503l-133 133v140h125l129 -129h6l129 129h123v-140l-133 -133h-246z" />
    <glyph glyph-name="dcaron" unicode="&#x10f;" horiz-adv-x="870" 
d="M215 0l-164 164v723l164 164h184l103 -103v465h307v-1413h-223l-15 131l-131 -131h-225zM383 223h63l56 56v462l-76 76h-43l-25 -24v-545zM870 1114v299h199v-217l-82 -82h-117z" />
    <glyph glyph-name="Dcroat" unicode="&#x110;" horiz-adv-x="952" 
d="M10 571v275h72v567h627l182 -182v-1049l-182 -182h-627v571h-72zM406 266h114l47 47v787l-47 47h-114v-301h81v-275h-81v-305z" />
    <glyph glyph-name="dcroat" unicode="&#x111;" horiz-adv-x="870" 
d="M305 1128v193h197v92h307v-92h82v-193h-82v-1128h-223l-15 131l-131 -131h-225l-164 164v723l164 164h184l103 -103v180h-197zM383 223h63l56 56v462l-76 76h-43l-25 -24v-545z" />
    <glyph glyph-name="Emacron" unicode="&#x112;" horiz-adv-x="802" 
d="M72 0v1413h676v-287h-353v-260h316v-286h-316v-293h357v-287h-680zM197 1536v197h432v-197h-432z" />
    <glyph glyph-name="emacron" unicode="&#x113;" horiz-adv-x="849" 
d="M215 0l-164 164v723l164 164h420l164 -164v-441h-441v-219l25 -24h84l25 24v113h307v-176l-164 -164h-420zM358 639h134v184l-25 25h-84l-25 -25v-184zM209 1157v197h432v-197h-432z" />
    <glyph glyph-name="Edotaccent" unicode="&#x116;" horiz-adv-x="802" 
d="M72 0v1413h676v-287h-353v-260h316v-286h-316v-293h357v-287h-680zM338 1491l-62 61v148l62 61h149l62 -61v-148l-62 -61h-149z" />
    <glyph glyph-name="edotaccent" unicode="&#x117;" horiz-adv-x="849" 
d="M215 0l-164 164v723l164 164h420l164 -164v-441h-441v-219l25 -24h84l25 24v113h307v-176l-164 -164h-420zM358 639h134v184l-25 25h-84l-25 -25v-184zM350 1112l-61 62v147l61 61h150l61 -61v-147l-61 -62h-150z" />
    <glyph glyph-name="Eogonek" unicode="&#x118;" horiz-adv-x="802" 
d="M72 0v1413h676v-287h-353v-260h316v-286h-316v-293h357v-287l-144 -143v-84l8 -9h136v-124h-248l-74 73v166l121 121h-479z" />
    <glyph glyph-name="eogonek" unicode="&#x119;" horiz-adv-x="849" 
d="M215 0l-164 164v723l164 164h420l164 -164v-441h-441v-219l25 -24h84l25 24v113h307v-176l-307 -307v-84l8 -9h135v-124h-248l-74 73v166l121 121h-219zM358 639h134v184l-25 25h-84l-25 -25v-184z" />
    <glyph glyph-name="Ecaron" unicode="&#x11a;" horiz-adv-x="802" 
d="M72 0v1413h676v-287h-353v-260h316v-286h-316v-293h357v-287h-680zM289 1503l-133 133v140h125l129 -129h6l129 129h123v-140l-133 -133h-246z" />
    <glyph glyph-name="ecaron" unicode="&#x11b;" horiz-adv-x="849" 
d="M215 0l-164 164v723l164 164h420l164 -164v-441h-441v-219l25 -24h84l25 24v113h307v-176l-164 -164h-420zM358 639h134v184l-25 25h-84l-25 -25v-184zM301 1124l-133 133v140h125l129 -129h6l129 129h123v-140l-133 -133h-246z" />
    <glyph glyph-name="Gcircumflex" unicode="&#x11c;" horiz-adv-x="925" 
d="M244 0l-183 182v1049l183 182h448l182 -182v-275h-323v144l-47 47h-72l-47 -47v-797l47 -47h72l47 47v207h-102v274h425v-602l-182 -182h-448zM211 1503v139l133 134h246l133 -134v-139h-123l-129 129h-6l-129 -129h-125z" />
    <glyph glyph-name="gcircumflex" unicode="&#x11d;" horiz-adv-x="860" 
d="M221 -348l-164 164v151h308v-78l34 -34h68l35 34v250l-103 -102h-184l-164 164v686l164 164h225l131 -131l15 131h223v-1235l-164 -164h-424zM383 260h43l76 76v436l-56 55h-63l-25 -24v-518zM184 1124v140l133 133h246l133 -133v-140h-123l-129 129h-6l-129 -129h-125z
" />
    <glyph glyph-name="Gbreve" unicode="&#x11e;" horiz-adv-x="925" 
d="M244 0l-183 182v1049l183 182h448l182 -182v-275h-323v144l-47 47h-72l-47 -47v-797l47 -47h72l47 47v207h-102v274h425v-602l-182 -182h-448zM297 1503l-90 90v152h186v-76l21 -20h110l21 20v76h184v-152l-90 -90h-342z" />
    <glyph glyph-name="gbreve" unicode="&#x11f;" horiz-adv-x="860" 
d="M221 -348l-164 164v151h308v-78l34 -34h68l35 34v250l-103 -102h-184l-164 164v686l164 164h225l131 -131l15 131h223v-1235l-164 -164h-424zM383 260h43l76 76v436l-56 55h-63l-25 -24v-518zM270 1124l-90 90v152h187v-76l20 -20h111l20 20v76h184v-152l-90 -90h-342z
" />
    <glyph glyph-name="Gcommaaccent" unicode="&#x122;" horiz-adv-x="925" 
d="M244 0l-183 182v1049l183 182h448l182 -182v-275h-323v144l-47 47h-72l-47 -47v-797l47 -47h72l47 47v207h-102v274h425v-602l-182 -182h-448zM369 -360v299h198v-218l-82 -81h-116z" />
    <glyph glyph-name="gcommaaccent" unicode="&#x123;" horiz-adv-x="860" 
d="M221 -348l-164 164v151h308v-78l34 -34h68l35 34v250l-103 -102h-184l-164 164v686l164 164h225l131 -131l15 131h223v-1235l-164 -164h-424zM383 260h43l76 76v436l-56 55h-63l-25 -24v-518zM520 1421v-299h-198v217l81 82h117z" />
    <glyph glyph-name="Hcircumflex" unicode="&#x124;" horiz-adv-x="970" 
d="M72 0v1413h323v-565h180v565h324v-1413h-324v522h-180v-522h-323zM229 1503v139l133 134h246l133 -134v-139h-123l-129 129h-6l-129 -129h-125z" />
    <glyph glyph-name="hcircumflex" unicode="&#x125;" horiz-adv-x="856" 
d="M61 0v1413h308v-465l102 103h164l164 -164v-887h-307v762l-25 24h-23l-75 -75v-711h-308zM-41 1460v139l133 134h246l133 -134v-139h-123l-129 129h-6l-129 -129h-125z" />
    <glyph glyph-name="Imacron" unicode="&#x12a;" horiz-adv-x="692" 
d="M31 0v246h153v921h-153v246h631v-246h-154v-921h154v-246h-631zM131 1536v197h432v-197h-432z" />
    <glyph glyph-name="imacron" unicode="&#x12b;" horiz-adv-x="450" 
d="M379 0h-307v1051h307v-1051zM10 1157v197h432v-197h-432z" />
    <glyph glyph-name="Iogonek" unicode="&#x12e;" horiz-adv-x="692" 
d="M31 0v246h153v921h-153v246h631v-246h-154v-921h154v-246h-213l-144 -143v-84l8 -9h136v-124h-248l-74 73v166l121 121h-217z" />
    <glyph glyph-name="iogonek" unicode="&#x12f;" horiz-adv-x="450" 
d="M379 0h-107l-143 -143v-84l8 -9h135v-124h-247l-74 73v166l121 121v1051h307v-1051zM72 1147v266h307v-266h-307z" />
    <glyph glyph-name="Idotaccent" unicode="&#x130;" horiz-adv-x="692" 
d="M31 0v246h153v921h-153v246h631v-246h-154v-921h154v-246h-631zM272 1491l-61 61v148l61 61h150l61 -61v-148l-61 -61h-150z" />
    <glyph glyph-name="dotlessi" unicode="&#x131;" horiz-adv-x="450" 
d="M379 0h-307v1051h307v-1051z" />
    <glyph glyph-name="Jcircumflex" unicode="&#x134;" horiz-adv-x="653" 
d="M20 0v276h197l47 48v1089h324v-1231l-182 -182h-386zM162 1503v139l133 134h246l133 -134v-139h-123l-129 129h-6l-129 -129h-125z" />
    <glyph glyph-name="jcircumflex" unicode="&#x135;" horiz-adv-x="446" 
d="M-92 -348v254h135l25 24v1121h307v-1225l-174 -174h-293zM-35 1124v140l133 133h246l133 -133v-140h-123l-129 129h-6l-129 -129h-125z" />
    <glyph glyph-name="Kcommaaccent" unicode="&#x136;" horiz-adv-x="948" 
d="M590 0l-107 514l-88 -250v-264h-323v1413h323v-682l201 682h326l-209 -586l215 -827h-338zM401 -360v299h199v-218l-82 -81h-117z" />
    <glyph glyph-name="kcommaaccent" unicode="&#x137;" horiz-adv-x="880" 
d="M537 0l-95 377l-73 -158v-219h-308v1413h308v-807l155 445h326l-188 -392l198 -659h-323zM362 -360v299h199v-218l-82 -81h-117z" />
    <glyph glyph-name="Lacute" unicode="&#x139;" horiz-adv-x="718" 
d="M72 0v1413h323v-1126h293v-287h-616zM154 1495v162l135 135h145v-162l-135 -135h-145z" />
    <glyph glyph-name="lacute" unicode="&#x13a;" horiz-adv-x="450" 
d="M379 0h-307v1413h307v-1413zM135 1470v162l135 135h146v-161l-135 -136h-146z" />
    <glyph glyph-name="Lcommaaccent" unicode="&#x13b;" horiz-adv-x="718" 
d="M72 0v1413h323v-1126h293v-287h-616zM281 -360v299h198v-218l-82 -81h-116z" />
    <glyph glyph-name="lcommaaccent" unicode="&#x13c;" horiz-adv-x="450" 
d="M379 0h-307v1413h307v-1413zM127 -360v299h199v-218l-82 -81h-117z" />
    <glyph glyph-name="Lcaron" unicode="&#x13d;" horiz-adv-x="718" 
d="M72 0v1413h323v-1126h293v-287h-616zM489 1176v299h199v-218l-82 -81h-117z" />
    <glyph glyph-name="lcaron" unicode="&#x13e;" horiz-adv-x="450" 
d="M379 0h-307v1413h307v-1413zM440 1114v299h199v-217l-82 -82h-117z" />
    <glyph glyph-name="Lslash" unicode="&#x141;" horiz-adv-x="729" 
d="M10 508v276l72 31v598h324v-461l126 56v-277l-126 -55v-389h292v-287h-616v539z" />
    <glyph glyph-name="lslash" unicode="&#x142;" horiz-adv-x="491" 
d="M10 553v276l82 35v549h307v-418l82 35v-276l-82 -35v-719h-307v588z" />
    <glyph glyph-name="Nacute" unicode="&#x143;" horiz-adv-x="968" 
d="M72 0v1413h274l264 -731v731h287v-1413h-276l-263 748v-748h-286zM373 1495v162l135 135h145v-162l-135 -135h-145z" />
    <glyph glyph-name="nacute" unicode="&#x144;" horiz-adv-x="856" 
d="M61 0v1051h224l16 -140l139 140h195l164 -164v-887h-307v762l-25 24h-23l-75 -75v-711h-308zM330 1116v162l135 135h145v-162l-135 -135h-145z" />
    <glyph glyph-name="Ncommaaccent" unicode="&#x145;" horiz-adv-x="968" 
d="M72 0v1413h274l264 -731v731h287v-1413h-276l-263 748v-748h-286zM385 -360v299h199v-218l-82 -81h-117z" />
    <glyph glyph-name="ncommaaccent" unicode="&#x146;" horiz-adv-x="856" 
d="M61 0v1051h224l16 -140l139 140h195l164 -164v-887h-307v762l-25 24h-23l-75 -75v-711h-308zM342 -360v299h199v-218l-82 -81h-117z" />
    <glyph glyph-name="Ncaron" unicode="&#x147;" horiz-adv-x="968" 
d="M72 0v1413h274l264 -731v731h287v-1413h-276l-263 748v-748h-286zM360 1503l-133 133v140h125l129 -129h6l129 129h123v-140l-133 -133h-246z" />
    <glyph glyph-name="ncaron" unicode="&#x148;" horiz-adv-x="856" 
d="M61 0v1051h224l16 -140l139 140h195l164 -164v-887h-307v762l-25 24h-23l-75 -75v-711h-308zM317 1124l-133 133v140h125l129 -129h6l129 129h123v-140l-133 -133h-246z" />
    <glyph glyph-name="Omacron" unicode="&#x14c;" horiz-adv-x="935" 
d="M244 0l-183 182v1049l183 182h448l182 -182v-1049l-182 -182h-448zM432 266h72l47 47v787l-47 47h-72l-47 -47v-787zM252 1536v197h432v-197h-432z" />
    <glyph glyph-name="omacron" unicode="&#x14d;" horiz-adv-x="849" 
d="M215 0l-164 164v723l164 164h420l164 -164v-723l-164 -164h-420zM383 213h84l25 25v575l-25 25h-84l-25 -25v-575zM209 1157v197h432v-197h-432z" />
    <glyph glyph-name="Ohungarumlaut" unicode="&#x150;" horiz-adv-x="935" 
d="M244 0l-183 182v1049l183 182h448l182 -182v-1049l-182 -182h-448zM432 266h72l47 47v787l-47 47h-72l-47 -47v-787zM272 1495v162l136 135h84v-162l-136 -135h-84zM539 1495v162l135 135h84v-162l-135 -135h-84z" />
    <glyph glyph-name="ohungarumlaut" unicode="&#x151;" horiz-adv-x="849" 
d="M215 0l-164 164v723l164 164h420l164 -164v-723l-164 -164h-420zM383 213h84l25 25v575l-25 25h-84l-25 -25v-575zM229 1116v162l136 135h84v-162l-136 -135h-84zM496 1116v162l135 135h84v-162l-135 -135h-84z" />
    <glyph glyph-name="OE" unicode="&#x152;" horiz-adv-x="1277" 
d="M244 0l-183 182v1049l183 182h979v-287h-353v-260h316v-286h-316v-293h357v-287h-983zM432 266h115v881h-115l-47 -47v-787z" />
    <glyph glyph-name="oe" unicode="&#x153;" horiz-adv-x="1290" 
d="M215 0l-164 164v723l164 164h348l82 -82l82 82h348l164 -164v-441h-440v-219l24 -24h84l25 24v113h307v-176l-164 -164h-348l-82 82l-82 -82h-348zM383 213h84l25 25v575l-25 25h-84l-25 -25v-575zM799 639h133v184l-25 25h-84l-24 -25v-184z" />
    <glyph glyph-name="Racute" unicode="&#x154;" horiz-adv-x="942" 
d="M72 0v1413h651l182 -182v-500l-141 -141l164 -590h-328l-145 553h-60v-553h-323zM395 799h140l47 47v274l-47 47h-140v-368zM344 1495v162l135 135h146v-162l-136 -135h-145z" />
    <glyph glyph-name="racute" unicode="&#x155;" horiz-adv-x="616" 
d="M61 0v1051h224l16 -140l139 140h146v-295h-142l-75 -76v-680h-308zM213 1116v162l135 135h146v-162l-136 -135h-145z" />
    <glyph glyph-name="Rcommaaccent" unicode="&#x156;" horiz-adv-x="942" 
d="M72 0v1413h651l182 -182v-500l-141 -141l164 -590h-328l-145 553h-60v-553h-323zM395 799h140l47 47v274l-47 47h-140v-368zM397 -360v299h199v-218l-82 -81h-117z" />
    <glyph glyph-name="rcommaaccent" unicode="&#x157;" horiz-adv-x="616" 
d="M61 0v1051h224l16 -140l139 140h146v-295h-142l-75 -76v-680h-308zM115 -360v299h198v-218l-82 -81h-116z" />
    <glyph glyph-name="Rcaron" unicode="&#x158;" horiz-adv-x="942" 
d="M72 0v1413h651l182 -182v-500l-141 -141l164 -590h-328l-145 553h-60v-553h-323zM395 799h140l47 47v274l-47 47h-140v-368zM332 1503l-133 133v140h125l129 -129h6l129 129h123v-140l-133 -133h-246z" />
    <glyph glyph-name="rcaron" unicode="&#x159;" horiz-adv-x="616" 
d="M61 0v1051h224l16 -140l139 140h146v-295h-142l-75 -76v-680h-308zM201 1124l-133 133v140h125l129 -129h6l129 129h123v-140l-134 -133h-245z" />
    <glyph glyph-name="Sacute" unicode="&#x15a;" horiz-adv-x="903" 
d="M229 0l-182 182v271h324v-140l47 -47h67l47 47v213l-36 37h-291l-152 152v516l183 182h436l182 -182v-270h-324v139l-47 47h-59l-47 -47v-207l37 -37h291l151 -151v-523l-182 -182h-445zM340 1495v162l135 135h146v-162l-136 -135h-145z" />
    <glyph glyph-name="sacute" unicode="&#x15b;" horiz-adv-x="827" 
d="M205 0l-164 164v162h307v-88l25 -25h80l24 25v151l-24 25h-277l-123 123v350l164 164h406l163 -164v-160h-307v86l-24 25h-70l-25 -25v-151l25 -25h277l122 -123v-350l-163 -164h-416zM303 1116v162l135 135h146v-162l-135 -135h-146z" />
    <glyph glyph-name="Scircumflex" unicode="&#x15c;" horiz-adv-x="903" 
d="M229 0l-182 182v271h324v-140l47 -47h67l47 47v213l-36 37h-291l-152 152v516l183 182h436l182 -182v-270h-324v139l-47 47h-59l-47 -47v-207l37 -37h291l151 -151v-523l-182 -182h-445zM195 1503v139l133 134h245l134 -134v-139h-123l-129 129h-6l-130 -129h-124z" />
    <glyph glyph-name="scircumflex" unicode="&#x15d;" horiz-adv-x="827" 
d="M205 0l-164 164v162h307v-88l25 -25h80l24 25v151l-24 25h-277l-123 123v350l164 164h406l163 -164v-160h-307v86l-24 25h-70l-25 -25v-151l25 -25h277l122 -123v-350l-163 -164h-416zM158 1124v140l133 133h246l133 -133v-140h-123l-129 129h-6l-129 -129h-125z" />
    <glyph glyph-name="Scedilla" unicode="&#x15e;" horiz-adv-x="903" 
d="M229 0l-182 182v271h324v-140l47 -47h67l47 47v213l-36 37h-291l-152 152v516l183 182h436l182 -182v-270h-324v139l-47 47h-59l-47 -47v-207l37 -37h291l151 -151v-523l-182 -182h-137v-61h86l73 -74v-152l-73 -73h-293v124h180l8 9v45l-8 8h-84l-43 43v131h-154z" />
    <glyph glyph-name="scedilla" unicode="&#x15f;" horiz-adv-x="827" 
d="M205 0l-164 164v162h307v-88l25 -25h80l24 25v151l-24 25h-277l-123 123v350l164 164h406l163 -164v-160h-307v86l-24 25h-70l-25 -25v-151l25 -25h277l122 -123v-350l-163 -164h-121v-61h86l73 -74v-152l-73 -73h-293v124h180l8 9v45l-8 8h-84l-43 43v131h-141z" />
    <glyph glyph-name="Scaron" unicode="&#x160;" horiz-adv-x="903" 
d="M229 0l-182 182v271h324v-140l47 -47h67l47 47v213l-36 37h-291l-152 152v516l183 182h436l182 -182v-270h-324v139l-47 47h-59l-47 -47v-207l37 -37h291l151 -151v-523l-182 -182h-445zM328 1503l-133 133v140h124l130 -129h6l129 129h123v-140l-134 -133h-245z" />
    <glyph glyph-name="scaron" unicode="&#x161;" horiz-adv-x="827" 
d="M205 0l-164 164v162h307v-88l25 -25h80l24 25v151l-24 25h-277l-123 123v350l164 164h406l163 -164v-160h-307v86l-24 25h-70l-25 -25v-151l25 -25h277l122 -123v-350l-163 -164h-416zM291 1124l-133 133v140h125l129 -129h6l129 129h123v-140l-133 -133h-246z" />
    <glyph glyph-name="Tcommaaccent" unicode="&#x162;" horiz-adv-x="819" 
d="M248 0v1116h-238v297h799v-297h-238v-1116h-323zM311 -360v299h199v-218l-82 -81h-117z" />
    <glyph glyph-name="tcommaaccent" unicode="&#x163;" horiz-adv-x="626" 
d="M287 0l-164 164v643h-103v244h103v245h307v-245h156v-244h-156v-518l25 -25h131v-264h-299zM256 -360v299h199v-218l-82 -81h-117z" />
    <glyph glyph-name="Tcaron" unicode="&#x164;" horiz-adv-x="819" 
d="M248 0v1116h-238v297h799v-297h-238v-1116h-323zM287 1503l-133 133v140h125l129 -129h6l129 129h123v-140l-134 -133h-245z" />
    <glyph glyph-name="tcaron" unicode="&#x165;" horiz-adv-x="626" 
d="M287 0l-164 164v643h-103v244h103v245h307v-245h156v-244h-156v-518l25 -25h131v-264h-299zM504 1128v299h198v-217l-81 -82h-117z" />
    <glyph glyph-name="Umacron" unicode="&#x16a;" horiz-adv-x="933" 
d="M248 0l-182 182v1231h323v-1089l47 -48h62l47 48v1089h323v-1231l-182 -182h-438zM252 1536v197h432v-197h-432z" />
    <glyph glyph-name="umacron" unicode="&#x16b;" horiz-adv-x="856" 
d="M221 0l-164 164v887h308v-762l24 -25h23l75 76v711h308v-1051h-224l-16 139l-139 -139h-195zM211 1157v197h432v-197h-432z" />
    <glyph glyph-name="Ubreve" unicode="&#x16c;" horiz-adv-x="933" 
d="M248 0l-182 182v1231h323v-1089l47 -48h62l47 48v1089h323v-1231l-182 -182h-438zM297 1503l-90 90v152h186v-76l21 -20h110l21 20v76h184v-152l-90 -90h-342z" />
    <glyph glyph-name="ubreve" unicode="&#x16d;" horiz-adv-x="856" 
d="M221 0l-164 164v887h308v-762l24 -25h23l75 76v711h308v-1051h-224l-16 139l-139 -139h-195zM256 1124l-90 90v152h186v-76l21 -20h110l21 20v76h184v-152l-90 -90h-342z" />
    <glyph glyph-name="Uring" unicode="&#x16e;" horiz-adv-x="933" 
d="M248 0l-182 182v1231h323v-1089l47 -48h62l47 48v1089h323v-1231l-182 -182h-438zM350 1470l-76 76v170l76 76h236l76 -76v-170l-76 -76h-236zM416 1569h102l17 16v92l-17 17h-102l-17 -17v-92z" />
    <glyph glyph-name="uring" unicode="&#x16f;" horiz-adv-x="856" 
d="M221 0l-164 164v887h308v-762l24 -25h23l75 76v711h308v-1051h-224l-16 139l-139 -139h-195zM309 1092l-76 75v170l76 76h236l76 -76v-170l-76 -75h-236zM375 1190h102l17 16v92l-17 17h-102l-17 -17v-92z" />
    <glyph glyph-name="Uhungarumlaut" unicode="&#x170;" horiz-adv-x="933" 
d="M248 0l-182 182v1231h323v-1089l47 -48h62l47 48v1089h323v-1231l-182 -182h-438zM272 1495v162l136 135h84v-162l-136 -135h-84zM539 1495v162l135 135h84v-162l-135 -135h-84z" />
    <glyph glyph-name="uhungarumlaut" unicode="&#x171;" horiz-adv-x="856" 
d="M221 0l-164 164v887h308v-762l24 -25h23l75 76v711h308v-1051h-224l-16 139l-139 -139h-195zM231 1116v162l136 135h84v-162l-136 -135h-84zM498 1116v162l135 135h84v-162l-135 -135h-84z" />
    <glyph glyph-name="Uogonek" unicode="&#x172;" horiz-adv-x="933" 
d="M248 0l-182 182v1231h323v-1089l47 -48h62l47 48v1089h323v-1231l-182 -182h-100l-144 -143v-84l9 -9h135v-124h-248l-74 73v166l121 121h-137z" />
    <glyph glyph-name="uogonek" unicode="&#x173;" horiz-adv-x="856" 
d="M221 0l-164 164v887h308v-762l24 -25h23l75 76v711h308v-1051h-23l-143 -143v-84l8 -9h135v-124h-248l-73 73v166l120 121l-16 139l-139 -139h-195z" />
    <glyph glyph-name="Ydieresis" unicode="&#x178;" horiz-adv-x="931" 
d="M305 0v414l-295 999h342l121 -604l137 604h312l-295 -999v-414h-322zM510 1528v209h217v-209h-217zM205 1528v209h217v-209h-217z" />
    <glyph glyph-name="Zacute" unicode="&#x179;" horiz-adv-x="757" 
d="M31 0v236l336 880h-334v297h692v-235l-336 -881h338v-297h-696zM268 1495v162l135 135h146v-162l-135 -135h-146z" />
    <glyph glyph-name="zacute" unicode="&#x17a;" horiz-adv-x="690" 
d="M20 0v193l281 600h-270v258h631v-193l-279 -600h287v-258h-650zM233 1116v162l136 135h145v-162l-135 -135h-146z" />
    <glyph glyph-name="Zdotaccent" unicode="&#x17b;" horiz-adv-x="757" 
d="M31 0v236l336 880h-334v297h692v-235l-336 -881h338v-297h-696zM305 1491l-61 61v148l61 61h150l61 -61v-148l-61 -61h-150z" />
    <glyph glyph-name="zdotaccent" unicode="&#x17c;" horiz-adv-x="690" 
d="M20 0v193l281 600h-270v258h631v-193l-279 -600h287v-258h-650zM270 1112l-61 62v147l61 61h150l61 -61v-147l-61 -62h-150z" />
    <glyph glyph-name="Zcaron" unicode="&#x17d;" horiz-adv-x="757" 
d="M31 0v236l336 880h-334v297h692v-235l-336 -881h338v-297h-696zM256 1503l-133 133v140h125l129 -129h6l129 129h123v-140l-133 -133h-246z" />
    <glyph glyph-name="zcaron" unicode="&#x17e;" horiz-adv-x="690" 
d="M20 0v193l281 600h-270v258h631v-193l-279 -600h287v-258h-650zM221 1124l-133 133v140h125l129 -129h6l129 129h123v-140l-133 -133h-246z" />
    <glyph glyph-name="florin" unicode="&#x192;" horiz-adv-x="751" 
d="M41 0v266h102l47 47v305h-149v279h149v334l183 182h338v-266h-150l-47 -47v-203h197v-279h-197v-436l-182 -182h-291z" />
    <glyph glyph-name="Scommaaccent" unicode="&#x218;" horiz-adv-x="903" 
d="M229 0l-182 182v271h324v-140l47 -47h67l47 47v213l-36 37h-291l-152 152v516l183 182h436l182 -182v-270h-324v139l-47 47h-59l-47 -47v-207l37 -37h291l151 -151v-523l-182 -182h-445zM352 -360v299h199v-218l-82 -81h-117z" />
    <glyph glyph-name="scommaaccent" unicode="&#x219;" horiz-adv-x="827" 
d="M205 0l-164 164v162h307v-88l25 -25h80l24 25v151l-24 25h-277l-123 123v350l164 164h406l163 -164v-160h-307v86l-24 25h-70l-25 -25v-151l25 -25h277l122 -123v-350l-163 -164h-416zM315 -360v299h199v-218l-82 -81h-117z" />
    <glyph glyph-name="uni0237" unicode="&#x237;" horiz-adv-x="446" 
d="M-92 -348v254h135l25 24v1121h307v-1225l-174 -174h-293z" />
    <glyph glyph-name="circumflex" unicode="&#x2c6;" horiz-adv-x="716" 
d="M102 1124v140l134 133h245l133 -133v-140h-122l-130 129h-6l-129 -129h-125z" />
    <glyph glyph-name="caron" unicode="&#x2c7;" horiz-adv-x="716" 
d="M236 1124l-134 133v140h125l129 -129h6l130 129h122v-140l-133 -133h-245z" />
    <glyph glyph-name="breve" unicode="&#x2d8;" horiz-adv-x="727" 
d="M193 1124l-91 90v152h187v-76l20 -20h111l20 20v76h185v-152l-90 -90h-342z" />
    <glyph glyph-name="dotaccent" unicode="&#x2d9;" horiz-adv-x="477" 
d="M164 1112l-62 62v147l62 61h149l62 -61v-147l-62 -62h-149z" />
    <glyph glyph-name="ring" unicode="&#x2da;" horiz-adv-x="591" 
d="M178 1092l-76 75v170l76 76h236l75 -76v-170l-75 -75h-236zM244 1190h102l16 16v92l-16 17h-102l-17 -17v-92z" />
    <glyph glyph-name="ogonek" unicode="&#x2db;" horiz-adv-x="526" 
d="M176 -360l-74 73v166l121 121h201l-143 -143v-84l8 -9h135v-124h-248z" />
    <glyph glyph-name="tilde" unicode="&#x2dc;" horiz-adv-x="727" 
d="M102 1133v163l91 90h145l98 -98h23l8 8v90h158v-163l-90 -90h-146l-98 98h-23l-8 -8v-90h-158z" />
    <glyph glyph-name="hungarumlaut" unicode="&#x2dd;" horiz-adv-x="690" 
d="M102 1116v162l136 135h84v-162l-136 -135h-84zM369 1116v162l135 135h84v-162l-135 -135h-84z" />
    <glyph glyph-name="endash" unicode="&#x2013;" horiz-adv-x="632" 
d="M20 571v275h592v-275h-592z" />
    <glyph glyph-name="emdash" unicode="&#x2014;" horiz-adv-x="841" 
d="M20 571v275h801v-275h-801z" />
    <glyph glyph-name="quoteleft" unicode="&#x2018;" horiz-adv-x="387" 
d="M51 887v420l107 106h178v-129h-80l-27 -27v-67h107v-303h-285z" />
    <glyph glyph-name="quoteright" unicode="&#x2019;" horiz-adv-x="387" 
d="M336 1413v-420l-107 -106h-178v129h80l27 26v68h-107v303h285z" />
    <glyph glyph-name="quotesinglbase" unicode="&#x201a;" horiz-adv-x="387" 
d="M51 -223v129h80l27 26v68h-107v303h285v-420l-107 -106h-178z" />
    <glyph glyph-name="quotedblleft" unicode="&#x201c;" horiz-adv-x="743" 
d="M51 887v420l107 106h178v-129h-80l-27 -27v-67h107v-303h-285zM408 887v420l106 106h178v-129h-80l-26 -27v-67h106v-303h-284z" />
    <glyph glyph-name="quotedblright" unicode="&#x201d;" horiz-adv-x="743" 
d="M692 1413v-420l-106 -106h-178v129h79l27 26v68h-106v303h284zM336 1413v-420l-107 -106h-178v129h80l27 26v68h-107v303h285z" />
    <glyph glyph-name="quotedblbase" unicode="&#x201e;" horiz-adv-x="743" 
d="M51 -223v129h80l27 26v68h-107v303h285v-420l-107 -106h-178zM408 -223v129h79l27 26v68h-106v303h284v-420l-106 -106h-178z" />
    <glyph glyph-name="dagger" unicode="&#x2020;" horiz-adv-x="532" 
d="M154 545v477h-123v201h123v190h225v-190h123v-201h-123v-477h-225z" />
    <glyph glyph-name="daggerdbl" unicode="&#x2021;" horiz-adv-x="532" 
d="M154 545v160h-123v200h123v148h-123v200h123v160h225v-160h123v-200h-123v-148h123v-200h-123v-160h-225z" />
    <glyph glyph-name="bullet" unicode="&#x2022;" horiz-adv-x="509" 
d="M139 457l-108 108v273l108 108h232l108 -108v-273l-108 -108h-232z" />
    <glyph glyph-name="ellipsis" unicode="&#x2026;" horiz-adv-x="1062" 
d="M35 0v324h284v-324h-284zM389 0v324h285v-324h-285zM743 0v324h285v-324h-285z" />
    <glyph glyph-name="perthousand" unicode="&#x2030;" horiz-adv-x="1970" 
d="M154 723l-134 133v426l132 131h305l131 -131v-428l-131 -131h-303zM268 895h72l27 27v301l-27 26h-72l-26 -26v-301zM885 0l-131 131v428l131 131h303l133 -133v-426l-131 -131h-305zM1001 166h72l27 27v303l-27 26h-72l-26 -26v-303zM1513 0l-131 131v428l131 131h304
l133 -133v-426l-131 -131h-306zM1630 166h72l27 27v303l-27 26h-72l-26 -26v-303zM264 0l619 1413h194l-618 -1413h-195z" />
    <glyph glyph-name="guilsinglleft" unicode="&#x2039;" horiz-adv-x="493" 
d="M203 297l-193 414l193 415h250l-195 -415l195 -414h-250z" />
    <glyph glyph-name="guilsinglright" unicode="&#x203a;" horiz-adv-x="493" 
d="M483 711l-192 -414h-250l195 414l-195 415h250z" />
    <glyph glyph-name="fraction" unicode="&#x2044;" horiz-adv-x="813" 
d="M0 0l618 1413h195l-618 -1413h-195z" />
    <glyph glyph-name="Euro" unicode="&#x20ac;" horiz-adv-x="956" 
d="M31 752v182h82v297l182 182h438l182 -182v-234h-323v103l-47 47h-62l-47 -47v-166h332v-182h-332v-80h332v-183h-332v-186l47 -47h62l47 47v113h323v-234l-182 -182h-438l-182 182v307h-82v183h82v80h-82z" />
    <glyph glyph-name="servicemark" unicode="&#x2120;" horiz-adv-x="1105" 
d="M119 827l-88 88v78h145v-30l19 -19h57l18 19v86l-8 8h-153l-78 78v190l88 88h209l88 -88v-80h-146v33l-18 18h-57l-19 -18v-88l8 -8h154l78 -78v-189l-88 -88h-209zM467 827v586h215l59 -459l58 459h215v-586h-131v482l-72 -482h-156l-71 480v-480h-117z" />
    <glyph glyph-name="trademark" unicode="&#x2122;" horiz-adv-x="1032" 
d="M129 827v469h-98v117h340v-117h-97v-469h-145zM393 827v586h215l60 -459l57 459h215v-586h-131v482l-72 -482h-155l-72 480v-480h-117z" />
    <glyph glyph-name="minus" unicode="&#x2212;" horiz-adv-x="561" 
d="M20 573v275h521v-275h-521z" />
    <glyph glyph-name="fi" unicode="&#xfb01;" horiz-adv-x="1056" 
d="M113 0v807h-93v244h93v209l153 153h330v-244h-141l-35 -34v-84h164v-244h-164v-807h-307zM985 0h-307v1051h307v-1051zM678 1147v266h307v-266h-307z" />
    <glyph glyph-name="fl" unicode="&#xfb02;" horiz-adv-x="1056" 
d="M113 0v807h-93v244h93v209l153 153h330v-244h-141l-35 -34v-84h164v-244h-164v-807h-307zM985 0h-307v1413h307v-1413z" />
    <glyph glyph-name="commaaccent" horiz-adv-x="403" 
d="M102 -360v299h199v-218l-82 -81h-117z" />
    <glyph glyph-name="published" horiz-adv-x="1411" 
d="M305 0l-244 244v925l244 244h801l244 -244v-925l-244 -244h-801zM436 219h537l119 119v737l-119 119h-537l-119 -119v-737zM430 324v768h457l102 -103v-358l-102 -103h-232v-204h-225zM655 707h86l23 22v162l-23 22h-86v-206z" />
    <glyph glyph-name="G.alt" horiz-adv-x="935" 
d="M244 0l-183 182v1049l183 182h448l182 -182v-275h-323v144l-47 47h-72l-47 -47v-797l47 -47h72l47 47v207h-102v274h425v-784h-221l-22 117l-117 -117h-270z" />
    <glyph glyph-name="Gbreve.alt" horiz-adv-x="935" 
d="M244 0l-183 182v1049l183 182h448l182 -182v-275h-323v144l-47 47h-72l-47 -47v-797l47 -47h72l47 47v207h-102v274h425v-784h-221l-22 117l-117 -117h-270zM297 1503l-90 90v152h186v-76l21 -20h110l21 20v76h184v-152l-90 -90h-342z" />
    <glyph glyph-name="Gcircumflex.alt" horiz-adv-x="935" 
d="M244 0l-183 182v1049l183 182h448l182 -182v-275h-323v144l-47 47h-72l-47 -47v-797l47 -47h72l47 47v207h-102v274h425v-784h-221l-22 117l-117 -117h-270zM211 1503v139l133 134h246l133 -134v-139h-123l-129 129h-6l-129 -129h-125z" />
    <glyph glyph-name="Gcommaaccent.alt" horiz-adv-x="935" 
d="M244 0l-183 182v1049l183 182h448l182 -182v-275h-323v144l-47 47h-72l-47 -47v-797l47 -47h72l47 47v207h-102v274h425v-784h-221l-22 117l-117 -117h-270zM369 -360v299h198v-218l-82 -81h-116z" />
    <glyph glyph-name="I.alt" horiz-adv-x="507" 
d="M416 0h-324v1413h324v-1413z" />
    <glyph glyph-name="Iacute.alt" horiz-adv-x="507" 
d="M416 0h-324v1413h324v-1413zM143 1495v162l136 135h145v-162l-135 -135h-146z" />
    <glyph glyph-name="Igrave.alt" horiz-adv-x="507" 
d="M416 0h-324v1413h324v-1413zM221 1495l-135 135v162h145l136 -135v-162h-146z" />
    <glyph glyph-name="Icircumflex.alt" horiz-adv-x="507" 
d="M416 0h-324v1413h324v-1413zM-2 1503v139l133 134h246l133 -134v-139h-123l-129 129h-6l-129 -129h-125z" />
    <glyph glyph-name="Idieresis.alt" horiz-adv-x="507" 
d="M416 0h-324v1413h324v-1413zM299 1528v209h217v-209h-217zM-6 1528v209h217v-209h-217z" />
    <glyph glyph-name="Idotaccent.alt" horiz-adv-x="507" 
d="M416 0h-324v1413h324v-1413zM180 1491l-61 61v148l61 61h150l61 -61v-148l-61 -61h-150z" />
    <glyph glyph-name="Imacron.alt" horiz-adv-x="507" 
d="M416 0h-324v1413h324v-1413zM39 1536v197h432v-197h-432z" />
    <glyph glyph-name="Iogonek.alt" horiz-adv-x="507" 
d="M416 0h-123l-143 -143v-84l8 -9h135v-124h-248l-74 73v166l121 121v1413h324v-1413z" />
    <glyph glyph-name="J.alt" horiz-adv-x="878" 
d="M213 0l-182 182v381h323v-239l47 -48h41l47 48v1089h324v-1231l-182 -182h-418z" />
    <glyph glyph-name="Jcircumflex.alt" horiz-adv-x="878" 
d="M213 0l-182 182v381h323v-239l47 -48h41l47 48v1089h324v-1231l-182 -182h-418zM395 1503v139l133 134h246l133 -134v-139h-123l-129 129h-6l-129 -129h-125z" />
    <glyph glyph-name="Q.alt" horiz-adv-x="935" 
d="M244 0l-183 182v1049l183 182h448l182 -182v-1049l-104 -104l135 -133l-188 -189l-244 244h-229zM432 266h72l47 47v787l-47 47h-72l-47 -47v-787z" />
    <glyph glyph-name="a.alt" horiz-adv-x="870" 
d="M215 0l-164 164v723l164 164h225l131 -131l15 131h223v-1051h-223l-15 131l-131 -131h-225zM383 223h63l56 56v493l-56 55h-63l-25 -24v-555z" />
    <glyph glyph-name="aacute.alt" horiz-adv-x="870" 
d="M215 0l-164 164v723l164 164h225l131 -131l15 131h223v-1051h-223l-15 131l-131 -131h-225zM383 223h63l56 56v493l-56 55h-63l-25 -24v-555zM309 1116v162l135 135h146v-162l-135 -135h-146z" />
    <glyph glyph-name="agrave.alt" horiz-adv-x="870" 
d="M215 0l-164 164v723l164 164h225l131 -131l15 131h223v-1051h-223l-15 131l-131 -131h-225zM383 223h63l56 56v493l-56 55h-63l-25 -24v-555zM387 1116l-135 135v162h145l135 -135v-162h-145z" />
    <glyph glyph-name="acircumflex.alt" horiz-adv-x="870" 
d="M215 0l-164 164v723l164 164h225l131 -131l15 131h223v-1051h-223l-15 131l-131 -131h-225zM383 223h63l56 56v493l-56 55h-63l-25 -24v-555zM164 1124v140l133 133h246l133 -133v-140h-123l-129 129h-6l-129 -129h-125z" />
    <glyph glyph-name="adieresis.alt" horiz-adv-x="870" 
d="M215 0l-164 164v723l164 164h225l131 -131l15 131h223v-1051h-223l-15 131l-131 -131h-225zM383 223h63l56 56v493l-56 55h-63l-25 -24v-555zM465 1149v209h217v-209h-217zM160 1149v209h217v-209h-217z" />
    <glyph glyph-name="atilde.alt" horiz-adv-x="870" 
d="M215 0l-164 164v723l164 164h225l131 -131l15 131h223v-1051h-223l-15 131l-131 -131h-225zM383 223h63l56 56v493l-56 55h-63l-25 -24v-555zM160 1133v163l90 90h145l99 -98h22l8 8v90h158v-163l-90 -90h-146l-98 98h-22l-9 -8v-90h-157z" />
    <glyph glyph-name="aring.alt" horiz-adv-x="870" 
d="M215 0l-164 164v723l164 164h225l131 -131l15 131h223v-1051h-223l-15 131l-131 -131h-225zM383 223h63l56 56v493l-56 55h-63l-25 -24v-555zM303 1092l-76 75v170l76 76h236l75 -76v-170l-75 -75h-236zM369 1190h102l16 16v92l-16 17h-102l-17 -17v-92z" />
    <glyph glyph-name="abreve.alt" horiz-adv-x="870" 
d="M215 0l-164 164v723l164 164h225l131 -131l15 131h223v-1051h-223l-15 131l-131 -131h-225zM383 223h63l56 56v493l-56 55h-63l-25 -24v-555zM250 1124l-90 90v152h186v-76l21 -20h110l21 20v76h184v-152l-90 -90h-342z" />
    <glyph glyph-name="amacron.alt" horiz-adv-x="870" 
d="M215 0l-164 164v723l164 164h225l131 -131l15 131h223v-1051h-223l-15 131l-131 -131h-225zM383 223h63l56 56v493l-56 55h-63l-25 -24v-555zM205 1157v197h432v-197h-432z" />
    <glyph glyph-name="aogonek.alt" horiz-adv-x="870" 
d="M215 0l-164 164v723l164 164h225l131 -131l15 131h223v-1051h-23l-143 -143v-84l8 -9h135v-124h-247l-74 73v166l121 121l-15 131l-131 -131h-225zM383 223h63l56 56v493l-56 55h-63l-25 -24v-555z" />
    <glyph glyph-name="g.alt" horiz-adv-x="870" 
d="M184 -348l-153 153v181l127 127l-64 63v86l76 76l-119 119v450l144 144h665v-213h-160l99 -99v-262l-164 -164h-268v-94h340l153 -153v-261l-153 -153h-523zM383 506h84l25 24v283l-25 25h-84l-25 -25v-283zM358 -139h183l24 24v92l-24 25h-183l-24 -25v-92z" />
    <glyph glyph-name="gbreve.alt" horiz-adv-x="870" 
d="M184 -348l-153 153v181l127 127l-64 63v86l76 76l-119 119v450l144 144h665v-213h-160l99 -99v-262l-164 -164h-268v-94h340l153 -153v-261l-153 -153h-523zM383 506h84l25 24v283l-25 25h-84l-25 -25v-283zM358 -139h183l24 24v92l-24 25h-183l-24 -25v-92zM274 1124
l-90 90v152h187v-76l20 -20h111l20 20v76h185v-152l-91 -90h-342z" />
    <glyph glyph-name="gcircumflex.alt" horiz-adv-x="870" 
d="M184 -348l-153 153v181l127 127l-64 63v86l76 76l-119 119v450l144 144h665v-213h-160l99 -99v-262l-164 -164h-268v-94h340l153 -153v-261l-153 -153h-523zM383 506h84l25 24v283l-25 25h-84l-25 -25v-283zM358 -139h183l24 24v92l-24 25h-183l-24 -25v-92zM188 1124
v140l134 133h245l133 -133v-140h-122l-129 129h-7l-129 -129h-125z" />
    <glyph glyph-name="gcommaaccent.alt" horiz-adv-x="870" 
d="M184 -348l-153 153v181l127 127l-64 63v86l76 76l-119 119v450l144 144h665v-213h-160l99 -99v-262l-164 -164h-268v-94h340l153 -153v-261l-153 -153h-523zM383 506h84l25 24v283l-25 25h-84l-25 -25v-283zM358 -139h183l24 24v92l-24 25h-183l-24 -25v-92zM545 1421
v-299h-199v217l82 82h117z" />
    <glyph glyph-name="at.alt1" horiz-adv-x="1753" 
d="M66 0v1128l284 285h1057l285 -285v-923l-205 -205h-434l-15 131l-131 -131h-282l-154 154v317l154 154h323v168l-35 34h-73l-35 -34v-99h-324v219l154 154h483l154 -154v-680h74l47 48v737l-150 149h-725l-149 -149v-1018h-303zM829 236h64l55 55v133h-119l-34 -35v-119z
" />
    <glyph glyph-name="at.alt2" horiz-adv-x="1648" 
d="M346 -332l-285 285v1159l285 285h957l284 -285v-909l-203 -203h-423l-15 131l-131 -131h-215l-164 164v723l164 164h215l131 -131l15 131h223v-848h73l48 47v762l-150 149h-657l-150 -149v-959l150 -149h706v-236h-858zM768 223h53l56 56v493l-56 55h-53l-25 -24v-555z
" />
    <glyph glyph-name="at.alt3" horiz-adv-x="1753" 
d="M66 0v1128l284 285h1057l285 -285v-923l-205 -205h-434l-15 131l-131 -131h-272l-154 154v759l154 154h272l131 -131l15 131h219v-834h74l47 48v737l-150 149h-725l-149 -149v-1018h-303zM840 236h53l55 55v485l-55 55h-53l-35 -34v-527z" />
    <glyph glyph-name="ampersand.alt" horiz-adv-x="958" 
d="M233 0l-182 182v457l123 123l-123 123v346l182 182h441l182 -182v-215h-324v94l-47 47h-63l-47 -47v-164l219 -219v139h324v-704l-162 -162h-523zM422 256h125l47 47v39l-201 201l-18 -19v-221z" />
    <glyph glyph-name="ordfeminine.alt" horiz-adv-x="673" 
d="M168 707l-117 116v473l117 117h178l90 -90l21 90h166v-706h-166l-21 90l-90 -90h-178zM307 870h58l30 31v318l-30 30h-58l-31 -30v-318z" />
    <glyph glyph-name="zero.tabular" 
d="M231 0l-182 182v1049l182 182h367l182 -182v-1049l-182 -182h-367zM375 244h80l37 37v852l-37 36h-80l-37 -36v-852z" />
    <glyph glyph-name="one.tabular" 
d="M90 0v246h191v921h-191v246h483v-1167h179v-246h-662z" />
    <glyph glyph-name="two.tabular" 
d="M66 0v627l151 151h238l26 27v338l-26 26h-72l-27 -26v-182h-288v270l182 182h338l182 -182v-559l-152 -152h-237l-27 -26v-228h416v-266h-704z" />
    <glyph glyph-name="three.tabular" 
d="M221 0l-182 182v264h289v-172l37 -36h90l37 36v275l-41 41h-275v254h275l41 41v243l-37 37h-90l-37 -37v-161h-289v264l182 182h377l182 -182v-389l-121 -121l121 -121v-418l-182 -182h-377z" />
    <glyph glyph-name="four.tabular" 
d="M465 0v369h-438v186l110 858h264l-82 -801h146v801h289v-801h51v-243h-51v-369h-289z" />
    <glyph glyph-name="five.tabular" 
d="M242 0l-183 182v269h289v-158l47 -47h49l48 47v369l-37 36h-58l-80 -80h-258v795h703v-262h-414v-301l94 94h166l172 -172v-590l-182 -182h-356z" />
    <glyph glyph-name="six.tabular" 
d="M231 0l-182 182v1049l182 182h373l182 -182v-240h-288v142l-37 36h-86l-37 -36v-342l104 104h172l172 -172v-541l-182 -182h-373zM375 246h86l37 37v329l-37 37h-74l-49 -49v-317z" />
    <glyph glyph-name="seven.tabular" 
d="M250 0v530l219 611h-416v272h725v-223l-239 -666v-524h-289z" />
    <glyph glyph-name="eight.tabular" 
d="M229 0l-182 182v404l135 135l-135 135v375l182 182h371l182 -182v-375l-135 -135l135 -135v-404l-182 -182h-371zM379 236h72l43 43v280l-43 43h-72l-43 -43v-280zM379 836h72l43 43v256l-43 43h-72l-43 -43v-256z" />
    <glyph glyph-name="nine.tabular" 
d="M225 0l-182 182v254h289v-155l37 -37h86l37 37v356l-105 -105h-172l-172 173v526l182 182h373l182 -182v-1049l-182 -182h-373zM369 778h73l50 49v303l-37 37h-86l-37 -37v-315z" />
    <glyph glyph-name="plus.tabular" 
d="M74 588v246h215v251h254v-251h215v-246h-215v-254h-254v254h-215z" />
    <glyph glyph-name="minus.tabular" 
d="M135 573v275h561v-275h-561z" />
    <glyph glyph-name="multiply.tabular" 
d="M244 367l-172 172l170 170l-170 172l172 172l170 -172l172 172l172 -172l-172 -172l172 -170l-172 -172l-172 170z" />
    <glyph glyph-name="divide.tabular" 
d="M299 295v211h231v-211h-231zM86 575v263h657v-263h-657zM299 907v211h231v-211h-231z" />
    <glyph glyph-name="equal.tabular" 
d="M127 756v262h575v-262h-575zM127 383v262h575v-262h-575z" />
    <glyph glyph-name="greater.tabular" 
d="M737 557l-616 -291v289l368 152l-368 153v289l616 -291v-301z" />
    <glyph glyph-name="less.tabular" 
d="M709 266l-617 291v301l617 291v-289l-369 -153l369 -152v-289z" />
    <glyph glyph-name="numbersign.tabular" 
d="M145 340v205h-116v200h116v263h-116v200h116v205h213v-205h113v205h213v-205h117v-200h-117v-263h117v-200h-117v-205h-213v205h-113v-205h-213zM358 745h113v263h-113v-263z" />
    <glyph glyph-name="dollar.tabular" 
d="M225 41l-172 172v240h289v-129l37 -37h72l36 37v213l-36 36h-240l-152 152v475l172 172h56v195h260v-195h55l172 -172v-239h-289v129l-36 36h-64l-37 -36v-207l37 -37h240l151 -152v-481l-172 -172h-57v-195h-260v195h-62z" />
    <glyph glyph-name="cent.tabular" 
d="M236 154l-173 172v761l173 173h59v153h260v-153h57l172 -173v-272h-288v162l-37 37h-70l-37 -37v-551l37 -37h70l37 37v170h288v-270l-172 -172h-57v-154h-260v154h-59z" />
    <glyph glyph-name="sterling.tabular" 
d="M41 0v260l72 72v221h-74v260h74v418l182 182h313l183 -182v-275h-289v181l-31 30h-39l-31 -30v-324h246v-260h-246v-213l-73 -74h463v-266h-750z" />
    <glyph glyph-name="yen.tabular" 
d="M41 477v172h168l-193 764h306l100 -604l117 604h274l-195 -764h170v-172h-213l-16 -63h229v-172h-229v-242h-289v242h-229v172h229l-16 63h-213z" />
    <glyph glyph-name="florin.tabular" 
d="M76 0v266h123l47 47v305h-170v279h170v334l182 182h324v-266h-170l-47 -47v-203h217v-279h-217v-436l-183 -182h-276z" />
    <glyph glyph-name="Euro.tabular" 
d="M27 752v182h71v297l183 182h333l183 -182v-234h-289v133l-37 37h-47l-37 -37v-196h262v-182h-262v-80h262v-183h-262v-217l37 -36h47l37 36v144h289v-234l-183 -182h-333l-183 182v307h-71v183h71v80h-71z" />
    <glyph glyph-name="section.tabular" 
d="M233 -195l-182 183v254h289v-154l37 -37h76l36 37v246h-321l-111 110v107h721v-563l-182 -183h-363zM57 664v567l183 182h354l182 -182v-254h-289v153l-36 37h-68l-37 -37v-249h322l110 -111v-106h-721z" />
    <glyph glyph-name="space.tabular" horiz-adv-x="413" 
 />
    <glyph glyph-name="colon.tabular" horiz-adv-x="413" 
d="M66 0v324h284v-324h-284zM66 547v323h284v-323h-284z" />
    <glyph glyph-name="semicolon.tabular" horiz-adv-x="413" 
d="M70 -223v129h90l16 16v78h-106v324h284v-441l-106 -106h-178zM70 547v323h284v-323h-284z" />
    <glyph glyph-name="comma.tabular" horiz-adv-x="413" 
d="M66 -223v129h90l16 16v78h-106v324h284v-441l-106 -106h-178z" />
    <glyph glyph-name="period.tabular" horiz-adv-x="413" 
d="M66 0v324h284v-324h-284z" />
    <glyph glyph-name="parenleft.tabular" horiz-adv-x="501" 
d="M236 -115l-162 162v1317l162 162h233v-256h-80l-27 -27v-1075l27 -27h80v-256h-233z" />
    <glyph glyph-name="parenright.tabular" horiz-adv-x="501" 
d="M428 47l-162 -162h-233v256h80l26 27v1075l-26 27h-80v256h233l162 -162v-1317z" />
    <glyph glyph-name="bracketleft.tabular" horiz-adv-x="501" 
d="M78 -115v1641h395v-256h-106v-1129h106v-256h-395z" />
    <glyph glyph-name="bracketright.tabular" horiz-adv-x="501" 
d="M424 1526v-1641h-395v256h106v1129h-106v256h395z" />
    <glyph glyph-name="braceleft.tabular" horiz-adv-x="501" 
d="M246 -115l-162 162v514l-25 25h-69v264h69l25 24v490l162 162h233v-256h-80l-26 -27v-430l-92 -92l92 -92v-461l26 -27h80v-256h-233z" />
    <glyph glyph-name="braceright.tabular" horiz-adv-x="501" 
d="M418 47l-162 -162h-233v256h79l27 27v461l92 92l-92 92v430l-27 27h-79v256h233l162 -162v-490l24 -24h70v-264h-70l-24 -25v-514z" />
    <glyph glyph-name="zero.numerator" horiz-adv-x="688" 
d="M168 649l-117 117v530l117 117h352l117 -117v-530l-117 -117h-352zM309 829h70l29 29v346l-29 29h-70l-28 -29v-346z" />
    <glyph glyph-name="one.numerator" horiz-adv-x="532" 
d="M31 649v187h125v391h-117v186h348v-577h125v-187h-481z" />
    <glyph glyph-name="two.numerator" horiz-adv-x="661" 
d="M51 649v334l105 104h209l14 17v115l-19 18h-57l-18 -18v-62h-232v139l117 117h324l116 -117v-276l-104 -105h-207l-16 -16v-63h327v-187h-559z" />
    <glyph glyph-name="three.numerator" horiz-adv-x="643" 
d="M147 649l-116 117v121h231v-49l19 -19h73l19 19v96l-19 18h-196v164h196l19 19v90l-19 18h-73l-19 -18v-49h-231v120l116 117h338l117 -117v-178l-84 -84l84 -84v-184l-117 -117h-338z" />
    <glyph glyph-name="four.numerator" horiz-adv-x="673" 
d="M373 649v180h-348v119l90 465h196l-53 -409h115v409h227v-409h43v-175h-43v-180h-227z" />
    <glyph glyph-name="five.numerator" horiz-adv-x="675" 
d="M172 649l-117 117v139h232v-74l18 -18h66l18 18v160l-18 17h-56l-41 -41h-219v446h555v-176h-323v-129l51 51h172l111 -110v-283l-117 -117h-332z" />
    <glyph glyph-name="six.numerator" horiz-adv-x="686" 
d="M168 649l-117 117v530l117 117h346l117 -117v-110h-228v39l-28 28h-64l-28 -28v-142l51 52h209l92 -93v-276l-117 -117h-350zM311 813h66l29 29v141l-29 29h-66l-28 -29v-141z" />
    <glyph glyph-name="seven.numerator" horiz-adv-x="573" 
d="M160 649v266l137 293h-283v205h545v-143l-170 -359v-262h-229z" />
    <glyph glyph-name="eight.numerator" horiz-adv-x="681" 
d="M162 649l-117 117v186l86 86l-86 86v172l117 117h358l117 -117v-172l-86 -86l86 -86v-186l-117 -117h-358zM293 809h96l19 18v119l-19 19h-96l-19 -19v-119zM293 1110h96l19 18v107l-19 18h-96l-19 -18v-107z" />
    <glyph glyph-name="nine.numerator" horiz-adv-x="686" 
d="M172 649l-117 117v125h228v-51l28 -29h64l28 29v153l-51 -51h-209l-92 92v262l117 117h350l117 -117v-530l-117 -117h-346zM309 1065h66l28 29v127l-28 28h-66l-28 -28v-127z" />
    <glyph glyph-name="zero.denominator" horiz-adv-x="688" 
d="M168 0l-117 117v530l117 117h352l117 -117v-530l-117 -117h-352zM309 180h70l29 29v346l-29 29h-70l-28 -29v-346z" />
    <glyph glyph-name="one.denominator" horiz-adv-x="532" 
d="M31 0v186h125v392h-117v186h348v-578h125v-186h-481z" />
    <glyph glyph-name="two.denominator" horiz-adv-x="661" 
d="M51 0v334l105 104h209l14 17v114l-19 19h-57l-18 -19v-61h-232v139l117 117h324l116 -117v-276l-104 -105h-207l-16 -16v-64h327v-186h-559z" />
    <glyph glyph-name="three.denominator" horiz-adv-x="643" 
d="M147 0l-116 117v121h231v-50l19 -18h73l19 18v97l-19 18h-196v164h196l19 18v90l-19 19h-73l-19 -19v-49h-231v121l116 117h338l117 -117v-178l-84 -84l84 -84v-184l-117 -117h-338z" />
    <glyph glyph-name="four.denominator" horiz-adv-x="673" 
d="M373 0v180h-348v119l90 465h196l-53 -410h115v410h227v-410h43v-174h-43v-180h-227z" />
    <glyph glyph-name="five.denominator" horiz-adv-x="675" 
d="M172 0l-117 117v139h232v-74l18 -18h66l18 18v160l-18 16h-56l-41 -41h-219v447h555v-176h-323v-129l51 51h172l111 -111v-282l-117 -117h-332z" />
    <glyph glyph-name="six.denominator" horiz-adv-x="686" 
d="M168 0l-117 117v530l117 117h346l117 -117v-110h-228v38l-28 29h-64l-28 -29v-141l51 51h209l92 -92v-276l-117 -117h-350zM311 164h66l29 29v141l-29 28h-66l-28 -28v-141z" />
    <glyph glyph-name="seven.denominator" horiz-adv-x="573" 
d="M160 0v266l137 293h-283v205h545v-143l-170 -359v-262h-229z" />
    <glyph glyph-name="eight.denominator" horiz-adv-x="681" 
d="M162 0l-117 117v186l86 86l-86 86v172l117 117h358l117 -117v-172l-86 -86l86 -86v-186l-117 -117h-358zM293 160h96l19 18v119l-19 18h-96l-19 -18v-119zM293 461h96l19 18v107l-19 18h-96l-19 -18v-107z" />
    <glyph glyph-name="nine.denominator" horiz-adv-x="686" 
d="M172 0l-117 117v125h228v-52l28 -28h64l28 28v154l-51 -51h-209l-92 92v262l117 117h350l117 -117v-530l-117 -117h-346zM309 416h66l28 28v127l-28 29h-66l-28 -29v-127z" />
    </font>
</defs>
</svg>
