<?xml version="1.0" standalone="no"?>
<!DOCTYPE svg PUBLIC "-//W3C//DTD SVG 1.1//EN" "http://www.w3.org/Graphics/SVG/1.1/DTD/svg11.dtd" >
<svg xmlns="http://www.w3.org/2000/svg" xmlns:xlink="http://www.w3.org/1999/xlink" version="1.1">
<metadata>
Created by FontForge 20201107 at Mon Sep 30 16:46:42 2024
 By 
Copyright 2006 House Industries/Brand Design Co., Inc. All Rights Reserved.
</metadata>
<defs>
<font id="UnitedSansCond-Medium" horiz-adv-x="829" >
  <font-face 
    font-family="United Sans Cd Md"
    font-weight="500"
    font-stretch="normal"
    units-per-em="2048"
    panose-1="0 0 0 0 0 0 0 0 0 0"
    ascent="1638"
    descent="-410"
    x-height="1004"
    cap-height="1413"
    bbox="-72 -348 1561 1735"
    underline-thickness="102"
    underline-position="-204"
    unicode-range="U+0020-FB02"
  />
<missing-glyph horiz-adv-x="1009" 
d="M61 1577h887v-1741h-887v1741zM393 670v-297h133v252l35 34h121l111 111v494l-150 149h-289l-149 -149v-215h133v170l82 81h158l81 -81v-404l-34 -35h-121zM393 233v-233h133v233h-133z" />
    <glyph glyph-name=".notdef" horiz-adv-x="1009" 
d="M61 1577h887v-1741h-887v1741zM393 670v-297h133v252l35 34h121l111 111v494l-150 149h-289l-149 -149v-215h133v170l82 81h158l81 -81v-404l-34 -35h-121zM393 233v-233h133v233h-133z" />
    <glyph glyph-name=".null" horiz-adv-x="0" 
 />
    <glyph glyph-name="nonmarkingreturn" horiz-adv-x="682" 
 />
    <glyph glyph-name="space" unicode=" " horiz-adv-x="317" 
 />
    <glyph glyph-name="exclam" unicode="!" horiz-adv-x="374" 
d="M121 373v1040h133v-1040h-133zM121 0v233h133v-233h-133z" />
    <glyph glyph-name="quotedbl" unicode="&#x22;" horiz-adv-x="522" 
d="M319 924v489h113v-489h-113zM90 924v489h113v-489h-113z" />
    <glyph glyph-name="numbersign" unicode="#" horiz-adv-x="780" 
d="M186 373v243h-135v105h135v344h-135v104h135v244h109v-244h190v244h109v-244h135v-104h-135v-344h135v-105h-135v-243h-109v243h-190v-243h-109zM295 721h190v344h-190v-344z" />
    <glyph glyph-name="dollar" unicode="$" horiz-adv-x="727" 
d="M221 41l-149 149v216h133v-173l82 -81h153l82 81v363l-63 63h-250l-131 132v432l149 149h78v193h119v-193h78l149 -149v-215h-133v170l-82 82h-143l-82 -82v-342l63 -64h250l131 -131v-451l-149 -149h-84v-195h-119v195h-82z" />
    <glyph glyph-name="percent" unicode="%" horiz-adv-x="1095" 
d="M172 743l-111 111v449l111 110h207l110 -110v-449l-110 -111h-207zM229 836h93l53 53v379l-53 53h-93l-53 -53v-379zM717 0l-111 111v448l111 111h207l110 -111v-448l-110 -111h-207zM774 92h92l54 53v379l-54 54h-92l-53 -54v-379zM199 0l589 1413h109l-590 -1413h-108z
" />
    <glyph glyph-name="ampersand" unicode="&#x26;" horiz-adv-x="819" 
d="M242 0l-150 150v452l131 131l-131 131v400l150 149h301l149 -149v-193h-133v148l-82 81h-170l-82 -81v-320l109 -108h465v-115h-109v-526l-149 -150h-299zM307 113h168l82 82v481h-223l-109 -109v-372z" />
    <glyph glyph-name="quotesingle" unicode="'" horiz-adv-x="292" 
d="M90 924v489h113v-489h-113z" />
    <glyph glyph-name="parenleft" unicode="(" horiz-adv-x="460" 
d="M272 -106l-149 149v1325l149 150h138v-113h-72l-82 -82v-1235l82 -82h72v-112h-138z" />
    <glyph glyph-name="parenright" unicode=")" horiz-adv-x="460" 
d="M338 43l-150 -149h-137v112h72l82 82v1235l-82 82h-72v113h137l150 -150v-1325z" />
    <glyph glyph-name="asterisk" unicode="*" horiz-adv-x="624" 
d="M188 879l-77 59l143 176l-219 60l31 94l210 -84l-16 229h105l-17 -229l211 84l31 -94l-221 -60l145 -176l-80 -59l-123 192z" />
    <glyph glyph-name="plus" unicode="+" horiz-adv-x="616" 
d="M20 651v109h232v284h113v-284h231v-109h-231v-284h-113v284h-232z" />
    <glyph glyph-name="comma" unicode="," horiz-adv-x="327" 
d="M92 -193v76h49l13 13v104h-62v207h144v-338l-62 -62h-82z" />
    <glyph glyph-name="hyphen" unicode="-" horiz-adv-x="389" 
d="M20 645v121h349v-121h-349z" />
    <glyph glyph-name="period" unicode="." horiz-adv-x="327" 
d="M92 0v207h144v-207h-144z" />
    <glyph glyph-name="slash" unicode="/" horiz-adv-x="450" 
d="M12 -127l310 1665h116l-309 -1665h-117z" />
    <glyph glyph-name="zero" unicode="0" horiz-adv-x="806" 
d="M252 0l-150 150v1114l150 149h303l150 -149v-1114l-150 -150h-303zM317 113h172l82 82v1024l-82 81h-172l-81 -81v-1024z" />
    <glyph glyph-name="one" unicode="1" horiz-adv-x="630" 
d="M72 0v102h192v1209h-192v102h325v-1311h183v-102h-508z" />
    <glyph glyph-name="two" unicode="2" horiz-adv-x="690" 
d="M72 0v602l131 131h229l64 64v422l-82 81h-127l-82 -81v-170h-133v215l149 149h258l150 -149v-512l-131 -131h-230l-63 -64v-444h418v-113h-551z" />
    <glyph glyph-name="three" unicode="3" horiz-adv-x="755" 
d="M221 0l-149 150v237h133v-192l82 -82h162l81 82v372l-108 109h-234v115h234l108 108v320l-81 81h-162l-82 -81v-193h-133v238l149 149h293l150 -149v-400l-132 -131l132 -131v-452l-150 -150h-293z" />
    <glyph glyph-name="four" unicode="4" horiz-adv-x="755" 
d="M489 0v406h-458v96l162 911h122l-145 -891h319v891h134v-891h92v-116h-92v-406h-134z" />
    <glyph glyph-name="five" unicode="5" horiz-adv-x="729" 
d="M229 0l-147 150v245h133v-202l82 -82h145l82 82v536l-63 64h-139l-113 -113h-127v733h567v-113h-434v-485l90 90h221l131 -131v-624l-149 -150h-279z" />
    <glyph glyph-name="six" unicode="6" horiz-adv-x="786" 
d="M252 0l-150 150v1114l150 149h303l150 -149v-230h-134v185l-82 81h-172l-81 -81v-451l90 90h229l150 -149v-559l-150 -150h-303zM317 113h172l82 82v469l-82 81h-147l-106 -106v-444z" />
    <glyph glyph-name="seven" unicode="7" horiz-adv-x="641" 
d="M225 0v504l252 794h-457v115h590v-92l-252 -811v-510h-133z" />
    <glyph glyph-name="eight" unicode="8" horiz-adv-x="794" 
d="M242 0l-150 150v452l131 131l-131 131v400l150 149h311l149 -149v-400l-131 -131l131 -131v-452l-149 -150h-311zM307 113h180l82 82v372l-108 109h-127l-109 -109v-372zM334 791h127l108 108v320l-82 81h-180l-82 -81v-320z" />
    <glyph glyph-name="nine" unicode="9" horiz-adv-x="786" 
d="M231 0l-149 150v239h133v-194l82 -82h172l82 82v481l-90 -90h-230l-149 149v529l149 149h304l149 -149v-1114l-149 -150h-304zM297 698h147l107 107v414l-82 81h-172l-82 -81v-439z" />
    <glyph glyph-name="colon" unicode=":" horiz-adv-x="348" 
d="M102 0v207h144v-207h-144zM102 625v206h144v-206h-144z" />
    <glyph glyph-name="semicolon" unicode=";" horiz-adv-x="348" 
d="M102 -193v76h50l12 13v104h-62v207h144v-338l-62 -62h-82zM102 625v206h144v-206h-144z" />
    <glyph glyph-name="less" unicode="&#x3c;" horiz-adv-x="704" 
d="M635 346l-596 297v123l596 299v-123l-481 -237l481 -236v-123z" />
    <glyph glyph-name="equal" unicode="=" horiz-adv-x="673" 
d="M68 805v115h538v-115h-538zM68 485v115h538v-115h-538z" />
    <glyph glyph-name="greater" unicode="&#x3e;" horiz-adv-x="704" 
d="M666 643l-596 -297v123l481 236l-481 237v123l596 -299v-123z" />
    <glyph glyph-name="question" unicode="?" horiz-adv-x="700" 
d="M240 373v297l110 110h121l35 35v404l-82 81h-158l-82 -81v-170h-133v215l150 149h288l150 -149v-494l-111 -111h-120l-35 -34v-252h-133zM240 0v233h133v-233h-133z" />
    <glyph glyph-name="at" unicode="@" horiz-adv-x="1265" 
d="M295 -246l-203 203v1090l203 202h676l203 -202v-908l-140 -139h-233l-6 145l-146 -145h-160l-141 141v308l144 143h276v237l-74 74h-129l-73 -74v-118h-127v151l141 142h248l141 -142v-766h76l76 76v842l-136 135h-557l-135 -135v-1024l135 -135h602v-101h-661zM549 100
h80l139 140v256h-213l-80 -80v-242z" />
    <glyph glyph-name="A" unicode="A" horiz-adv-x="724" 
d="M20 0l246 1413h193l246 -1413h-132l-67 414h-293l-66 -414h-127zM358 1327l-127 -795h256z" />
    <glyph glyph-name="B" unicode="B" horiz-adv-x="802" 
d="M113 0v1413h448l150 -149v-400l-131 -131l131 -131v-452l-150 -150h-448zM246 113h250l82 82v372l-109 109h-223v-563zM246 791h223l109 108v320l-82 81h-250v-509z" />
    <glyph glyph-name="C" unicode="C" horiz-adv-x="745" 
d="M252 0l-150 150v1114l150 149h272l150 -149v-244h-133v199l-82 81h-142l-81 -81v-1024l81 -82h142l82 82v204h133v-249l-150 -150h-272z" />
    <glyph glyph-name="D" unicode="D" horiz-adv-x="806" 
d="M113 0v1413h442l150 -149v-1114l-150 -150h-442zM246 113h243l82 82v1024l-82 81h-243v-1187z" />
    <glyph glyph-name="E" unicode="E" horiz-adv-x="673" 
d="M113 0v1413h501v-113h-368v-532h342v-113h-342v-542h372v-113h-505z" />
    <glyph glyph-name="F" unicode="F" horiz-adv-x="624" 
d="M113 0v1413h491v-113h-358v-544h332v-113h-332v-643h-133z" />
    <glyph glyph-name="G" unicode="G" horiz-adv-x="784" 
d="M252 0l-150 150v1114l150 149h285l149 -149v-215h-133v170l-82 81h-154l-81 -81v-1024l81 -82h160l82 82v407h-176v113h309v-565l-149 -150h-291z" />
    <glyph glyph-name="H" unicode="H" horiz-adv-x="815" 
d="M113 0v1413h133v-649h323v649h133v-1413h-133v637h-323v-637h-133z" />
    <glyph glyph-name="I" unicode="I" horiz-adv-x="569" 
d="M51 0v102h168v1209h-168v102h467v-102h-166v-1209h166v-102h-467z" />
    <glyph glyph-name="J" unicode="J" horiz-adv-x="520" 
d="M20 0v113h177l82 82v1218h133v-1263l-150 -150h-242z" />
    <glyph glyph-name="K" unicode="K" horiz-adv-x="788" 
d="M623 0l-211 680l-166 -367v-313h-133v1413h133v-864l358 864h133l-248 -590l269 -823h-135z" />
    <glyph glyph-name="L" unicode="L" horiz-adv-x="604" 
d="M113 0v1413h133v-1300h327v-113h-460z" />
    <glyph glyph-name="M" unicode="M" horiz-adv-x="1122" 
d="M113 0v1413h215l231 -1274l232 1274h219v-1413h-129v1300l-244 -1300h-162l-244 1300v-1300h-118z" />
    <glyph glyph-name="N" unicode="N" 
d="M113 0v1413h110l375 -1063v1063h119v-1413h-111l-375 1069v-1069h-118z" />
    <glyph glyph-name="O" unicode="O" horiz-adv-x="806" 
d="M252 0l-150 150v1114l150 149h303l150 -149v-1114l-150 -150h-303zM317 113h172l82 82v1024l-82 81h-172l-81 -81v-1024z" />
    <glyph glyph-name="P" unicode="P" horiz-adv-x="741" 
d="M113 0v1413h428l149 -149v-535l-149 -149h-295v-580h-133zM246 692h229l82 82v445l-82 81h-229v-608z" />
    <glyph glyph-name="Q" unicode="Q" horiz-adv-x="806" 
d="M590 -274l-164 163v111h-174l-150 150v1114l150 149h303l150 -149v-1114l-148 -150v-66l121 -120zM317 113h172l82 82v1024l-82 81h-172l-81 -81v-1024z" />
    <glyph glyph-name="R" unicode="R" horiz-adv-x="794" 
d="M113 0v1413h446l150 -149v-486l-136 -135l140 -643h-135l-134 629h-198v-629h-133zM246 741h248l81 82v396l-81 81h-248v-559z" />
    <glyph glyph-name="S" unicode="S" horiz-adv-x="727" 
d="M221 0l-149 150v215h133v-172l82 -82h153l82 82v403l-63 63h-250l-131 132v473l149 149h275l149 -149v-215h-133v170l-82 81h-143l-82 -81v-383l63 -64h250l131 -131v-491l-149 -150h-285z" />
    <glyph glyph-name="T" unicode="T" horiz-adv-x="665" 
d="M266 0v1300h-246v113h625v-113h-246v-1300h-133z" />
    <glyph glyph-name="U" unicode="U" horiz-adv-x="796" 
d="M258 0l-149 150v1263h133v-1218l82 -82h149l82 82v1218h133v-1263l-149 -150h-281z" />
    <glyph glyph-name="V" unicode="V" horiz-adv-x="681" 
d="M244 0l-224 1413h138l188 -1300l186 1300h130l-220 -1413h-198z" />
    <glyph glyph-name="W" unicode="W" horiz-adv-x="1097" 
d="M193 0l-162 1413h133l125 -1274l176 1274h184l176 -1274l121 1274h121l-160 -1413h-176l-176 1280l-178 -1280h-184z" />
    <glyph glyph-name="X" unicode="X" horiz-adv-x="731" 
d="M41 0l219 725l-213 688h135l187 -622l188 622h127l-217 -690l223 -723h-135l-193 643l-192 -643h-129z" />
    <glyph glyph-name="Y" unicode="Y" horiz-adv-x="710" 
d="M289 0v471l-269 942h140l198 -774l205 774h127l-268 -942v-471h-133z" />
    <glyph glyph-name="Z" unicode="Z" horiz-adv-x="643" 
d="M51 0v96l395 1204h-387v113h527v-96l-396 -1204h402v-113h-541z" />
    <glyph glyph-name="bracketleft" unicode="[" horiz-adv-x="456" 
d="M123 -106v1624h283v-113h-152v-1399h152v-112h-283z" />
    <glyph glyph-name="backslash" unicode="\" horiz-adv-x="450" 
d="M129 1538l309 -1665h-116l-310 1665h117z" />
    <glyph glyph-name="bracketright" unicode="]" horiz-adv-x="456" 
d="M334 1518v-1624h-283v112h152v1399h-152v113h283z" />
    <glyph glyph-name="asciicircum" unicode="^" horiz-adv-x="684" 
d="M41 748l225 665h150l227 -665h-123l-178 569l-180 -569h-121z" />
    <glyph glyph-name="underscore" unicode="_" horiz-adv-x="649" 
d="M-10 -176v90h669v-90h-669z" />
    <glyph glyph-name="grave" unicode="`" horiz-adv-x="452" 
d="M258 1094l-145 145v68h82l145 -146v-67h-82z" />
    <glyph glyph-name="a" unicode="a" horiz-adv-x="720" 
d="M213 0l-141 141v308l143 143h277v237l-74 74h-129l-74 -74v-118h-127v151l141 142h248l141 -142v-862h-94l-6 145l-145 -145h-160zM272 100h80l140 140v256h-213l-80 -80v-242z" />
    <glyph glyph-name="b" unicode="b" horiz-adv-x="755" 
d="M113 0v1413h127v-539l129 130h153l142 -142v-721l-142 -141h-164l-145 145l-4 -145h-96zM381 100h82l74 74v655l-74 74h-72l-151 -151v-510z" />
    <glyph glyph-name="c" unicode="c" horiz-adv-x="686" 
d="M233 0l-141 141v721l141 142h240l141 -142v-182h-127v149l-73 74h-121l-74 -74v-655l74 -74h121l73 74v150h127v-183l-141 -141h-240z" />
    <glyph glyph-name="d" unicode="d" horiz-adv-x="755" 
d="M233 0l-141 141v721l141 142h154l129 -130v539h127v-1413h-96l-4 145l-146 -145h-164zM293 100h82l141 142v510l-151 151h-72l-74 -74v-655z" />
    <glyph glyph-name="e" unicode="e" horiz-adv-x="714" 
d="M233 0l-141 141v721l141 142h259l141 -142v-387h-414v-301l74 -74h139l74 74v123h127v-156l-141 -141h-259zM219 575h287v254l-74 74h-139l-74 -74v-254z" />
    <glyph glyph-name="f" unicode="f" horiz-adv-x="491" 
d="M143 0v897h-112v107h112v272l138 137h211v-102h-154l-68 -68v-239h205v-107h-205v-897h-127z" />
    <glyph glyph-name="g" unicode="g" horiz-adv-x="755" 
d="M233 -348l-131 131v131h127v-98l64 -64h149l74 74v344l-129 -129h-154l-141 141v680l141 142h154l154 -154l6 154h96v-1211l-141 -141h-269zM293 141h82l141 142v469l-151 151h-72l-74 -74v-614z" />
    <glyph glyph-name="h" unicode="h" horiz-adv-x="745" 
d="M113 0v1413h127v-539l129 130h133l141 -142v-862h-127v829l-74 74h-51l-151 -151v-752h-127z" />
    <glyph glyph-name="i" unicode="i" horiz-adv-x="372" 
d="M250 0h-127v1004h127v-1004zM123 1174v212h127v-212h-127z" />
    <glyph glyph-name="j" unicode="j" horiz-adv-x="372" 
d="M-72 -348v102h127l68 68v1182h127v-1215l-137 -137h-185zM123 1174v212h127v-212h-127z" />
    <glyph glyph-name="k" unicode="k" horiz-adv-x="720" 
d="M543 0l-166 506l-144 -258v-248h-127v1413h127v-977l291 568h133l-202 -383l219 -621h-131z" />
    <glyph glyph-name="l" unicode="l" horiz-adv-x="372" 
d="M250 0h-127v1413h127v-1413z" />
    <glyph glyph-name="m" unicode="m" horiz-adv-x="1107" 
d="M113 0v1004h96l6 -154l154 154h104l129 -130l129 130h133l142 -142v-862h-127v829l-74 74h-51l-131 -131v-772h-127v829l-74 74h-31l-151 -151v-752h-127z" />
    <glyph glyph-name="n" unicode="n" horiz-adv-x="745" 
d="M113 0v1004h96l6 -154l154 154h133l141 -142v-862h-127v829l-74 74h-51l-151 -151v-752h-127z" />
    <glyph glyph-name="o" unicode="o" horiz-adv-x="731" 
d="M233 0l-141 141v721l141 142h265l141 -142v-721l-141 -141h-265zM293 100h145l74 74v655l-74 74h-145l-74 -74v-655z" />
    <glyph glyph-name="p" unicode="p" horiz-adv-x="755" 
d="M113 -348v1352h96l6 -154l154 154h153l142 -142v-721l-142 -141h-164l-118 119v-467h-127zM381 100h82l74 74v655l-74 74h-72l-151 -151v-510z" />
    <glyph glyph-name="q" unicode="q" horiz-adv-x="755" 
d="M516 -348v467l-119 -119h-164l-141 141v721l141 142h154l154 -154l6 154h96v-1352h-127zM293 100h82l141 142v510l-151 151h-72l-74 -74v-655z" />
    <glyph glyph-name="r" unicode="r" horiz-adv-x="520" 
d="M113 0v1004h96l6 -160l160 160h114v-115h-96l-153 -154v-735h-127z" />
    <glyph glyph-name="s" unicode="s" horiz-adv-x="700" 
d="M213 0l-131 131v160h127v-127l63 -64h146l74 74v236l-43 43h-250l-111 110v299l141 142h254l131 -132v-159h-127v127l-63 63h-135l-74 -74v-233l43 -43h250l110 -111v-301l-141 -141h-264z" />
    <glyph glyph-name="t" unicode="t" horiz-adv-x="548" 
d="M289 0l-142 141v756h-116v107h116v296h127v-296h224v-107h-224v-723l68 -68h156v-106h-209z" />
    <glyph glyph-name="u" unicode="u" horiz-adv-x="745" 
d="M244 0l-142 141v863h127v-830l74 -74h51l152 152v752h127v-1004h-96l-7 154l-153 -154h-133z" />
    <glyph glyph-name="v" unicode="v" horiz-adv-x="612" 
d="M209 0l-189 1004h127l164 -926l162 926h119l-189 -1004h-194z" />
    <glyph glyph-name="w" unicode="w" horiz-adv-x="993" 
d="M162 0l-142 1004h119l119 -918l158 918h172l153 -916l123 916h109l-142 -1004h-180l-151 915l-156 -915h-182z" />
    <glyph glyph-name="x" unicode="x" horiz-adv-x="649" 
d="M492 0l-170 428l-166 -428h-125l209 512l-199 492h127l156 -414l159 414h123l-200 -488l212 -516h-126z" />
    <glyph glyph-name="y" unicode="y" horiz-adv-x="612" 
d="M209 0l-189 1004h127l164 -924l162 924h119l-234 -1242l-110 -110h-211v102h153l70 70l33 176h-84z" />
    <glyph glyph-name="z" unicode="z" horiz-adv-x="595" 
d="M51 0v82l355 815h-345v107h482v-84l-357 -814h359v-106h-494z" />
    <glyph glyph-name="braceleft" unicode="{" horiz-adv-x="487" 
d="M299 -106l-149 149v557l-66 66h-84v118h80l70 70v514l149 150h137v-113h-71l-82 -82v-498l-99 -98l99 -98v-541l82 -82h71v-112h-137z" />
    <glyph glyph-name="bar" unicode="|" horiz-adv-x="438" 
d="M156 -127v1665h127v-1665h-127z" />
    <glyph glyph-name="braceright" unicode="}" horiz-adv-x="487" 
d="M338 43l-150 -149h-137v112h72l82 82v541l98 98l-98 98v498l-82 82h-72v113h137l150 -150v-514l70 -70h79v-118h-84l-65 -66v-557z" />
    <glyph glyph-name="asciitilde" unicode="~" horiz-adv-x="729" 
d="M41 1149v147l117 117h147l174 -174h39l68 68v106h102v-147l-117 -117h-147l-174 174h-39l-68 -68v-106h-102z" />
    <glyph glyph-name="exclamdown" unicode="&#xa1;" horiz-adv-x="374" 
d="M254 1040v-1040h-133v1040h133zM254 1413v-233h-133v233h133z" />
    <glyph glyph-name="cent" unicode="&#xa2;" horiz-adv-x="735" 
d="M242 145l-150 150v827l150 150h77v172h117v-172h78l150 -150v-243h-134v198l-81 82h-142l-82 -82v-737l82 -82h142l81 82v205h134v-250l-150 -150h-78v-178h-117v178h-77z" />
    <glyph glyph-name="sterling" unicode="&#xa3;" horiz-adv-x="747" 
d="M59 0v113l91 90v432h-99v119h99v510l149 149h248l149 -149v-254h-133v209l-82 81h-116l-82 -81v-465h258v-119h-258v-442l-80 -80h493v-113h-637z" />
    <glyph glyph-name="yen" unicode="&#xa5;" horiz-adv-x="710" 
d="M55 461v96h209l-244 856h140l198 -774l205 774h127l-244 -856h209v-96h-233v-123h233v-96h-233v-242h-133v242h-234v96h234v123h-234z" />
    <glyph glyph-name="section" unicode="&#xa7;" horiz-adv-x="747" 
d="M229 -195l-147 150v264h133v-221l82 -82h154l81 82v426h-399l-45 45v66h578v-580l-148 -150h-289zM88 696v568l150 149h274l150 -149v-265h-134v220l-82 81h-143l-82 -81v-412h393l45 -45v-66h-571z" />
    <glyph glyph-name="dieresis" unicode="&#xa8;" horiz-adv-x="555" 
d="M338 1114v164h104v-164h-104zM113 1114v164h104v-164h-104z" />
    <glyph glyph-name="copyright" unicode="&#xa9;" horiz-adv-x="1148" 
d="M461 211l-113 113v763l115 115h219l115 -115v-219h-133v183l-37 36h-109l-37 -36v-691l37 -36h109l37 36v183h133v-219l-113 -113h-223zM252 0l-150 150v1114l150 149h645l150 -149v-1114l-150 -150h-645zM317 113h514l82 82v1024l-82 81h-514l-81 -81v-1024z" />
    <glyph glyph-name="ordfeminine" unicode="&#xaa;" horiz-adv-x="567" 
d="M174 707l-113 112v189l113 112h219v148l-53 53h-109l-53 -53v-49h-106v81l112 113h209l113 -113v-593h-78l-6 98l-98 -98h-150zM227 799h76l90 90v139h-166l-53 -53v-123z" />
    <glyph glyph-name="guillemotleft" unicode="&#xab;" horiz-adv-x="620" 
d="M225 311l-190 404l190 407h119l-192 -407l192 -404h-119zM453 311l-191 404l191 407h118l-192 -407l192 -404h-118z" />
    <glyph glyph-name="registered" unicode="&#xae;" horiz-adv-x="667" 
d="M207 760v502h192l68 -68v-172l-57 -57l65 -205h-80l-57 190h-53v-190h-78zM168 608l-117 117v571l117 117h332l116 -117v-571l-116 -117h-332zM205 678h258l69 70v526l-69 69h-258l-70 -69v-526zM285 1016h67l37 37v110l-33 33h-71v-180z" />
    <glyph glyph-name="macron" unicode="&#xaf;" horiz-adv-x="575" 
d="M113 1151v94h350v-94h-350z" />
    <glyph glyph-name="degree" unicode="&#xb0;" horiz-adv-x="462" 
d="M141 983l-90 90v250l90 90h181l90 -90v-250l-90 -90h-181zM176 1057h111l37 37v209l-37 36h-111l-37 -36v-209z" />
    <glyph glyph-name="twosuperior" unicode="&#xb2;" horiz-adv-x="542" 
d="M61 711v282l89 88h180l43 43v146l-56 55h-90l-55 -55v-78h-109v117l105 104h209l104 -104v-232l-88 -88h-180l-43 -43v-143h307v-92h-416z" />
    <glyph glyph-name="threesuperior" unicode="&#xb3;" horiz-adv-x="559" 
d="M168 711l-107 104v113h111v-78l55 -55h101l61 61v129l-39 39h-166v84h166l39 39v127l-55 55h-107l-55 -55v-82h-111v117l107 104h225l105 -104v-176l-66 -66l66 -66v-186l-105 -104h-225z" />
    <glyph glyph-name="acute" unicode="&#xb4;" horiz-adv-x="452" 
d="M113 1094v67l145 146h82v-68l-145 -145h-82z" />
    <glyph glyph-name="paragraph" unicode="&#xb6;" horiz-adv-x="1013" 
d="M287 428h192v872h-192l-82 -81v-709zM768 1300h-156v-1497h-133v512h-258l-149 150v799l149 149h680v-1610h-133v1497z" />
    <glyph glyph-name="periodcentered" unicode="&#xb7;" horiz-adv-x="348" 
d="M102 625v206h144v-206h-144z" />
    <glyph glyph-name="cedilla" unicode="&#xb8;" horiz-adv-x="483" 
d="M113 -313v71h143l25 25v45l-25 25h-63l-37 36v111h86v-80h67l62 -61v-111l-62 -61h-196z" />
    <glyph glyph-name="onesuperior" unicode="&#xb9;" horiz-adv-x="466" 
d="M51 711v86h137v530h-137v86h246v-616h129v-86h-375z" />
    <glyph glyph-name="ordmasculine" unicode="&#xba;" horiz-adv-x="567" 
d="M174 707l-113 112v481l113 113h219l113 -113v-481l-113 -112h-219zM227 799h113l53 53v416l-53 53h-113l-53 -53v-416z" />
    <glyph glyph-name="guillemotright" unicode="&#xbb;" horiz-adv-x="620" 
d="M586 715l-191 -404h-119l193 404l-193 407h119zM358 715l-190 -404h-119l193 404l-193 407h119z" />
    <glyph glyph-name="onequarter" unicode="&#xbc;" horiz-adv-x="1187" 
d="M51 711v86h137v530h-137v86h246v-616h129v-86h-375zM231 0l590 1413h109l-590 -1413h-109zM973 0v170h-320v66l123 466h103l-109 -442h203v442h106v-442h68v-90h-68v-170h-106z" />
    <glyph glyph-name="onehalf" unicode="&#xbd;" horiz-adv-x="1165" 
d="M51 711v86h137v530h-137v86h246v-616h129v-86h-375zM231 0l590 1413h109l-590 -1413h-109zM684 0v283l88 88h180l43 43v145l-55 55h-90l-55 -55v-78h-109v117l105 104h208l105 -104v-231l-88 -88h-180l-43 -43v-144h307v-92h-416z" />
    <glyph glyph-name="threequarters" unicode="&#xbe;" horiz-adv-x="1218" 
d="M168 711l-107 104v113h111v-78l55 -55h101l61 61v129l-39 39h-166v84h166l39 39v127l-55 55h-107l-55 -55v-82h-111v117l107 104h225l105 -104v-176l-66 -66l66 -66v-186l-105 -104h-225zM262 0l590 1413h109l-590 -1413h-109zM1004 0v170h-320v66l123 466h102l-108 -442
h203v442h106v-442h68v-90h-68v-170h-106z" />
    <glyph glyph-name="questiondown" unicode="&#xbf;" horiz-adv-x="700" 
d="M461 1040v-297l-111 -110h-121l-34 -35v-403l81 -82h158l82 82v170h133v-215l-149 -150h-289l-150 150v493l111 111h121l35 34v252h133zM461 1413v-233h-133v233h133z" />
    <glyph glyph-name="Agrave" unicode="&#xc0;" horiz-adv-x="724" 
d="M20 0l246 1413h193l246 -1413h-132l-67 414h-293l-66 -414h-127zM358 1327l-127 -795h256zM354 1503l-145 146v67h82l145 -145v-68h-82z" />
    <glyph glyph-name="Aacute" unicode="&#xc1;" horiz-adv-x="724" 
d="M20 0l246 1413h193l246 -1413h-132l-67 414h-293l-66 -414h-127zM358 1327l-127 -795h256zM289 1503v68l145 145h82v-67l-145 -146h-82z" />
    <glyph glyph-name="Acircumflex" unicode="&#xc2;" horiz-adv-x="724" 
d="M20 0l246 1413h193l246 -1413h-132l-67 414h-293l-66 -414h-127zM358 1327l-127 -795h256zM164 1516v61l139 139h121l139 -139v-61h-65l-125 124h-19l-125 -124h-65z" />
    <glyph glyph-name="Atilde" unicode="&#xc3;" horiz-adv-x="724" 
d="M20 0l246 1413h193l246 -1413h-132l-67 414h-293l-66 -414h-127zM358 1327l-127 -795h256zM147 1516v98l76 76h113l96 -97h33l27 27v70h88v-99l-76 -75h-113l-96 96h-33l-26 -27v-69h-89z" />
    <glyph glyph-name="Adieresis" unicode="&#xc4;" horiz-adv-x="724" 
d="M20 0l246 1413h193l246 -1413h-132l-67 414h-293l-66 -414h-127zM358 1327l-127 -795h256zM424 1524v164h104v-164h-104zM199 1524v164h104v-164h-104z" />
    <glyph glyph-name="Aring" unicode="&#xc5;" horiz-adv-x="724" 
d="M20 0l246 1413h193l246 -1413h-132l-67 414h-293l-66 -414h-127zM358 1327l-127 -795h256zM285 1481l-64 63v125l66 66h155l64 -64v-127l-64 -63h-157zM319 1536h89l28 29v84l-28 28h-89l-28 -28v-84z" />
    <glyph glyph-name="AE" unicode="&#xc6;" horiz-adv-x="1009" 
d="M20 0l246 1413h684v-113h-473l94 -532h353v-113h-334l94 -542h270v-113h-381l-67 414h-293l-66 -414h-127zM358 1327l-127 -795h256z" />
    <glyph glyph-name="Ccedilla" unicode="&#xc7;" horiz-adv-x="745" 
d="M252 0l-150 150v1114l150 149h272l150 -149v-244h-133v199l-82 81h-142l-81 -81v-1024l81 -82h142l82 82v204h133v-249l-150 -150h-110v-80h67l62 -61v-111l-62 -61h-196v71h143l25 25v45l-25 25h-63l-37 36v111h-76z" />
    <glyph glyph-name="Egrave" unicode="&#xc8;" horiz-adv-x="673" 
d="M113 0v1413h501v-113h-368v-532h342v-113h-342v-542h372v-113h-505zM356 1503l-145 146v67h82l145 -145v-68h-82z" />
    <glyph glyph-name="Eacute" unicode="&#xc9;" horiz-adv-x="673" 
d="M113 0v1413h501v-113h-368v-532h342v-113h-342v-542h372v-113h-505zM291 1503v68l145 145h82v-67l-145 -146h-82z" />
    <glyph glyph-name="Ecircumflex" unicode="&#xca;" horiz-adv-x="673" 
d="M113 0v1413h501v-113h-368v-532h342v-113h-342v-542h372v-113h-505zM166 1516v61l139 139h121l139 -139v-61h-65l-125 124h-19l-125 -124h-65z" />
    <glyph glyph-name="Edieresis" unicode="&#xcb;" horiz-adv-x="673" 
d="M113 0v1413h501v-113h-368v-532h342v-113h-342v-542h372v-113h-505zM426 1524v164h104v-164h-104zM201 1524v164h104v-164h-104z" />
    <glyph glyph-name="Igrave" unicode="&#xcc;" horiz-adv-x="569" 
d="M51 0v102h168v1209h-168v102h467v-102h-166v-1209h166v-102h-467zM276 1503l-145 146v67h82l145 -145v-68h-82z" />
    <glyph glyph-name="Iacute" unicode="&#xcd;" horiz-adv-x="569" 
d="M51 0v102h168v1209h-168v102h467v-102h-166v-1209h166v-102h-467zM211 1503v68l145 145h82v-67l-145 -146h-82z" />
    <glyph glyph-name="Icircumflex" unicode="&#xce;" horiz-adv-x="569" 
d="M51 0v102h168v1209h-168v102h467v-102h-166v-1209h166v-102h-467zM86 1516v61l139 139h121l139 -139v-61h-65l-125 124h-19l-124 -124h-66z" />
    <glyph glyph-name="Idieresis" unicode="&#xcf;" horiz-adv-x="569" 
d="M51 0v102h168v1209h-168v102h467v-102h-166v-1209h166v-102h-467zM346 1524v164h105v-164h-105zM121 1524v164h104v-164h-104z" />
    <glyph glyph-name="Eth" unicode="&#xd0;" horiz-adv-x="817" 
d="M20 637v127h103v649h442l150 -149v-1114l-150 -150h-442v637h-103zM256 113h244l82 82v1024l-82 81h-244v-536h166v-127h-166v-524z" />
    <glyph glyph-name="Ntilde" unicode="&#xd1;" 
d="M113 0v1413h110l375 -1063v1063h119v-1413h-111l-375 1069v-1069h-118zM199 1516v98l75 76h113l96 -97h33l27 27v70h88v-99l-76 -75h-113l-96 96h-33l-26 -27v-69h-88z" />
    <glyph glyph-name="Ograve" unicode="&#xd2;" horiz-adv-x="806" 
d="M252 0l-150 150v1114l150 149h303l150 -149v-1114l-150 -150h-303zM317 113h172l82 82v1024l-82 81h-172l-81 -81v-1024zM395 1503l-145 146v67h82l145 -145v-68h-82z" />
    <glyph glyph-name="Oacute" unicode="&#xd3;" horiz-adv-x="806" 
d="M252 0l-150 150v1114l150 149h303l150 -149v-1114l-150 -150h-303zM317 113h172l82 82v1024l-82 81h-172l-81 -81v-1024zM330 1503v68l145 145h82v-67l-145 -146h-82z" />
    <glyph glyph-name="Ocircumflex" unicode="&#xd4;" horiz-adv-x="806" 
d="M252 0l-150 150v1114l150 149h303l150 -149v-1114l-150 -150h-303zM317 113h172l82 82v1024l-82 81h-172l-81 -81v-1024zM205 1516v61l139 139h121l139 -139v-61h-65l-125 124h-19l-125 -124h-65z" />
    <glyph glyph-name="Otilde" unicode="&#xd5;" horiz-adv-x="806" 
d="M252 0l-150 150v1114l150 149h303l150 -149v-1114l-150 -150h-303zM317 113h172l82 82v1024l-82 81h-172l-81 -81v-1024zM188 1516v98l76 76h113l96 -97h33l26 27v70h89v-99l-76 -75h-113l-96 96h-33l-27 -27v-69h-88z" />
    <glyph glyph-name="Odieresis" unicode="&#xd6;" horiz-adv-x="806" 
d="M252 0l-150 150v1114l150 149h303l150 -149v-1114l-150 -150h-303zM317 113h172l82 82v1024l-82 81h-172l-81 -81v-1024zM465 1524v164h104v-164h-104zM240 1524v164h104v-164h-104z" />
    <glyph glyph-name="multiply" unicode="&#xd7;" horiz-adv-x="673" 
d="M119 412l-74 73l217 217l-217 218l76 75l217 -217l217 217l76 -75l-219 -218l219 -217l-76 -73l-219 217z" />
    <glyph glyph-name="Oslash" unicode="&#xd8;" horiz-adv-x="806" 
d="M252 0l-150 150v1114l150 149h303l150 -149v-1114l-150 -150h-303zM317 113h172l82 82v1024l-8 8l-250 -1110zM244 186l250 1110l-5 4h-172l-81 -81v-1024z" />
    <glyph glyph-name="Ugrave" unicode="&#xd9;" horiz-adv-x="796" 
d="M258 0l-149 150v1263h133v-1218l82 -82h149l82 82v1218h133v-1263l-149 -150h-281zM389 1503l-145 146v67h82l145 -145v-68h-82z" />
    <glyph glyph-name="Uacute" unicode="&#xda;" horiz-adv-x="796" 
d="M258 0l-149 150v1263h133v-1218l82 -82h149l82 82v1218h133v-1263l-149 -150h-281zM324 1503v68l145 145h82v-67l-145 -146h-82z" />
    <glyph glyph-name="Ucircumflex" unicode="&#xdb;" horiz-adv-x="796" 
d="M258 0l-149 150v1263h133v-1218l82 -82h149l82 82v1218h133v-1263l-149 -150h-281zM199 1516v61l139 139h121l139 -139v-61h-66l-124 124h-19l-125 -124h-65z" />
    <glyph glyph-name="Udieresis" unicode="&#xdc;" horiz-adv-x="796" 
d="M258 0l-149 150v1263h133v-1218l82 -82h149l82 82v1218h133v-1263l-149 -150h-281zM459 1524v164h104v-164h-104zM233 1524v164h105v-164h-105z" />
    <glyph glyph-name="Yacute" unicode="&#xdd;" horiz-adv-x="710" 
d="M289 0v471l-269 942h140l198 -774l205 774h127l-268 -942v-471h-133zM281 1503v68l145 145h82v-67l-146 -146h-81z" />
    <glyph glyph-name="Thorn" unicode="&#xde;" horiz-adv-x="741" 
d="M113 0v1413h133v-256h295l149 -149v-535l-149 -149h-295v-324h-133zM246 436h229l82 82v445l-82 81h-229v-608z" />
    <glyph glyph-name="germandbls" unicode="&#xdf;" horiz-adv-x="782" 
d="M113 0v1272l141 141h301l141 -141v-430l-92 -92l92 -93v-516l-141 -141h-223v100h164l73 74v461l-65 65h-172v101h174l63 63v375l-73 74h-183l-73 -74v-1239h-127z" />
    <glyph glyph-name="agrave" unicode="&#xe0;" horiz-adv-x="720" 
d="M213 0l-141 141v308l143 143h277v237l-74 74h-129l-74 -74v-118h-127v151l141 142h248l141 -142v-862h-94l-6 145l-145 -145h-160zM272 100h80l140 140v256h-213l-80 -80v-242zM336 1094l-146 145v68h82l146 -146v-67h-82z" />
    <glyph glyph-name="aacute" unicode="&#xe1;" horiz-adv-x="720" 
d="M213 0l-141 141v308l143 143h277v237l-74 74h-129l-74 -74v-118h-127v151l141 142h248l141 -142v-862h-94l-6 145l-145 -145h-160zM272 100h80l140 140v256h-213l-80 -80v-242zM270 1094v67l146 146h82v-68l-146 -145h-82z" />
    <glyph glyph-name="acircumflex" unicode="&#xe2;" horiz-adv-x="720" 
d="M213 0l-141 141v308l143 143h277v237l-74 74h-129l-74 -74v-118h-127v151l141 142h248l141 -142v-862h-94l-6 145l-145 -145h-160zM272 100h80l140 140v256h-213l-80 -80v-242zM145 1106v61l140 140h121l139 -140v-61h-66l-125 125h-18l-125 -125h-66z" />
    <glyph glyph-name="atilde" unicode="&#xe3;" horiz-adv-x="720" 
d="M213 0l-141 141v308l143 143h277v237l-74 74h-129l-74 -74v-118h-127v151l141 142h248l141 -142v-862h-94l-6 145l-145 -145h-160zM272 100h80l140 140v256h-213l-80 -80v-242zM129 1106v98l76 76h112l97 -96h32l27 26v70h88v-98l-76 -76h-112l-97 96h-32l-27 -26v-70
h-88z" />
    <glyph glyph-name="adieresis" unicode="&#xe4;" horiz-adv-x="720" 
d="M213 0l-141 141v308l143 143h277v237l-74 74h-129l-74 -74v-118h-127v151l141 142h248l141 -142v-862h-94l-6 145l-145 -145h-160zM272 100h80l140 140v256h-213l-80 -80v-242zM406 1114v164h104v-164h-104zM180 1114v164h105v-164h-105z" />
    <glyph glyph-name="aring" unicode="&#xe5;" horiz-adv-x="720" 
d="M213 0l-141 141v308l143 143h277v237l-74 74h-129l-74 -74v-118h-127v151l141 142h248l141 -142v-862h-94l-6 145l-145 -145h-160zM272 100h80l140 140v256h-213l-80 -80v-242zM266 1071l-63 64v125l65 65h156l63 -63v-127l-63 -64h-158zM301 1126h88l29 29v84l-29 29
h-88l-29 -29v-84z" />
    <glyph glyph-name="ae" unicode="&#xe6;" horiz-adv-x="1114" 
d="M213 0l-141 141v291l143 143h277v254l-74 74h-129l-74 -74v-118h-127v151l141 142h230l96 -97l96 97h240l141 -142v-385h-414v-303l74 -74h139l74 74v123h127v-156l-141 -141h-240l-96 96l-96 -96h-246zM272 100h146l74 74v303h-216l-77 -78v-225zM618 575h287v254
l-74 74h-139l-74 -74v-254z" />
    <glyph glyph-name="ccedilla" unicode="&#xe7;" horiz-adv-x="686" 
d="M233 0l-141 141v721l141 142h240l141 -142v-182h-127v149l-73 74h-121l-74 -74v-655l74 -74h121l73 74v150h127v-183l-141 -141h-94v-80h67l62 -61v-111l-62 -61h-196v71h143l25 25v45l-25 25h-63l-37 36v111h-60z" />
    <glyph glyph-name="egrave" unicode="&#xe8;" horiz-adv-x="714" 
d="M233 0l-141 141v721l141 142h259l141 -142v-387h-414v-301l74 -74h139l74 74v123h127v-156l-141 -141h-259zM219 575h287v254l-74 74h-139l-74 -74v-254zM354 1094l-145 145v68h82l145 -146v-67h-82z" />
    <glyph glyph-name="eacute" unicode="&#xe9;" horiz-adv-x="714" 
d="M233 0l-141 141v721l141 142h259l141 -142v-387h-414v-301l74 -74h139l74 74v123h127v-156l-141 -141h-259zM219 575h287v254l-74 74h-139l-74 -74v-254zM289 1094v67l145 146h82v-68l-145 -145h-82z" />
    <glyph glyph-name="ecircumflex" unicode="&#xea;" horiz-adv-x="714" 
d="M233 0l-141 141v721l141 142h259l141 -142v-387h-414v-301l74 -74h139l74 74v123h127v-156l-141 -141h-259zM219 575h287v254l-74 74h-139l-74 -74v-254zM164 1106v61l139 140h121l139 -140v-61h-65l-125 125h-19l-125 -125h-65z" />
    <glyph glyph-name="edieresis" unicode="&#xeb;" horiz-adv-x="714" 
d="M233 0l-141 141v721l141 142h259l141 -142v-387h-414v-301l74 -74h139l74 74v123h127v-156l-141 -141h-259zM219 575h287v254l-74 74h-139l-74 -74v-254zM424 1114v164h104v-164h-104zM199 1114v164h104v-164h-104z" />
    <glyph glyph-name="igrave" unicode="&#xec;" horiz-adv-x="372" 
d="M250 0h-127v1004h127v-1004zM178 1094l-145 145v68h82l145 -146v-67h-82z" />
    <glyph glyph-name="iacute" unicode="&#xed;" horiz-adv-x="372" 
d="M250 0h-127v1004h127v-1004zM113 1094v67l145 146h82v-68l-145 -145h-82z" />
    <glyph glyph-name="icircumflex" unicode="&#xee;" horiz-adv-x="372" 
d="M250 0h-127v1004h127v-1004zM-12 1106v61l139 140h121l139 -140v-61h-65l-125 125h-19l-125 -125h-65z" />
    <glyph glyph-name="idieresis" unicode="&#xef;" horiz-adv-x="372" 
d="M250 0h-127v1004h127v-1004zM248 1114v164h104v-164h-104zM23 1114v164h104v-164h-104z" />
    <glyph glyph-name="eth" unicode="&#xf0;" horiz-adv-x="745" 
d="M233 0l-141 141v721l141 142h154l129 -130v267l-248 248v24h135l220 -219l110 111h25v-111l-115 -115v-938l-141 -141h-269zM293 100h149l74 74v578l-151 151h-72l-74 -74v-655z" />
    <glyph glyph-name="ntilde" unicode="&#xf1;" horiz-adv-x="745" 
d="M113 0v1004h96l6 -154l154 154h133l141 -142v-862h-127v829l-74 74h-51l-151 -151v-752h-127zM172 1106v98l76 76h112l97 -96h32l27 26v70h88v-98l-76 -76h-112l-97 96h-32l-27 -26v-70h-88z" />
    <glyph glyph-name="ograve" unicode="&#xf2;" horiz-adv-x="731" 
d="M233 0l-141 141v721l141 142h265l141 -142v-721l-141 -141h-265zM293 100h145l74 74v655l-74 74h-145l-74 -74v-655zM356 1094l-145 145v68h82l145 -146v-67h-82z" />
    <glyph glyph-name="oacute" unicode="&#xf3;" horiz-adv-x="731" 
d="M233 0l-141 141v721l141 142h265l141 -142v-721l-141 -141h-265zM293 100h145l74 74v655l-74 74h-145l-74 -74v-655zM291 1094v67l145 146h82v-68l-145 -145h-82z" />
    <glyph glyph-name="ocircumflex" unicode="&#xf4;" horiz-adv-x="731" 
d="M233 0l-141 141v721l141 142h265l141 -142v-721l-141 -141h-265zM293 100h145l74 74v655l-74 74h-145l-74 -74v-655zM166 1106v61l139 140h121l139 -140v-61h-65l-125 125h-19l-125 -125h-65z" />
    <glyph glyph-name="otilde" unicode="&#xf5;" horiz-adv-x="731" 
d="M233 0l-141 141v721l141 142h265l141 -142v-721l-141 -141h-265zM293 100h145l74 74v655l-74 74h-145l-74 -74v-655zM150 1106v98l75 76h113l96 -96h33l27 26v70h88v-98l-76 -76h-113l-96 96h-33l-26 -26v-70h-88z" />
    <glyph glyph-name="odieresis" unicode="&#xf6;" horiz-adv-x="731" 
d="M233 0l-141 141v721l141 142h265l141 -142v-721l-141 -141h-265zM293 100h145l74 74v655l-74 74h-145l-74 -74v-655zM426 1114v164h104v-164h-104zM201 1114v164h104v-164h-104z" />
    <glyph glyph-name="divide" unicode="&#xf7;" horiz-adv-x="657" 
d="M266 358v160h125v-160h-125zM37 647v115h584v-115h-584zM266 889v160h125v-160h-125z" />
    <glyph glyph-name="oslash" unicode="&#xf8;" horiz-adv-x="731" 
d="M233 0l-141 141v721l141 142h265l141 -142v-721l-141 -141h-265zM223 152l230 751h-160l-74 -74v-673zM279 100h159l74 74v674l-4 4z" />
    <glyph glyph-name="ugrave" unicode="&#xf9;" horiz-adv-x="745" 
d="M244 0l-142 141v863h127v-830l74 -74h51l152 152v752h127v-1004h-96l-7 154l-153 -154h-133zM358 1094l-145 145v68h82l145 -146v-67h-82z" />
    <glyph glyph-name="uacute" unicode="&#xfa;" horiz-adv-x="745" 
d="M244 0l-142 141v863h127v-830l74 -74h51l152 152v752h127v-1004h-96l-7 154l-153 -154h-133zM293 1094v67l145 146h82v-68l-145 -145h-82z" />
    <glyph glyph-name="ucircumflex" unicode="&#xfb;" horiz-adv-x="745" 
d="M244 0l-142 141v863h127v-830l74 -74h51l152 152v752h127v-1004h-96l-7 154l-153 -154h-133zM168 1106v61l139 140h121l139 -140v-61h-65l-125 125h-19l-125 -125h-65z" />
    <glyph glyph-name="udieresis" unicode="&#xfc;" horiz-adv-x="745" 
d="M244 0l-142 141v863h127v-830l74 -74h51l152 152v752h127v-1004h-96l-7 154l-153 -154h-133zM428 1114v164h104v-164h-104zM203 1114v164h104v-164h-104z" />
    <glyph glyph-name="yacute" unicode="&#xfd;" horiz-adv-x="612" 
d="M209 0l-189 1004h127l164 -924l162 924h119l-234 -1242l-110 -110h-211v102h153l70 70l33 176h-84zM231 1094v67l146 146h82v-68l-146 -145h-82z" />
    <glyph glyph-name="thorn" unicode="&#xfe;" horiz-adv-x="755" 
d="M113 -348v1761h127v-539l129 130h153l142 -142v-721l-142 -141h-164l-118 119v-467h-127zM381 100h82l74 74v655l-74 74h-72l-151 -151v-510z" />
    <glyph glyph-name="ydieresis" unicode="&#xff;" horiz-adv-x="612" 
d="M209 0l-189 1004h127l164 -924l162 924h119l-234 -1242l-110 -110h-211v102h153l70 70l33 176h-84zM367 1114v164h104v-164h-104zM141 1114v164h105v-164h-105z" />
    <glyph glyph-name="Amacron" unicode="&#x100;" horiz-adv-x="724" 
d="M20 0l246 1413h193l246 -1413h-132l-67 414h-293l-66 -414h-127zM358 1327l-127 -795h256zM188 1561v94h351v-94h-351z" />
    <glyph glyph-name="amacron" unicode="&#x101;" horiz-adv-x="720" 
d="M213 0l-141 141v308l143 143h277v237l-74 74h-129l-74 -74v-118h-127v151l141 142h248l141 -142v-862h-94l-6 145l-145 -145h-160zM272 100h80l140 140v256h-213l-80 -80v-242zM170 1151v94h350v-94h-350z" />
    <glyph glyph-name="Abreve" unicode="&#x102;" horiz-adv-x="724" 
d="M20 0l246 1413h193l246 -1413h-132l-67 414h-293l-66 -414h-127zM358 1327l-127 -795h256zM250 1524l-76 75v91h96v-62l29 -29h129l29 29v62h96v-91l-76 -75h-227z" />
    <glyph glyph-name="abreve" unicode="&#x103;" horiz-adv-x="720" 
d="M213 0l-141 141v308l143 143h277v237l-74 74h-129l-74 -74v-118h-127v151l141 142h248l141 -142v-862h-94l-6 145l-145 -145h-160zM272 100h80l140 140v256h-213l-80 -80v-242zM231 1114l-75 76v90h96v-61l29 -29h129l28 29v61h97v-90l-76 -76h-228z" />
    <glyph glyph-name="Aogonek" unicode="&#x104;" horiz-adv-x="724" 
d="M20 0l246 1413h193l246 -1413h-31l-129 -129v-82l30 -31h99v-71h-158l-61 61v141l116 117l-65 408h-293l-66 -414h-127zM358 1327l-127 -795h256z" />
    <glyph glyph-name="aogonek" unicode="&#x105;" horiz-adv-x="720" 
d="M213 0l-141 141v308l143 143h277v237l-74 74h-129l-74 -74v-118h-127v151l141 142h248l141 -142v-862l-129 -129v-82l31 -31h98v-71h-157l-62 61v141l123 123l-4 133l-145 -145h-160zM272 100h80l140 140v256h-213l-80 -80v-242z" />
    <glyph glyph-name="Cacute" unicode="&#x106;" horiz-adv-x="745" 
d="M252 0l-150 150v1114l150 149h272l150 -149v-244h-133v199l-82 81h-142l-81 -81v-1024l81 -82h142l82 82v204h133v-249l-150 -150h-272zM313 1503v68l146 145h82v-67l-146 -146h-82z" />
    <glyph glyph-name="cacute" unicode="&#x107;" horiz-adv-x="686" 
d="M233 0l-141 141v721l141 142h240l141 -142v-182h-127v149l-73 74h-121l-74 -74v-655l74 -74h121l73 74v150h127v-183l-141 -141h-240zM279 1094v67l145 146h82v-68l-146 -145h-81z" />
    <glyph glyph-name="Ccircumflex" unicode="&#x108;" horiz-adv-x="745" 
d="M252 0l-150 150v1114l150 149h272l150 -149v-244h-133v199l-82 81h-142l-81 -81v-1024l81 -82h142l82 82v204h133v-249l-150 -150h-272zM188 1516v61l140 139h121l139 -139v-61h-66l-125 124h-18l-125 -124h-66z" />
    <glyph glyph-name="ccircumflex" unicode="&#x109;" horiz-adv-x="686" 
d="M233 0l-141 141v721l141 142h240l141 -142v-182h-127v149l-73 74h-121l-74 -74v-655l74 -74h121l73 74v150h127v-183l-141 -141h-240zM154 1106v61l139 140h121l139 -140v-61h-66l-125 125h-18l-125 -125h-65z" />
    <glyph glyph-name="Ccaron" unicode="&#x10c;" horiz-adv-x="745" 
d="M252 0l-150 150v1114l150 149h272l150 -149v-244h-133v199l-82 81h-142l-81 -81v-1024l81 -82h142l82 82v204h133v-249l-150 -150h-272zM328 1516l-140 139v61h66l125 -125h18l125 125h66v-61l-139 -139h-121z" />
    <glyph glyph-name="ccaron" unicode="&#x10d;" horiz-adv-x="686" 
d="M233 0l-141 141v721l141 142h240l141 -142v-182h-127v149l-73 74h-121l-74 -74v-655l74 -74h121l73 74v150h127v-183l-141 -141h-240zM293 1106l-139 139v62h65l125 -125h18l125 125h66v-62l-139 -139h-121z" />
    <glyph glyph-name="Dcaron" unicode="&#x10e;" horiz-adv-x="806" 
d="M113 0v1413h442l150 -149v-1114l-150 -150h-442zM246 113h243l82 82v1024l-82 81h-243v-1187zM328 1516l-140 139v61h66l125 -125h18l125 125h66v-61l-139 -139h-121z" />
    <glyph glyph-name="dcaron" unicode="&#x10f;" horiz-adv-x="755" 
d="M233 0l-141 141v721l141 142h154l129 -130v539h127v-1413h-96l-4 145l-146 -145h-164zM293 100h82l141 142v510l-151 151h-72l-74 -74v-655zM725 1169v244h104v-205l-41 -39h-63z" />
    <glyph glyph-name="Dcroat" unicode="&#x110;" horiz-adv-x="817" 
d="M20 637v127h103v649h442l150 -149v-1114l-150 -150h-442v637h-103zM256 113h244l82 82v1024l-82 81h-244v-536h166v-127h-166v-524z" />
    <glyph glyph-name="dcroat" unicode="&#x111;" horiz-adv-x="755" 
d="M375 1143v108h141v162h127v-162h82v-108h-82v-1143h-96l-4 145l-146 -145h-164l-141 141v721l141 142h154l129 -130v269h-141zM293 100h82l141 142v510l-151 151h-72l-74 -74v-655z" />
    <glyph glyph-name="Emacron" unicode="&#x112;" horiz-adv-x="673" 
d="M113 0v1413h501v-113h-368v-532h342v-113h-342v-542h372v-113h-505zM190 1561v94h351v-94h-351z" />
    <glyph glyph-name="emacron" unicode="&#x113;" horiz-adv-x="714" 
d="M233 0l-141 141v721l141 142h259l141 -142v-387h-414v-301l74 -74h139l74 74v123h127v-156l-141 -141h-259zM219 575h287v254l-74 74h-139l-74 -74v-254zM188 1151v94h351v-94h-351z" />
    <glyph glyph-name="Edotaccent" unicode="&#x116;" horiz-adv-x="673" 
d="M113 0v1413h501v-113h-368v-532h342v-113h-342v-542h372v-113h-505zM319 1522l-36 37v104l36 37h93l37 -37v-104l-37 -37h-93z" />
    <glyph glyph-name="edotaccent" unicode="&#x117;" horiz-adv-x="714" 
d="M233 0l-141 141v721l141 142h259l141 -142v-387h-414v-301l74 -74h139l74 74v123h127v-156l-141 -141h-259zM219 575h287v254l-74 74h-139l-74 -74v-254zM317 1112l-36 37v104l36 37h93l36 -37v-104l-36 -37h-93z" />
    <glyph glyph-name="Eogonek" unicode="&#x118;" horiz-adv-x="673" 
d="M113 0v1413h501v-113h-368v-532h342v-113h-342v-542h372v-113l-129 -129v-82l31 -31h98v-71h-157l-62 61v141l111 111h-397z" />
    <glyph glyph-name="eogonek" unicode="&#x119;" horiz-adv-x="714" 
d="M233 0l-141 141v721l141 142h259l141 -142v-387h-414v-301l74 -74h139l74 74v123h127v-156l-271 -270v-82l31 -31h99v-71h-158l-62 61v141l111 111h-150zM219 575h287v254l-74 74h-139l-74 -74v-254z" />
    <glyph glyph-name="Ecaron" unicode="&#x11a;" horiz-adv-x="673" 
d="M113 0v1413h501v-113h-368v-532h342v-113h-342v-542h372v-113h-505zM305 1516l-139 139v61h65l125 -125h19l125 125h65v-61l-139 -139h-121z" />
    <glyph glyph-name="ecaron" unicode="&#x11b;" horiz-adv-x="714" 
d="M233 0l-141 141v721l141 142h259l141 -142v-387h-414v-301l74 -74h139l74 74v123h127v-156l-141 -141h-259zM219 575h287v254l-74 74h-139l-74 -74v-254zM303 1106l-139 139v62h65l125 -125h19l125 125h65v-62l-139 -139h-121z" />
    <glyph glyph-name="Gcircumflex" unicode="&#x11c;" horiz-adv-x="784" 
d="M252 0l-150 150v1114l150 149h285l149 -149v-215h-133v170l-82 81h-154l-81 -81v-1024l81 -82h160l82 82v407h-176v113h309v-565l-149 -150h-291zM199 1516v61l139 139h121l139 -139v-61h-66l-124 124h-19l-125 -124h-65z" />
    <glyph glyph-name="gcircumflex" unicode="&#x11d;" horiz-adv-x="755" 
d="M233 -348l-131 131v131h127v-98l64 -64h149l74 74v344l-129 -129h-154l-141 141v680l141 142h154l154 -154l6 154h96v-1211l-141 -141h-269zM293 141h82l141 142v469l-151 151h-72l-74 -74v-614zM158 1106v61l139 140h121l139 -140v-61h-65l-125 125h-19l-125 -125h-65z
" />
    <glyph glyph-name="Gbreve" unicode="&#x11e;" horiz-adv-x="784" 
d="M252 0l-150 150v1114l150 149h285l149 -149v-215h-133v170l-82 81h-154l-81 -81v-1024l81 -82h160l82 82v407h-176v113h309v-565l-149 -150h-291zM285 1524l-76 75v91h96v-62l29 -29h129l29 29v62h96v-91l-76 -75h-227z" />
    <glyph glyph-name="gbreve" unicode="&#x11f;" horiz-adv-x="755" 
d="M233 -348l-131 131v131h127v-98l64 -64h149l74 74v344l-129 -129h-154l-141 141v680l141 142h154l154 -154l6 154h96v-1211l-141 -141h-269zM293 141h82l141 142v469l-151 151h-72l-74 -74v-614zM244 1114l-76 76v90h96v-61l29 -29h129l29 29v61h96v-90l-76 -76h-227z
" />
    <glyph glyph-name="Gcommaaccent" unicode="&#x122;" horiz-adv-x="784" 
d="M252 0l-150 150v1114l150 149h285l149 -149v-215h-133v170l-82 81h-154l-81 -81v-1024l81 -82h160l82 82v407h-176v113h309v-565l-149 -150h-291zM346 -313v243h105v-204l-41 -39h-64z" />
    <glyph glyph-name="gcommaaccent" unicode="&#x123;" horiz-adv-x="755" 
d="M233 -348l-131 131v131h127v-98l64 -64h149l74 74v344l-129 -129h-154l-141 141v680l141 142h154l154 -154l6 154h96v-1211l-141 -141h-269zM293 141h82l141 142v469l-151 151h-72l-74 -74v-614zM428 1329v-244h-104v205l41 39h63z" />
    <glyph glyph-name="Hcircumflex" unicode="&#x124;" horiz-adv-x="815" 
d="M113 0v1413h133v-649h323v649h133v-1413h-133v637h-323v-637h-133zM209 1516v61l139 139h121l139 -139v-61h-65l-125 124h-19l-125 -124h-65z" />
    <glyph glyph-name="hcircumflex" unicode="&#x125;" horiz-adv-x="745" 
d="M113 0v1413h127v-539l129 130h133l141 -142v-862h-127v829l-74 74h-51l-151 -151v-752h-127zM-25 1452v61l140 140h121l139 -140v-61h-66l-125 125h-18l-125 -125h-66z" />
    <glyph glyph-name="Imacron" unicode="&#x12a;" horiz-adv-x="569" 
d="M51 0v102h168v1209h-168v102h467v-102h-166v-1209h166v-102h-467zM111 1561v94h350v-94h-350z" />
    <glyph glyph-name="imacron" unicode="&#x12b;" horiz-adv-x="372" 
d="M250 0h-127v1004h127v-1004zM12 1151v94h350v-94h-350z" />
    <glyph glyph-name="Iogonek" unicode="&#x12e;" horiz-adv-x="569" 
d="M51 0v102h168v1209h-168v102h467v-102h-166v-1209h166v-102h-186l-129 -129v-82l30 -31h99v-71h-158l-61 61v141l110 111h-172z" />
    <glyph glyph-name="iogonek" unicode="&#x12f;" horiz-adv-x="372" 
d="M250 0h-19l-129 -129v-82l31 -31h98v-71h-157l-62 61v141l111 111v1004h127v-1004zM123 1174v212h127v-212h-127z" />
    <glyph glyph-name="Idotaccent" unicode="&#x130;" horiz-adv-x="569" 
d="M51 0v102h168v1209h-168v102h467v-102h-166v-1209h166v-102h-467zM240 1522l-37 37v104l37 37h92l37 -37v-104l-37 -37h-92z" />
    <glyph glyph-name="dotlessi" unicode="&#x131;" horiz-adv-x="372" 
d="M250 0h-127v1004h127v-1004z" />
    <glyph glyph-name="Jcircumflex" unicode="&#x134;" horiz-adv-x="520" 
d="M20 0v113h177l82 82v1218h133v-1263l-150 -150h-242zM145 1516v61l140 139h121l139 -139v-61h-66l-125 124h-18l-125 -124h-66z" />
    <glyph glyph-name="jcircumflex" unicode="&#x135;" horiz-adv-x="372" 
d="M-72 -348v102h127l68 68v1182h127v-1215l-137 -137h-185zM-14 1106v61l139 140h121l139 -140v-61h-66l-124 125h-19l-125 -125h-65z" />
    <glyph glyph-name="Kcommaaccent" unicode="&#x136;" horiz-adv-x="788" 
d="M623 0l-211 680l-166 -367v-313h-133v1413h133v-864l358 864h133l-248 -590l269 -823h-135zM383 -313v243h104v-204l-41 -39h-63z" />
    <glyph glyph-name="kcommaaccent" unicode="&#x137;" horiz-adv-x="720" 
d="M543 0l-166 506l-144 -258v-248h-127v1413h127v-977l291 568h133l-202 -383l219 -621h-131zM338 -313v243h104v-204l-41 -39h-63z" />
    <glyph glyph-name="Lacute" unicode="&#x139;" horiz-adv-x="604" 
d="M113 0v1413h133v-1300h327v-113h-460zM143 1503v68l146 145h82v-67l-146 -146h-82z" />
    <glyph glyph-name="lacute" unicode="&#x13a;" horiz-adv-x="372" 
d="M250 0h-127v1413h127v-1413zM125 1483v67l145 146h82v-68l-145 -145h-82z" />
    <glyph glyph-name="Lcommaaccent" unicode="&#x13b;" horiz-adv-x="604" 
d="M113 0v1413h133v-1300h327v-113h-460zM291 -313v243h104v-204l-41 -39h-63z" />
    <glyph glyph-name="lcommaaccent" unicode="&#x13c;" horiz-adv-x="372" 
d="M250 0h-127v1413h127v-1413zM135 -313v243h105v-204l-41 -39h-64z" />
    <glyph glyph-name="Lcaron" unicode="&#x13d;" horiz-adv-x="604" 
d="M113 0v1413h133v-1300h327v-113h-460zM367 1231v244h104v-205l-41 -39h-63z" />
    <glyph glyph-name="lcaron" unicode="&#x13e;" horiz-adv-x="372" 
d="M250 0h-127v1413h127v-1413zM332 1169v244h104v-205l-41 -39h-63z" />
    <glyph glyph-name="Lslash" unicode="&#x141;" horiz-adv-x="612" 
d="M20 584v125l101 53v651h133v-579l184 100v-125l-184 -100v-596h328v-113h-461v637z" />
    <glyph glyph-name="lslash" unicode="&#x142;" horiz-adv-x="372" 
d="M20 629v114l103 56v614h127v-547l102 56v-115l-102 -55v-752h-127v684z" />
    <glyph glyph-name="Nacute" unicode="&#x143;" 
d="M113 0v1413h110l375 -1063v1063h119v-1413h-111l-375 1069v-1069h-118zM340 1503v68l145 145h82v-67l-145 -146h-82z" />
    <glyph glyph-name="nacute" unicode="&#x144;" horiz-adv-x="745" 
d="M113 0v1004h96l6 -154l154 154h133l141 -142v-862h-127v829l-74 74h-51l-151 -151v-752h-127zM313 1094v67l146 146h82v-68l-146 -145h-82z" />
    <glyph glyph-name="Ncommaaccent" unicode="&#x145;" 
d="M113 0v1413h110l375 -1063v1063h119v-1413h-111l-375 1069v-1069h-118zM362 -313v243h105v-204l-41 -39h-64z" />
    <glyph glyph-name="ncommaaccent" unicode="&#x146;" horiz-adv-x="745" 
d="M113 0v1004h96l6 -154l154 154h133l141 -142v-862h-127v829l-74 74h-51l-151 -151v-752h-127zM336 -313v243h104v-204l-41 -39h-63z" />
    <glyph glyph-name="Ncaron" unicode="&#x147;" 
d="M113 0v1413h110l375 -1063v1063h119v-1413h-111l-375 1069v-1069h-118zM354 1516l-139 139v61h66l125 -125h18l125 125h65v-61l-139 -139h-121z" />
    <glyph glyph-name="ncaron" unicode="&#x148;" horiz-adv-x="745" 
d="M113 0v1004h96l6 -154l154 154h133l141 -142v-862h-127v829l-74 74h-51l-151 -151v-752h-127zM328 1106l-140 139v62h66l125 -125h18l125 125h66v-62l-139 -139h-121z" />
    <glyph glyph-name="Omacron" unicode="&#x14c;" horiz-adv-x="806" 
d="M252 0l-150 150v1114l150 149h303l150 -149v-1114l-150 -150h-303zM317 113h172l82 82v1024l-82 81h-172l-81 -81v-1024zM229 1561v94h351v-94h-351z" />
    <glyph glyph-name="omacron" unicode="&#x14d;" horiz-adv-x="731" 
d="M233 0l-141 141v721l141 142h265l141 -142v-721l-141 -141h-265zM293 100h145l74 74v655l-74 74h-145l-74 -74v-655zM190 1151v94h351v-94h-351z" />
    <glyph glyph-name="Ohungarumlaut" unicode="&#x150;" horiz-adv-x="806" 
d="M252 0l-150 150v1114l150 149h303l150 -149v-1114l-150 -150h-303zM317 113h172l82 82v1024l-82 81h-172l-81 -81v-1024zM451 1503v70l145 145h59v-69l-145 -146h-59zM240 1503v70l147 145h57v-69l-145 -146h-59z" />
    <glyph glyph-name="ohungarumlaut" unicode="&#x151;" horiz-adv-x="731" 
d="M233 0l-141 141v721l141 142h265l141 -142v-721l-141 -141h-265zM293 100h145l74 74v655l-74 74h-145l-74 -74v-655zM412 1094v69l145 146h59v-70l-145 -145h-59zM201 1094v69l147 146h58v-70l-146 -145h-59z" />
    <glyph glyph-name="OE" unicode="&#x152;" horiz-adv-x="1122" 
d="M252 0l-150 150v1114l150 149h811v-113h-369v-532h342v-113h-342v-542h373v-113h-815zM317 113h244v1187h-244l-81 -81v-1024z" />
    <glyph glyph-name="oe" unicode="&#x153;" horiz-adv-x="1134" 
d="M233 0l-141 141v721l141 142h246l96 -97l97 97h239l142 -142v-387h-414v-301l74 -74h139l74 74v123h127v-156l-144 -141h-237l-97 96l-96 -96h-246zM293 100h145l74 74v655l-74 74h-145l-74 -74v-655zM639 575h287v254l-74 74h-139l-74 -74v-254z" />
    <glyph glyph-name="Racute" unicode="&#x154;" horiz-adv-x="794" 
d="M113 0v1413h446l150 -149v-486l-136 -135l140 -643h-135l-134 629h-198v-629h-133zM246 741h248l81 82v396l-81 81h-248v-559zM317 1503v68l146 145h82v-67l-146 -146h-82z" />
    <glyph glyph-name="racute" unicode="&#x155;" horiz-adv-x="520" 
d="M113 0v1004h96l6 -160l160 160h114v-115h-96l-153 -154v-735h-127zM227 1094v67l146 146h82v-68l-146 -145h-82z" />
    <glyph glyph-name="Rcommaaccent" unicode="&#x156;" horiz-adv-x="794" 
d="M113 0v1413h446l150 -149v-486l-136 -135l140 -643h-135l-134 629h-198v-629h-133zM246 741h248l81 82v396l-81 81h-248v-559zM360 -313v243h105v-204l-41 -39h-64z" />
    <glyph glyph-name="rcommaaccent" unicode="&#x157;" horiz-adv-x="520" 
d="M113 0v1004h96l6 -160l160 160h114v-115h-96l-153 -154v-735h-127zM125 -313v243h104v-204l-41 -39h-63z" />
    <glyph glyph-name="Rcaron" unicode="&#x158;" horiz-adv-x="794" 
d="M113 0v1413h446l150 -149v-486l-136 -135l140 -643h-135l-134 629h-198v-629h-133zM246 741h248l81 82v396l-81 81h-248v-559zM332 1516l-139 139v61h65l125 -125h18l125 125h66v-61l-139 -139h-121z" />
    <glyph glyph-name="rcaron" unicode="&#x159;" horiz-adv-x="520" 
d="M113 0v1004h96l6 -160l160 160h114v-115h-96l-153 -154v-735h-127zM242 1106l-140 139v62h66l125 -125h18l125 125h66v-62l-140 -139h-120z" />
    <glyph glyph-name="Sacute" unicode="&#x15a;" horiz-adv-x="727" 
d="M221 0l-149 150v215h133v-172l82 -82h153l82 82v403l-63 63h-250l-131 132v473l149 149h275l149 -149v-215h-133v170l-82 81h-143l-82 -81v-383l63 -64h250l131 -131v-491l-149 -150h-285zM289 1503v68l145 145h82v-67l-145 -146h-82z" />
    <glyph glyph-name="sacute" unicode="&#x15b;" horiz-adv-x="700" 
d="M213 0l-131 131v160h127v-127l63 -64h146l74 74v236l-43 43h-250l-111 110v299l141 142h254l131 -132v-159h-127v127l-63 63h-135l-74 -74v-233l43 -43h250l110 -111v-301l-141 -141h-264zM276 1094v67l146 146h82v-68l-146 -145h-82z" />
    <glyph glyph-name="Scircumflex" unicode="&#x15c;" horiz-adv-x="727" 
d="M221 0l-149 150v215h133v-172l82 -82h153l82 82v403l-63 63h-250l-131 132v473l149 149h275l149 -149v-215h-133v170l-82 81h-143l-82 -81v-383l63 -64h250l131 -131v-491l-149 -150h-285zM164 1516v61l139 139h121l139 -139v-61h-65l-125 124h-19l-125 -124h-65z" />
    <glyph glyph-name="scircumflex" unicode="&#x15d;" horiz-adv-x="700" 
d="M213 0l-131 131v160h127v-127l63 -64h146l74 74v236l-43 43h-250l-111 110v299l141 142h254l131 -132v-159h-127v127l-63 63h-135l-74 -74v-233l43 -43h250l110 -111v-301l-141 -141h-264zM152 1106v61l139 140h121l139 -140v-61h-66l-125 125h-18l-125 -125h-65z" />
    <glyph glyph-name="Scedilla" unicode="&#x15e;" horiz-adv-x="727" 
d="M221 0l-149 150v215h133v-172l82 -82h153l82 82v403l-63 63h-250l-131 132v473l149 149h275l149 -149v-215h-133v170l-82 81h-143l-82 -81v-383l63 -64h250l131 -131v-491l-149 -150h-117v-80h68l61 -61v-111l-61 -61h-197v71h143l25 25v45l-25 25h-63l-37 36v111h-82z
" />
    <glyph glyph-name="scedilla" unicode="&#x15f;" horiz-adv-x="700" 
d="M213 0l-131 131v160h127v-127l63 -64h146l74 74v236l-43 43h-250l-111 110v299l141 142h254l131 -132v-159h-127v127l-63 63h-135l-74 -74v-233l43 -43h250l110 -111v-301l-141 -141h-100v-80h67l62 -61v-111l-62 -61h-196v71h143l25 25v45l-25 25h-63l-37 36v111h-78z
" />
    <glyph glyph-name="Scaron" unicode="&#x160;" horiz-adv-x="727" 
d="M221 0l-149 150v215h133v-172l82 -82h153l82 82v403l-63 63h-250l-131 132v473l149 149h275l149 -149v-215h-133v170l-82 81h-143l-82 -81v-383l63 -64h250l131 -131v-491l-149 -150h-285zM303 1516l-139 139v61h65l125 -125h19l125 125h65v-61l-139 -139h-121z" />
    <glyph glyph-name="scaron" unicode="&#x161;" horiz-adv-x="700" 
d="M213 0l-131 131v160h127v-127l63 -64h146l74 74v236l-43 43h-250l-111 110v299l141 142h254l131 -132v-159h-127v127l-63 63h-135l-74 -74v-233l43 -43h250l110 -111v-301l-141 -141h-264zM291 1106l-139 139v62h65l125 -125h18l125 125h66v-62l-139 -139h-121z" />
    <glyph glyph-name="Tcommaaccent" unicode="&#x162;" horiz-adv-x="665" 
d="M266 0v1300h-246v113h625v-113h-246v-1300h-133zM281 -313v243h104v-204l-41 -39h-63z" />
    <glyph glyph-name="tcommaaccent" unicode="&#x163;" horiz-adv-x="548" 
d="M289 0l-142 141v756h-116v107h116v296h127v-296h224v-107h-224v-723l68 -68h156v-106h-209zM281 -313v243h104v-204l-41 -39h-63z" />
    <glyph glyph-name="Tcaron" unicode="&#x164;" horiz-adv-x="665" 
d="M266 0v1300h-246v113h625v-113h-246v-1300h-133zM272 1516l-139 139v61h66l125 -125h18l125 125h65v-61l-139 -139h-121z" />
    <glyph glyph-name="tcaron" unicode="&#x165;" horiz-adv-x="548" 
d="M289 0l-142 141v756h-116v107h116v296h127v-296h224v-107h-224v-723l68 -68h156v-106h-209zM373 1126v244h104v-205l-41 -39h-63z" />
    <glyph glyph-name="Umacron" unicode="&#x16a;" horiz-adv-x="796" 
d="M258 0l-149 150v1263h133v-1218l82 -82h149l82 82v1218h133v-1263l-149 -150h-281zM223 1561v94h350v-94h-350z" />
    <glyph glyph-name="umacron" unicode="&#x16b;" horiz-adv-x="745" 
d="M244 0l-142 141v863h127v-830l74 -74h51l152 152v752h127v-1004h-96l-7 154l-153 -154h-133zM193 1151v94h350v-94h-350z" />
    <glyph glyph-name="Ubreve" unicode="&#x16c;" horiz-adv-x="796" 
d="M258 0l-149 150v1263h133v-1218l82 -82h149l82 82v1218h133v-1263l-149 -150h-281zM285 1524l-76 75v91h96v-62l29 -29h129l29 29v62h96v-91l-76 -75h-227z" />
    <glyph glyph-name="ubreve" unicode="&#x16d;" horiz-adv-x="745" 
d="M244 0l-142 141v863h127v-830l74 -74h51l152 152v752h127v-1004h-96l-7 154l-153 -154h-133zM254 1114l-76 76v90h96v-61l29 -29h129l29 29v61h96v-90l-76 -76h-227z" />
    <glyph glyph-name="Uring" unicode="&#x16e;" horiz-adv-x="796" 
d="M258 0l-149 150v1263h133v-1218l82 -82h149l82 82v1218h133v-1263l-149 -150h-281zM319 1481l-63 63v125l66 66h155l64 -64v-127l-64 -63h-158zM354 1536h88l29 29v84l-29 28h-88l-28 -28v-84z" />
    <glyph glyph-name="uring" unicode="&#x16f;" horiz-adv-x="745" 
d="M244 0l-142 141v863h127v-830l74 -74h51l152 152v752h127v-1004h-96l-7 154l-153 -154h-133zM289 1071l-64 64v125l66 65h155l64 -63v-127l-64 -64h-157zM324 1126h88l28 29v84l-28 29h-88l-29 -29v-84z" />
    <glyph glyph-name="Uhungarumlaut" unicode="&#x170;" horiz-adv-x="796" 
d="M258 0l-149 150v1263h133v-1218l82 -82h149l82 82v1218h133v-1263l-149 -150h-281zM444 1503v70l146 145h59v-69l-145 -146h-60zM233 1503v70l148 145h57v-69l-145 -146h-60z" />
    <glyph glyph-name="uhungarumlaut" unicode="&#x171;" horiz-adv-x="745" 
d="M244 0l-142 141v863h127v-830l74 -74h51l152 152v752h127v-1004h-96l-7 154l-153 -154h-133zM414 1094v69l145 146h59v-70l-145 -145h-59zM203 1094v69l147 146h58v-70l-146 -145h-59z" />
    <glyph glyph-name="Uogonek" unicode="&#x172;" horiz-adv-x="796" 
d="M258 0l-149 150v1263h133v-1218l82 -82h149l82 82v1218h133v-1263l-149 -150h-64l-129 -129v-82l31 -31h98v-71h-158l-61 61v141l111 111h-109z" />
    <glyph glyph-name="uogonek" unicode="&#x173;" horiz-adv-x="745" 
d="M244 0l-142 141v863h127v-830l74 -74h51l152 152v752h127v-1004l-129 -129v-82l31 -31h98v-71h-158l-61 61v141l123 123l-7 142l-153 -154h-133z" />
    <glyph glyph-name="Ydieresis" unicode="&#x178;" horiz-adv-x="710" 
d="M289 0v471l-269 942h140l198 -774l205 774h127l-268 -942v-471h-133zM416 1524v164h104v-164h-104zM190 1524v164h105v-164h-105z" />
    <glyph glyph-name="Zacute" unicode="&#x179;" horiz-adv-x="643" 
d="M51 0v96l395 1204h-387v113h527v-96l-396 -1204h402v-113h-541zM248 1503v68l145 145h82v-67l-145 -146h-82z" />
    <glyph glyph-name="zacute" unicode="&#x17a;" horiz-adv-x="595" 
d="M51 0v82l355 815h-345v107h482v-84l-357 -814h359v-106h-494zM223 1094v67l146 146h82v-68l-146 -145h-82z" />
    <glyph glyph-name="Zdotaccent" unicode="&#x17b;" horiz-adv-x="643" 
d="M51 0v96l395 1204h-387v113h527v-96l-396 -1204h402v-113h-541zM276 1522l-36 37v104l36 37h93l37 -37v-104l-37 -37h-93z" />
    <glyph glyph-name="zdotaccent" unicode="&#x17c;" horiz-adv-x="595" 
d="M51 0v82l355 815h-345v107h482v-84l-357 -814h359v-106h-494zM252 1112l-37 37v104l37 37h92l37 -37v-104l-37 -37h-92z" />
    <glyph glyph-name="Zcaron" unicode="&#x17d;" horiz-adv-x="643" 
d="M51 0v96l395 1204h-387v113h527v-96l-396 -1204h402v-113h-541zM262 1516l-139 139v61h65l125 -125h19l125 125h65v-61l-139 -139h-121z" />
    <glyph glyph-name="zcaron" unicode="&#x17e;" horiz-adv-x="595" 
d="M51 0v82l355 815h-345v107h482v-84l-357 -814h359v-106h-494zM238 1106l-140 139v62h66l125 -125h18l125 125h66v-62l-140 -139h-120z" />
    <glyph glyph-name="florin" unicode="&#x192;" horiz-adv-x="616" 
d="M41 0v113h86l82 82v546h-156v115h156v408l149 149h207v-113h-141l-82 -81v-363h217v-115h-217v-591l-149 -150h-152z" />
    <glyph glyph-name="Scommaaccent" unicode="&#x218;" horiz-adv-x="727" 
d="M221 0l-149 150v215h133v-172l82 -82h153l82 82v403l-63 63h-250l-131 132v473l149 149h275l149 -149v-215h-133v170l-82 81h-143l-82 -81v-383l63 -64h250l131 -131v-491l-149 -150h-285zM311 -313v243h105v-204l-41 -39h-64z" />
    <glyph glyph-name="scommaaccent" unicode="&#x219;" horiz-adv-x="700" 
d="M213 0l-131 131v160h127v-127l63 -64h146l74 74v236l-43 43h-250l-111 110v299l141 142h254l131 -132v-159h-127v127l-63 63h-135l-74 -74v-233l43 -43h250l110 -111v-301l-141 -141h-264zM299 -313v243h104v-204l-41 -39h-63z" />
    <glyph glyph-name="uni0237" unicode="&#x237;" horiz-adv-x="372" 
d="M-72 -348v102h127l68 68v1182h127v-1215l-137 -137h-185z" />
    <glyph glyph-name="circumflex" unicode="&#x2c6;" horiz-adv-x="624" 
d="M113 1106v61l139 140h121l139 -140v-61h-66l-124 125h-19l-125 -125h-65z" />
    <glyph glyph-name="caron" unicode="&#x2c7;" horiz-adv-x="624" 
d="M252 1106l-139 139v62h65l125 -125h19l124 125h66v-62l-139 -139h-121z" />
    <glyph glyph-name="breve" unicode="&#x2d8;" horiz-adv-x="604" 
d="M188 1114l-75 76v90h96v-61l29 -29h129l28 29v61h97v-90l-76 -76h-228z" />
    <glyph glyph-name="dotaccent" unicode="&#x2d9;" horiz-adv-x="391" 
d="M150 1112l-37 37v104l37 37h92l37 -37v-104l-37 -37h-92z" />
    <glyph glyph-name="ring" unicode="&#x2da;" horiz-adv-x="509" 
d="M176 1071l-63 64v125l65 65h156l63 -63v-127l-63 -64h-158zM211 1126h88l29 29v84l-29 29h-88l-29 -29v-84z" />
    <glyph glyph-name="ogonek" unicode="&#x2db;" horiz-adv-x="444" 
d="M174 -313l-61 61v141l110 111h109l-129 -129v-82l30 -31h99v-71h-158z" />
    <glyph glyph-name="tilde" unicode="&#x2dc;" horiz-adv-x="657" 
d="M113 1106v98l75 76h113l96 -96h33l27 26v70h88v-98l-76 -76h-113l-96 96h-33l-26 -26v-70h-88z" />
    <glyph glyph-name="hungarumlaut" unicode="&#x2dd;" horiz-adv-x="641" 
d="M324 1094v69l145 146h59v-70l-145 -145h-59zM113 1094v69l147 146h57v-70l-145 -145h-59z" />
    <glyph glyph-name="endash" unicode="&#x2013;" horiz-adv-x="536" 
d="M20 645v121h496v-121h-496z" />
    <glyph glyph-name="emdash" unicode="&#x2014;" horiz-adv-x="755" 
d="M20 645v121h715v-121h-715z" />
    <glyph glyph-name="quoteleft" unicode="&#x2018;" horiz-adv-x="307" 
d="M82 1014v338l61 61h82v-76h-49l-12 -12v-104h61v-207h-143z" />
    <glyph glyph-name="quoteright" unicode="&#x2019;" horiz-adv-x="307" 
d="M225 1413v-338l-61 -61h-82v76h49l12 12v104h-61v207h143z" />
    <glyph glyph-name="quotesinglbase" unicode="&#x201a;" horiz-adv-x="307" 
d="M82 -193v76h49l12 13v104h-61v207h143v-338l-61 -62h-82z" />
    <glyph glyph-name="quotedblleft" unicode="&#x201c;" horiz-adv-x="552" 
d="M82 1014v338l61 61h82v-76h-49l-12 -12v-104h61v-207h-143zM328 1014v338l61 61h82v-76h-49l-12 -12v-104h61v-207h-143z" />
    <glyph glyph-name="quotedblright" unicode="&#x201d;" horiz-adv-x="552" 
d="M471 1413v-338l-61 -61h-82v76h49l12 12v104h-61v207h143zM225 1413v-338l-61 -61h-82v76h49l12 12v104h-61v207h143z" />
    <glyph glyph-name="quotedblbase" unicode="&#x201e;" horiz-adv-x="552" 
d="M82 -193v76h49l12 13v104h-61v207h143v-338l-61 -62h-82zM328 -193v76h49l12 13v104h-61v207h143v-338l-61 -62h-82z" />
    <glyph glyph-name="dagger" unicode="&#x2020;" horiz-adv-x="462" 
d="M176 565v555h-129v97h129v196h111v-196h129v-97h-129v-555h-111z" />
    <glyph glyph-name="daggerdbl" unicode="&#x2021;" horiz-adv-x="462" 
d="M176 565v191h-129v96h129v274h-129v97h129v190h111v-190h129v-97h-129v-274h129v-96h-129v-191h-111z" />
    <glyph glyph-name="bullet" unicode="&#x2022;" horiz-adv-x="387" 
d="M127 553l-78 78v149l78 76h133l78 -76v-149l-78 -78h-133z" />
    <glyph glyph-name="ellipsis" unicode="&#x2026;" horiz-adv-x="897" 
d="M78 0v207h143v-207h-143zM377 0v207h143v-207h-143zM676 0v207h143v-207h-143z" />
    <glyph glyph-name="perthousand" unicode="&#x2030;" horiz-adv-x="1622" 
d="M172 743l-111 111v449l111 110h207l110 -110v-449l-110 -111h-207zM229 836h93l53 53v379l-53 53h-93l-53 -53v-379zM717 0l-111 111v448l111 111h207l110 -111v-448l-110 -111h-207zM774 92h92l54 53v379l-54 54h-92l-53 -54v-379zM1243 0l-110 111v448l110 111h207
l111 -111v-448l-111 -111h-207zM1300 92h93l53 53v379l-53 54h-93l-53 -54v-379zM199 0l589 1413h109l-590 -1413h-108z" />
    <glyph glyph-name="guilsinglleft" unicode="&#x2039;" horiz-adv-x="393" 
d="M225 311l-190 404l190 407h119l-192 -407l192 -404h-119z" />
    <glyph glyph-name="guilsinglright" unicode="&#x203a;" horiz-adv-x="393" 
d="M358 715l-190 -404h-119l193 404l-193 407h119z" />
    <glyph glyph-name="fraction" unicode="&#x2044;" horiz-adv-x="698" 
d="M0 0l590 1413h108l-589 -1413h-109z" />
    <glyph glyph-name="Euro" unicode="&#x20ac;" horiz-adv-x="770" 
d="M51 778v99h76v387l149 149h273l149 -149v-244h-133v199l-82 81h-141l-82 -81v-342h324v-99h-324v-131h324v-96h-324v-356l82 -82h141l82 82v204h133v-249l-149 -150h-273l-149 150v401h-76v96h76v131h-76z" />
    <glyph glyph-name="servicemark" unicode="&#x2120;" horiz-adv-x="894" 
d="M113 825l-76 76v90h86v-67l29 -29h75l29 29v145l-16 16h-140l-63 64v188l76 76h153l76 -76v-90h-86v68l-29 28h-75l-29 -28v-137l16 -17h140l63 -63v-197l-76 -76h-153zM410 825v588h122l82 -473l78 473h125v-588h-78v502l-90 -502h-78l-88 500v-500h-73z" />
    <glyph glyph-name="trademark" unicode="&#x2122;" horiz-adv-x="845" 
d="M125 825v521h-107v67h299v-67h-106v-521h-86zM360 825v588h123l82 -473l78 473h125v-588h-78v502l-90 -502h-78l-88 500v-500h-74z" />
    <glyph glyph-name="minus" unicode="&#x2212;" horiz-adv-x="516" 
d="M20 647v119h476v-119h-476z" />
    <glyph glyph-name="fi" unicode="&#xfb01;" horiz-adv-x="864" 
d="M143 0v897h-112v107h112v272l138 137h211v-102h-154l-68 -68v-239h205v-107h-205v-897h-127zM741 0h-127v1004h127v-1004zM614 1174v212h127v-212h-127z" />
    <glyph glyph-name="fl" unicode="&#xfb02;" horiz-adv-x="864" 
d="M143 0v897h-112v107h112v272l138 137h211v-102h-154l-68 -68v-239h205v-107h-205v-897h-127zM741 0h-127v1413h127v-1413z" />
    <glyph glyph-name="commaaccent" horiz-adv-x="329" 
d="M113 -313v243h104v-204l-41 -39h-63z" />
    <glyph glyph-name="published" horiz-adv-x="1148" 
d="M252 0l-150 150v1114l150 149h645l150 -149v-1114l-150 -150h-645zM317 113h514l82 82v1024l-82 81h-514l-81 -81v-1024zM358 211v991h330l115 -115v-411l-115 -115h-196v-350h-134zM492 676h141l37 37v338l-37 36h-141v-411z" />
    <glyph glyph-name="G.alt" horiz-adv-x="774" 
d="M252 0l-150 150v1114l150 149h285l149 -149v-215h-133v170l-82 81h-154l-81 -81v-1024l81 -82h123l119 118v371h-176v113h309v-715h-94l-6 119l-119 -119h-221z" />
    <glyph glyph-name="Gbreve.alt" horiz-adv-x="774" 
d="M252 0l-150 150v1114l150 149h285l149 -149v-215h-133v170l-82 81h-154l-81 -81v-1024l81 -82h123l119 118v371h-176v113h309v-715h-94l-6 119l-119 -119h-221zM285 1524l-76 75v91h96v-62l29 -29h129l29 29v62h96v-91l-76 -75h-227z" />
    <glyph glyph-name="Gcircumflex.alt" horiz-adv-x="774" 
d="M252 0l-150 150v1114l150 149h285l149 -149v-215h-133v170l-82 81h-154l-81 -81v-1024l81 -82h123l119 118v371h-176v113h309v-715h-94l-6 119l-119 -119h-221zM199 1516v61l139 139h121l139 -139v-61h-66l-124 124h-19l-125 -124h-65z" />
    <glyph glyph-name="Gcommaaccent.alt" horiz-adv-x="774" 
d="M252 0l-150 150v1114l150 149h285l149 -149v-215h-133v170l-82 81h-154l-81 -81v-1024l81 -82h123l119 118v371h-176v113h309v-715h-94l-6 119l-119 -119h-221zM346 -313v243h105v-204l-41 -39h-64z" />
    <glyph glyph-name="I.alt" horiz-adv-x="460" 
d="M297 0h-133v1413h133v-1413z" />
    <glyph glyph-name="Iacute.alt" horiz-adv-x="460" 
d="M297 0h-133v1413h133v-1413zM156 1503v68l145 145h82v-67l-145 -146h-82z" />
    <glyph glyph-name="Igrave.alt" horiz-adv-x="460" 
d="M297 0h-133v1413h133v-1413zM221 1503l-145 146v67h82l145 -145v-68h-82z" />
    <glyph glyph-name="Icircumflex.alt" horiz-adv-x="460" 
d="M297 0h-133v1413h133v-1413zM31 1516v61l139 139h121l139 -139v-61h-65l-125 124h-19l-125 -124h-65z" />
    <glyph glyph-name="Idieresis.alt" horiz-adv-x="460" 
d="M297 0h-133v1413h133v-1413zM291 1524v164h104v-164h-104zM66 1524v164h104v-164h-104z" />
    <glyph glyph-name="Idotaccent.alt" horiz-adv-x="460" 
d="M297 0h-133v1413h133v-1413zM184 1522l-37 37v104l37 37h92l37 -37v-104l-37 -37h-92z" />
    <glyph glyph-name="Imacron.alt" horiz-adv-x="460" 
d="M297 0h-133v1413h133v-1413zM55 1561v94h351v-94h-351z" />
    <glyph glyph-name="Iogonek.alt" horiz-adv-x="460" 
d="M297 0h-25l-129 -129v-82l31 -31h98v-71h-157l-62 61v141l111 111v1413h133v-1413z" />
    <glyph glyph-name="J.alt" horiz-adv-x="729" 
d="M211 0l-150 150v376h134v-331l81 -82h130l81 82v1218h134v-1263l-150 -150h-260z" />
    <glyph glyph-name="Jcircumflex.alt" horiz-adv-x="729" 
d="M211 0l-150 150v376h134v-331l81 -82h130l81 82v1218h134v-1263l-150 -150h-260zM354 1516v61l140 139h120l140 -139v-61h-66l-125 124h-18l-125 -124h-66z" />
    <glyph glyph-name="Q.alt" horiz-adv-x="806" 
d="M252 0l-150 150v1114l150 149h303l150 -149v-1114l-76 -76l153 -152l-86 -86l-164 164h-280zM317 113h172l82 82v1024l-82 81h-172l-81 -81v-1024z" />
    <glyph glyph-name="a.alt" horiz-adv-x="755" 
d="M233 0l-141 141v721l141 142h164l146 -146v146h100v-1004h-96l-4 145l-146 -145h-164zM293 100h82l141 142v520l-141 141h-82l-74 -74v-655z" />
    <glyph glyph-name="aacute.alt" horiz-adv-x="755" 
d="M233 0l-141 141v721l141 142h164l146 -146v146h100v-1004h-96l-4 145l-146 -145h-164zM293 100h82l141 142v520l-141 141h-82l-74 -74v-655zM283 1094v67l145 146h82v-68l-145 -145h-82z" />
    <glyph glyph-name="agrave.alt" horiz-adv-x="755" 
d="M233 0l-141 141v721l141 142h164l146 -146v146h100v-1004h-96l-4 145l-146 -145h-164zM293 100h82l141 142v520l-141 141h-82l-74 -74v-655zM348 1094l-145 145v68h82l145 -146v-67h-82z" />
    <glyph glyph-name="acircumflex.alt" horiz-adv-x="755" 
d="M233 0l-141 141v721l141 142h164l146 -146v146h100v-1004h-96l-4 145l-146 -145h-164zM293 100h82l141 142v520l-141 141h-82l-74 -74v-655zM158 1106v61l139 140h121l139 -140v-61h-65l-125 125h-19l-125 -125h-65z" />
    <glyph glyph-name="adieresis.alt" horiz-adv-x="755" 
d="M233 0l-141 141v721l141 142h164l146 -146v146h100v-1004h-96l-4 145l-146 -145h-164zM293 100h82l141 142v520l-141 141h-82l-74 -74v-655zM418 1114v164h104v-164h-104zM193 1114v164h104v-164h-104z" />
    <glyph glyph-name="atilde.alt" horiz-adv-x="755" 
d="M233 0l-141 141v721l141 142h164l146 -146v146h100v-1004h-96l-4 145l-146 -145h-164zM293 100h82l141 142v520l-141 141h-82l-74 -74v-655zM141 1106v98l76 76h113l96 -96h33l26 26v70h88v-98l-75 -76h-113l-96 96h-33l-27 -26v-70h-88z" />
    <glyph glyph-name="aring.alt" horiz-adv-x="755" 
d="M233 0l-141 141v721l141 142h164l146 -146v146h100v-1004h-96l-4 145l-146 -145h-164zM293 100h82l141 142v520l-141 141h-82l-74 -74v-655zM279 1071l-64 64v125l66 65h155l64 -63v-127l-64 -64h-157zM313 1126h88l29 29v84l-29 29h-88l-28 -29v-84z" />
    <glyph glyph-name="abreve.alt" horiz-adv-x="755" 
d="M233 0l-141 141v721l141 142h164l146 -146v146h100v-1004h-96l-4 145l-146 -145h-164zM293 100h82l141 142v520l-141 141h-82l-74 -74v-655zM244 1114l-76 76v90h96v-61l29 -29h129l29 29v61h96v-90l-76 -76h-227z" />
    <glyph glyph-name="amacron.alt" horiz-adv-x="755" 
d="M233 0l-141 141v721l141 142h164l146 -146v146h100v-1004h-96l-4 145l-146 -145h-164zM293 100h82l141 142v520l-141 141h-82l-74 -74v-655zM182 1151v94h350v-94h-350z" />
    <glyph glyph-name="aogonek.alt" horiz-adv-x="755" 
d="M233 0l-141 141v721l141 142h164l146 -146v146h100v-1004l-129 -129v-82l31 -31h98v-71h-158l-61 61v141l123 123l-4 133l-146 -145h-164zM293 100h82l141 142v520l-141 141h-82l-74 -74v-655z" />
    <glyph glyph-name="g.alt" horiz-adv-x="720" 
d="M211 -348l-139 139v266l104 105l-55 55v113l65 65l-100 101v366l141 142h463v-101h-127l76 -76v-311l-141 -141h-201l-59 -60v-65l51 -51h250l139 -140v-268l-139 -139h-328zM287 475h151l74 74v280l-74 74h-151l-74 -74v-280zM270 -248h211l74 74v199l-74 73h-211
l-73 -73v-199z" />
    <glyph glyph-name="gbreve.alt" horiz-adv-x="720" 
d="M211 -348l-139 139v266l104 105l-55 55v113l65 65l-100 101v366l141 142h463v-101h-127l76 -76v-311l-141 -141h-201l-59 -60v-65l51 -51h250l139 -140v-268l-139 -139h-328zM287 475h151l74 74v280l-74 74h-151l-74 -74v-280zM270 -248h211l74 74v199l-74 73h-211
l-73 -73v-199zM268 1114l-75 76v90h96v-61l28 -29h129l29 29v61h96v-90l-75 -76h-228z" />
    <glyph glyph-name="gcircumflex.alt" horiz-adv-x="720" 
d="M211 -348l-139 139v266l104 105l-55 55v113l65 65l-100 101v366l141 142h463v-101h-127l76 -76v-311l-141 -141h-201l-59 -60v-65l51 -51h250l139 -140v-268l-139 -139h-328zM287 475h151l74 74v280l-74 74h-151l-74 -74v-280zM270 -248h211l74 74v199l-74 73h-211
l-73 -73v-199zM182 1106v61l140 140h120l140 -140v-61h-66l-125 125h-18l-125 -125h-66z" />
    <glyph glyph-name="gcommaaccent.alt" horiz-adv-x="720" 
d="M211 -348l-139 139v266l104 105l-55 55v113l65 65l-100 101v366l141 142h463v-101h-127l76 -76v-311l-141 -141h-201l-59 -60v-65l51 -51h250l139 -140v-268l-139 -139h-328zM287 475h151l74 74v280l-74 74h-151l-74 -74v-280zM270 -248h211l74 74v199l-74 73h-211
l-73 -73v-199zM434 1327v-244h-104v205l41 39h63z" />
    <glyph glyph-name="at.alt1" horiz-adv-x="1316" 
d="M109 0v1202l210 211h685l210 -211v-1061l-141 -141h-233l-13 137l-137 -137h-176l-149 150v395l139 137h297v291l-82 82h-125l-82 -82v-164h-133v209l149 149h256l150 -149v-905h80l73 73v971l-143 143h-565l-143 -143v-1157h-127zM580 113h88l133 133v323h-221l-82 -82
v-292z" />
    <glyph glyph-name="at.alt2" horiz-adv-x="1265" 
d="M295 -246l-203 203v1090l203 202h676l203 -202v-908l-140 -139h-239l-4 145l-146 -145h-160l-141 141v721l141 142h160l146 -146v146h100v-908h80l76 76v842l-136 135h-557l-135 -135v-1024l135 -135h602v-101h-661zM545 100h78l141 142v520l-141 141h-78l-74 -74v-655z
" />
    <glyph glyph-name="at.alt3" horiz-adv-x="1316" 
d="M109 0v1202l210 211h685l210 -211v-1061l-141 -141h-233l-13 137l-137 -137h-172l-149 150v868l149 149h172l137 -137l13 137h94v-1054h80l73 73v971l-143 143h-565l-143 -143v-1157h-127zM584 113h84l133 133v676l-133 133h-84l-82 -82v-778z" />
    <glyph glyph-name="ampersand.alt" horiz-adv-x="790" 
d="M242 0l-150 150v487l131 131l-131 131v365l150 149h262l149 -149v-220h-133v175l-82 81h-131l-82 -81v-285l357 -356v245h133v-673l-150 -150h-323zM307 113h193l82 82v215l-275 274l-82 -82v-407z" />
    <glyph glyph-name="ordfeminine.alt" horiz-adv-x="567" 
d="M174 707l-113 112v481l113 113h150l98 -98l6 98h78v-706h-78l-6 98l-98 -98h-150zM227 799h76l90 90v342l-90 90h-76l-53 -53v-416z" />
    <glyph glyph-name="zero.tabular" 
d="M262 0l-149 150v1114l149 149h305l150 -149v-1114l-150 -150h-305zM328 113h174l82 82v1024l-82 81h-174l-82 -81v-1024z" />
    <glyph glyph-name="one.tabular" 
d="M141 0v102h224v1209h-224v102h357v-1311h213v-102h-570z" />
    <glyph glyph-name="two.tabular" 
d="M139 0v602l131 131h240l63 64v422l-81 81h-138l-82 -81v-170h-133v215l150 149h268l150 -149v-512l-132 -131h-239l-64 -64v-444h428v-113h-561z" />
    <glyph glyph-name="three.tabular" 
d="M254 0l-150 150v237h134v-192l81 -82h168l82 82v372l-108 109h-240v115h240l108 108v320l-82 81h-168l-81 -81v-193h-134v238l150 149h299l149 -149v-400l-131 -131l131 -131v-452l-149 -150h-299z" />
    <glyph glyph-name="four.tabular" 
d="M530 0v406h-464v96l161 911h123l-145 -891h325v891h134v-891h92v-116h-92v-406h-134z" />
    <glyph glyph-name="five.tabular" 
d="M276 0l-147 150v245h133v-202l82 -82h154l82 82v536l-64 64h-147l-113 -113h-127v733h576v-113h-443v-485l90 90h230l131 -131v-624l-150 -150h-287z" />
    <glyph glyph-name="six.tabular" 
d="M274 0l-149 150v1114l149 149h304l149 -149v-230h-133v185l-82 81h-172l-82 -81v-451l90 90h230l149 -149v-559l-149 -150h-304zM340 113h172l82 82v469l-82 81h-147l-107 -106v-444z" />
    <glyph glyph-name="seven.tabular" 
d="M319 0v504l271 794h-496v115h631v-100l-272 -803v-510h-134z" />
    <glyph glyph-name="eight.tabular" 
d="M260 0l-149 150v452l131 131l-131 131v400l149 149h311l150 -149v-400l-131 -131l131 -131v-452l-150 -150h-311zM326 113h180l82 82v372l-109 109h-127l-108 -109v-372zM352 791h127l109 108v320l-82 81h-180l-82 -81v-320z" />
    <glyph glyph-name="nine.tabular" 
d="M254 0l-150 150v239h134v-194l81 -82h173l81 82v481l-90 -90h-229l-150 149v529l150 149h303l150 -149v-1114l-150 -150h-303zM319 698h148l106 107v414l-81 81h-173l-81 -81v-439z" />
    <glyph glyph-name="plus.tabular" 
d="M109 651v109h251v289h113v-289h250v-109h-250v-289h-113v289h-251z" />
    <glyph glyph-name="minus.tabular" 
d="M150 647v119h532v-119h-532z" />
    <glyph glyph-name="multiply.tabular" 
d="M188 403l-73 74l225 225l-225 226l75 76l224 -226l225 226l76 -76l-226 -226l226 -225l-74 -74l-227 226z" />
    <glyph glyph-name="divide.tabular" 
d="M352 358v160h125v-160h-125zM102 647v115h625v-115h-625zM352 889v160h125v-160h-125z" />
    <glyph glyph-name="equal.tabular" 
d="M131 805v115h567v-115h-567zM131 485v115h567v-115h-567z" />
    <glyph glyph-name="greater.tabular" 
d="M743 643l-626 -313v123l512 252l-512 253v123l626 -315v-123z" />
    <glyph glyph-name="less.tabular" 
d="M713 330l-627 313v123l627 315v-123l-512 -253l512 -252v-123z" />
    <glyph glyph-name="numbersign.tabular" 
d="M211 373v243h-125v105h125v344h-125v104h125v244h108v-244h191v244h108v-244h125v-104h-125v-344h125v-105h-125v-243h-108v243h-191v-243h-108zM319 721h191v344h-191v-344z" />
    <glyph glyph-name="dollar.tabular" 
d="M272 41l-149 149v216h133v-173l82 -81h154l81 81v363l-63 63h-250l-131 132v432l150 149h77v193h119v-193h78l149 -149v-215h-133v170l-82 82h-143l-82 -82v-342l64 -64h249l132 -131v-451l-150 -149h-84v-195h-119v195h-82z" />
    <glyph glyph-name="cent.tabular" 
d="M289 145l-150 150v827l150 150h78v172h116v-172h78l150 -150v-243h-133v198l-82 82h-142l-82 -82v-737l82 -82h142l82 82v205h133v-250l-150 -150h-78v-178h-116v178h-78z" />
    <glyph glyph-name="sterling.tabular" 
d="M100 0v113l90 90v432h-98v119h98v510l150 149h248l149 -149v-254h-133v209l-82 81h-116l-82 -81v-465h258v-119h-258v-442l-80 -80h493v-113h-637z" />
    <glyph glyph-name="yen.tabular" 
d="M115 461v96h209l-244 856h139l199 -774l205 774h127l-244 -856h209v-96h-234v-123h234v-96h-234v-242h-133v242h-233v96h233v123h-233z" />
    <glyph glyph-name="florin.tabular" 
d="M147 0v113h86l82 82v546h-155v115h155v408l150 149h207v-113h-142l-81 -81v-363h217v-115h-217v-591l-150 -150h-152z" />
    <glyph glyph-name="Euro.tabular" 
d="M82 778v99h76v387l149 149h273l149 -149v-244h-133v199l-82 81h-141l-82 -81v-342h323v-99h-323v-131h323v-96h-323v-356l82 -82h141l82 82v204h133v-249l-149 -150h-273l-149 150v401h-76v96h76v131h-76z" />
    <glyph glyph-name="section.tabular" 
d="M270 -195l-147 150v264h133v-221l82 -82h154l81 82v426h-399l-45 45v66h578v-580l-148 -150h-289zM129 696v568l150 149h274l149 -149v-265h-133v220l-82 81h-143l-82 -81v-412h393l45 -45v-66h-571z" />
    <glyph glyph-name="space.tabular" horiz-adv-x="413" 
 />
    <glyph glyph-name="colon.tabular" horiz-adv-x="413" 
d="M135 0v207h144v-207h-144zM135 625v206h144v-206h-144z" />
    <glyph glyph-name="semicolon.tabular" horiz-adv-x="413" 
d="M135 -193v76h49l13 13v104h-62v207h144v-338l-62 -62h-82zM135 625v206h144v-206h-144z" />
    <glyph glyph-name="comma.tabular" horiz-adv-x="413" 
d="M135 -193v76h49l13 13v104h-62v207h144v-338l-62 -62h-82z" />
    <glyph glyph-name="period.tabular" horiz-adv-x="413" 
d="M135 0v207h144v-207h-144z" />
    <glyph glyph-name="parenleft.tabular" horiz-adv-x="501" 
d="M285 -106l-150 149v1325l150 150h137v-113h-72l-82 -82v-1235l82 -82h72v-112h-137z" />
    <glyph glyph-name="parenright.tabular" horiz-adv-x="501" 
d="M367 43l-150 -149h-137v112h72l81 82v1235l-81 82h-72v113h137l150 -150v-1325z" />
    <glyph glyph-name="bracketleft.tabular" horiz-adv-x="501" 
d="M137 -106v1624h283v-113h-152v-1399h152v-112h-283z" />
    <glyph glyph-name="bracketright.tabular" horiz-adv-x="501" 
d="M365 1518v-1624h-283v112h151v1399h-151v113h283z" />
    <glyph glyph-name="braceleft.tabular" horiz-adv-x="501" 
d="M319 -106l-149 149v557l-66 66h-84v118h80l70 70v514l149 150h138v-113h-72l-82 -82v-498l-98 -98l98 -98v-541l82 -82h72v-112h-138z" />
    <glyph glyph-name="braceright.tabular" horiz-adv-x="501" 
d="M332 43l-150 -149h-137v112h72l82 82v541l98 98l-98 98v498l-82 82h-72v113h137l150 -150v-514l69 -70h80v-118h-84l-65 -66v-557z" />
    <glyph glyph-name="zero.numerator" horiz-adv-x="585" 
d="M176 711l-104 104v494l104 104h234l104 -104v-494l-104 -104h-234zM236 799h114l56 55v416l-56 55h-114l-56 -55v-416z" />
    <glyph glyph-name="one.numerator" horiz-adv-x="466" 
d="M51 711v86h137v530h-137v86h246v-616h129v-86h-375z" />
    <glyph glyph-name="two.numerator" horiz-adv-x="542" 
d="M61 711v282l89 88h180l43 43v146l-56 55h-90l-55 -55v-78h-109v117l105 104h209l104 -104v-232l-88 -88h-180l-43 -43v-143h307v-92h-416z" />
    <glyph glyph-name="three.numerator" horiz-adv-x="559" 
d="M168 711l-107 104v113h111v-78l55 -55h101l61 61v129l-39 39h-166v84h166l39 39v127l-55 55h-107l-55 -55v-82h-111v117l107 104h225l105 -104v-176l-66 -66l66 -66v-186l-105 -104h-225z" />
    <glyph glyph-name="four.numerator" horiz-adv-x="565" 
d="M350 711v170h-319v65l123 467h102l-109 -442h203v442h107v-442h67v-90h-67v-170h-107z" />
    <glyph glyph-name="five.numerator" horiz-adv-x="575" 
d="M178 711l-106 104v115h108v-76l56 -55h104l55 55v168l-61 61h-103l-43 -43h-116v373h415v-92h-307v-197l47 47h174l103 -102v-254l-105 -104h-221z" />
    <glyph glyph-name="six.numerator" horiz-adv-x="573" 
d="M176 711l-104 104v494l104 104h232l104 -104v-103h-98v64l-56 55h-122l-56 -55v-193l58 58h170l104 -105v-215l-104 -104h-232zM236 795h112l55 55v145l-55 56h-117l-51 -52v-149z" />
    <glyph glyph-name="seven.numerator" horiz-adv-x="466" 
d="M158 711v293l164 317h-302v92h426v-63l-178 -349v-290h-110z" />
    <glyph glyph-name="eight.numerator" horiz-adv-x="573" 
d="M166 711l-105 104v186l66 66l-66 66v176l105 104h242l104 -104v-176l-66 -66l66 -66v-186l-104 -104h-242zM231 795h111l61 61v129l-38 39h-156l-39 -39v-129zM209 1108h156l38 39v127l-55 55h-123l-55 -55v-127z" />
    <glyph glyph-name="nine.numerator" horiz-adv-x="573" 
d="M166 711l-105 104v107h99v-68l55 -55h123l55 55v186l-59 -57h-168l-105 104v222l105 104h231l105 -104v-494l-105 -104h-231zM225 1067h117l51 51v156l-55 55h-113l-55 -55v-152z" />
    <glyph glyph-name="zero.denominator" horiz-adv-x="585" 
d="M176 0l-104 104v494l104 104h234l104 -104v-494l-104 -104h-234zM236 88h114l56 55v416l-56 55h-114l-56 -55v-416z" />
    <glyph glyph-name="one.denominator" horiz-adv-x="466" 
d="M51 0v86h137v530h-137v86h246v-616h129v-86h-375z" />
    <glyph glyph-name="two.denominator" horiz-adv-x="542" 
d="M61 0v283l89 88h180l43 43v145l-56 55h-90l-55 -55v-78h-109v117l105 104h209l104 -104v-231l-88 -88h-180l-43 -43v-144h307v-92h-416z" />
    <glyph glyph-name="three.denominator" horiz-adv-x="559" 
d="M168 0l-107 104v113h111v-78l55 -55h101l61 61v129l-39 39h-166v84h166l39 39v127l-55 55h-107l-55 -55v-82h-111v117l107 104h225l105 -104v-176l-66 -66l66 -65v-187l-105 -104h-225z" />
    <glyph glyph-name="four.denominator" horiz-adv-x="565" 
d="M350 0v170h-319v66l123 466h102l-109 -442h203v442h107v-442h67v-90h-67v-170h-107z" />
    <glyph glyph-name="five.denominator" horiz-adv-x="575" 
d="M178 0l-106 104v115h108v-76l56 -55h104l55 55v168l-61 62h-103l-43 -43h-116v372h415v-92h-307v-196l47 47h174l103 -103v-254l-105 -104h-221z" />
    <glyph glyph-name="six.denominator" horiz-adv-x="573" 
d="M176 0l-104 104v494l104 104h232l104 -104v-102h-98v63l-56 55h-122l-56 -55v-192l58 57h170l104 -105v-215l-104 -104h-232zM236 84h112l55 55v146l-55 55h-117l-51 -51v-150z" />
    <glyph glyph-name="seven.denominator" horiz-adv-x="466" 
d="M158 0v293l164 317h-302v92h426v-63l-178 -348v-291h-110z" />
    <glyph glyph-name="eight.denominator" horiz-adv-x="573" 
d="M166 0l-105 104v187l66 65l-66 66v176l105 104h242l104 -104v-176l-66 -66l66 -65v-187l-104 -104h-242zM231 84h111l61 61v129l-38 39h-156l-39 -39v-129zM209 397h156l38 39v127l-55 55h-123l-55 -55v-127z" />
    <glyph glyph-name="nine.denominator" horiz-adv-x="573" 
d="M166 0l-105 104v107h99v-68l55 -55h123l55 55v187l-59 -58h-168l-105 105v221l105 104h231l105 -104v-494l-105 -104h-231zM225 356h117l51 52v155l-55 55h-113l-55 -55v-151z" />
    </font>
</defs>
</svg>
