<?xml version="1.0" standalone="no"?>
<!DOCTYPE svg PUBLIC "-//W3C//DTD SVG 1.1//EN" "http://www.w3.org/Graphics/SVG/1.1/DTD/svg11.dtd" >
<svg xmlns="http://www.w3.org/2000/svg" xmlns:xlink="http://www.w3.org/1999/xlink" version="1.1">
<metadata>
Created by FontForge 20201107 at Wed Sep 10 11:22:44 2025
 By 
Copyright (c) 2019 by Jonathan Ball. All rights reserved.
</metadata>
<defs>
<font id="AlkalineCaps-Bold" horiz-adv-x="1320" >
  <font-face 
    font-family="Alkaline Caps Test"
    font-weight="700"
    font-style="italic"
    font-variant="small-caps"
    font-stretch="normal"
    units-per-em="2048"
    panose-1="0 0 8 0 0 0 0 0 0 0"
    ascent="1638"
    descent="-410"
    x-height="1176"
    cap-height="1413"
    bbox="-305 -266 1761 1450"
    underline-thickness="102"
    underline-position="-204"
    slope="-18.75"
    unicode-range="U+0020-007A"
  />
<missing-glyph horiz-adv-x="1228" 
 />
    <glyph glyph-name=".notdef" horiz-adv-x="1228" 
 />
    <glyph glyph-name=".null" horiz-adv-x="0" 
 />
    <glyph glyph-name="nonmarkingreturn" horiz-adv-x="682" 
 />
    <glyph glyph-name="space" unicode=" " horiz-adv-x="423" 
 />
    <glyph glyph-name="comma" unicode="," horiz-adv-x="507" 
d="M-2 -231h-174l221 477h236z" />
    <glyph glyph-name="hyphen" unicode="-" horiz-adv-x="669" 
d="M575 526h-522l58 170h522z" />
    <glyph glyph-name="period" unicode="." horiz-adv-x="503" 
d="M63 -14q-44 0 -70 29t-26 75q0 66 47.5 117t104.5 49q46 -2 74 -29.5t28 -74.5q0 -66 -49.5 -116t-108.5 -50z" />
    <glyph glyph-name="zero" unicode="0" horiz-adv-x="1263" 
d="M446 -209q-176 0 -289.5 134t-113.5 378q0 124 27 256.5t75.5 257t121 236.5t157.5 195.5t191 132.5t216 49q172 0 285 -138.5t113 -388.5q0 -117 -23.5 -244t-68 -251t-113 -235.5t-153 -196.5t-194.5 -135t-231 -50zM479 8q101 0 198.5 85t165 214.5t110 281
t44.5 285.5q3 154 -49 242t-149 88q-102 0 -201.5 -87t-169.5 -219.5t-113 -290.5t-43 -298q0 -143 53.5 -222t153.5 -79z" />
    <glyph glyph-name="one" unicode="1" horiz-adv-x="833" 
d="M885 1413q-264 -741 -543 -1597h-229q397 1181 422 1255q-79 -55 -170.5 -98t-167.5 -60l-60 207q325 80 488 293h260z" />
    <glyph glyph-name="two" unicode="2" horiz-adv-x="1101" 
d="M1122 999q0 -105 -40.5 -213t-110.5 -202t-158 -181.5t-188 -160.5t-194 -129.5t-183 -96.5h594l-70 -200h-866l-12 219q108 57 188.5 102t191 113t190.5 127t166 136t139.5 149t88.5 157t35 168q0 107 -54.5 170.5t-148.5 63.5q-113 0 -193.5 -90t-80.5 -199
q0 -101 47 -178l-197 -107q-71 99 -71 275q0 91 39 182t105.5 164t165.5 118.5t210 45.5q186 0 296.5 -120.5t110.5 -312.5z" />
    <glyph glyph-name="three" unicode="3" horiz-adv-x="1112" 
d="M1106 1077q0 -95 -37.5 -175t-100.5 -133.5t-139 -87.5t-159 -46q109 -43 176 -142t67 -223q0 -211 -151 -346t-393 -135q-185 0 -315 100t-173 271l207 98q29 -124 108 -194t191 -70q127 0 209 77.5t82 196.5q0 129 -105 210.5t-274 92.5l55 177q99 -3 191 14t169 53
t123 100t46 146q0 76 -46.5 126t-131.5 50q-88 0 -162 -54t-119 -141l-180 103q74 137 200 215t277 78q173 0 279 -105t106 -256z" />
    <glyph glyph-name="four" unicode="4" horiz-adv-x="1232" 
d="M1001 1413h230q-162 -452 -346 -1005h248l-72 -211h-246q-14 -43 -40.5 -121t-47.5 -141t-39 -119h-229q19 56 40 119l47 141t40 121h-578l-31 223q184 122 308 345t166 490h229q-27 -234 -151 -485t-273 -362h401q209 629 344 1005z" />
    <glyph glyph-name="five" unicode="5" horiz-adv-x="1130" 
d="M1182 1413l-70 -207h-547l-172 -411q76 36 182 36q76 0 146.5 -27.5t128 -79.5t91.5 -137t34 -192q0 -168 -69.5 -304.5t-204.5 -218t-314 -81.5q-173 0 -303.5 105.5t-163.5 291.5l215 80q20 -131 90.5 -199.5t186.5 -68.5q141 0 239.5 110t98.5 271q0 127 -64 192.5
t-166 65.5q-108 0 -246 -84l-153 115l299 743h762z" />
    <glyph glyph-name="six" unicode="6" horiz-adv-x="1218" 
d="M842 1214q-115 0 -224.5 -84.5t-188.5 -220.5t-122 -299q77 103 177.5 155t205.5 50q151 -3 255 -114.5t104 -288.5q0 -121 -43.5 -233.5t-118 -197.5t-182.5 -136.5t-230 -51.5q-88 0 -166 34t-138 96.5t-95 159.5t-35 216q0 144 35.5 299.5t107 302.5t168 264
t230.5 188.5t282 71.5q125 0 232 -58.5t168 -156.5l-179 -139q-84 143 -243 143zM625 616q-93 0 -191 -66t-166 -179q-2 -18 -2 -54q0 -126 61.5 -216.5t170.5 -90.5q129 0 226 116t99 267q1 106 -54 164.5t-144 58.5z" />
    <glyph glyph-name="seven" unicode="7" horiz-adv-x="1048" 
d="M285 1413h936l26 -166q-287 -279 -547.5 -662t-404.5 -769h-266q176 416 419.5 776.5t495.5 609.5h-731z" />
    <glyph glyph-name="eight" unicode="8" horiz-adv-x="1181" 
d="M784 1442q176 0 285.5 -110.5t101.5 -272.5q-7 -142 -106.5 -261.5t-255.5 -176.5q82 -73 129 -156t47 -193q0 -144 -77.5 -258.5t-209 -176.5t-290.5 -62q-205 0 -332.5 108t-126.5 289q0 98 37 184t101 150t141 110.5t167 77.5q-133 133 -123 314q4 78 41 154.5
t100.5 139t160.5 101.5t210 39zM645 756q137 45 216 126t79 169q0 83 -50 135.5t-142 52.5q-103 0 -176.5 -74.5t-73.5 -171.5q0 -68 38 -123t109 -114zM748 276q0 45 -14.5 84.5t-45 75.5t-58 61t-73.5 62q-167 -44 -272 -133.5t-105 -212.5q-1 -110 68 -170.5t182 -60.5
q78 0 149.5 33.5t120 102.5t48.5 158z" />
    <glyph glyph-name="nine" unicode="9" horiz-adv-x="1220" 
d="M760 1425q88 0 166 -33.5t138 -96t95 -159.5t35 -216t-25.5 -248.5t-73 -255t-120.5 -238t-161.5 -198.5t-202.5 -136.5t-238 -50.5q-126 0 -233.5 58.5t-168.5 156.5l179 139q85 -141 243 -141q115 0 224.5 84t188.5 219.5t122 298.5q-77 -103 -177 -155t-206 -50
q-150 5 -253.5 116.5t-103.5 287.5q0 121 43 233.5t117.5 197.5t182 136t229.5 51zM612 604q93 0 189.5 66t165.5 178q2 18 2 55q0 125 -61.5 215t-170.5 90q-85 0 -160 -53.5t-119.5 -142t-45.5 -187.5q0 -106 55 -163.5t145 -57.5z" />
    <glyph glyph-name="A" unicode="A" horiz-adv-x="1118" 
d="M711 1413h299q-20 -258 -64 -789.5t-65 -807.5h-244q6 58 22 190t23 203h-403q-69 -131 -203 -393h-260q180 328 217 393h-209l72 205h254q56 100 176.5 312t212 375t172.5 312zM385 414h320q27 230 86 768q-136 -259 -406 -768z" />
    <glyph glyph-name="B" unicode="B" horiz-adv-x="1245" 
d="M1272 987q0 -194 -135.5 -331.5t-345.5 -168.5q103 -40 160 -119.5t57 -170.5q0 -107 -51.5 -188t-138 -127t-186.5 -68.5t-210 -22.5q-162 0 -323.5 46.5t-264.5 113.5l103 194q52 -33 129 -71q46 141 152 450t155 463h233q-41 -123 -131 -381q111 2 210.5 25.5
t178.5 66.5t125.5 111t46.5 152q0 83 -48 143.5t-125 89.5t-171 29q-246 0 -487 -131l-88 190q121 72 273.5 112t301.5 40q165 0 297 -55.5t207.5 -157.5t75.5 -234zM428 -18q149 0 246 59t96 170q-1 92 -104.5 151.5t-251.5 65.5q-78 -228 -140 -428q80 -18 154 -18z" />
    <glyph glyph-name="C" unicode="C" horiz-adv-x="1181" 
d="M463 -205q-84 0 -158.5 31.5t-133.5 91.5t-93.5 158.5t-34.5 222.5q0 120 26 251t73 257t118.5 240t156 200t191.5 136.5t221 50.5q104 0 185.5 -46t125 -124.5t54 -183.5t-26.5 -222h-239q52 155 11 253.5t-144 98.5q-97 0 -193 -85.5t-165 -216.5t-111.5 -291
t-42.5 -304q0 -137 54.5 -213.5t160.5 -76.5q182 0 325 286l201 -86q-36 -90 -88 -165.5t-121.5 -135.5t-160 -93.5t-191.5 -33.5z" />
    <glyph glyph-name="D" unicode="D" horiz-adv-x="1357" 
d="M643 1442q205 -1 357.5 -92.5t228.5 -242.5t74 -337q-1 -137 -41 -275t-121 -264t-192 -223t-266 -155t-331 -58q-154 0 -291.5 35t-224.5 98l113 193q66 -53 162 -82q173 539 325 948h234q-175 -458 -340 -991q20 -2 59 -2q140 0 267.5 67t216 175.5t142 247.5t54.5 282
q3 209 -114.5 337.5t-319.5 129.5q-119 0 -234 -42t-206 -114l-107 189q118 85 262.5 131t292.5 45z" />
    <glyph glyph-name="E" unicode="E" horiz-adv-x="989" 
d="M1196 1413l-70 -199h-567q-110 -312 -164 -475h422l-65 -198h-424q-2 -5 -174 -525h591l-69 -200h-819q60 177 169.5 503t201 595.5t173.5 498.5h795z" />
    <glyph glyph-name="F" unicode="F" horiz-adv-x="917" 
d="M1165 1413l-67 -199h-539q-102 -286 -194 -565h464l-65 -198h-467q-21 -63 -209 -635h-231q60 177 169.5 503t201 595.5t173.5 498.5h764z" />
    <glyph glyph-name="G" unicode="G" 
d="M725 649h590l-68 -198h-108q-84 -299 -263 -477.5t-403 -178.5q-86 0 -162.5 32.5t-135.5 94t-93.5 160t-34.5 221.5q0 121 25.5 251t71.5 256t117 239t156.5 198.5t195 136t227.5 50.5q97 0 181.5 -41t139 -113.5t74 -172t-13.5 -216.5h-234q41 145 -12.5 232t-163.5 87
q-103 0 -202 -86t-168.5 -217.5t-112.5 -290.5t-43 -303q0 -140 55.5 -218.5t163.5 -78.5q71 0 136 35.5t115 97.5t89 137.5t67 164.5h-254z" />
    <glyph glyph-name="H" unicode="H" horiz-adv-x="1161" 
d="M1096 1413h229q-221 -620 -543 -1597h-229l213 637h-447q-50 -146 -210 -637h-232q60 175 215 637h-180l65 196h181q226 661 262 764h231q-90 -248 -266 -764h446q151 443 265 764z" />
    <glyph glyph-name="I" unicode="I" horiz-adv-x="487" 
d="M98 -184h-231q58 169 169.5 501t202.5 599t173 497h229q-237 -658 -543 -1597z" />
    <glyph glyph-name="J" unicode="J" horiz-adv-x="944" 
d="M207 -205q-115 0 -204.5 70.5t-127.5 200t6 313.5l228 27q-18 -77 -20.5 -148t11 -128t47.5 -90.5t86 -33.5q84 0 146.5 75.5t120.5 231.5q149 411 366 1100h240q-253 -758 -385 -1137q-83 -236 -204.5 -358.5t-309.5 -122.5z" />
    <glyph glyph-name="K" unicode="K" horiz-adv-x="1087" 
d="M1073 1413h266q-317 -371 -600 -674q73 -480 150 -923h-236q-48 314 -104 725q-144 -150 -334 -336l-127 -389h-231q60 177 169.5 503t201 595.5t173.5 498.5h230q-155 -433 -299 -860q467 512 741 860z" />
    <glyph glyph-name="L" unicode="L" horiz-adv-x="835" 
d="M154 16h559l-68 -200h-788q60 177 169.5 503t201 595.5t173.5 498.5h230q-214 -594 -477 -1397z" />
    <glyph glyph-name="M" unicode="M" horiz-adv-x="1529" 
d="M1255 1413h293q-158 -730 -311 -1597h-242q122 594 283 1253q-213 -368 -590 -1071h-223q17 588 53 1069q-295 -693 -506 -1251h-235q279 703 676 1595h286q-45 -531 -67 -1092q322 628 583 1094z" />
    <glyph glyph-name="N" unicode="N" horiz-adv-x="1169" 
d="M1110 1413h223q-45 -129 -135 -387.5t-144.5 -417.5t-129 -382t-133.5 -410h-283q-33 640 -41 1179q-114 -330 -381 -1179h-227q331 1002 544 1597h265q3 -621 34 -1272q55 186 124.5 401.5t153.5 471.5t130 399z" />
    <glyph glyph-name="O" unicode="O" 
d="M492 -205q-142 0 -244 67t-152.5 182.5t-50.5 266.5q0 129 29 264t80.5 259t126 234t162 191t193 128t214.5 47q199 0 320.5 -148.5t121.5 -390.5q0 -116 -27.5 -243t-76.5 -249t-122 -232.5t-159.5 -194t-194 -132.5t-220.5 -49zM516 18q105 0 207 85t173 213.5
t115 279.5t44 283q0 151 -61.5 239t-170.5 88q-107 0 -209 -84t-174 -212.5t-115.5 -285t-43.5 -300.5q0 -148 60.5 -227t174.5 -79z" />
    <glyph glyph-name="P" unicode="P" horiz-adv-x="1198" 
d="M618 1446q140 -1 254.5 -45t189 -119t115 -173.5t40.5 -209.5q0 -139 -49 -261.5t-134.5 -212t-197 -152.5t-241.5 -89.5t-263 -15.5q-82 -251 -113 -352h-233q69 210 210.5 614.5t190.5 548.5h219l-205 -604q151 -11 287.5 50t222.5 183t86 275q0 160 -103.5 259
t-281.5 99q-113 0 -221.5 -37t-191.5 -98l-105 178q100 73 235 117.5t289 44.5z" />
    <glyph glyph-name="Q" unicode="Q" 
d="M1292 895q0 -230 -99.5 -481t-264.5 -416l125 -264h-222l-63 139q-137 -78 -276 -78q-142 0 -244 67t-152.5 182.5t-50.5 266.5q0 129 29 264t80.5 259t126 234t162 191t193 128t214.5 47q199 0 320.5 -148.5t121.5 -390.5zM516 18q82 0 162 52l-119 262h213l55 -119
q102 134 165 319.5t63 346.5q0 151 -61.5 239t-170.5 88q-107 0 -209 -84t-174 -212.5t-115.5 -285t-43.5 -300.5q0 -148 60.5 -227t174.5 -79z" />
    <glyph glyph-name="R" unicode="R" horiz-adv-x="1222" 
d="M1223 928q0 -209 -129 -380t-332 -251q99 -256 209 -481h-250q-65 150 -164 430q-104 -12 -211 6q-80 -246 -141 -436h-234q240 708 406 1163h219q-72 -196 -186 -533q127 -15 238.5 19t186 101.5t117.5 159t43 189.5q0 134 -98.5 231t-243.5 97q-143 0 -250.5 -37
t-205.5 -106l-103 184q124 78 254 122t307 44q124 0 231 -41.5t180.5 -112.5t115 -166.5t41.5 -201.5z" />
    <glyph glyph-name="S" unicode="S" horiz-adv-x="1114" 
d="M401 -205q-194 0 -326 118.5t-132 301.5q0 81 31.5 172.5t82.5 151.5l199 -109q-36 -38 -57 -95.5t-21 -115.5q0 -97 67 -157t171 -60q119 0 201.5 83t82.5 191q0 60 -25.5 111t-67 88t-91 73t-99 76t-90.5 86.5t-66 114.5t-25 150q1 86 35.5 167.5t96 147t157 105
t208.5 39.5q91 0 168.5 -30.5t129 -84t80.5 -122t25.5 -149.5t-40.5 -161h-232q49 118 33 195t-65 115t-117 38q-105 0 -172.5 -70.5t-69.5 -171.5q0 -55 26 -102.5t67.5 -84t92 -73t101 -78t92.5 -89.5t67.5 -117.5t24.5 -153.5q-1 -96 -37.5 -184.5t-103 -159.5
t-171 -113.5t-231.5 -42.5z" />
    <glyph glyph-name="T" unicode="T" horiz-adv-x="806" 
d="M1221 1413l-68 -199h-420q-241 -681 -471 -1398h-229q44 131 144.5 433t178 530.5t150.5 434.5h-416l68 199h1063z" />
    <glyph glyph-name="U" unicode="U" horiz-adv-x="1187" 
d="M383 -205q-106 0 -179 35t-108 103.5t-48 155.5t5 208t47 242t82.5 275t106.5 291t123 306h241q-53 -123 -98 -234t-93 -238t-81.5 -235t-61.5 -215t-35.5 -190t0 -147.5t41 -99t91.5 -34.5q54 0 105.5 31t99.5 96.5t90.5 139t86.5 186.5t79 209.5t76.5 238t69 242.5
t67.5 250h241q-70 -249 -111.5 -390.5t-106 -338.5t-114.5 -307t-121.5 -237.5t-141.5 -191t-160.5 -107.5t-192.5 -44z" />
    <glyph glyph-name="V" unicode="V" horiz-adv-x="942" 
d="M989 1413h264q-532 -913 -882 -1597h-289q52 952 121 1597h241q-92 -674 -131 -1307q115 215 338 652.5t338 654.5z" />
    <glyph glyph-name="W" unicode="W" horiz-adv-x="1511" 
d="M1526 1413h235q-120 -241 -268 -557.5t-222.5 -482t-250.5 -557.5h-277q23 497 66 966q-230 -431 -500 -966h-286q128 851 274 1597h227q-124 -580 -235 -1247q278 555 510 969h233q-43 -492 -67 -971q22 49 129.5 295.5t152.5 347.5t127.5 282.5t151.5 323.5z" />
    <glyph glyph-name="X" unicode="X" horiz-adv-x="1071" 
d="M1081 1413h279q-485 -575 -711 -838q66 -286 191 -759h-242q-23 98 -129 587q-381 -456 -487 -587h-287q81 94 339.5 387.5t381.5 439.5q-33 150 -92 426t-74 344h242q43 -307 108 -614q77 92 153 189.5t184 238t144 186.5z" />
    <glyph glyph-name="Y" unicode="Y" horiz-adv-x="944" 
d="M328 -184h-232q119 332 205 596q-19 196 -80 1001h228q34 -702 38 -768q381 559 533 768h260q-318 -418 -760 -1026q-65 -179 -192 -571z" />
    <glyph glyph-name="Z" unicode="Z" horiz-adv-x="970" 
d="M315 1413h914q-59 -77 -256 -329.5t-295.5 -380t-250.5 -328.5t-267 -361h598l-70 -198h-932q112 158 259.5 357.5t246 330t288.5 379t255 334.5h-557z" />
    <glyph glyph-name="a" unicode="a" horiz-adv-x="935" 
d="M-166 0l658 1176h296l-67 -1176h-215l16 238h-329l-123 -238h-236zM575 983l-288 -561h250z" />
    <glyph glyph-name="b" unicode="b" horiz-adv-x="927" 
d="M956 866q0 -145 -109 -247t-272 -121q85 -26 132 -84.5t47 -139.5q0 -89 -51 -155.5t-137.5 -100.5t-194.5 -45.5t-227.5 4.5t-231.5 56l383 1124q128 31 244.5 31t210.5 -31.5t150 -106t56 -184.5zM455 1006l-131 -396q173 -17 293 51t120 181q0 99 -79.5 138t-202.5 26
zM268 442l-98 -292q94 -17 175 -12t135 45.5t52 107.5q0 67 -76 107.5t-188 43.5z" />
    <glyph glyph-name="c" unicode="c" horiz-adv-x="923" 
d="M354 -25q-67 0 -124 22.5t-103.5 68.5t-73 124t-26.5 181q0 101 25.5 213t78 221t123 196t170 141t209.5 54q171 0 254 -136t28 -331h-219q35 120 7.5 190t-99.5 70q-87 0 -171.5 -97.5t-135 -234t-51.5 -256.5q0 -99 36.5 -158t104.5 -59q132 0 229 222l189 -80
q-59 -158 -174 -254.5t-277 -96.5z" />
    <glyph glyph-name="d" unicode="d" horiz-adv-x="966" 
d="M-96 10l395 1161q107 20 201.5 19t173 -32t135 -83.5t88 -134.5t31.5 -186q0 -115 -28.5 -219.5t-80.5 -189t-124 -153t-162 -114.5t-190 -71t-212.5 -24.5t-226.5 27.5zM457 999l-279 -823q229 8 380 171.5t151 406.5q0 128 -67.5 187.5t-184.5 57.5z" />
    <glyph glyph-name="e" unicode="e" horiz-adv-x="792" 
d="M940 1176l-63 -185h-418l-107 -313h291l-63 -184h-291l-105 -310h424l-63 -184h-643l399 1176h639z" />
    <glyph glyph-name="f" unicode="f" horiz-adv-x="757" 
d="M926 1176l-62 -185h-405l-121 -354h313l-61 -182h-314l-153 -455h-221l399 1176h625z" />
    <glyph glyph-name="g" unicode="g" horiz-adv-x="1013" 
d="M535 610h469l-64 -184h-76q-144 -451 -510 -451q-64 0 -121.5 24t-104.5 70.5t-75 124.5t-28 177q0 102 26 214t79 220.5t125 196t172.5 141t211.5 53.5q112 0 194 -54.5t112 -148.5t-1 -221h-217q32 102 -1.5 161.5t-102.5 59.5q-96 0 -185 -96t-140.5 -235.5
t-51.5 -270.5q0 -104 38 -158.5t109 -54.5q84 0 151 67.5t109 180.5h-182z" />
    <glyph glyph-name="h" unicode="h" horiz-adv-x="954" 
d="M643 612l191 564h219l-398 -1176h-221l146 426h-314l-143 -426h-221l399 1176h219l-190 -564h313z" />
    <glyph glyph-name="i" unicode="i" horiz-adv-x="434" 
d="M129 0h-221l399 1176h219z" />
    <glyph glyph-name="j" unicode="j" horiz-adv-x="778" 
d="M219 -16q-102 0 -177 53.5t-104.5 157.5t15.5 256l209 22q-23 -76 -24.5 -142.5t26 -111.5t78.5 -45q60 0 107.5 62.5t90.5 187.5l256 752h211l-291 -850q-116 -342 -397 -342z" />
    <glyph glyph-name="k" unicode="k" horiz-adv-x="905" 
d="M815 1176h256l-463 -521l125 -655h-217l-82 506l-225 -242l-90 -264h-217l399 1176h217l-201 -592z" />
    <glyph glyph-name="l" unicode="l" horiz-adv-x="718" 
d="M520 1176l-336 -992h387l-63 -184h-606l399 1176h219z" />
    <glyph glyph-name="m" unicode="m" horiz-adv-x="1263" 
d="M549 293l424 883h276l-219 -1176h-217l195 895l-451 -881h-197l60 852l-346 -866h-219l503 1176h260z" />
    <glyph glyph-name="n" unicode="n" horiz-adv-x="972" 
d="M588 289l289 887h196l-399 -1176h-252l-51 823l-267 -823h-202l399 1176h238z" />
    <glyph glyph-name="o" unicode="o" horiz-adv-x="1009" 
d="M373 -20q-168 0 -257 111.5t-89 285.5q0 109 28.5 224t83.5 221t128 190t170.5 134t203.5 50q160 0 246 -117t86 -305q0 -108 -27.5 -220.5t-80.5 -214.5t-124.5 -182.5t-167.5 -128.5t-200 -48zM397 190q92 0 176 95t131.5 228t47.5 253q0 101 -39.5 158t-108.5 57
q-94 0 -178.5 -93.5t-132 -229.5t-47.5 -267q0 -98 39.5 -149.5t111.5 -51.5z" />
    <glyph glyph-name="p" unicode="p" horiz-adv-x="899" 
d="M-98 0l399 1176q127 34 238 25t193.5 -50t130.5 -124.5t48 -197.5q0 -170 -98 -302t-257.5 -198t-346.5 -57l-92 -272h-215zM461 1010l-187 -547q197 0 309.5 104.5t112.5 251.5q0 101 -64 149t-171 42z" />
    <glyph glyph-name="q" unicode="q" horiz-adv-x="999" 
d="M973 774q0 -192 -83 -383t-222 -303l84 -201h-201l-45 113q-72 -20 -133 -20q-168 0 -257 111.5t-89 285.5q0 109 28.5 224t83.5 221t128 190t170.5 134t203.5 50q160 0 246 -117t86 -305zM397 190q3 0 33 5l-84 208h189l47 -110q75 89 122.5 222t47.5 251
q0 101 -39.5 158t-108.5 57q-94 0 -178.5 -93.5t-132 -229.5t-47.5 -267q0 -98 39.5 -149.5t111.5 -51.5z" />
    <glyph glyph-name="r" unicode="r" horiz-adv-x="942" 
d="M936 840q0 -164 -97.5 -282t-254.5 -181q45 -162 125 -377h-230q-37 119 -84 326q-82 -14 -170 -11l-108 -315h-215l399 1174v2q212 43 353 6.5t211.5 -125.5t70.5 -217zM459 1006l-174 -512q197 6 312.5 102t115.5 233q0 99 -68 142t-186 35z" />
    <glyph glyph-name="s" unicode="s" horiz-adv-x="847" 
d="M299 -33q-158 0 -256 92t-98 226q0 68 25.5 134t64.5 109l170 -88q-43 -69 -43 -135q0 -64 42 -105.5t120 -41.5q73 0 125.5 47t52.5 117q0 43 -19 79.5t-50 63.5t-68 53.5t-74 56t-67.5 63.5t-49 84.5t-18.5 111.5q0 91 45 173t133 135.5t198 53.5q68 0 124.5 -17.5
t94 -48t63.5 -70.5t36 -84.5t7.5 -91t-17.5 -89.5h-203q34 97 -3 160t-112 63q-66 0 -109.5 -42.5t-43.5 -107.5q0 -39 19 -73t49.5 -60.5t68 -53.5t75 -58.5t68.5 -68t50.5 -90.5t19.5 -118q0 -168 -118.5 -273.5t-301.5 -105.5z" />
    <glyph glyph-name="t" unicode="t" horiz-adv-x="780" 
d="M958 1176l-61 -183h-258l-338 -993h-219l336 993h-260l61 183h739z" />
    <glyph glyph-name="u" unicode="u" horiz-adv-x="931" 
d="M328 -16q-152 0 -226 86.5t-69.5 248t68 375t184.5 482.5h219q-311 -714 -250 -913q22 -70 90 -70q122 0 233.5 247.5t235.5 735.5h219q-70 -288 -142.5 -500.5t-158 -371.5t-186.5 -239.5t-217 -80.5z" />
    <glyph glyph-name="v" unicode="v" horiz-adv-x="870" 
d="M334 244l473 932h242l-668 -1176h-268l92 1176h221z" />
    <glyph glyph-name="w" unicode="w" horiz-adv-x="1239" 
d="M803 297l393 879h201l-566 -1176h-233l96 846l-409 -846h-240l182 1176h199l-152 -883l424 883h199z" />
    <glyph glyph-name="x" unicode="x" horiz-adv-x="858" 
d="M791 1176h251l-505 -625l125 -551h-218l-75 395l-306 -395h-253l512 618l-127 558h217l77 -404z" />
    <glyph glyph-name="y" unicode="y" horiz-adv-x="854" 
d="M332 0h-217l135 399l-57 777h210l29 -547l375 547h242l-590 -799z" />
    <glyph glyph-name="z" unicode="z" horiz-adv-x="782" 
d="M217 1176h725l-737 -996h413l-61 -180h-725l735 995h-411z" />
    </font>
</defs>
</svg>
