<?xml version="1.0" standalone="no"?>
<!DOCTYPE svg PUBLIC "-//W3C//DTD SVG 1.1//EN" "http://www.w3.org/Graphics/SVG/1.1/DTD/svg11.dtd" >
<svg xmlns="http://www.w3.org/2000/svg" xmlns:xlink="http://www.w3.org/1999/xlink" version="1.1">
<metadata>
Created by FontForge 20201107 at Sun May 24 11:46:15 2020
 By 
Copyright (c) 2020 by Subectype Studio. All rights reserved.
</metadata>
<defs>
<font id="BillionDreams" horiz-adv-x="350" >
  <font-face 
    font-family="Billion Dreams"
    font-weight="400"
    font-stretch="normal"
    units-per-em="1000"
    panose-1="2 0 6 0 0 0 0 0 0 0"
    ascent="800"
    descent="-200"
    x-height="457"
    cap-height="768"
    bbox="-319.364 -388 6022 1110.04"
    underline-thickness="150"
    underline-position="-292"
    unicode-range="U+000D-FB02"
  />
<missing-glyph horiz-adv-x="422" 
 />
    <glyph glyph-name="ar" unicode="ar" horiz-adv-x="705" 
d="M534 523q61 -29 95 -66q33 -39 21 -113q-4 -18 -12 -44.5t-20 -61.5q-12 -33 -22.5 -66.5t-21.5 -68.5q-9 -35 -14 -64.5t-5 -55.5q0 -47 38 -52q-14 -22 -47 -14q-35 8 -61 43q-28 33 -19 93q9 38 22.5 81.5t32.5 91.5q11 30 19 55t14 45q16 54 6 90q-11 34 -60 54
q-2 -97 -60 -224q-61 -129 -134 -177q-19 -9 -53 -3q-31 9 -59 28q-27 18 -32 44q-6 38 10 100q-8 -11 -17.5 -23t-20.5 -27q-42 -59 -93 -110q-13 -11 -40 -5q-26 6 -48 23q-21 16 -21 37q5 40 19.5 81.5t37.5 85.5q44 85 102 134q30 24 57 17q27 -8 52 -27q11 -6 20 -13
q2 4 4.5 8t6.5 9l12 18q7 10 11 13q13 13 34 4q20 -6 36 -23q15 -15 7 -31q-62 -105 -75 -179q-12 -75 2 -88q18 -12 55 36q19 22 36 51t34 64q17 36 26.5 70t14.5 66q4 64 -38 91q-14 7 -8 26q2 9 7 18t13 17q16 20 31 25q18 8 27 -6q5 -5 8 -9.5t5 -9.5q9 -15 21 -27
q6 -6 17 -13.5t27 -17.5zM169 342q2 2 4 15q0 10 -3 18q-3 10 -9 11q-8 1 -19 -10q-47 -50 -76 -114q-17 -32 -24.5 -54.5t-9.5 -36.5q24 22 67 76q21 27 38.5 51t31.5 44z" />
    <glyph glyph-name="ir" unicode="ir" horiz-adv-x="551" 
d="M186 518q-5 -6 -12 -7.5t-16 -0.5q-9 3 -17.5 6.5t-16.5 8.5q-14 10 -14 21q5 14 10 27.5t12 29.5q12 31 21 44q11 11 35 7q11 -3 22 -7.5t19 -12.5q18 -11 13 -26q-5 -8 -11.5 -18t-14.5 -24q-18 -26 -30 -48zM403 540q61 -30 95 -67q33 -37 15 -113q-5 -17 -16 -44
t-26 -62q-14 -33 -27.5 -66.5t-27.5 -68.5q-13 -35 -20 -64.5t-9 -54.5q-1 -49 37 -52q-16 -23 -51 -14q-36 6 -64 42q-31 34 -16 93q12 38 29.5 81.5t40.5 92.5q14 30 24.5 55t18.5 45q21 53 15 89q-8 37 -58 54q-7 -94 -83 -222q-77 -128 -167 -175q-22 -9 -56 -1
q-17 5 -31.5 11t-27.5 15q-27 19 -32 44q-2 17 1.5 41.5t11.5 57.5q10 33 20.5 65t24.5 64q23 61 44 88q12 14 36 8q23 -3 43 -20q21 -15 13 -32q-28 -48 -47 -91t-31 -81q-22 -76 -4 -88q27 -8 68 32q42 42 82 104q20 33 33.5 64.5t21.5 62.5q15 60 -19 89q-12 12 -6 27
q7 18 24 33q17 16 32 21q18 7 25 -6q7 -14 20 -27q5 -6 16.5 -13.5t27.5 -16.5z" />
    <glyph glyph-name="er" unicode="er" horiz-adv-x="587" 
d="M437 535q30 -14 53 -30t40 -33q32 -34 20 -106q-3 -17 -11 -42t-20 -58q-11 -31 -21.5 -63t-19.5 -65q-20 -68 -20 -112q0 -48 36 -49q-12 -21 -45 -14q-17 4 -32.5 14t-30.5 26q-29 32 -20 88q9 36 22 77t31 86q22 58 34 96q7 24 9.5 45.5t-2.5 38.5q-7 32 -56 50
q-3 -87 -62 -214q-58 -131 -128 -189q-8 -6 -12 -7q-1 0 -1 -1q-2 -1 -3 -1t-3 -1q-33 -9 -81 7q-50 19 -85 48q-37 29 -43 68q-5 113 48 206q26 47 52.5 78t55.5 46q22 13 44 6q11 -4 22.5 -10t25.5 -14q4 -2 8 -4.5t8 -4.5q23 -13 23 -35q-2 -19 -15 -56q-8 -20 -18.5 -39
t-24.5 -37q-27 -38 -64 -50q-19 -7 -34 -4q-8 2 -16 3.5t-16 6.5q-22 -72 4 -109q25 -37 57 -27q68 28 156 211v1q5 11 10 26q2 8 4 12.5t2 6.5q27 90 -27 124q-13 8 -8 25q6 18 20 34q18 17 31 23q17 7 27 -5q7 -12 12 -18q9 -15 21 -27q11 -12 43 -28zM193 453
q-7 -5 -15.5 -14.5t-19.5 -24.5q-11 -13 -20.5 -26.5t-17.5 -27.5q-18 -29 -18 -34q23 -3 44 20q9 11 17.5 24t14.5 28q6 16 9.5 29.5t5.5 25.5z" />
    <glyph glyph-name="ur" unicode="ur" horiz-adv-x="702" 
d="M544 550q63 -31 98 -67q34 -38 22 -113q-5 -17 -13 -43.5t-21 -61.5q-12 -32 -22.5 -66t-21.5 -69t-15.5 -65t-4.5 -55q0 -49 39 -52q-15 -22 -50 -14t-65 42q-31 36 -22 92q12 39 27.5 83t34.5 93q12 29 20.5 54t14.5 46q17 50 6 88q-12 36 -63 54q0 -96 -57 -229
q-28 -66 -62.5 -109t-73.5 -64q-42 -13 -96 16q-53 30 -57 84q-8 -12 -15.5 -23.5t-16.5 -22.5q-18 -23 -46 -52q-17 -15 -46 -14q-28 0 -54 14q-25 16 -28 36q-2 39 18 108q11 35 21.5 67t23.5 63q27 60 41 74q10 8 34 2q21 -5 36 -17q16 -12 12 -23q-2 -3 -6.5 -11.5
t-11.5 -21.5q-8 -14 -15 -31t-15 -36q-9 -19 -16.5 -36.5t-15.5 -35.5q-7 -18 -11 -31.5t-5 -24.5q-5 -20 11 -12q47 32 101 134q27 52 48 97.5t36 87.5q6 10 23 10q16 0 34 -9q19 -7 30 -20q12 -12 5 -23q-32 -57 -50 -103.5t-23 -85.5q-10 -77 5 -84q27 -6 63 41
q38 47 66 115q16 34 25 66t14 62q6 60 -26 79q-20 11 -18 31q3 18 20 34q15 17 36 21q19 5 31 -12q4 -8 9.5 -14.5t11.5 -12.5q11 -11 46 -30z" />
    <glyph glyph-name="dr" unicode="dr" horiz-adv-x="711" 
d="M550 547q32 -12 57 -26t44 -31q37 -33 23 -110q-5 -19 -13 -46.5t-22 -63.5q-12 -34 -23 -69t-22 -71t-16.5 -66t-4.5 -54q0 -49 40 -48q-15 -24 -51 -20q-37 5 -65 36q-29 33 -19 91q9 40 23.5 85t34.5 96q12 30 21 56t15 46q18 55 6 90t-64 48q14 -52 -16 -138
q-17 -44 -38 -85.5t-48 -81.5q-54 -81 -106 -115q-29 -16 -75 -7q-45 11 -67 38q-27 39 -11 101q-11 -19 -24 -38t-28 -38q-14 -19 -28.5 -31t-27.5 -19q-28 -10 -66 -1q-35 10 -41 47q1 77 60 196q62 117 144 152q21 7 45 2q12 -3 23 -7t22 -9q2 2 2 4q6 15 17.5 38
t26.5 56q15 31 31 61.5t33 61.5q18 29 33.5 48.5t29.5 28.5q19 12 46 2q12 -5 22 -11.5t17 -16.5q13 -18 0 -30q-55 -52 -120 -176q-32 -63 -57.5 -123t-45.5 -119q-38 -116 -13 -142q19 -9 60 36q41 44 79 115q38 69 49 131q10 62 -34 86q-16 6 -11 28q5 21 21 40
q8 10 17 17.5t18 11.5q18 10 32 -4q0 -1 1 -2.5t2 -3.5q2 -8 14 -19t48 -27zM194 378q4 14 0 24q-5 6 -20 -1q-16 -12 -32 -32t-33 -47q-35 -57 -54 -108q-20 -51 -10 -60q11 -5 33 24q25 28 48 70q12 21 23.5 40.5t21.5 38.5t15.5 32t7.5 19z" />
    <glyph glyph-name="tr" unicode="tr" horiz-adv-x="502" 
d="M450 658q15 -8 24.5 -18t15.5 -24q11 -25 8 -54q-5 -26 -17 -33q6 49 -71 70q-79 23 -187 11q-28 -42 -52.5 -88t-47.5 -98q-46 -106 -63 -182q-17 -79 3 -100q18 -12 54 23q35 36 70 98q17 32 28 62.5t16 60.5q9 58 -31 86q-15 9 -12 30q5 20 21 38q8 9 15.5 16t17.5 10
q16 7 28 -8q2 -2 4 -6q1 -5 4.5 -9.5t8.5 -10.5q5 -7 16 -14t28 -17q59 -30 95 -67q33 -38 20 -112q-3 -19 -11 -44.5t-19 -58.5q-11 -31 -20.5 -62t-18.5 -63t-13 -58.5t-4 -49.5q3 -44 39 -48q-14 -22 -47 -13q-33 7 -62 41q-26 37 -17 93q8 38 20 75.5t29 78.5
q18 51 30 90q17 56 5 90q-11 35 -59 53q13 -55 -15 -132q-28 -80 -78 -154q-50 -72 -99 -102q-29 -12 -69 1q-41 15 -63 44q-31 60 11 201q20 72 47 141t62 137q-51 -16 -92 -46q-8 -5 -19 3q-4 5 -8.5 11.5t-8.5 14.5q-5 7 -6.5 14t-3.5 15q-3 13 5 18q76 35 180 55
q17 29 33.5 50t30.5 34q16 13 40 2q23 -11 37 -32t4 -34l-3 -3t-3 -2q104 3 170 -24z" />
    <glyph glyph-name="th" unicode="th" horiz-adv-x="529" 
d="M549 338q7 9 17 6q10 -1 19 -10q8 -9 5 -20q-14 -30 -33.5 -61.5t-46.5 -64.5q-26 -32 -49.5 -55t-44.5 -35q-21 -8 -43 -4q-24 6 -45 17q-21 13 -24 27q-2 17 1 37.5t11 46.5t15.5 46l13.5 36q2 5 3.5 8t1.5 6q-45 -42 -104 -128q-30 -43 -51.5 -77.5t-36.5 -60.5
q-7 -13 -29 -10q-11 1 -21 4.5t-20 8.5q-18 11 -15 25q22 75 82 214q62 141 131 268q-18 -1 -36 -3l-36 -4q-39 -60 -71.5 -124t-60.5 -133q-27 -68 -43 -125t-20 -105q-7 -95 56 -95q-37 -38 -89 -14q-53 24 -62 108q-1 35 11 84t35 115q25 65 54 130.5t64 133.5
q-29 -9 -55 -20t-47 -25q-11 -6 -23 3q-11 9 -20 26q-4 7 -7 14t-4 14q-3 15 6 19q43 16 92 29t104 23q29 49 55.5 86.5t52.5 63.5q14 14 39 1q24 -10 39 -34q13 -22 -2 -42q-26 -26 -53 -59q17 1 33 1.5t31 0.5q31 46 55 69q21 15 45 8q25 -9 41 -26q15 -18 6 -33
q-5 -2 -12.5 -8t-16.5 -16q23 -3 41.5 -8t34.5 -11q34 -13 48 -41q5 -14 7 -27t0 -27q-6 -26 -21 -33q7 33 -37 55q-23 10 -54 17t-71 10q-92 -124 -168 -310q36 50 79 100q21 24 40.5 43t37.5 31q10 5 20.5 7t22.5 -2q24 -8 39 -24q14 -19 7 -35q-4 -8 -8.5 -17.5
t-10.5 -20.5q-11 -23 -22 -46.5t-22 -48.5q-23 -51 -24 -86q47 25 92 81q22 29 39.5 55t31.5 51z" />
    <glyph glyph-name="ll" unicode="ll" horiz-adv-x="342" 
d="M373 719q13 18 37 9q25 -8 40 -26q17 -17 7 -32q-48 -60 -88.5 -129t-75.5 -149q-68 -160 -83 -286q-15 -127 50 -143q-5 -9 -26 -13q-23 -6 -48 0q-28 5 -48 26q-21 21 -24 66q-4 46 23 122q-5 -9 -10.5 -18.5t-11.5 -19.5q-10 -19 -20 -37t-20 -35q-19 -32 -35 -43
q-34 -14 -68 -3q-50 21 -37 119t62 228q24 65 49 123.5t52 112.5q50 106 80 144q16 18 44 12q13 -2 24 -7t20 -14q17 -17 4 -38q-53 -70 -101 -164q-24 -48 -44 -92.5t-36 -87.5q-26 -73 -41 -125t-18 -87q-8 -68 21 -35q15 20 30 45.5t29 55.5q15 32 29 63t27 62q2 2 2 4
t2 4q40 104 90 200.5t113 187.5z" />
    <glyph glyph-name="tt" unicode="tt" horiz-adv-x="329" 
d="M501 629q31 -15 42 -43q11 -29 6 -53q-5 -27 -19 -34q8 32 -28 53q-37 23 -98 32q-41 -61 -74.5 -125.5t-62.5 -133.5q-27 -70 -43 -130t-21 -113q-11 -104 47 -119q-7 -9 -26 -13q-22 -5 -47 1q-27 6 -46 28t-21 67q-1 44 26 122q-5 -9 -10.5 -18.5t-11.5 -19.5
q-10 -19 -20.5 -36t-20.5 -34q-23 -33 -36 -42q-31 -15 -67 -1q-44 19 -32 109q6 45 20 96.5t37 111.5t47.5 115.5t50.5 108.5q-22 -7 -41 -16t-36 -20q-8 -5 -19 4q-12 12 -19 26q-7 13 -10 30q-2 13 7 18q35 14 75 25t86 19q40 71 58 93q16 16 43 11q28 -7 43 -23
q16 -19 3 -38q-13 -14 -23 -29q43 1 84 0q10 14 19.5 28.5t18.5 28.5q14 16 39 8q24 -10 38 -28q14 -17 5 -33q-4 -4 -7.5 -8t-6.5 -8q27 -6 51 -17zM174 334q58 133 128 257q-22 -1 -44 -1.5t-45 -3.5q-71 -120 -118 -238q-28 -71 -44 -123.5t-21 -85.5q-7 -66 20 -36
q15 20 30.5 44.5t30.5 54.5q16 30 29.5 60.5t27.5 61.5q2 2 3 5t3 5z" />
    <glyph glyph-name="lt" unicode="lt" horiz-adv-x="357" 
d="M530 599q24 -13 35 -41q8 -27 2 -46q-7 -20 -28 -14q19 23 -21 41q-42 19 -116 18q-38 -57 -68.5 -117t-53.5 -124q-24 -63 -36.5 -117.5t-14.5 -101.5q-3 -92 54 -106q-4 -7 -25 -13q-21 -3 -48 0q-26 5 -46 25q-22 22 -23 63q-3 43 22 114q-8 -13 -17 -26.5t-21 -29.5
q-11 -15 -23 -28.5t-23 -26.5q-21 -24 -35 -32q-30 -15 -66 -3q-48 17 -36 112q12 91 60 213q24 61 48.5 116t50.5 106q25 51 44.5 84t33.5 50q16 16 43 13q27 -5 43 -22q18 -15 5 -35q-30 -38 -60 -84q30 8 60 14t60 9q12 19 24 37.5t24 35.5q15 15 38 8q22 -8 39 -24
q16 -17 7 -32q-5 -5 -9 -9.5t-8 -9.5q57 -3 85 -17zM55 117q90 118 166 285q16 34 33.5 68t35.5 68q-46 -13 -93 -41q-6 -6 -14 1q-6 5 -14 16q-23 -44 -42 -85t-35 -81q-50 -133 -58 -198q-6 -65 21 -33z" />
    <glyph glyph-name="tl" unicode="tl" horiz-adv-x="383" 
d="M402 683q14 17 40 9q24 -8 40 -25q16 -16 7 -32q-96 -109 -163 -260q-33 -75 -53 -140.5t-25 -124.5q-12 -116 54 -132q-5 -9 -26 -13q-21 -5 -50 0q-28 5 -48 25q-11 11 -17 26.5t-7 37.5q-2 22 4 51t20 65q-8 -12 -18 -26.5t-23 -29.5q-11 -15 -23 -29.5t-24 -27.5
q-25 -26 -37 -33q-31 -14 -70 -3q-49 18 -38 108q12 90 57 208q23 59 48 114.5t51 106.5q-26 -5 -50.5 -15t-47.5 -25q-8 -5 -18 5t-19 25q-7 17 -8 30q-2 13 7 16q91 31 174 36q17 32 31 53.5t24 33.5q15 15 44 12q15 -2 26 -7.5t20 -13.5q19 -17 4 -36q-8 -11 -17 -22.5
t-18 -23.5q17 -4 30.5 -8t25.5 -10q18 -10 25 -26q17 27 33.5 52t34.5 49zM64 106q48 61 91.5 133t81.5 157q17 35 34.5 69t35.5 68q-29 23 -94 30q-34 -57 -61 -112t-49 -109q-26 -69 -41.5 -120t-19.5 -83q-8 -66 22 -33z" />
    <glyph glyph-name="ti" unicode="ti" 
d="M454 651q37 -10 52 -37q8 -12 11.5 -25t2.5 -25q-2 -14 -5.5 -21.5t-12.5 -12.5q6 45 -75 60q-82 14 -193 -4q-82 -112 -140 -248q-31 -69 -48.5 -127.5t-22.5 -108.5q-9 -100 59 -100q-36 -36 -90 -13q-55 23 -65 101q-1 35 10.5 84.5t36.5 115.5q26 66 56 131t66 129
q-30 -11 -56 -24t-49 -28q-9 -7 -21 1q-12 6 -24 22q-10 12 -15 25q-3 14 6 19q49 22 101 39.5t109 31.5q20 33 40 58t38 44q14 12 40 0q25 -10 40 -31q14 -21 -2 -40q-2 -2 -3.5 -3t-3.5 -3q91 6 158 -10zM364 344q9 9 18 6q5 0 9 -2.5t7 -5.5q5 -7 4 -14q-9 -14 -21 -35.5
t-27 -47.5t-33 -49.5t-39 -43.5q-42 -40 -76 -51q-31 -10 -68 10q-36 18 -36 53q3 23 12.5 53.5t25.5 70.5q33 79 71 134q10 10 34 4q23 -4 43 -18q17 -14 11 -28q-120 -203 -83 -198q37 3 148 162zM326 452q-9 -11 -27 -8q-20 3 -33 12q-16 9 -14 19q5 15 9.5 30t11.5 29
t12.5 24t9.5 16q11 13 36 8q13 -3 24 -7t20 -10q10 -8 12 -14.5t-1 -14.5l-6 -8t-7 -10q-5 -8 -11 -17l-12 -18q-7 -8 -12.5 -16t-11.5 -15z" />
    <glyph glyph-name="it" unicode="it" horiz-adv-x="363" 
d="M394 565q-76 -117 -123 -248q-24 -67 -36.5 -124t-12.5 -105q0 -95 68 -95q-38 -38 -90 -14q-55 25 -64 109q-2 23 1.5 53.5t12.5 68.5q-25 -39 -59 -71q-32 -31 -61 -37q-29 -2 -57 24q-27 29 -26 60q6 45 44 140q40 94 75 149q11 11 32 5q11 -2 20.5 -7t17.5 -11
q18 -14 10 -28q-110 -200 -88 -231q15 -19 40 11q12 15 26 35.5t28 46.5t27.5 51t24.5 50t19.5 42.5t13.5 27.5q10 23 19.5 44.5t20.5 42.5q-38 -7 -72 -21t-66 -35q-13 -3 -25 10q-8 7 -13.5 15.5t-10.5 18.5q-5 11 -7 21t-3 19q0 19 14 24q51 11 107 17.5t119 10.5
q34 58 68 97q14 14 39 2q26 -12 40 -35q16 -22 -1 -42q-5 -6 -10.5 -12t-11.5 -12q27 -2 49.5 -6.5t41.5 -9.5q35 -15 49 -42q14 -29 10 -56q-3 -28 -20 -36q7 35 -45 57q-26 11 -59.5 17.5t-75.5 8.5z" />
    <glyph glyph-name="a_t" unicode="at" horiz-adv-x="568" 
d="M795 478q4 34 -51 57q-54 24 -142 33q-73 -118 -120 -260q-50 -147 -56 -253q-7 -107 51 -115q-17 -15 -46 -11q-28 3 -58 31q-27 25 -39 81q-6 57 13 145q-4 -4 -7.5 -8.5t-8.5 -7.5q-48 -55 -79 -71q-33 -12 -63 7q-30 20 -34 46q-2 19 5 45q2 14 5.5 27t7.5 25
q-8 -11 -17.5 -23t-20.5 -26q-19 -29 -41.5 -55.5t-48.5 -51.5q-15 -11 -40 -5q-26 6 -48 23q-21 17 -20 37q4 41 18 82.5t37 84.5q23 44 49 77.5t53 57.5q33 24 58 16q25 -6 52 -26q5 -3 10 -6.5t10 -6.5q6 8 12.5 14.5t12.5 14.5q4 6 9.5 12t11.5 12q10 11 32 5
q21 -7 37 -23q15 -16 8 -32q-68 -119 -86 -181q-18 -63 -3 -66q25 2 57 47q17 23 33.5 49t33.5 55q15 29 26.5 52.5t17.5 40.5q16 38 32.5 74t33.5 71q-177 -1 -291 -79q-8 -6 -26 3q-8 5 -15.5 11.5t-14.5 15.5q-16 16 -19 33q-4 15 13 25q90 34 188 50t204 14q20 31 36 53
t31 36q13 8 28 1q14 -6 28 -17q4 -4 6 -5q9 -5 15 -12t9 -13q7 -11 -2 -21q-17 -15 -29 -30q32 -4 57 -9.5t44 -12.5q30 -13 45 -47q8 -17 11.5 -32t3.5 -30q0 -28 -19 -28zM177 358q1 2 2 6t1 9q0 9 -4 17q-2 9 -11 12q-8 0 -19 -10q-23 -26 -42 -54t-35 -60
q-32 -65 -33 -91q13 11 30 29.5t40 46.5q22 27 39.5 51t31.5 44z" />
    <glyph glyph-name="et" unicode="et" horiz-adv-x="452" 
d="M486 557q-34 -57 -62.5 -119t-51.5 -129q-46 -135 -52 -237q-6 -101 48 -109q-16 -14 -44 -10q-14 2 -28 9.5t-27 21.5q-27 27 -36 80q-4 34 5 88q-48 -84 -88 -102q-52 -16 -110 18q-61 33 -70 94q-5 113 43 207q24 48 49 81.5t54 53.5q-17 20 -25 42q-9 23 3 30
q149 59 330 58q21 37 39 62.5t35 39.5q12 8 25 2q8 -3 14.5 -8t14.5 -12q2 0 2.5 -1t2.5 -2q15 -12 23 -25q5 -12 -3 -20q-11 -9 -21 -20t-20 -24q68 -7 109 -26q27 -16 40 -48t13 -62q-2 -28 -17 -28q3 37 -52 61q-28 13 -63.5 21.5t-79.5 12.5zM181 437q-14 -11 -35 -41
q-11 -14 -21 -29t-19 -29q-18 -29 -18 -36q25 -3 45 20q10 12 18.5 26t13.5 31q13 31 16 58zM100 118q33 -14 75 40q21 27 41.5 60t40.5 72q20 41 35.5 75.5t29.5 65.5q5 11 9 19.5t7 16.5l22 46t22 45q-108 -5 -190 -48q7 -3 14.5 -7.5t15.5 -9.5q9 -4 17 -11
q23 -14 23 -36q0 -9 -4 -24t-12 -36q-8 -20 -18.5 -40t-24.5 -40q-25 -38 -65 -54q-9 -2 -18 -3.5t-17 0.5q-8 1 -16 3.5t-17 6.5q-17 -56 -4 -93q9 -35 34 -48z" />
    <glyph glyph-name="ut" unicode="ut" horiz-adv-x="555" 
d="M801 468q8 40 -47 63q-56 24 -144 30q-76 -94 -135 -239q-29 -72 -46 -133t-22 -114q-8 -102 61 -102q-37 -38 -92 -14q-57 24 -67 108q-1 13 0 28t5 35q-11 -17 -22.5 -28.5t-22.5 -19.5q-22 -17 -45 -9q-33 14 -50 35q-17 20 -14 60q-17 -27 -36 -51q-9 -12 -21 -26
t-28 -31q-15 -15 -46 -13q-32 3 -56 17q-26 14 -29 37q-3 37 15 108q8 34 19.5 65.5t23.5 62.5q13 29 22.5 48t17.5 26q14 9 36 3q12 -2 21.5 -6.5t17.5 -9.5q15 -13 9 -23l-13.5 -27t-19.5 -40t-20.5 -49t-17.5 -53t-12.5 -47.5t-5.5 -32.5q11 3 44 53q17 25 35.5 55.5
t38.5 66.5q21 37 40.5 73t36.5 72q9 17 33 12q11 -2 21 -6.5t20 -12.5q18 -14 12 -28q-13 -27 -27 -62t-29 -79q-29 -84 -24 -131q20 5 50 45q15 20 28.5 43t27.5 47q28 49 39 76q23 48 49.5 100t57.5 109q-92 -7 -176 -33q-82 -26 -136 -73q-10 -10 -24 -2q-16 10 -28 27
q-15 21 -20 36q-5 17 5 24q64 38 180 65q119 27 244 33q40 64 75 102q17 13 41 0q27 -10 42 -33q14 -23 -1 -43q-12 -11 -26 -28q21 -2 40.5 -5t37.5 -8q45 -15 64 -47q19 -33 15 -64q-3 -32 -22 -42z" />
    <glyph glyph-name="on" unicode="on" horiz-adv-x="718" 
d="M779 373q8 -11 3 -26q-4 -14 -23 -54q-10 -17 -25 -41t-35 -53q-44 -59 -83 -82q-19 -10 -46 -7q-14 3 -25.5 7t-22.5 10q-22 14 -26 28q-5 22 3 63q5 20 9.5 39.5t10.5 40.5q6 20 11 34.5t9 25.5q1 4 2 7t1 5q-24 -23 -49 -57.5t-54 -80.5q-57 -91 -85 -149
q-6 -14 -32 -11q-24 3 -43 14q-21 12 -18 27q3 12 9 29.5t14 42.5q12 34 23.5 70.5t22.5 74.5q7 25 11.5 46.5t6.5 41.5q0 4 0.5 6.5t0.5 5.5q-3 34 -27 42q-29 9 -60 0q-33 -8 -52 -20q54 -26 60 -82q0 -42 -9.5 -86t-31.5 -89q-41 -90 -84 -116q-47 -20 -107 -3
q-60 18 -73 79q-2 23 1.5 51.5t14.5 61.5q10 33 22.5 60.5t26.5 49.5q11 12 33 5q21 -6 40 -23q17 -15 9 -29q-7 -11 -15 -26t-17 -34t-15.5 -37t-11.5 -38q-11 -39 0 -63q4 -10 16 -9q11 3 30 22q26 30 44 63.5t29 69.5q23 72 9 113q-14 40 -71 6q-23 -12 -44 2
q-23 13 -32 37q-9 22 12 35q32 17 71.5 31t85.5 22q94 16 172 -31q35 -23 47 -56t8 -68q-2 -15 -5 -30t-9 -31q-5 -12 -9.5 -24.5t-9.5 -24.5l6 8t5 9q20 29 40.5 58t43.5 61q45 62 82 89q19 12 44 4q24 -6 42 -24q15 -19 10 -35q-3 -8 -6.5 -16.5t-8.5 -19.5
q-12 -27 -24 -57t-25 -63q-24 -65 -24 -103q17 9 34.5 24.5t34.5 38.5q20 23 35.5 48t29.5 52q21 38 30 46l7 3.5t6 0.5q13 -3 20 -11z" />
    <glyph glyph-name="om" unicode="om" horiz-adv-x="802" 
d="M728 539q29 15 54 -15q19 -19 23 -33q5 -14 -6 -35q-7 -14 -17 -39t-23 -60q-14 -35 -26 -71.5t-24 -76.5q-25 -80 -26 -137q-2 -58 35 -64q-7 -19 -39 -13q-32 5 -58 35q-27 25 -27 74q3 35 12 75.5t24 85.5q29 89 48 133q-20 -20 -41.5 -46t-42.5 -61
q-22 -34 -39.5 -67.5t-31.5 -68.5q-3 -8 -19 -5q-16 0 -32 11q-15 9 -16 25q0 19 9 61q5 21 10 41l10 40t9 32l6 18q-14 -14 -32 -41.5t-42 -69.5q-23 -41 -44 -81t-40 -80q-6 -11 -30 -8q-24 4 -44 16q-19 11 -17 28q2 5 5.5 13.5t8.5 19.5q11 26 22 56.5t24 67.5
q24 76 23 131q-4 30 -26 33q-24 5 -55 -1q-37 -5 -59 -16q64 -19 64 -88q0 -68 -39 -155q-37 -86 -85 -107q-44 -19 -101 -4q-55 16 -70 73q-5 50 15 109q19 60 46 101q5 5 13 7.5t19 -1.5q22 -6 38 -21q15 -15 8 -28q-6 -11 -14 -24.5t-16 -31.5q-9 -18 -15 -36t-11 -37
q-8 -39 0 -57q5 -9 16 -8q9 1 28 20q47 57 68 128q20 71 7 107q-12 39 -65 2q-15 -9 -31 -2q-8 4 -14.5 9t-13.5 13q-13 18 -16 31q-3 14 9 20q3 2 6 3t8 3q50 24 142 45q93 20 164 -23q54 -44 54 -97q-2 -26 -6 -50.5t-13 -45.5q5 8 10.5 18t12.5 21q15 26 31.5 52.5
t34.5 53.5q17 29 32 47.5t26 28.5q13 8 31 1q18 -4 33 -19q15 -14 14 -28q0 -5 -4 -17q-3 -7 -5.5 -15t-6.5 -17q-3 -8 -6 -17l-6 -18q-6 -15 -9 -29q-3 -8 -3 -10v-3q3 2 16 23q14 20 31 43t37 50q21 26 38.5 44.5t31.5 28.5z" />
    <glyph glyph-name="op" unicode="op" horiz-adv-x="668" 
d="M622 398q100 58 157 16q-26 -6 -66 -28l-40 -24t-38 -25q-34 -26 -45 -41q-6 -14 -18.5 -33.5t-32.5 -44.5q-20 -26 -41 -47t-44 -38q-47 -34 -82 -11q-37 34 -3 78q17 26 44 50q13 12 25.5 23t26.5 22q15 13 26 22.5t17 16.5q6 8 10 16.5t8 19.5q4 12 6 23t4 21
q0 21 -6 29q-33 -11 -65 -45.5t-64 -91.5t-59.5 -116t-51.5 -120q-23 -62 -37.5 -103.5t-20.5 -64.5q-5 -14 -29 -11q-23 3 -43 17t-14 34q9 23 20.5 53.5t27.5 66.5q22 53 43 105t41 106q39 106 42 162q-2 34 -22 37q-22 4 -53 -2q-16 -3 -29.5 -8t-25.5 -10q54 -23 57 -76
q4 -79 -37 -169q-21 -44 -41.5 -72.5t-40.5 -40.5q-45 -21 -101 -6q-57 15 -70 73q-6 42 14 109q11 32 22 58t25 48q11 12 32 6q24 -6 38 -20q16 -16 10 -28q-8 -11 -15.5 -25.5t-16.5 -32.5q-17 -39 -26 -74q-9 -36 0 -60q4 -8 16 -8q5 2 12.5 7t16.5 16q48 58 70 128
q22 68 10 107q-14 37 -71 6q-8 -5 -25 1q-8 4 -15.5 9t-14.5 10q-14 14 -17 28q-5 13 12 20q36 17 74.5 30t78.5 22q80 17 137 -11q17 -12 30 -24.5t21 -26.5q17 -29 18 -42q24 34 64 64q37 32 82 20q93 -35 83 -100z" />
    <glyph glyph-name="ox" unicode="ox" horiz-adv-x="601" 
d="M616 360q8 3 16 2q8 0 18 -5q8 -6 9 -12q-25 -45 -54 -87t-64 -81q-70 -79 -123 -79q-38 9 -52 99q-21 -28 -39 -60.5t-34 -72.5q-30 -77 0 -107q-44 0 -74 38q-31 40 3 119q18 39 49.5 89.5t76.5 111.5q-1 81 -28 116q-26 37 -126 -1q54 -24 58 -78q3 -83 -38 -168
q-41 -89 -81 -111q-46 -21 -103 -3q-55 16 -70 75q-5 45 16 109q20 65 46 104q12 12 33 5q11 -2 20.5 -7.5t17.5 -13.5q16 -14 9 -28q-7 -11 -15 -25t-17 -31q-8 -19 -14.5 -37t-11.5 -37q-9 -38 1 -60q3 -10 15 -8q13 2 29 21q47 56 69 129q20 71 8 109q-12 40 -67 3
q-14 -11 -31 -3q-8 4 -15.5 10t-13.5 14q-7 8 -10.5 16t-5.5 15q-3 15 9 21q4 2 9 4t11 4q38 18 107 36q65 19 135 7q18 -4 36.5 -12.5t37.5 -20.5q38 -27 54 -67q21 23 42 43l42 40q12 8 31 -3q17 -12 28 -32q10 -18 -1 -32q-36 -30 -69 -66q-17 -18 -30.5 -34.5
t-22.5 -33.5q-3 -41 5 -71q9 -29 15 -29q13 0 43 32q14 15 29.5 33t30.5 38q16 21 28.5 39t22.5 34z" />
    <glyph glyph-name=".notdef" horiz-adv-x="422" 
 />
    <glyph glyph-name=".null" horiz-adv-x="0" 
 />
    <glyph glyph-name="nonmarkingreturn" unicode="&#xd;" horiz-adv-x="358" 
 />
    <glyph glyph-name="NULL" horiz-adv-x="0" 
 />
    <glyph glyph-name="NULL" horiz-adv-x="0" 
 />
    <glyph glyph-name="space" unicode=" " horiz-adv-x="358" 
 />
    <glyph glyph-name="exclam" unicode="!" horiz-adv-x="426" 
d="M269 760q9 20 42 17q30 -4 58 -23q26 -20 19 -44q-29 -75 -57.5 -152t-57.5 -157q-46 -129 -83 -220q-9 -19 -30 -19q-21 1 -38 17q-18 15 -13 36q18 66 37 135.5t42 146.5q22 76 42.5 141.5t38.5 121.5zM50 77q27 47 56 53q31 5 47 -22q19 -28 12 -71q-7 -51 -34 -67
q-24 -14 -51 -2q-26 11 -38 41t8 68z" />
    <glyph glyph-name="quotedbl" unicode="&#x22;" horiz-adv-x="218" 
d="M270 732q-21 -14 -51 -55q-15 -20 -28.5 -44t-25.5 -52q-5 -11 -18 -11q-14 -2 -25 4q-11 5 -12 14q2 17 5.5 35t8.5 39q12 41 22 66q-14 -14 -27 -30.5t-25 -36.5q-25 -43 -40 -81q-5 -9 -17 -12q-14 -1 -26 3q-11 5 -11 16q2 11 4 26t6 35q9 40 24 77q14 40 35 56
q15 10 32 6q18 -1 36 -11q16 -8 27 -17q2 2 4.5 5t5.5 7q5 6 14 10q8 1 17.5 0.5t21.5 -5.5q22 -9 39 -21q14 -14 4 -23z" />
    <glyph glyph-name="numbersign" unicode="#" horiz-adv-x="775" 
d="M619 540q18 -1 28 -19q11 -17 11 -33q0 -18 -16 -22q-10 -1 -23 -3t-29 -5q-17 -3 -31.5 -6t-28.5 -6q-14 -2 -22 -3.5t-12 -2.5q-12 -3 -18 -13q-36 -62 -81 -165q-23 -51 -39.5 -91.5t-26.5 -69.5q-8 -20 -32 -15q-25 3 -46 18q-21 14 -21 29q2 7 7 22t15 38
q9 23 20.5 49t23.5 55q14 29 26.5 55.5t23.5 50.5q-11 -3 -18.5 -5t-15.5 -3q-4 -1 -7.5 -2t-8.5 -2q-23 -6 -33 -13q-5 -4 -9 -11t-8 -15q-12 -24 -24.5 -52.5t-26.5 -61.5t-24 -61t-18 -51q-14 -15 -36 -11q-24 5 -38 19q-16 16 -13 34q10 29 20.5 58t22.5 59
q6 13 11.5 25.5t10.5 26.5q-23 -6 -42 -12q-29 -10 -45 -11q-7 0 -13.5 3.5t-13.5 13.5q-11 15 -16 36q-2 21 11 28q22 9 49 17.5t59 16.5q8 2 16 4.5t16 4.5q19 6 24 18q3 10 7.5 20t9.5 22q5 9 8 17q-18 -5 -33 -9t-28 -8q-11 -3 -24 -7t-30 -9q-18 -3 -30 14
q-14 17 -16 38q-3 21 13 30q35 14 69 24.5t66 17.5q11 3 22 5.5t23 6.5q21 4 27 20q12 23 24.5 51t26.5 60q25 60 41 89q5 11 30 11q11 0 23.5 -2t26.5 -5q14 -4 24.5 -9t19.5 -10q17 -12 10 -23l-78 -146q13 2 26 3.5t26 3.5q6 1 12.5 2t13.5 2q8 11 14 21t12 21
q37 64 72 108q11 11 32 12q12 0 24 -1t24 -5q12 -3 22 -8t18 -10q12 -12 6 -24l-66 -98q52 9 82 9q12 0 14 -11q3 -13 -1 -26q-4 -14 -12 -27q-6 -10 -14 -10q-10 -2 -17.5 -2.5t-15.5 -0.5q-14 -2 -30 -3.5t-34 -3.5q-10 -1 -23 -5q-5 -2 -8.5 -5t-6.5 -7
q-8 -13 -15.5 -24.5t-15.5 -22.5l-4 -6l-4 -6h1q26 5 45.5 7.5t31.5 2.5zM403 509q6 11 11.5 22t11.5 22q6 9 12 21q-3 -2 -7 -2.5t-9 -1.5q-11 -2 -21.5 -4.5t-21.5 -6.5q-11 -2 -18.5 -4.5t-10.5 -5.5q-9 -5 -16 -23q-5 -8 -9 -16t-9 -16q-3 -8 -6 -12q8 2 14.5 3t13.5 3
q14 4 27.5 7.5t27.5 6.5q3 0 5 3q4 1 5 4z" />
    <glyph glyph-name="dollar" unicode="$" horiz-adv-x="526" 
d="M462 590q18 -3 33.5 -10t27.5 -21q24 -25 32 -53q10 -28 5 -49t-24 -15q11 30 -6 44q-18 16 -54 19q-38 3 -81 -4q-16 -48 -32.5 -98.5t-33.5 -107.5q17 -7 33.5 -15.5t31.5 -17.5t27 -20.5t21 -23.5q16 -26 10 -63q-6 -23 -23.5 -46t-49.5 -47q-31 -23 -67 -40t-80 -28
q-10 -27 -17 -47t-12 -33q-7 -15 -21 -18q-16 0 -25 9q-11 9 -8 25q2 11 6 24t8 29q-19 -1 -37 0t-37 6q-50 10 -70 48q-19 37 -12 70q7 32 38 35q-16 -23 -8 -36q4 -6 10.5 -11t17.5 -8q47 -18 125 -7q12 45 25 92.5t27 98.5q-4 2 -10 4q-26 11 -50 21.5t-44 23.5
q-43 26 -47 62q-1 36 32 74q34 39 88 70q55 32 118 51q8 25 14 45t11 34q8 17 30 15q22 -1 42 -15q17 -15 13 -34q-6 -14 -12 -30q9 0 17.5 -0.5t17.5 -1.5zM357 179q0 9 -2.5 17.5t-9.5 16.5q-6 7 -14.5 14t-19.5 12q-2 -5 -3.5 -10.5t-3.5 -10.5q-11 -32 -20 -61.5
t-19 -58.5q20 6 35.5 14.5t29.5 19.5q24 20 27 47zM258 326q11 39 21 76.5t21 72.5q-23 -9 -41.5 -19t-32.5 -22t-21 -25t-5 -27q1 -18 17 -32q18 -13 41 -24z" />
    <glyph glyph-name="percent" unicode="%" horiz-adv-x="707" 
d="M466 805q29 -2 56.5 -7t52.5 -16q51 -17 76 -52q26 -33 2 -75q-23 -35 -56 -79.5t-78 -100.5t-91 -113t-97 -117q-63 -75 -115.5 -140t-94.5 -119q-9 -10 -31 -9q-24 2 -45 10q-24 11 -34 24q-11 16 3 36q35 42 69 83.5t69 83.5q51 59 99 117.5t96 118.5t94 120.5
t91 123.5q27 33 25 48q-1 16 -59 14q-26 -2 -52.5 -4t-55.5 -6q-28 -4 -53 -9.5t-47 -14.5q-20 -8 -11 -20q5 -5 13 -12t19 -16q17 -10 32 -24t29 -31q26 -32 5 -80q-11 -22 -35 -49q-11 -12 -22.5 -23t-23.5 -19q-46 -30 -85 -30q-18 0 -40 4t-49 12q-33 12 -52.5 28
t-27.5 39q-15 43 5 91q20 47 63 78q44 30 94 26q-2 2 -5 4t-5 4q-30 20 -36 34q-7 15 34 30q28 8 61 15t73 12t75 7.5t65 2.5zM152 466q30 0 66 36q35 35 49 82q8 22 3 40.5t-22 33.5q-101 -85 -115 -136q-17 -55 19 -56zM495 314q58 5 98 -20q43 -25 61 -65q20 -41 9 -82
q-18 -59 -71 -112q-26 -25 -55.5 -41.5t-61.5 -23.5q-44 -6 -86 7q-22 7 -41 16t-33 22q-30 25 -32 55q3 50 32 102q15 26 35 49.5t43 43.5q25 20 50 32.5t52 16.5zM378 26q23 -12 63 14q41 25 78 68q39 43 57 83q18 42 -1 57q-18 11 -61 -13q-41 -25 -83 -67
q-41 -45 -58 -83q-20 -41 5 -59z" />
    <glyph glyph-name="ampersand" unicode="&#x26;" horiz-adv-x="762" 
d="M695 574q-55 -61 -148 -128q-46 -32 -88 -60t-80 -53q-22 -14 -39.5 -26t-29.5 -21q7 -38 23 -73t40 -67q36 14 69 32.5t62 39.5q61 44 96 88q20 21 30.5 40t13.5 34q6 31 -31 34q4 25 22 22q17 -3 38 -28q18 -21 26 -59q6 -37 -13 -75q-36 -63 -113 -112
q-38 -24 -74 -43.5t-69 -36.5q16 -18 34 -33.5t41 -26.5q41 -23 76 -26q33 -2 33 28q22 -7 12 -22q-8 -17 -36 -29q-13 -5 -28 -8t-32 -1q-96 18 -177 83q-108 -42 -191 -38q-83 3 -124 44q-38 39 -8 106q34 68 157 151q-24 117 32 230q57 115 163 186q107 72 233 62
q29 -5 50.5 -15t36.5 -29q28 -34 28 -82q-2 -23 -10 -45t-25 -43zM115 84q15 -15 53 -14q37 5 74 16q18 5 31.5 9.5t21.5 9.5q-25 26 -44 54.5t-35 59.5q-59 -37 -87 -77q-28 -37 -14 -58zM296 380q5 2 10 5.5t12 8.5q20 12 46.5 28t59.5 37q32 22 64 44.5t64 47.5
q32 24 55.5 47t40.5 44q33 43 6 70q-24 19 -82 1q-59 -20 -122 -67q-33 -24 -60 -53.5t-50 -63.5q-44 -67 -44 -149z" />
    <glyph glyph-name="quotesingle" unicode="'" horiz-adv-x="222" 
d="M210 674q10 9 35 0q20 -8 35 -26q15 -17 6 -32q-29 -28 -60 -77q-17 -25 -29.5 -48.5t-21.5 -46.5q-4 -10 -17 -12q-6 -1 -11 1t-10 5q-10 7 -7 19q3 23 15 69q11 44 29 87q16 43 36 61z" />
    <glyph glyph-name="parenleft" unicode="(" horiz-adv-x="382" 
d="M365 853q50 14 88 -7q37 -18 49 -44t-8 -37q-15 32 -74 8q-59 -25 -131 -106q-35 -41 -66.5 -94t-57.5 -120q-22 -54 -42 -134q-11 -41 -18 -82t-11 -84q-6 -86 18 -146q24 -61 95 -72q12 -2 12 -10q0 -9 -7 -19q-9 -9 -17 -8q-106 21 -151 113q-45 91 -37 221
q8 131 55 261q48 130 127 229q77 98 176 131z" />
    <glyph glyph-name="parenright" unicode=")" horiz-adv-x="446" 
d="M221 869q107 -23 150 -115q46 -93 37 -220q-4 -66 -17 -130.5t-37 -129.5q-48 -131 -128 -231q-39 -49 -82 -81.5t-93 -47.5t-88 4q-37 19 -49 45q-12 28 8 38q14 -34 74 -8q58 25 130 105q73 82 125 215q11 26 21 59t21 74q11 42 17.5 83t11.5 84q6 83 -19 145
q-24 61 -95 72q-11 1 -11 11t6 18q9 10 18 10z" />
    <glyph glyph-name="asterisk" unicode="*" horiz-adv-x="267" 
d="M203 785q13 2 23 -13q11 -16 11 -31q0 -17 -15 -23q-13 -3 -25 -7t-24 -10q16 -12 27 -21.5t19 -17.5t5 -20q-3 -9 -13 -16t-20 -1q-4 3 -8.5 5.5t-9.5 6.5q-8 6 -17 11.5t-19 12.5q-4 -22 -7.5 -38.5t-6.5 -27.5q-3 -10 -15 -13q-5 0 -10.5 0.5t-11.5 3.5q-9 6 -8 17v11
t1 12q3 10 3 23q-8 -6 -12 -8q-6 -5 -12.5 -8.5t-11.5 -7.5q-9 -5 -19 1t-13 17q-5 10 4 19q15 15 48 39q-13 6 -25.5 10t-23.5 7q-16 6 -16 23q0 18 10 31q10 15 23 13q22 -5 52 -25q0 11 -2 21.5t-4 20.5q-3 16 14 24q7 3 15 4.5t17 -0.5q18 0 21 -15q4 -19 3 -56
q34 22 53 26z" />
    <glyph glyph-name="plus" unicode="+" horiz-adv-x="411" 
d="M354 429q25 -3 24 -24q-3 -23 -21 -45q-19 -22 -39 -22h-99l-51 -122q-9 -19 -30 -19q-22 1 -40 15q-16 15 -12 32l38 94h-91q-24 0 -28 12q-5 16 1 30q8 18 20 30q13 13 25 13l108 2l47 115q12 25 34 22q11 0 21 -4.5t19 -11.5q17 -17 13 -35l-35 -85l96 3v0z" />
    <glyph glyph-name="comma" unicode="," horiz-adv-x="185" 
d="M46 194q6 26 32 31t52 -6q25 -12 23 -37q-2 -13 -8 -30t-15 -38q-10 -20 -21.5 -40t-22.5 -40q-13 -19 -22.5 -33.5t-17.5 -24.5q-9 -9 -20 -6q-12 3 -18 12q-8 9 -3 20q22 41 37 92q6 24 7.5 49t-3.5 51z" />
    <glyph glyph-name="hyphen" unicode="-" horiz-adv-x="365" 
d="M243 312q19 0 24 -15q7 -15 1 -35q-5 -20 -18 -33q-15 -15 -34 -15h-178q-29 2 -33 25q-5 24 8 48q14 25 35 25h195z" />
    <glyph glyph-name="period" unicode="." horiz-adv-x="157" 
d="M21 160q24 33 49 37q24 4 40 -15q16 -17 11 -51q-5 -25 -16.5 -37.5t-27.5 -15.5q-33 -3 -55 21q-23 26 -1 61z" />
    <glyph glyph-name="slash" unicode="/" horiz-adv-x="472" 
d="M304 826q10 22 46 18q33 -3 62 -23q28 -22 22 -47q-21 -48 -48 -113t-60 -146q-34 -81 -67 -160t-65 -157q-32 -77 -55.5 -133.5t-37.5 -92.5q-11 -22 -35 -20q-26 2 -46 16t-15 37q13 47 35 111t53 147q30 83 60.5 164t60.5 161t53 139t37 99z" />
    <glyph glyph-name="zero" unicode="0" horiz-adv-x="2602" 
d="M185 201l-30 -161l-29 161h-42l-4 -257h40l1 105l20 -105h30l21 106l2 -106h37l-2 257h-44zM2334 201l-30 -161l-29 161h-42l-4 -257h40l1 105l20 -105h30l21 106l2 -106h37l-2 257h-44zM939 -56q16 0 31.5 16t15.5 51q0 17 -4.5 35.5t-20.5 29.5q14 9 17.5 26t3.5 33
q0 35 -16 50.5t-31 15.5h-75v-257h79zM1492 110q0 22 -3 46.5t-25 38.5q-12 8 -28 8.5t-30 -3.5q-17 -6 -25.5 -21t-11.5 -32q-1 -10 -1 -19.5v-19.5v-70v-19.5t1 -19.5q3 -17 11.5 -32t25.5 -21q14 -4 30 -3.5t28 8.5q22 14 25 38.5t3 46.5v74zM1704 -56h47q35 0 51 19.5
t16 61.5v96q0 40 -16.5 60t-56.5 20h-41v-257zM1330 705q-53 0 -62 52q-2 11 -2 22v22q0 24 -1 51.5t5 50.5q6 20 21.5 29.5t34.5 10.5q20 1 37.5 -7t24.5 -28q8 -22 7.5 -49.5t-0.5 -51.5q0 -14 -0.5 -27.5t-3.5 -26.5q-11 -48 -61 -48zM1269 439q-25 0 -41 12.5t-21 36.5
q-2 12 -1.5 23.5t0.5 24.5q0 23 -1 49.5t4 49.5q6 21 21 30.5t35 9.5q21 1 38 -6t24 -27q9 -23 7 -50.5t-2 -50.5q0 -16 0.5 -28.5t-2.5 -26.5q-9 -47 -61 -47zM1836 201v-257h43v111h11l23 -111h43l-29 120q18 11 24 31.5t6 39.5q0 35 -15.5 50.5t-30.5 15.5h-75zM341 78
l-44 123h-33v-257h40v126l45 -126h32v257h-40v-123zM1593 77l-44 124h-33v-257h40v126l45 -126h32v257h-40v-124zM665 40h26v-16.5t-2 -22t-7.5 -17t-16.5 -2.5q-7 2 -10 9t-4 15.5t-0.5 17t0.5 13.5v61q0 12 -0.5 27.5t2.5 28.5q3 5 8.5 8.5t11.5 2.5q13 -4 14 -16
q2 -9 1.5 -18.5t-0.5 -20.5h43q0 22 -3 47t-25 39q-12 8 -28 8.5t-30 -4.5q-17 -5 -25.5 -20t-11.5 -32q-2 -18 -1.5 -37t0.5 -38q0 -18 -0.5 -35.5t1.5 -35.5q2 -15 7.5 -30.5t19.5 -22.5q13 -9 32 -8.5t30 11.5l1 -8h34v134h-67v-38zM984 707v235q23 0 47.5 0.5
t44.5 -10.5q12 -8 19 -23.5t7 -32.5t-7 -31.5t-21 -19.5l31 -118h-31l-31 111h-25v-111h-34zM2484 78l-21 23q-7 7 -13.5 13t-9.5 17q-3 8 -0.5 21.5t15.5 12.5q7 -1 10 -7t4.5 -13.5t2 -15.5t0.5 -14l40 2q0 24 -5 48t-28 34q-14 6 -28 5t-25.5 -7t-19 -17.5t-8.5 -26.5
q-2 -15 0.5 -31t11.5 -28q3 -8 9.5 -13t12.5 -12q12 -14 26 -29.5t14 -35.5q0 -8 -1.5 -14.5t-8.5 -7.5q-6 -2 -10 1t-6 8q-6 11 -7 22.5t-2 23.5l-40 -3q0 -17 1.5 -32t8.5 -30q8 -18 25.5 -26t36.5 -4q20 4 31.5 19t13.5 32q6 48 -30 85zM557 78l-21 23q-7 7 -13.5 13
t-9.5 17q-3 8 -0.5 21.5t15.5 12.5q7 -1 10 -7t4.5 -13.5t2 -15.5t0.5 -14l40 2q0 24 -5 48t-28 34q-14 6 -28 5t-25.5 -7t-19 -17.5t-8.5 -26.5q-2 -15 0.5 -31t11.5 -28q3 -8 9.5 -13t12.5 -12q12 -14 26 -29.5t14 -35.5q0 -8 -1.5 -14.5t-8.5 -7.5q-6 -2 -10 1t-6 8
q-6 11 -7 22.5t-2 23.5l-40 -3q0 -17 1.5 -32t8.5 -30q8 -18 25.5 -26t36.5 -4q20 4 31.5 19t13.5 32q6 48 -30 85zM2128 201l-47 -257h43l10 61h28l8 -61h43l-45 257h-40zM2014 56h46v45h-46v55h56v45h-99v-257h99v45h-56v67zM729 707v235h49q18 0 33.5 -4t24.5 -22
q5 -10 7.5 -22.5t1.5 -24.5t-6 -23t-14 -18q-13 -11 -31 -11h-33v-110h-32zM1365 441v233h22l66 -156v156h29v-233h-22l-68 159v-159h-27zM1427 707v235h22l65 -156v156h28v-235h-21l-68 159v-159h-26zM1566 707l49 235h32l49 -235h-30l-12 58h-47l-11 -58h-30zM818 442
q-21 -8 -46 -1t-34 32q-5 12 -6 25.5t-1 30.5v145h31v-156q0 -13 2 -30t17 -25q13 -4 21.5 0t13 12t6.5 18.5t2 20.5q1 20 0.5 37.5t-0.5 37.5v85h33v-107q0 -15 0.5 -34t-2 -37t-11 -33t-26.5 -21zM1069 -56h99v45h-56v212h-43v-257zM1189 705q-29 0 -45.5 19.5t-17.5 47.5
l30 8q2 -11 4 -22.5t9 -18.5q8 -8 19 -9t19 6q9 8 8.5 22t-7.5 25q-6 10 -26 25q-11 10 -23.5 20.5t-20.5 22.5t-10 26.5t1 27t11.5 22.5t22.5 14q13 3 29 1.5t27 -9.5q12 -8 16 -22t5 -28l-25 -8q-2 12 -6.5 26t-19.5 18q-11 1 -20 -4.5t-11 -15.5t1 -18.5t9 -15.5
t13.5 -13t14.5 -11q15 -14 29 -28.5t19 -34.5q5 -29 -10 -51t-45 -22zM945 439q-30 0 -45 19t-17 48l31 8q1 -11 2.5 -22t8.5 -19q8 -9 19 -10t19 7q10 8 9 22t-8 23q-5 7 -11.5 14t-14.5 12q-11 11 -24 21.5t-21 23.5q-7 11 -9 24.5t1.5 26.5t11.5 23t22 14q13 3 29 2
t28 -9q11 -8 15 -22.5t5 -28.5l-25 -9q-2 14 -6.5 27.5t-19.5 16.5q-11 2 -19.5 -3.5t-10.5 -17.5q-3 -9 0 -17t9 -15t13.5 -12.5t13.5 -11.5q16 -14 29.5 -28t17.5 -36q7 -27 -8.5 -49t-44.5 -22zM741 -88h37l73 322h-41zM1026 441v233h91v-25h-58v-76h47v-24h-47v-87h58
v-21h-91zM868 707v235h90v-25h-58v-76h47v-24h-47v-87h59v-23h-91zM1046 -56v257h-44v-257h44zM1253 466q7 -4 16 -4t14 4q9 5 12.5 13.5t5.5 17.5q1 5 0.5 12t-0.5 12v83q0 10 -1 20.5t-9 18.5q-13 13 -29 8q-16 -4 -23 -22q-3 -17 -2 -37t1 -37v-42q0 -12 1.5 -26
t13.5 -21zM1667 441v48q0 9 1 18t-1 17q-2 13 -6.5 23.5t-9.5 21.5l-33 105h30l35 -112l34 112h32l-16 -48t-16 -49l-16 -48q-3 -8 -2.5 -16t0.5 -14v-58h-32zM1317 732q13 -5 29 0q10 5 12.5 13.5t3.5 16.5v109q0 10 -1 20.5t-9 17.5q-5 8 -12.5 9t-15.5 -1q-17 -1 -22 -20
q-5 -17 -3 -37.5t2 -37.5v-43q0 -12 1 -26t15 -21zM1721 707v235h32v-212h60v-23h-92zM1518 441v233h32v-212h59v-21h-91zM760 -388q-15 0 -22 6.5t-9.5 16t-2.5 21v20.5q0 11 0.5 22t4 19t11 12.5t21.5 3.5q12 -1 18.5 -7t9 -15t2.5 -19.5v-19.5v-19.5t-3 -19.5t-10 -15
t-20 -6zM861 -240q-14 0 -21 6.5t-9.5 16.5t-2.5 21.5v21.5t0.5 20.5t4 18.5t10.5 13t21 4q12 -1 18 -7t9 -15t3 -19.5v-19.5t-0.5 -20t-3.5 -20t-9.5 -15t-19.5 -6zM1766 -388q-14 0 -21 6.5t-9.5 16t-2.5 21v20.5q0 11 0.5 22t4 19t11 12.5t21.5 3.5q13 -1 18.5 -7
t7.5 -15t1.5 -19.5t-0.5 -19.5v-19.5t-2.5 -19.5t-9 -15t-19.5 -6zM1696 -238v119q11 0 26 0.5t26 -8.5t10 -24.5t-1 -27.5t0.5 -28.5t-13.5 -24.5q-9 -8 -23 -7t-25 1zM1449 36q0 -11 0.5 -20.5t-1.5 -17.5q-1 -12 -14 -16q-6 -1 -11.5 2t-8.5 8q-3 11 -2.5 25.5t0.5 25.5
v60q0 11 -0.5 25.5t2.5 25.5q3 5 8.5 8t11.5 2q13 -4 14 -16q2 -8 1.5 -17.5t-0.5 -20.5v-74zM808 -387l2 119h18l21 -95l20 95h16l2 -119h-13l-1 88l-20 -88h-11l-19 88l-1 -88h-14zM1062 -387v119q12 0 24 1t22 -4q7 -4 10.5 -12t3.5 -17t-4 -16.5t-11 -10.5l17 -60h-16
l-14 57h-13v-57h-19zM905 -387l2 119h17l21 -95l21 95h17l1 -119h-11l-2 88l-21 -88h-11l-18 88l-2 -88h-14zM910 -238v119q11 0 22.5 1t21.5 -4q7 -4 11 -12.5t4.5 -17.5t-3 -16.5t-12.5 -10.5l18 -59h-17l-17 55h-12v-55h-16zM1552 -387v119q11 0 23 1t23 -4q6 -4 10 -12
t4 -17t-3.5 -16.5t-10.5 -10.5l15 -60h-15l-15 57h-14v-57h-17zM1759 156q6 0 9 -5t4 -10q2 -8 1.5 -17.5t-0.5 -18.5v-70q0 -10 0.5 -19t-1.5 -17q-1 -11 -13 -15h-13v172h13zM922 263v121h30t26 -12q4 -11 3 -25t-9 -21q-8 -6 -16.5 -6.5t-17.5 -0.5v-56h-16zM1080 -238
v119h15v-52h31v52h18v-119h-18v55h-31v-55h-15zM1618 -238v119h10l35 -79v79h13v-119h-10l-34 80v-80h-14zM1105 263l26 121h16l26 -121h-18l-5 32h-25l-5 -32h-15zM1817 -387v119h10l35 -79v79h13v-119h-11l-35 82v-82h-12zM1540 -238l23 119h18l25 -119h-16l-6 30h-24
l-7 -30h-13zM1246 -387l25 119h17l25 -119h-15l-5 31h-26l-5 -31h-16zM1776 491l-9 183h30l-10 -183h-11zM761 841q8 0 16 -0.5t18 1.5q12 3 15.5 12.5t3.5 20.5q1 13 -2 25t-17 16q-10 2 -18 1.5t-16 -0.5v-76zM1359 -238q-17 -5 -29.5 2.5t-16.5 24.5q-2 8 -1 15t1 13v64
h15v-53q0 -5 -0.5 -14.5t0.5 -18.5t4.5 -16t11.5 -7t12 7t5.5 16t1 18.5t-0.5 14.5v53h14v-54q0 -8 0.5 -17.5t-0.5 -19t-4.5 -17.5t-12.5 -11zM682 -388q-15 0 -22 9t-9 21.5t-1.5 27t0.5 25.5q0 16 8.5 28t28.5 10q18 -2 22 -14.5t4 -26.5h-16q0 5 0.5 10.5t-2.5 10.5
q-2 8 -11 9t-13 -7q-6 -6 -4.5 -20t1.5 -23q0 -7 -1.5 -20t5.5 -21q3 -7 12 -5.5t11 9.5q3 5 2.5 11t-0.5 11h16q0 -15 -5 -30t-26 -15zM1169 -388q-16 0 -22.5 9t-8 21.5t-0.5 27t1 25.5q0 16 7.5 28t27.5 10q19 -2 23 -14.5t4 -26.5h-18q0 5 1 10.5t-2 10.5q-2 8 -10.5 9
t-13.5 -7q-6 -6 -5 -20t1 -23q0 -7 -1 -20t6 -21q4 -7 12.5 -5.5t10.5 9.5q3 5 2 11t-1 11h18q0 -15 -5 -30t-27 -15zM1486 262q-16 0 -23 10t-8 25l16 5q0 -6 2.5 -14t8.5 -12q8 -2 12.5 2.5t4.5 11.5q1 12 -9.5 21.5t-18.5 17.5q-11 9 -15.5 24t8.5 27q17 8 33 3
q8 -4 11.5 -12.5t4.5 -16.5l-14 -3q-1 5 -2.5 11t-6.5 11q-5 2 -10.5 0t-6.5 -10q-6 -8 2 -16l14 -14q7 -6 14.5 -13.5t9.5 -18.5q5 -14 -2.5 -26.5t-24.5 -12.5zM1658 -388q-16 0 -23.5 10.5t-9.5 24.5l16 4q0 -6 2 -13.5t8 -9.5q9 -5 14 -0.5t5 11.5q0 12 -10.5 21.5
t-18.5 15.5q-11 11 -15 26.5t10 25.5q7 5 16.5 6t15.5 -3q8 -2 11.5 -10.5t4.5 -16.5l-14 -5l-2 12t-6 11q-16 4 -20 -9q-4 -9 3.5 -16t14.5 -13q7 -8 14.5 -15.5t9.5 -18.5q5 -14 -3 -26t-23 -12zM1212 262q-14 0 -22.5 10t-9.5 25l16 5q0 -6 2 -14t8 -12q8 -2 13.5 2.5
t5.5 11.5q0 12 -10.5 21.5t-18.5 17.5q-11 9 -15 24t9 27q7 4 16 4.5t16 -1.5q9 -4 12.5 -12.5t4.5 -16.5l-14 -3q-1 5 -2.5 11t-6.5 11q-6 2 -11.5 0t-7.5 -10q-3 -8 4 -16t12 -14q8 -6 16 -13.5t10 -18.5q5 -14 -3 -26.5t-24 -12.5zM1018 841h16t17 2q11 5 14.5 15.5
t1.5 23.5q0 11 -2.5 19t-13.5 13q-8 4 -17 3.5t-16 -0.5v-76zM1368 263l-27 121h18l17 -88l19 88h13l-25 -121h-15zM1439 -387l-27 119h15l20 -87l16 87h17l-28 -119h-13zM1253 263v121h48v-11h-31v-41h25v-12h-25v-45h32v-12h-49zM1492 -387v119h48v-10h-31v-39h25v-13h-25
v-45h31v-12h-48zM1003 -387v119h47v-10h-30v-39h25v-13h-25v-45h30v-12h-47zM1162 -238v119h46v-12h-29v-40h25v-12h-25v-45h29v-10h-46zM853 -226q10 -5 14.5 -1t6.5 11.5t2 16.5v15q0 4 0.5 12t0.5 16t-2 14.5t-6 9.5q-11 6 -18 -2t-7 -18v-19q0 -4 -0.5 -12.5t-0.5 -17
t2 -16t8 -9.5zM1051 263v121h46v-11h-31v-41h26v-12h-26v-45h31v-12h-46zM1758 -371q10 -6 15 -2.5t7.5 10.5t2.5 16v15q0 4 0.5 12t-0.5 15.5t-3 14t-6 8.5q-12 8 -17 0t-5 -17v-18q0 -5 -1 -13t-1 -17t1.5 -16t6.5 -8zM751 -371q10 -6 15 -2.5t7 10.5t2 16v15q0 4 0.5 12
t0 15.5t-2 14t-5.5 8.5q-13 8 -18.5 0t-5.5 -17q-1 -5 -0.5 -9.5t0.5 -8.5q0 -5 -0.5 -13t-0.5 -17t1.5 -16t6.5 -8zM772 -238v119h46v-12h-28v-40h22v-12h-22v-55h-18zM903 56h16q13 0 17.5 -10t5.5 -21q1 -16 -3.5 -29.5t-16.5 -13.5h-19v74zM1712 -228q11 0 18.5 2
t9.5 15v63q-1 13 -9 15t-19 2v-97zM1033 -238v107h-22v12h61v-12h-22v-107h-17zM1689 49v45h-43v-45h43zM1452 -238v119h17v-109h30v-10h-47zM1579 263v110h-23v11h58v-11h-20v-110h-15zM903 164h15q11 0 15.5 -12t4.5 -26q0 -11 -4 -22t-15 -11h-16v71zM1258 -238v119h45
v-12h-32v-40h24v-12h-24v-55h-13zM1395 -238v119h16v-109h30v-10h-46zM1879 164h14q10 0 15 -10t5.5 -23t-2.5 -24t-9 -14h-23v71zM993 263v121h15v-109h31v-12h-46zM1528 263v121h18v-121h-18zM1326 -387v119h15v-107h32v-12h-47zM1611 789h40l-20 107zM409 -56h43v48h-43
v-48zM1217 -387v119h17v-119h-17zM1423 263v121h16v-121h-16zM1700 -387v119h15v-119h-15zM938 331h9t10 2q6 3 7 9t1 13q-1 14 -8.5 16t-18.5 2v-42zM1767 441v33h30v-33h-30zM926 -171q11 0 19 3.5t8 17.5t-8 16.5t-19 2.5v-40zM1569 -317q11 0 19 2.5t8 16.5q0 12 -8 16
t-19 4v-39zM1081 -317q11 0 18 2.5t7 16.5q0 12 -7 16t-18 4v-39zM1126 306h22l-9 55zM1269 -345h21l-10 55zM1562 -196h21l-11 54zM2140 43l8 51l7 -51h-15zM1184 -56h99v45h-56v212h-43v-257zM1343 -56v257h-44v-257h44z" />
    <glyph glyph-name="one" unicode="1" horiz-adv-x="2602" 
d="M185 201l-30 -161l-29 161h-42l-4 -257h40l1 105l20 -105h30l21 106l2 -106h37l-2 257h-44zM2334 201l-30 -161l-29 161h-42l-4 -257h40l1 105l20 -105h30l21 106l2 -106h37l-2 257h-44zM939 -56q16 0 31.5 16t15.5 51q0 17 -4.5 35.5t-20.5 29.5q14 9 17.5 26t3.5 33
q0 35 -16 50.5t-31 15.5h-75v-257h79zM1492 110q0 22 -3 46.5t-25 38.5q-12 8 -28 8.5t-30 -3.5q-17 -6 -25.5 -21t-11.5 -32q-1 -10 -1 -19.5v-19.5v-70v-19.5t1 -19.5q3 -17 11.5 -32t25.5 -21q14 -4 30 -3.5t28 8.5q22 14 25 38.5t3 46.5v74zM1704 -56h47q35 0 51 19.5
t16 61.5v96q0 40 -16.5 60t-56.5 20h-41v-257zM1330 705q-53 0 -62 52q-2 11 -2 22v22q0 24 -1 51.5t5 50.5q6 20 21.5 29.5t34.5 10.5q20 1 37.5 -7t24.5 -28q8 -22 7.5 -49.5t-0.5 -51.5q0 -14 -0.5 -27.5t-3.5 -26.5q-11 -48 -61 -48zM1269 439q-25 0 -41 12.5t-21 36.5
q-2 12 -1.5 23.5t0.5 24.5q0 23 -1 49.5t4 49.5q6 21 21 30.5t35 9.5q21 1 38 -6t24 -27q9 -23 7 -50.5t-2 -50.5q0 -16 0.5 -28.5t-2.5 -26.5q-9 -47 -61 -47zM1836 201v-257h43v111h11l23 -111h43l-29 120q18 11 24 31.5t6 39.5q0 35 -15.5 50.5t-30.5 15.5h-75zM341 78
l-44 123h-33v-257h40v126l45 -126h32v257h-40v-123zM1593 77l-44 124h-33v-257h40v126l45 -126h32v257h-40v-124zM665 40h26v-16.5t-2 -22t-7.5 -17t-16.5 -2.5q-7 2 -10 9t-4 15.5t-0.5 17t0.5 13.5v61q0 12 -0.5 27.5t2.5 28.5q3 5 8.5 8.5t11.5 2.5q13 -4 14 -16
q2 -9 1.5 -18.5t-0.5 -20.5h43q0 22 -3 47t-25 39q-12 8 -28 8.5t-30 -4.5q-17 -5 -25.5 -20t-11.5 -32q-2 -18 -1.5 -37t0.5 -38q0 -18 -0.5 -35.5t1.5 -35.5q2 -15 7.5 -30.5t19.5 -22.5q13 -9 32 -8.5t30 11.5l1 -8h34v134h-67v-38zM984 707v235q23 0 47.5 0.5
t44.5 -10.5q12 -8 19 -23.5t7 -32.5t-7 -31.5t-21 -19.5l31 -118h-31l-31 111h-25v-111h-34zM2484 78l-21 23q-7 7 -13.5 13t-9.5 17q-3 8 -0.5 21.5t15.5 12.5q7 -1 10 -7t4.5 -13.5t2 -15.5t0.5 -14l40 2q0 24 -5 48t-28 34q-14 6 -28 5t-25.5 -7t-19 -17.5t-8.5 -26.5
q-2 -15 0.5 -31t11.5 -28q3 -8 9.5 -13t12.5 -12q12 -14 26 -29.5t14 -35.5q0 -8 -1.5 -14.5t-8.5 -7.5q-6 -2 -10 1t-6 8q-6 11 -7 22.5t-2 23.5l-40 -3q0 -17 1.5 -32t8.5 -30q8 -18 25.5 -26t36.5 -4q20 4 31.5 19t13.5 32q6 48 -30 85zM557 78l-21 23q-7 7 -13.5 13
t-9.5 17q-3 8 -0.5 21.5t15.5 12.5q7 -1 10 -7t4.5 -13.5t2 -15.5t0.5 -14l40 2q0 24 -5 48t-28 34q-14 6 -28 5t-25.5 -7t-19 -17.5t-8.5 -26.5q-2 -15 0.5 -31t11.5 -28q3 -8 9.5 -13t12.5 -12q12 -14 26 -29.5t14 -35.5q0 -8 -1.5 -14.5t-8.5 -7.5q-6 -2 -10 1t-6 8
q-6 11 -7 22.5t-2 23.5l-40 -3q0 -17 1.5 -32t8.5 -30q8 -18 25.5 -26t36.5 -4q20 4 31.5 19t13.5 32q6 48 -30 85zM2128 201l-47 -257h43l10 61h28l8 -61h43l-45 257h-40zM2014 56h46v45h-46v55h56v45h-99v-257h99v45h-56v67zM729 707v235h49q18 0 33.5 -4t24.5 -22
q5 -10 7.5 -22.5t1.5 -24.5t-6 -23t-14 -18q-13 -11 -31 -11h-33v-110h-32zM1365 441v233h22l66 -156v156h29v-233h-22l-68 159v-159h-27zM1427 707v235h22l65 -156v156h28v-235h-21l-68 159v-159h-26zM1566 707l49 235h32l49 -235h-30l-12 58h-47l-11 -58h-30zM818 442
q-21 -8 -46 -1t-34 32q-5 12 -6 25.5t-1 30.5v145h31v-156q0 -13 2 -30t17 -25q13 -4 21.5 0t13 12t6.5 18.5t2 20.5q1 20 0.5 37.5t-0.5 37.5v85h33v-107q0 -15 0.5 -34t-2 -37t-11 -33t-26.5 -21zM1069 -56h99v45h-56v212h-43v-257zM1189 705q-29 0 -45.5 19.5t-17.5 47.5
l30 8q2 -11 4 -22.5t9 -18.5q8 -8 19 -9t19 6q9 8 8.5 22t-7.5 25q-6 10 -26 25q-11 10 -23.5 20.5t-20.5 22.5t-10 26.5t1 27t11.5 22.5t22.5 14q13 3 29 1.5t27 -9.5q12 -8 16 -22t5 -28l-25 -8q-2 12 -6.5 26t-19.5 18q-11 1 -20 -4.5t-11 -15.5t1 -18.5t9 -15.5
t13.5 -13t14.5 -11q15 -14 29 -28.5t19 -34.5q5 -29 -10 -51t-45 -22zM945 439q-30 0 -45 19t-17 48l31 8q1 -11 2.5 -22t8.5 -19q8 -9 19 -10t19 7q10 8 9 22t-8 23q-5 7 -11.5 14t-14.5 12q-11 11 -24 21.5t-21 23.5q-7 11 -9 24.5t1.5 26.5t11.5 23t22 14q13 3 29 2
t28 -9q11 -8 15 -22.5t5 -28.5l-25 -9q-2 14 -6.5 27.5t-19.5 16.5q-11 2 -19.5 -3.5t-10.5 -17.5q-3 -9 0 -17t9 -15t13.5 -12.5t13.5 -11.5q16 -14 29.5 -28t17.5 -36q7 -27 -8.5 -49t-44.5 -22zM741 -88h37l73 322h-41zM1026 441v233h91v-25h-58v-76h47v-24h-47v-87h58
v-21h-91zM868 707v235h90v-25h-58v-76h47v-24h-47v-87h59v-23h-91zM1046 -56v257h-44v-257h44zM1253 466q7 -4 16 -4t14 4q9 5 12.5 13.5t5.5 17.5q1 5 0.5 12t-0.5 12v83q0 10 -1 20.5t-9 18.5q-13 13 -29 8q-16 -4 -23 -22q-3 -17 -2 -37t1 -37v-42q0 -12 1.5 -26
t13.5 -21zM1667 441v48q0 9 1 18t-1 17q-2 13 -6.5 23.5t-9.5 21.5l-33 105h30l35 -112l34 112h32l-16 -48t-16 -49l-16 -48q-3 -8 -2.5 -16t0.5 -14v-58h-32zM1317 732q13 -5 29 0q10 5 12.5 13.5t3.5 16.5v109q0 10 -1 20.5t-9 17.5q-5 8 -12.5 9t-15.5 -1q-17 -1 -22 -20
q-5 -17 -3 -37.5t2 -37.5v-43q0 -12 1 -26t15 -21zM1721 707v235h32v-212h60v-23h-92zM1518 441v233h32v-212h59v-21h-91zM760 -388q-15 0 -22 6.5t-9.5 16t-2.5 21v20.5q0 11 0.5 22t4 19t11 12.5t21.5 3.5q12 -1 18.5 -7t9 -15t2.5 -19.5v-19.5v-19.5t-3 -19.5t-10 -15
t-20 -6zM861 -240q-14 0 -21 6.5t-9.5 16.5t-2.5 21.5v21.5t0.5 20.5t4 18.5t10.5 13t21 4q12 -1 18 -7t9 -15t3 -19.5v-19.5t-0.5 -20t-3.5 -20t-9.5 -15t-19.5 -6zM1766 -388q-14 0 -21 6.5t-9.5 16t-2.5 21v20.5q0 11 0.5 22t4 19t11 12.5t21.5 3.5q13 -1 18.5 -7
t7.5 -15t1.5 -19.5t-0.5 -19.5v-19.5t-2.5 -19.5t-9 -15t-19.5 -6zM1696 -238v119q11 0 26 0.5t26 -8.5t10 -24.5t-1 -27.5t0.5 -28.5t-13.5 -24.5q-9 -8 -23 -7t-25 1zM1449 36q0 -11 0.5 -20.5t-1.5 -17.5q-1 -12 -14 -16q-6 -1 -11.5 2t-8.5 8q-3 11 -2.5 25.5t0.5 25.5
v60q0 11 -0.5 25.5t2.5 25.5q3 5 8.5 8t11.5 2q13 -4 14 -16q2 -8 1.5 -17.5t-0.5 -20.5v-74zM808 -387l2 119h18l21 -95l20 95h16l2 -119h-13l-1 88l-20 -88h-11l-19 88l-1 -88h-14zM1062 -387v119q12 0 24 1t22 -4q7 -4 10.5 -12t3.5 -17t-4 -16.5t-11 -10.5l17 -60h-16
l-14 57h-13v-57h-19zM905 -387l2 119h17l21 -95l21 95h17l1 -119h-11l-2 88l-21 -88h-11l-18 88l-2 -88h-14zM910 -238v119q11 0 22.5 1t21.5 -4q7 -4 11 -12.5t4.5 -17.5t-3 -16.5t-12.5 -10.5l18 -59h-17l-17 55h-12v-55h-16zM1552 -387v119q11 0 23 1t23 -4q6 -4 10 -12
t4 -17t-3.5 -16.5t-10.5 -10.5l15 -60h-15l-15 57h-14v-57h-17zM1759 156q6 0 9 -5t4 -10q2 -8 1.5 -17.5t-0.5 -18.5v-70q0 -10 0.5 -19t-1.5 -17q-1 -11 -13 -15h-13v172h13zM922 263v121h30t26 -12q4 -11 3 -25t-9 -21q-8 -6 -16.5 -6.5t-17.5 -0.5v-56h-16zM1080 -238
v119h15v-52h31v52h18v-119h-18v55h-31v-55h-15zM1618 -238v119h10l35 -79v79h13v-119h-10l-34 80v-80h-14zM1105 263l26 121h16l26 -121h-18l-5 32h-25l-5 -32h-15zM1817 -387v119h10l35 -79v79h13v-119h-11l-35 82v-82h-12zM1540 -238l23 119h18l25 -119h-16l-6 30h-24
l-7 -30h-13zM1246 -387l25 119h17l25 -119h-15l-5 31h-26l-5 -31h-16zM1776 491l-9 183h30l-10 -183h-11zM761 841q8 0 16 -0.5t18 1.5q12 3 15.5 12.5t3.5 20.5q1 13 -2 25t-17 16q-10 2 -18 1.5t-16 -0.5v-76zM1359 -238q-17 -5 -29.5 2.5t-16.5 24.5q-2 8 -1 15t1 13v64
h15v-53q0 -5 -0.5 -14.5t0.5 -18.5t4.5 -16t11.5 -7t12 7t5.5 16t1 18.5t-0.5 14.5v53h14v-54q0 -8 0.5 -17.5t-0.5 -19t-4.5 -17.5t-12.5 -11zM682 -388q-15 0 -22 9t-9 21.5t-1.5 27t0.5 25.5q0 16 8.5 28t28.5 10q18 -2 22 -14.5t4 -26.5h-16q0 5 0.5 10.5t-2.5 10.5
q-2 8 -11 9t-13 -7q-6 -6 -4.5 -20t1.5 -23q0 -7 -1.5 -20t5.5 -21q3 -7 12 -5.5t11 9.5q3 5 2.5 11t-0.5 11h16q0 -15 -5 -30t-26 -15zM1169 -388q-16 0 -22.5 9t-8 21.5t-0.5 27t1 25.5q0 16 7.5 28t27.5 10q19 -2 23 -14.5t4 -26.5h-18q0 5 1 10.5t-2 10.5q-2 8 -10.5 9
t-13.5 -7q-6 -6 -5 -20t1 -23q0 -7 -1 -20t6 -21q4 -7 12.5 -5.5t10.5 9.5q3 5 2 11t-1 11h18q0 -15 -5 -30t-27 -15zM1486 262q-16 0 -23 10t-8 25l16 5q0 -6 2.5 -14t8.5 -12q8 -2 12.5 2.5t4.5 11.5q1 12 -9.5 21.5t-18.5 17.5q-11 9 -15.5 24t8.5 27q17 8 33 3
q8 -4 11.5 -12.5t4.5 -16.5l-14 -3q-1 5 -2.5 11t-6.5 11q-5 2 -10.5 0t-6.5 -10q-6 -8 2 -16l14 -14q7 -6 14.5 -13.5t9.5 -18.5q5 -14 -2.5 -26.5t-24.5 -12.5zM1658 -388q-16 0 -23.5 10.5t-9.5 24.5l16 4q0 -6 2 -13.5t8 -9.5q9 -5 14 -0.5t5 11.5q0 12 -10.5 21.5
t-18.5 15.5q-11 11 -15 26.5t10 25.5q7 5 16.5 6t15.5 -3q8 -2 11.5 -10.5t4.5 -16.5l-14 -5l-2 12t-6 11q-16 4 -20 -9q-4 -9 3.5 -16t14.5 -13q7 -8 14.5 -15.5t9.5 -18.5q5 -14 -3 -26t-23 -12zM1212 262q-14 0 -22.5 10t-9.5 25l16 5q0 -6 2 -14t8 -12q8 -2 13.5 2.5
t5.5 11.5q0 12 -10.5 21.5t-18.5 17.5q-11 9 -15 24t9 27q7 4 16 4.5t16 -1.5q9 -4 12.5 -12.5t4.5 -16.5l-14 -3q-1 5 -2.5 11t-6.5 11q-6 2 -11.5 0t-7.5 -10q-3 -8 4 -16t12 -14q8 -6 16 -13.5t10 -18.5q5 -14 -3 -26.5t-24 -12.5zM1018 841h16t17 2q11 5 14.5 15.5
t1.5 23.5q0 11 -2.5 19t-13.5 13q-8 4 -17 3.5t-16 -0.5v-76zM1368 263l-27 121h18l17 -88l19 88h13l-25 -121h-15zM1439 -387l-27 119h15l20 -87l16 87h17l-28 -119h-13zM1253 263v121h48v-11h-31v-41h25v-12h-25v-45h32v-12h-49zM1492 -387v119h48v-10h-31v-39h25v-13h-25
v-45h31v-12h-48zM1003 -387v119h47v-10h-30v-39h25v-13h-25v-45h30v-12h-47zM1162 -238v119h46v-12h-29v-40h25v-12h-25v-45h29v-10h-46zM853 -226q10 -5 14.5 -1t6.5 11.5t2 16.5v15q0 4 0.5 12t0.5 16t-2 14.5t-6 9.5q-11 6 -18 -2t-7 -18v-19q0 -4 -0.5 -12.5t-0.5 -17
t2 -16t8 -9.5zM1051 263v121h46v-11h-31v-41h26v-12h-26v-45h31v-12h-46zM1758 -371q10 -6 15 -2.5t7.5 10.5t2.5 16v15q0 4 0.5 12t-0.5 15.5t-3 14t-6 8.5q-12 8 -17 0t-5 -17v-18q0 -5 -1 -13t-1 -17t1.5 -16t6.5 -8zM751 -371q10 -6 15 -2.5t7 10.5t2 16v15q0 4 0.5 12
t0 15.5t-2 14t-5.5 8.5q-13 8 -18.5 0t-5.5 -17q-1 -5 -0.5 -9.5t0.5 -8.5q0 -5 -0.5 -13t-0.5 -17t1.5 -16t6.5 -8zM772 -238v119h46v-12h-28v-40h22v-12h-22v-55h-18zM903 56h16q13 0 17.5 -10t5.5 -21q1 -16 -3.5 -29.5t-16.5 -13.5h-19v74zM1712 -228q11 0 18.5 2
t9.5 15v63q-1 13 -9 15t-19 2v-97zM1033 -238v107h-22v12h61v-12h-22v-107h-17zM1689 49v45h-43v-45h43zM1452 -238v119h17v-109h30v-10h-47zM1579 263v110h-23v11h58v-11h-20v-110h-15zM903 164h15q11 0 15.5 -12t4.5 -26q0 -11 -4 -22t-15 -11h-16v71zM1258 -238v119h45
v-12h-32v-40h24v-12h-24v-55h-13zM1395 -238v119h16v-109h30v-10h-46zM1879 164h14q10 0 15 -10t5.5 -23t-2.5 -24t-9 -14h-23v71zM993 263v121h15v-109h31v-12h-46zM1528 263v121h18v-121h-18zM1326 -387v119h15v-107h32v-12h-47zM1611 789h40l-20 107zM409 -56h43v48h-43
v-48zM1217 -387v119h17v-119h-17zM1423 263v121h16v-121h-16zM1700 -387v119h15v-119h-15zM938 331h9t10 2q6 3 7 9t1 13q-1 14 -8.5 16t-18.5 2v-42zM1767 441v33h30v-33h-30zM926 -171q11 0 19 3.5t8 17.5t-8 16.5t-19 2.5v-40zM1569 -317q11 0 19 2.5t8 16.5q0 12 -8 16
t-19 4v-39zM1081 -317q11 0 18 2.5t7 16.5q0 12 -7 16t-18 4v-39zM1126 306h22l-9 55zM1269 -345h21l-10 55zM1562 -196h21l-11 54zM2140 43l8 51l7 -51h-15zM1184 -56h99v45h-56v212h-43v-257zM1343 -56v257h-44v-257h44z" />
    <glyph glyph-name="two" unicode="2" horiz-adv-x="2602" 
d="M185 201l-30 -161l-29 161h-42l-4 -257h40l1 105l20 -105h30l21 106l2 -106h37l-2 257h-44zM2334 201l-30 -161l-29 161h-42l-4 -257h40l1 105l20 -105h30l21 106l2 -106h37l-2 257h-44zM939 -56q16 0 31.5 16t15.5 51q0 17 -4.5 35.5t-20.5 29.5q14 9 17.5 26t3.5 33
q0 35 -16 50.5t-31 15.5h-75v-257h79zM1492 110q0 22 -3 46.5t-25 38.5q-12 8 -28 8.5t-30 -3.5q-17 -6 -25.5 -21t-11.5 -32q-1 -10 -1 -19.5v-19.5v-70v-19.5t1 -19.5q3 -17 11.5 -32t25.5 -21q14 -4 30 -3.5t28 8.5q22 14 25 38.5t3 46.5v74zM1704 -56h47q35 0 51 19.5
t16 61.5v96q0 40 -16.5 60t-56.5 20h-41v-257zM1330 705q-53 0 -62 52q-2 11 -2 22v22q0 24 -1 51.5t5 50.5q6 20 21.5 29.5t34.5 10.5q20 1 37.5 -7t24.5 -28q8 -22 7.5 -49.5t-0.5 -51.5q0 -14 -0.5 -27.5t-3.5 -26.5q-11 -48 -61 -48zM1269 439q-25 0 -41 12.5t-21 36.5
q-2 12 -1.5 23.5t0.5 24.5q0 23 -1 49.5t4 49.5q6 21 21 30.5t35 9.5q21 1 38 -6t24 -27q9 -23 7 -50.5t-2 -50.5q0 -16 0.5 -28.5t-2.5 -26.5q-9 -47 -61 -47zM1836 201v-257h43v111h11l23 -111h43l-29 120q18 11 24 31.5t6 39.5q0 35 -15.5 50.5t-30.5 15.5h-75zM341 78
l-44 123h-33v-257h40v126l45 -126h32v257h-40v-123zM1593 77l-44 124h-33v-257h40v126l45 -126h32v257h-40v-124zM665 40h26v-16.5t-2 -22t-7.5 -17t-16.5 -2.5q-7 2 -10 9t-4 15.5t-0.5 17t0.5 13.5v61q0 12 -0.5 27.5t2.5 28.5q3 5 8.5 8.5t11.5 2.5q13 -4 14 -16
q2 -9 1.5 -18.5t-0.5 -20.5h43q0 22 -3 47t-25 39q-12 8 -28 8.5t-30 -4.5q-17 -5 -25.5 -20t-11.5 -32q-2 -18 -1.5 -37t0.5 -38q0 -18 -0.5 -35.5t1.5 -35.5q2 -15 7.5 -30.5t19.5 -22.5q13 -9 32 -8.5t30 11.5l1 -8h34v134h-67v-38zM984 707v235q23 0 47.5 0.5
t44.5 -10.5q12 -8 19 -23.5t7 -32.5t-7 -31.5t-21 -19.5l31 -118h-31l-31 111h-25v-111h-34zM2484 78l-21 23q-7 7 -13.5 13t-9.5 17q-3 8 -0.5 21.5t15.5 12.5q7 -1 10 -7t4.5 -13.5t2 -15.5t0.5 -14l40 2q0 24 -5 48t-28 34q-14 6 -28 5t-25.5 -7t-19 -17.5t-8.5 -26.5
q-2 -15 0.5 -31t11.5 -28q3 -8 9.5 -13t12.5 -12q12 -14 26 -29.5t14 -35.5q0 -8 -1.5 -14.5t-8.5 -7.5q-6 -2 -10 1t-6 8q-6 11 -7 22.5t-2 23.5l-40 -3q0 -17 1.5 -32t8.5 -30q8 -18 25.5 -26t36.5 -4q20 4 31.5 19t13.5 32q6 48 -30 85zM557 78l-21 23q-7 7 -13.5 13
t-9.5 17q-3 8 -0.5 21.5t15.5 12.5q7 -1 10 -7t4.5 -13.5t2 -15.5t0.5 -14l40 2q0 24 -5 48t-28 34q-14 6 -28 5t-25.5 -7t-19 -17.5t-8.5 -26.5q-2 -15 0.5 -31t11.5 -28q3 -8 9.5 -13t12.5 -12q12 -14 26 -29.5t14 -35.5q0 -8 -1.5 -14.5t-8.5 -7.5q-6 -2 -10 1t-6 8
q-6 11 -7 22.5t-2 23.5l-40 -3q0 -17 1.5 -32t8.5 -30q8 -18 25.5 -26t36.5 -4q20 4 31.5 19t13.5 32q6 48 -30 85zM2128 201l-47 -257h43l10 61h28l8 -61h43l-45 257h-40zM2014 56h46v45h-46v55h56v45h-99v-257h99v45h-56v67zM729 707v235h49q18 0 33.5 -4t24.5 -22
q5 -10 7.5 -22.5t1.5 -24.5t-6 -23t-14 -18q-13 -11 -31 -11h-33v-110h-32zM1365 441v233h22l66 -156v156h29v-233h-22l-68 159v-159h-27zM1427 707v235h22l65 -156v156h28v-235h-21l-68 159v-159h-26zM1566 707l49 235h32l49 -235h-30l-12 58h-47l-11 -58h-30zM818 442
q-21 -8 -46 -1t-34 32q-5 12 -6 25.5t-1 30.5v145h31v-156q0 -13 2 -30t17 -25q13 -4 21.5 0t13 12t6.5 18.5t2 20.5q1 20 0.5 37.5t-0.5 37.5v85h33v-107q0 -15 0.5 -34t-2 -37t-11 -33t-26.5 -21zM1069 -56h99v45h-56v212h-43v-257zM1189 705q-29 0 -45.5 19.5t-17.5 47.5
l30 8q2 -11 4 -22.5t9 -18.5q8 -8 19 -9t19 6q9 8 8.5 22t-7.5 25q-6 10 -26 25q-11 10 -23.5 20.5t-20.5 22.5t-10 26.5t1 27t11.5 22.5t22.5 14q13 3 29 1.5t27 -9.5q12 -8 16 -22t5 -28l-25 -8q-2 12 -6.5 26t-19.5 18q-11 1 -20 -4.5t-11 -15.5t1 -18.5t9 -15.5
t13.5 -13t14.5 -11q15 -14 29 -28.5t19 -34.5q5 -29 -10 -51t-45 -22zM945 439q-30 0 -45 19t-17 48l31 8q1 -11 2.5 -22t8.5 -19q8 -9 19 -10t19 7q10 8 9 22t-8 23q-5 7 -11.5 14t-14.5 12q-11 11 -24 21.5t-21 23.5q-7 11 -9 24.5t1.5 26.5t11.5 23t22 14q13 3 29 2
t28 -9q11 -8 15 -22.5t5 -28.5l-25 -9q-2 14 -6.5 27.5t-19.5 16.5q-11 2 -19.5 -3.5t-10.5 -17.5q-3 -9 0 -17t9 -15t13.5 -12.5t13.5 -11.5q16 -14 29.5 -28t17.5 -36q7 -27 -8.5 -49t-44.5 -22zM741 -88h37l73 322h-41zM1026 441v233h91v-25h-58v-76h47v-24h-47v-87h58
v-21h-91zM868 707v235h90v-25h-58v-76h47v-24h-47v-87h59v-23h-91zM1046 -56v257h-44v-257h44zM1253 466q7 -4 16 -4t14 4q9 5 12.5 13.5t5.5 17.5q1 5 0.5 12t-0.5 12v83q0 10 -1 20.5t-9 18.5q-13 13 -29 8q-16 -4 -23 -22q-3 -17 -2 -37t1 -37v-42q0 -12 1.5 -26
t13.5 -21zM1667 441v48q0 9 1 18t-1 17q-2 13 -6.5 23.5t-9.5 21.5l-33 105h30l35 -112l34 112h32l-16 -48t-16 -49l-16 -48q-3 -8 -2.5 -16t0.5 -14v-58h-32zM1317 732q13 -5 29 0q10 5 12.5 13.5t3.5 16.5v109q0 10 -1 20.5t-9 17.5q-5 8 -12.5 9t-15.5 -1q-17 -1 -22 -20
q-5 -17 -3 -37.5t2 -37.5v-43q0 -12 1 -26t15 -21zM1721 707v235h32v-212h60v-23h-92zM1518 441v233h32v-212h59v-21h-91zM760 -388q-15 0 -22 6.5t-9.5 16t-2.5 21v20.5q0 11 0.5 22t4 19t11 12.5t21.5 3.5q12 -1 18.5 -7t9 -15t2.5 -19.5v-19.5v-19.5t-3 -19.5t-10 -15
t-20 -6zM861 -240q-14 0 -21 6.5t-9.5 16.5t-2.5 21.5v21.5t0.5 20.5t4 18.5t10.5 13t21 4q12 -1 18 -7t9 -15t3 -19.5v-19.5t-0.5 -20t-3.5 -20t-9.5 -15t-19.5 -6zM1766 -388q-14 0 -21 6.5t-9.5 16t-2.5 21v20.5q0 11 0.5 22t4 19t11 12.5t21.5 3.5q13 -1 18.5 -7
t7.5 -15t1.5 -19.5t-0.5 -19.5v-19.5t-2.5 -19.5t-9 -15t-19.5 -6zM1696 -238v119q11 0 26 0.5t26 -8.5t10 -24.5t-1 -27.5t0.5 -28.5t-13.5 -24.5q-9 -8 -23 -7t-25 1zM1449 36q0 -11 0.5 -20.5t-1.5 -17.5q-1 -12 -14 -16q-6 -1 -11.5 2t-8.5 8q-3 11 -2.5 25.5t0.5 25.5
v60q0 11 -0.5 25.5t2.5 25.5q3 5 8.5 8t11.5 2q13 -4 14 -16q2 -8 1.5 -17.5t-0.5 -20.5v-74zM808 -387l2 119h18l21 -95l20 95h16l2 -119h-13l-1 88l-20 -88h-11l-19 88l-1 -88h-14zM1062 -387v119q12 0 24 1t22 -4q7 -4 10.5 -12t3.5 -17t-4 -16.5t-11 -10.5l17 -60h-16
l-14 57h-13v-57h-19zM905 -387l2 119h17l21 -95l21 95h17l1 -119h-11l-2 88l-21 -88h-11l-18 88l-2 -88h-14zM910 -238v119q11 0 22.5 1t21.5 -4q7 -4 11 -12.5t4.5 -17.5t-3 -16.5t-12.5 -10.5l18 -59h-17l-17 55h-12v-55h-16zM1552 -387v119q11 0 23 1t23 -4q6 -4 10 -12
t4 -17t-3.5 -16.5t-10.5 -10.5l15 -60h-15l-15 57h-14v-57h-17zM1759 156q6 0 9 -5t4 -10q2 -8 1.5 -17.5t-0.5 -18.5v-70q0 -10 0.5 -19t-1.5 -17q-1 -11 -13 -15h-13v172h13zM922 263v121h30t26 -12q4 -11 3 -25t-9 -21q-8 -6 -16.5 -6.5t-17.5 -0.5v-56h-16zM1080 -238
v119h15v-52h31v52h18v-119h-18v55h-31v-55h-15zM1618 -238v119h10l35 -79v79h13v-119h-10l-34 80v-80h-14zM1105 263l26 121h16l26 -121h-18l-5 32h-25l-5 -32h-15zM1817 -387v119h10l35 -79v79h13v-119h-11l-35 82v-82h-12zM1540 -238l23 119h18l25 -119h-16l-6 30h-24
l-7 -30h-13zM1246 -387l25 119h17l25 -119h-15l-5 31h-26l-5 -31h-16zM1776 491l-9 183h30l-10 -183h-11zM761 841q8 0 16 -0.5t18 1.5q12 3 15.5 12.5t3.5 20.5q1 13 -2 25t-17 16q-10 2 -18 1.5t-16 -0.5v-76zM1359 -238q-17 -5 -29.5 2.5t-16.5 24.5q-2 8 -1 15t1 13v64
h15v-53q0 -5 -0.5 -14.5t0.5 -18.5t4.5 -16t11.5 -7t12 7t5.5 16t1 18.5t-0.5 14.5v53h14v-54q0 -8 0.5 -17.5t-0.5 -19t-4.5 -17.5t-12.5 -11zM682 -388q-15 0 -22 9t-9 21.5t-1.5 27t0.5 25.5q0 16 8.5 28t28.5 10q18 -2 22 -14.5t4 -26.5h-16q0 5 0.5 10.5t-2.5 10.5
q-2 8 -11 9t-13 -7q-6 -6 -4.5 -20t1.5 -23q0 -7 -1.5 -20t5.5 -21q3 -7 12 -5.5t11 9.5q3 5 2.5 11t-0.5 11h16q0 -15 -5 -30t-26 -15zM1169 -388q-16 0 -22.5 9t-8 21.5t-0.5 27t1 25.5q0 16 7.5 28t27.5 10q19 -2 23 -14.5t4 -26.5h-18q0 5 1 10.5t-2 10.5q-2 8 -10.5 9
t-13.5 -7q-6 -6 -5 -20t1 -23q0 -7 -1 -20t6 -21q4 -7 12.5 -5.5t10.5 9.5q3 5 2 11t-1 11h18q0 -15 -5 -30t-27 -15zM1486 262q-16 0 -23 10t-8 25l16 5q0 -6 2.5 -14t8.5 -12q8 -2 12.5 2.5t4.5 11.5q1 12 -9.5 21.5t-18.5 17.5q-11 9 -15.5 24t8.5 27q17 8 33 3
q8 -4 11.5 -12.5t4.5 -16.5l-14 -3q-1 5 -2.5 11t-6.5 11q-5 2 -10.5 0t-6.5 -10q-6 -8 2 -16l14 -14q7 -6 14.5 -13.5t9.5 -18.5q5 -14 -2.5 -26.5t-24.5 -12.5zM1658 -388q-16 0 -23.5 10.5t-9.5 24.5l16 4q0 -6 2 -13.5t8 -9.5q9 -5 14 -0.5t5 11.5q0 12 -10.5 21.5
t-18.5 15.5q-11 11 -15 26.5t10 25.5q7 5 16.5 6t15.5 -3q8 -2 11.5 -10.5t4.5 -16.5l-14 -5l-2 12t-6 11q-16 4 -20 -9q-4 -9 3.5 -16t14.5 -13q7 -8 14.5 -15.5t9.5 -18.5q5 -14 -3 -26t-23 -12zM1212 262q-14 0 -22.5 10t-9.5 25l16 5q0 -6 2 -14t8 -12q8 -2 13.5 2.5
t5.5 11.5q0 12 -10.5 21.5t-18.5 17.5q-11 9 -15 24t9 27q7 4 16 4.5t16 -1.5q9 -4 12.5 -12.5t4.5 -16.5l-14 -3q-1 5 -2.5 11t-6.5 11q-6 2 -11.5 0t-7.5 -10q-3 -8 4 -16t12 -14q8 -6 16 -13.5t10 -18.5q5 -14 -3 -26.5t-24 -12.5zM1018 841h16t17 2q11 5 14.5 15.5
t1.5 23.5q0 11 -2.5 19t-13.5 13q-8 4 -17 3.5t-16 -0.5v-76zM1368 263l-27 121h18l17 -88l19 88h13l-25 -121h-15zM1439 -387l-27 119h15l20 -87l16 87h17l-28 -119h-13zM1253 263v121h48v-11h-31v-41h25v-12h-25v-45h32v-12h-49zM1492 -387v119h48v-10h-31v-39h25v-13h-25
v-45h31v-12h-48zM1003 -387v119h47v-10h-30v-39h25v-13h-25v-45h30v-12h-47zM1162 -238v119h46v-12h-29v-40h25v-12h-25v-45h29v-10h-46zM853 -226q10 -5 14.5 -1t6.5 11.5t2 16.5v15q0 4 0.5 12t0.5 16t-2 14.5t-6 9.5q-11 6 -18 -2t-7 -18v-19q0 -4 -0.5 -12.5t-0.5 -17
t2 -16t8 -9.5zM1051 263v121h46v-11h-31v-41h26v-12h-26v-45h31v-12h-46zM1758 -371q10 -6 15 -2.5t7.5 10.5t2.5 16v15q0 4 0.5 12t-0.5 15.5t-3 14t-6 8.5q-12 8 -17 0t-5 -17v-18q0 -5 -1 -13t-1 -17t1.5 -16t6.5 -8zM751 -371q10 -6 15 -2.5t7 10.5t2 16v15q0 4 0.5 12
t0 15.5t-2 14t-5.5 8.5q-13 8 -18.5 0t-5.5 -17q-1 -5 -0.5 -9.5t0.5 -8.5q0 -5 -0.5 -13t-0.5 -17t1.5 -16t6.5 -8zM772 -238v119h46v-12h-28v-40h22v-12h-22v-55h-18zM903 56h16q13 0 17.5 -10t5.5 -21q1 -16 -3.5 -29.5t-16.5 -13.5h-19v74zM1712 -228q11 0 18.5 2
t9.5 15v63q-1 13 -9 15t-19 2v-97zM1033 -238v107h-22v12h61v-12h-22v-107h-17zM1689 49v45h-43v-45h43zM1452 -238v119h17v-109h30v-10h-47zM1579 263v110h-23v11h58v-11h-20v-110h-15zM903 164h15q11 0 15.5 -12t4.5 -26q0 -11 -4 -22t-15 -11h-16v71zM1258 -238v119h45
v-12h-32v-40h24v-12h-24v-55h-13zM1395 -238v119h16v-109h30v-10h-46zM1879 164h14q10 0 15 -10t5.5 -23t-2.5 -24t-9 -14h-23v71zM993 263v121h15v-109h31v-12h-46zM1528 263v121h18v-121h-18zM1326 -387v119h15v-107h32v-12h-47zM1611 789h40l-20 107zM409 -56h43v48h-43
v-48zM1217 -387v119h17v-119h-17zM1423 263v121h16v-121h-16zM1700 -387v119h15v-119h-15zM938 331h9t10 2q6 3 7 9t1 13q-1 14 -8.5 16t-18.5 2v-42zM1767 441v33h30v-33h-30zM926 -171q11 0 19 3.5t8 17.5t-8 16.5t-19 2.5v-40zM1569 -317q11 0 19 2.5t8 16.5q0 12 -8 16
t-19 4v-39zM1081 -317q11 0 18 2.5t7 16.5q0 12 -7 16t-18 4v-39zM1126 306h22l-9 55zM1269 -345h21l-10 55zM1562 -196h21l-11 54zM2140 43l8 51l7 -51h-15zM1184 -56h99v45h-56v212h-43v-257zM1343 -56v257h-44v-257h44z" />
    <glyph glyph-name="three" unicode="3" horiz-adv-x="2602" 
d="M185 201l-30 -161l-29 161h-42l-4 -257h40l1 105l20 -105h30l21 106l2 -106h37l-2 257h-44zM2334 201l-30 -161l-29 161h-42l-4 -257h40l1 105l20 -105h30l21 106l2 -106h37l-2 257h-44zM939 -56q16 0 31.5 16t15.5 51q0 17 -4.5 35.5t-20.5 29.5q14 9 17.5 26t3.5 33
q0 35 -16 50.5t-31 15.5h-75v-257h79zM1492 110q0 22 -3 46.5t-25 38.5q-12 8 -28 8.5t-30 -3.5q-17 -6 -25.5 -21t-11.5 -32q-1 -10 -1 -19.5v-19.5v-70v-19.5t1 -19.5q3 -17 11.5 -32t25.5 -21q14 -4 30 -3.5t28 8.5q22 14 25 38.5t3 46.5v74zM1704 -56h47q35 0 51 19.5
t16 61.5v96q0 40 -16.5 60t-56.5 20h-41v-257zM1330 705q-53 0 -62 52q-2 11 -2 22v22q0 24 -1 51.5t5 50.5q6 20 21.5 29.5t34.5 10.5q20 1 37.5 -7t24.5 -28q8 -22 7.5 -49.5t-0.5 -51.5q0 -14 -0.5 -27.5t-3.5 -26.5q-11 -48 -61 -48zM1269 439q-25 0 -41 12.5t-21 36.5
q-2 12 -1.5 23.5t0.5 24.5q0 23 -1 49.5t4 49.5q6 21 21 30.5t35 9.5q21 1 38 -6t24 -27q9 -23 7 -50.5t-2 -50.5q0 -16 0.5 -28.5t-2.5 -26.5q-9 -47 -61 -47zM1836 201v-257h43v111h11l23 -111h43l-29 120q18 11 24 31.5t6 39.5q0 35 -15.5 50.5t-30.5 15.5h-75zM341 78
l-44 123h-33v-257h40v126l45 -126h32v257h-40v-123zM1593 77l-44 124h-33v-257h40v126l45 -126h32v257h-40v-124zM665 40h26v-16.5t-2 -22t-7.5 -17t-16.5 -2.5q-7 2 -10 9t-4 15.5t-0.5 17t0.5 13.5v61q0 12 -0.5 27.5t2.5 28.5q3 5 8.5 8.5t11.5 2.5q13 -4 14 -16
q2 -9 1.5 -18.5t-0.5 -20.5h43q0 22 -3 47t-25 39q-12 8 -28 8.5t-30 -4.5q-17 -5 -25.5 -20t-11.5 -32q-2 -18 -1.5 -37t0.5 -38q0 -18 -0.5 -35.5t1.5 -35.5q2 -15 7.5 -30.5t19.5 -22.5q13 -9 32 -8.5t30 11.5l1 -8h34v134h-67v-38zM984 707v235q23 0 47.5 0.5
t44.5 -10.5q12 -8 19 -23.5t7 -32.5t-7 -31.5t-21 -19.5l31 -118h-31l-31 111h-25v-111h-34zM2484 78l-21 23q-7 7 -13.5 13t-9.5 17q-3 8 -0.5 21.5t15.5 12.5q7 -1 10 -7t4.5 -13.5t2 -15.5t0.5 -14l40 2q0 24 -5 48t-28 34q-14 6 -28 5t-25.5 -7t-19 -17.5t-8.5 -26.5
q-2 -15 0.5 -31t11.5 -28q3 -8 9.5 -13t12.5 -12q12 -14 26 -29.5t14 -35.5q0 -8 -1.5 -14.5t-8.5 -7.5q-6 -2 -10 1t-6 8q-6 11 -7 22.5t-2 23.5l-40 -3q0 -17 1.5 -32t8.5 -30q8 -18 25.5 -26t36.5 -4q20 4 31.5 19t13.5 32q6 48 -30 85zM557 78l-21 23q-7 7 -13.5 13
t-9.5 17q-3 8 -0.5 21.5t15.5 12.5q7 -1 10 -7t4.5 -13.5t2 -15.5t0.5 -14l40 2q0 24 -5 48t-28 34q-14 6 -28 5t-25.5 -7t-19 -17.5t-8.5 -26.5q-2 -15 0.5 -31t11.5 -28q3 -8 9.5 -13t12.5 -12q12 -14 26 -29.5t14 -35.5q0 -8 -1.5 -14.5t-8.5 -7.5q-6 -2 -10 1t-6 8
q-6 11 -7 22.5t-2 23.5l-40 -3q0 -17 1.5 -32t8.5 -30q8 -18 25.5 -26t36.5 -4q20 4 31.5 19t13.5 32q6 48 -30 85zM2128 201l-47 -257h43l10 61h28l8 -61h43l-45 257h-40zM2014 56h46v45h-46v55h56v45h-99v-257h99v45h-56v67zM729 707v235h49q18 0 33.5 -4t24.5 -22
q5 -10 7.5 -22.5t1.5 -24.5t-6 -23t-14 -18q-13 -11 -31 -11h-33v-110h-32zM1365 441v233h22l66 -156v156h29v-233h-22l-68 159v-159h-27zM1427 707v235h22l65 -156v156h28v-235h-21l-68 159v-159h-26zM1566 707l49 235h32l49 -235h-30l-12 58h-47l-11 -58h-30zM818 442
q-21 -8 -46 -1t-34 32q-5 12 -6 25.5t-1 30.5v145h31v-156q0 -13 2 -30t17 -25q13 -4 21.5 0t13 12t6.5 18.5t2 20.5q1 20 0.5 37.5t-0.5 37.5v85h33v-107q0 -15 0.5 -34t-2 -37t-11 -33t-26.5 -21zM1069 -56h99v45h-56v212h-43v-257zM1189 705q-29 0 -45.5 19.5t-17.5 47.5
l30 8q2 -11 4 -22.5t9 -18.5q8 -8 19 -9t19 6q9 8 8.5 22t-7.5 25q-6 10 -26 25q-11 10 -23.5 20.5t-20.5 22.5t-10 26.5t1 27t11.5 22.5t22.5 14q13 3 29 1.5t27 -9.5q12 -8 16 -22t5 -28l-25 -8q-2 12 -6.5 26t-19.5 18q-11 1 -20 -4.5t-11 -15.5t1 -18.5t9 -15.5
t13.5 -13t14.5 -11q15 -14 29 -28.5t19 -34.5q5 -29 -10 -51t-45 -22zM945 439q-30 0 -45 19t-17 48l31 8q1 -11 2.5 -22t8.5 -19q8 -9 19 -10t19 7q10 8 9 22t-8 23q-5 7 -11.5 14t-14.5 12q-11 11 -24 21.5t-21 23.5q-7 11 -9 24.5t1.5 26.5t11.5 23t22 14q13 3 29 2
t28 -9q11 -8 15 -22.5t5 -28.5l-25 -9q-2 14 -6.5 27.5t-19.5 16.5q-11 2 -19.5 -3.5t-10.5 -17.5q-3 -9 0 -17t9 -15t13.5 -12.5t13.5 -11.5q16 -14 29.5 -28t17.5 -36q7 -27 -8.5 -49t-44.5 -22zM741 -88h37l73 322h-41zM1026 441v233h91v-25h-58v-76h47v-24h-47v-87h58
v-21h-91zM868 707v235h90v-25h-58v-76h47v-24h-47v-87h59v-23h-91zM1046 -56v257h-44v-257h44zM1253 466q7 -4 16 -4t14 4q9 5 12.5 13.5t5.5 17.5q1 5 0.5 12t-0.5 12v83q0 10 -1 20.5t-9 18.5q-13 13 -29 8q-16 -4 -23 -22q-3 -17 -2 -37t1 -37v-42q0 -12 1.5 -26
t13.5 -21zM1667 441v48q0 9 1 18t-1 17q-2 13 -6.5 23.5t-9.5 21.5l-33 105h30l35 -112l34 112h32l-16 -48t-16 -49l-16 -48q-3 -8 -2.5 -16t0.5 -14v-58h-32zM1317 732q13 -5 29 0q10 5 12.5 13.5t3.5 16.5v109q0 10 -1 20.5t-9 17.5q-5 8 -12.5 9t-15.5 -1q-17 -1 -22 -20
q-5 -17 -3 -37.5t2 -37.5v-43q0 -12 1 -26t15 -21zM1721 707v235h32v-212h60v-23h-92zM1518 441v233h32v-212h59v-21h-91zM760 -388q-15 0 -22 6.5t-9.5 16t-2.5 21v20.5q0 11 0.5 22t4 19t11 12.5t21.5 3.5q12 -1 18.5 -7t9 -15t2.5 -19.5v-19.5v-19.5t-3 -19.5t-10 -15
t-20 -6zM861 -240q-14 0 -21 6.5t-9.5 16.5t-2.5 21.5v21.5t0.5 20.5t4 18.5t10.5 13t21 4q12 -1 18 -7t9 -15t3 -19.5v-19.5t-0.5 -20t-3.5 -20t-9.5 -15t-19.5 -6zM1766 -388q-14 0 -21 6.5t-9.5 16t-2.5 21v20.5q0 11 0.5 22t4 19t11 12.5t21.5 3.5q13 -1 18.5 -7
t7.5 -15t1.5 -19.5t-0.5 -19.5v-19.5t-2.5 -19.5t-9 -15t-19.5 -6zM1696 -238v119q11 0 26 0.5t26 -8.5t10 -24.5t-1 -27.5t0.5 -28.5t-13.5 -24.5q-9 -8 -23 -7t-25 1zM1449 36q0 -11 0.5 -20.5t-1.5 -17.5q-1 -12 -14 -16q-6 -1 -11.5 2t-8.5 8q-3 11 -2.5 25.5t0.5 25.5
v60q0 11 -0.5 25.5t2.5 25.5q3 5 8.5 8t11.5 2q13 -4 14 -16q2 -8 1.5 -17.5t-0.5 -20.5v-74zM808 -387l2 119h18l21 -95l20 95h16l2 -119h-13l-1 88l-20 -88h-11l-19 88l-1 -88h-14zM1062 -387v119q12 0 24 1t22 -4q7 -4 10.5 -12t3.5 -17t-4 -16.5t-11 -10.5l17 -60h-16
l-14 57h-13v-57h-19zM905 -387l2 119h17l21 -95l21 95h17l1 -119h-11l-2 88l-21 -88h-11l-18 88l-2 -88h-14zM910 -238v119q11 0 22.5 1t21.5 -4q7 -4 11 -12.5t4.5 -17.5t-3 -16.5t-12.5 -10.5l18 -59h-17l-17 55h-12v-55h-16zM1552 -387v119q11 0 23 1t23 -4q6 -4 10 -12
t4 -17t-3.5 -16.5t-10.5 -10.5l15 -60h-15l-15 57h-14v-57h-17zM1759 156q6 0 9 -5t4 -10q2 -8 1.5 -17.5t-0.5 -18.5v-70q0 -10 0.5 -19t-1.5 -17q-1 -11 -13 -15h-13v172h13zM922 263v121h30t26 -12q4 -11 3 -25t-9 -21q-8 -6 -16.5 -6.5t-17.5 -0.5v-56h-16zM1080 -238
v119h15v-52h31v52h18v-119h-18v55h-31v-55h-15zM1618 -238v119h10l35 -79v79h13v-119h-10l-34 80v-80h-14zM1105 263l26 121h16l26 -121h-18l-5 32h-25l-5 -32h-15zM1817 -387v119h10l35 -79v79h13v-119h-11l-35 82v-82h-12zM1540 -238l23 119h18l25 -119h-16l-6 30h-24
l-7 -30h-13zM1246 -387l25 119h17l25 -119h-15l-5 31h-26l-5 -31h-16zM1776 491l-9 183h30l-10 -183h-11zM761 841q8 0 16 -0.5t18 1.5q12 3 15.5 12.5t3.5 20.5q1 13 -2 25t-17 16q-10 2 -18 1.5t-16 -0.5v-76zM1359 -238q-17 -5 -29.5 2.5t-16.5 24.5q-2 8 -1 15t1 13v64
h15v-53q0 -5 -0.5 -14.5t0.5 -18.5t4.5 -16t11.5 -7t12 7t5.5 16t1 18.5t-0.5 14.5v53h14v-54q0 -8 0.5 -17.5t-0.5 -19t-4.5 -17.5t-12.5 -11zM682 -388q-15 0 -22 9t-9 21.5t-1.5 27t0.5 25.5q0 16 8.5 28t28.5 10q18 -2 22 -14.5t4 -26.5h-16q0 5 0.5 10.5t-2.5 10.5
q-2 8 -11 9t-13 -7q-6 -6 -4.5 -20t1.5 -23q0 -7 -1.5 -20t5.5 -21q3 -7 12 -5.5t11 9.5q3 5 2.5 11t-0.5 11h16q0 -15 -5 -30t-26 -15zM1169 -388q-16 0 -22.5 9t-8 21.5t-0.5 27t1 25.5q0 16 7.5 28t27.5 10q19 -2 23 -14.5t4 -26.5h-18q0 5 1 10.5t-2 10.5q-2 8 -10.5 9
t-13.5 -7q-6 -6 -5 -20t1 -23q0 -7 -1 -20t6 -21q4 -7 12.5 -5.5t10.5 9.5q3 5 2 11t-1 11h18q0 -15 -5 -30t-27 -15zM1486 262q-16 0 -23 10t-8 25l16 5q0 -6 2.5 -14t8.5 -12q8 -2 12.5 2.5t4.5 11.5q1 12 -9.5 21.5t-18.5 17.5q-11 9 -15.5 24t8.5 27q17 8 33 3
q8 -4 11.5 -12.5t4.5 -16.5l-14 -3q-1 5 -2.5 11t-6.5 11q-5 2 -10.5 0t-6.5 -10q-6 -8 2 -16l14 -14q7 -6 14.5 -13.5t9.5 -18.5q5 -14 -2.5 -26.5t-24.5 -12.5zM1658 -388q-16 0 -23.5 10.5t-9.5 24.5l16 4q0 -6 2 -13.5t8 -9.5q9 -5 14 -0.5t5 11.5q0 12 -10.5 21.5
t-18.5 15.5q-11 11 -15 26.5t10 25.5q7 5 16.5 6t15.5 -3q8 -2 11.5 -10.5t4.5 -16.5l-14 -5l-2 12t-6 11q-16 4 -20 -9q-4 -9 3.5 -16t14.5 -13q7 -8 14.5 -15.5t9.5 -18.5q5 -14 -3 -26t-23 -12zM1212 262q-14 0 -22.5 10t-9.5 25l16 5q0 -6 2 -14t8 -12q8 -2 13.5 2.5
t5.5 11.5q0 12 -10.5 21.5t-18.5 17.5q-11 9 -15 24t9 27q7 4 16 4.5t16 -1.5q9 -4 12.5 -12.5t4.5 -16.5l-14 -3q-1 5 -2.5 11t-6.5 11q-6 2 -11.5 0t-7.5 -10q-3 -8 4 -16t12 -14q8 -6 16 -13.5t10 -18.5q5 -14 -3 -26.5t-24 -12.5zM1018 841h16t17 2q11 5 14.5 15.5
t1.5 23.5q0 11 -2.5 19t-13.5 13q-8 4 -17 3.5t-16 -0.5v-76zM1368 263l-27 121h18l17 -88l19 88h13l-25 -121h-15zM1439 -387l-27 119h15l20 -87l16 87h17l-28 -119h-13zM1253 263v121h48v-11h-31v-41h25v-12h-25v-45h32v-12h-49zM1492 -387v119h48v-10h-31v-39h25v-13h-25
v-45h31v-12h-48zM1003 -387v119h47v-10h-30v-39h25v-13h-25v-45h30v-12h-47zM1162 -238v119h46v-12h-29v-40h25v-12h-25v-45h29v-10h-46zM853 -226q10 -5 14.5 -1t6.5 11.5t2 16.5v15q0 4 0.5 12t0.5 16t-2 14.5t-6 9.5q-11 6 -18 -2t-7 -18v-19q0 -4 -0.5 -12.5t-0.5 -17
t2 -16t8 -9.5zM1051 263v121h46v-11h-31v-41h26v-12h-26v-45h31v-12h-46zM1758 -371q10 -6 15 -2.5t7.5 10.5t2.5 16v15q0 4 0.5 12t-0.5 15.5t-3 14t-6 8.5q-12 8 -17 0t-5 -17v-18q0 -5 -1 -13t-1 -17t1.5 -16t6.5 -8zM751 -371q10 -6 15 -2.5t7 10.5t2 16v15q0 4 0.5 12
t0 15.5t-2 14t-5.5 8.5q-13 8 -18.5 0t-5.5 -17q-1 -5 -0.5 -9.5t0.5 -8.5q0 -5 -0.5 -13t-0.5 -17t1.5 -16t6.5 -8zM772 -238v119h46v-12h-28v-40h22v-12h-22v-55h-18zM903 56h16q13 0 17.5 -10t5.5 -21q1 -16 -3.5 -29.5t-16.5 -13.5h-19v74zM1712 -228q11 0 18.5 2
t9.5 15v63q-1 13 -9 15t-19 2v-97zM1033 -238v107h-22v12h61v-12h-22v-107h-17zM1689 49v45h-43v-45h43zM1452 -238v119h17v-109h30v-10h-47zM1579 263v110h-23v11h58v-11h-20v-110h-15zM903 164h15q11 0 15.5 -12t4.5 -26q0 -11 -4 -22t-15 -11h-16v71zM1258 -238v119h45
v-12h-32v-40h24v-12h-24v-55h-13zM1395 -238v119h16v-109h30v-10h-46zM1879 164h14q10 0 15 -10t5.5 -23t-2.5 -24t-9 -14h-23v71zM993 263v121h15v-109h31v-12h-46zM1528 263v121h18v-121h-18zM1326 -387v119h15v-107h32v-12h-47zM1611 789h40l-20 107zM409 -56h43v48h-43
v-48zM1217 -387v119h17v-119h-17zM1423 263v121h16v-121h-16zM1700 -387v119h15v-119h-15zM938 331h9t10 2q6 3 7 9t1 13q-1 14 -8.5 16t-18.5 2v-42zM1767 441v33h30v-33h-30zM926 -171q11 0 19 3.5t8 17.5t-8 16.5t-19 2.5v-40zM1569 -317q11 0 19 2.5t8 16.5q0 12 -8 16
t-19 4v-39zM1081 -317q11 0 18 2.5t7 16.5q0 12 -7 16t-18 4v-39zM1126 306h22l-9 55zM1269 -345h21l-10 55zM1562 -196h21l-11 54zM2140 43l8 51l7 -51h-15zM1184 -56h99v45h-56v212h-43v-257zM1343 -56v257h-44v-257h44z" />
    <glyph glyph-name="four" unicode="4" horiz-adv-x="2602" 
d="M185 201l-30 -161l-29 161h-42l-4 -257h40l1 105l20 -105h30l21 106l2 -106h37l-2 257h-44zM2334 201l-30 -161l-29 161h-42l-4 -257h40l1 105l20 -105h30l21 106l2 -106h37l-2 257h-44zM939 -56q16 0 31.5 16t15.5 51q0 17 -4.5 35.5t-20.5 29.5q14 9 17.5 26t3.5 33
q0 35 -16 50.5t-31 15.5h-75v-257h79zM1492 110q0 22 -3 46.5t-25 38.5q-12 8 -28 8.5t-30 -3.5q-17 -6 -25.5 -21t-11.5 -32q-1 -10 -1 -19.5v-19.5v-70v-19.5t1 -19.5q3 -17 11.5 -32t25.5 -21q14 -4 30 -3.5t28 8.5q22 14 25 38.5t3 46.5v74zM1704 -56h47q35 0 51 19.5
t16 61.5v96q0 40 -16.5 60t-56.5 20h-41v-257zM1330 705q-53 0 -62 52q-2 11 -2 22v22q0 24 -1 51.5t5 50.5q6 20 21.5 29.5t34.5 10.5q20 1 37.5 -7t24.5 -28q8 -22 7.5 -49.5t-0.5 -51.5q0 -14 -0.5 -27.5t-3.5 -26.5q-11 -48 -61 -48zM1269 439q-25 0 -41 12.5t-21 36.5
q-2 12 -1.5 23.5t0.5 24.5q0 23 -1 49.5t4 49.5q6 21 21 30.5t35 9.5q21 1 38 -6t24 -27q9 -23 7 -50.5t-2 -50.5q0 -16 0.5 -28.5t-2.5 -26.5q-9 -47 -61 -47zM1836 201v-257h43v111h11l23 -111h43l-29 120q18 11 24 31.5t6 39.5q0 35 -15.5 50.5t-30.5 15.5h-75zM341 78
l-44 123h-33v-257h40v126l45 -126h32v257h-40v-123zM1593 77l-44 124h-33v-257h40v126l45 -126h32v257h-40v-124zM665 40h26v-16.5t-2 -22t-7.5 -17t-16.5 -2.5q-7 2 -10 9t-4 15.5t-0.5 17t0.5 13.5v61q0 12 -0.5 27.5t2.5 28.5q3 5 8.5 8.5t11.5 2.5q13 -4 14 -16
q2 -9 1.5 -18.5t-0.5 -20.5h43q0 22 -3 47t-25 39q-12 8 -28 8.5t-30 -4.5q-17 -5 -25.5 -20t-11.5 -32q-2 -18 -1.5 -37t0.5 -38q0 -18 -0.5 -35.5t1.5 -35.5q2 -15 7.5 -30.5t19.5 -22.5q13 -9 32 -8.5t30 11.5l1 -8h34v134h-67v-38zM984 707v235q23 0 47.5 0.5
t44.5 -10.5q12 -8 19 -23.5t7 -32.5t-7 -31.5t-21 -19.5l31 -118h-31l-31 111h-25v-111h-34zM2484 78l-21 23q-7 7 -13.5 13t-9.5 17q-3 8 -0.5 21.5t15.5 12.5q7 -1 10 -7t4.5 -13.5t2 -15.5t0.5 -14l40 2q0 24 -5 48t-28 34q-14 6 -28 5t-25.5 -7t-19 -17.5t-8.5 -26.5
q-2 -15 0.5 -31t11.5 -28q3 -8 9.5 -13t12.5 -12q12 -14 26 -29.5t14 -35.5q0 -8 -1.5 -14.5t-8.5 -7.5q-6 -2 -10 1t-6 8q-6 11 -7 22.5t-2 23.5l-40 -3q0 -17 1.5 -32t8.5 -30q8 -18 25.5 -26t36.5 -4q20 4 31.5 19t13.5 32q6 48 -30 85zM557 78l-21 23q-7 7 -13.5 13
t-9.5 17q-3 8 -0.5 21.5t15.5 12.5q7 -1 10 -7t4.5 -13.5t2 -15.5t0.5 -14l40 2q0 24 -5 48t-28 34q-14 6 -28 5t-25.5 -7t-19 -17.5t-8.5 -26.5q-2 -15 0.5 -31t11.5 -28q3 -8 9.5 -13t12.5 -12q12 -14 26 -29.5t14 -35.5q0 -8 -1.5 -14.5t-8.5 -7.5q-6 -2 -10 1t-6 8
q-6 11 -7 22.5t-2 23.5l-40 -3q0 -17 1.5 -32t8.5 -30q8 -18 25.5 -26t36.5 -4q20 4 31.5 19t13.5 32q6 48 -30 85zM2128 201l-47 -257h43l10 61h28l8 -61h43l-45 257h-40zM2014 56h46v45h-46v55h56v45h-99v-257h99v45h-56v67zM729 707v235h49q18 0 33.5 -4t24.5 -22
q5 -10 7.5 -22.5t1.5 -24.5t-6 -23t-14 -18q-13 -11 -31 -11h-33v-110h-32zM1365 441v233h22l66 -156v156h29v-233h-22l-68 159v-159h-27zM1427 707v235h22l65 -156v156h28v-235h-21l-68 159v-159h-26zM1566 707l49 235h32l49 -235h-30l-12 58h-47l-11 -58h-30zM818 442
q-21 -8 -46 -1t-34 32q-5 12 -6 25.5t-1 30.5v145h31v-156q0 -13 2 -30t17 -25q13 -4 21.5 0t13 12t6.5 18.5t2 20.5q1 20 0.5 37.5t-0.5 37.5v85h33v-107q0 -15 0.5 -34t-2 -37t-11 -33t-26.5 -21zM1069 -56h99v45h-56v212h-43v-257zM1189 705q-29 0 -45.5 19.5t-17.5 47.5
l30 8q2 -11 4 -22.5t9 -18.5q8 -8 19 -9t19 6q9 8 8.5 22t-7.5 25q-6 10 -26 25q-11 10 -23.5 20.5t-20.5 22.5t-10 26.5t1 27t11.5 22.5t22.5 14q13 3 29 1.5t27 -9.5q12 -8 16 -22t5 -28l-25 -8q-2 12 -6.5 26t-19.5 18q-11 1 -20 -4.5t-11 -15.5t1 -18.5t9 -15.5
t13.5 -13t14.5 -11q15 -14 29 -28.5t19 -34.5q5 -29 -10 -51t-45 -22zM945 439q-30 0 -45 19t-17 48l31 8q1 -11 2.5 -22t8.5 -19q8 -9 19 -10t19 7q10 8 9 22t-8 23q-5 7 -11.5 14t-14.5 12q-11 11 -24 21.5t-21 23.5q-7 11 -9 24.5t1.5 26.5t11.5 23t22 14q13 3 29 2
t28 -9q11 -8 15 -22.5t5 -28.5l-25 -9q-2 14 -6.5 27.5t-19.5 16.5q-11 2 -19.5 -3.5t-10.5 -17.5q-3 -9 0 -17t9 -15t13.5 -12.5t13.5 -11.5q16 -14 29.5 -28t17.5 -36q7 -27 -8.5 -49t-44.5 -22zM741 -88h37l73 322h-41zM1026 441v233h91v-25h-58v-76h47v-24h-47v-87h58
v-21h-91zM868 707v235h90v-25h-58v-76h47v-24h-47v-87h59v-23h-91zM1046 -56v257h-44v-257h44zM1253 466q7 -4 16 -4t14 4q9 5 12.5 13.5t5.5 17.5q1 5 0.5 12t-0.5 12v83q0 10 -1 20.5t-9 18.5q-13 13 -29 8q-16 -4 -23 -22q-3 -17 -2 -37t1 -37v-42q0 -12 1.5 -26
t13.5 -21zM1667 441v48q0 9 1 18t-1 17q-2 13 -6.5 23.5t-9.5 21.5l-33 105h30l35 -112l34 112h32l-16 -48t-16 -49l-16 -48q-3 -8 -2.5 -16t0.5 -14v-58h-32zM1317 732q13 -5 29 0q10 5 12.5 13.5t3.5 16.5v109q0 10 -1 20.5t-9 17.5q-5 8 -12.5 9t-15.5 -1q-17 -1 -22 -20
q-5 -17 -3 -37.5t2 -37.5v-43q0 -12 1 -26t15 -21zM1721 707v235h32v-212h60v-23h-92zM1518 441v233h32v-212h59v-21h-91zM760 -388q-15 0 -22 6.5t-9.5 16t-2.5 21v20.5q0 11 0.5 22t4 19t11 12.5t21.5 3.5q12 -1 18.5 -7t9 -15t2.5 -19.5v-19.5v-19.5t-3 -19.5t-10 -15
t-20 -6zM861 -240q-14 0 -21 6.5t-9.5 16.5t-2.5 21.5v21.5t0.5 20.5t4 18.5t10.5 13t21 4q12 -1 18 -7t9 -15t3 -19.5v-19.5t-0.5 -20t-3.5 -20t-9.5 -15t-19.5 -6zM1766 -388q-14 0 -21 6.5t-9.5 16t-2.5 21v20.5q0 11 0.5 22t4 19t11 12.5t21.5 3.5q13 -1 18.5 -7
t7.5 -15t1.5 -19.5t-0.5 -19.5v-19.5t-2.5 -19.5t-9 -15t-19.5 -6zM1696 -238v119q11 0 26 0.5t26 -8.5t10 -24.5t-1 -27.5t0.5 -28.5t-13.5 -24.5q-9 -8 -23 -7t-25 1zM1449 36q0 -11 0.5 -20.5t-1.5 -17.5q-1 -12 -14 -16q-6 -1 -11.5 2t-8.5 8q-3 11 -2.5 25.5t0.5 25.5
v60q0 11 -0.5 25.5t2.5 25.5q3 5 8.5 8t11.5 2q13 -4 14 -16q2 -8 1.5 -17.5t-0.5 -20.5v-74zM808 -387l2 119h18l21 -95l20 95h16l2 -119h-13l-1 88l-20 -88h-11l-19 88l-1 -88h-14zM1062 -387v119q12 0 24 1t22 -4q7 -4 10.5 -12t3.5 -17t-4 -16.5t-11 -10.5l17 -60h-16
l-14 57h-13v-57h-19zM905 -387l2 119h17l21 -95l21 95h17l1 -119h-11l-2 88l-21 -88h-11l-18 88l-2 -88h-14zM910 -238v119q11 0 22.5 1t21.5 -4q7 -4 11 -12.5t4.5 -17.5t-3 -16.5t-12.5 -10.5l18 -59h-17l-17 55h-12v-55h-16zM1552 -387v119q11 0 23 1t23 -4q6 -4 10 -12
t4 -17t-3.5 -16.5t-10.5 -10.5l15 -60h-15l-15 57h-14v-57h-17zM1759 156q6 0 9 -5t4 -10q2 -8 1.5 -17.5t-0.5 -18.5v-70q0 -10 0.5 -19t-1.5 -17q-1 -11 -13 -15h-13v172h13zM922 263v121h30t26 -12q4 -11 3 -25t-9 -21q-8 -6 -16.5 -6.5t-17.5 -0.5v-56h-16zM1080 -238
v119h15v-52h31v52h18v-119h-18v55h-31v-55h-15zM1618 -238v119h10l35 -79v79h13v-119h-10l-34 80v-80h-14zM1105 263l26 121h16l26 -121h-18l-5 32h-25l-5 -32h-15zM1817 -387v119h10l35 -79v79h13v-119h-11l-35 82v-82h-12zM1540 -238l23 119h18l25 -119h-16l-6 30h-24
l-7 -30h-13zM1246 -387l25 119h17l25 -119h-15l-5 31h-26l-5 -31h-16zM1776 491l-9 183h30l-10 -183h-11zM761 841q8 0 16 -0.5t18 1.5q12 3 15.5 12.5t3.5 20.5q1 13 -2 25t-17 16q-10 2 -18 1.5t-16 -0.5v-76zM1359 -238q-17 -5 -29.5 2.5t-16.5 24.5q-2 8 -1 15t1 13v64
h15v-53q0 -5 -0.5 -14.5t0.5 -18.5t4.5 -16t11.5 -7t12 7t5.5 16t1 18.5t-0.5 14.5v53h14v-54q0 -8 0.5 -17.5t-0.5 -19t-4.5 -17.5t-12.5 -11zM682 -388q-15 0 -22 9t-9 21.5t-1.5 27t0.5 25.5q0 16 8.5 28t28.5 10q18 -2 22 -14.5t4 -26.5h-16q0 5 0.5 10.5t-2.5 10.5
q-2 8 -11 9t-13 -7q-6 -6 -4.5 -20t1.5 -23q0 -7 -1.5 -20t5.5 -21q3 -7 12 -5.5t11 9.5q3 5 2.5 11t-0.5 11h16q0 -15 -5 -30t-26 -15zM1169 -388q-16 0 -22.5 9t-8 21.5t-0.5 27t1 25.5q0 16 7.5 28t27.5 10q19 -2 23 -14.5t4 -26.5h-18q0 5 1 10.5t-2 10.5q-2 8 -10.5 9
t-13.5 -7q-6 -6 -5 -20t1 -23q0 -7 -1 -20t6 -21q4 -7 12.5 -5.5t10.5 9.5q3 5 2 11t-1 11h18q0 -15 -5 -30t-27 -15zM1486 262q-16 0 -23 10t-8 25l16 5q0 -6 2.5 -14t8.5 -12q8 -2 12.5 2.5t4.5 11.5q1 12 -9.5 21.5t-18.5 17.5q-11 9 -15.5 24t8.5 27q17 8 33 3
q8 -4 11.5 -12.5t4.5 -16.5l-14 -3q-1 5 -2.5 11t-6.5 11q-5 2 -10.5 0t-6.5 -10q-6 -8 2 -16l14 -14q7 -6 14.5 -13.5t9.5 -18.5q5 -14 -2.5 -26.5t-24.5 -12.5zM1658 -388q-16 0 -23.5 10.5t-9.5 24.5l16 4q0 -6 2 -13.5t8 -9.5q9 -5 14 -0.5t5 11.5q0 12 -10.5 21.5
t-18.5 15.5q-11 11 -15 26.5t10 25.5q7 5 16.5 6t15.5 -3q8 -2 11.5 -10.5t4.5 -16.5l-14 -5l-2 12t-6 11q-16 4 -20 -9q-4 -9 3.5 -16t14.5 -13q7 -8 14.5 -15.5t9.5 -18.5q5 -14 -3 -26t-23 -12zM1212 262q-14 0 -22.5 10t-9.5 25l16 5q0 -6 2 -14t8 -12q8 -2 13.5 2.5
t5.5 11.5q0 12 -10.5 21.5t-18.5 17.5q-11 9 -15 24t9 27q7 4 16 4.5t16 -1.5q9 -4 12.5 -12.5t4.5 -16.5l-14 -3q-1 5 -2.5 11t-6.5 11q-6 2 -11.5 0t-7.5 -10q-3 -8 4 -16t12 -14q8 -6 16 -13.5t10 -18.5q5 -14 -3 -26.5t-24 -12.5zM1018 841h16t17 2q11 5 14.5 15.5
t1.5 23.5q0 11 -2.5 19t-13.5 13q-8 4 -17 3.5t-16 -0.5v-76zM1368 263l-27 121h18l17 -88l19 88h13l-25 -121h-15zM1439 -387l-27 119h15l20 -87l16 87h17l-28 -119h-13zM1253 263v121h48v-11h-31v-41h25v-12h-25v-45h32v-12h-49zM1492 -387v119h48v-10h-31v-39h25v-13h-25
v-45h31v-12h-48zM1003 -387v119h47v-10h-30v-39h25v-13h-25v-45h30v-12h-47zM1162 -238v119h46v-12h-29v-40h25v-12h-25v-45h29v-10h-46zM853 -226q10 -5 14.5 -1t6.5 11.5t2 16.5v15q0 4 0.5 12t0.5 16t-2 14.5t-6 9.5q-11 6 -18 -2t-7 -18v-19q0 -4 -0.5 -12.5t-0.5 -17
t2 -16t8 -9.5zM1051 263v121h46v-11h-31v-41h26v-12h-26v-45h31v-12h-46zM1758 -371q10 -6 15 -2.5t7.5 10.5t2.5 16v15q0 4 0.5 12t-0.5 15.5t-3 14t-6 8.5q-12 8 -17 0t-5 -17v-18q0 -5 -1 -13t-1 -17t1.5 -16t6.5 -8zM751 -371q10 -6 15 -2.5t7 10.5t2 16v15q0 4 0.5 12
t0 15.5t-2 14t-5.5 8.5q-13 8 -18.5 0t-5.5 -17q-1 -5 -0.5 -9.5t0.5 -8.5q0 -5 -0.5 -13t-0.5 -17t1.5 -16t6.5 -8zM772 -238v119h46v-12h-28v-40h22v-12h-22v-55h-18zM903 56h16q13 0 17.5 -10t5.5 -21q1 -16 -3.5 -29.5t-16.5 -13.5h-19v74zM1712 -228q11 0 18.5 2
t9.5 15v63q-1 13 -9 15t-19 2v-97zM1033 -238v107h-22v12h61v-12h-22v-107h-17zM1689 49v45h-43v-45h43zM1452 -238v119h17v-109h30v-10h-47zM1579 263v110h-23v11h58v-11h-20v-110h-15zM903 164h15q11 0 15.5 -12t4.5 -26q0 -11 -4 -22t-15 -11h-16v71zM1258 -238v119h45
v-12h-32v-40h24v-12h-24v-55h-13zM1395 -238v119h16v-109h30v-10h-46zM1879 164h14q10 0 15 -10t5.5 -23t-2.5 -24t-9 -14h-23v71zM993 263v121h15v-109h31v-12h-46zM1528 263v121h18v-121h-18zM1326 -387v119h15v-107h32v-12h-47zM1611 789h40l-20 107zM409 -56h43v48h-43
v-48zM1217 -387v119h17v-119h-17zM1423 263v121h16v-121h-16zM1700 -387v119h15v-119h-15zM938 331h9t10 2q6 3 7 9t1 13q-1 14 -8.5 16t-18.5 2v-42zM1767 441v33h30v-33h-30zM926 -171q11 0 19 3.5t8 17.5t-8 16.5t-19 2.5v-40zM1569 -317q11 0 19 2.5t8 16.5q0 12 -8 16
t-19 4v-39zM1081 -317q11 0 18 2.5t7 16.5q0 12 -7 16t-18 4v-39zM1126 306h22l-9 55zM1269 -345h21l-10 55zM1562 -196h21l-11 54zM2140 43l8 51l7 -51h-15zM1184 -56h99v45h-56v212h-43v-257zM1343 -56v257h-44v-257h44z" />
    <glyph glyph-name="five" unicode="5" horiz-adv-x="2602" 
d="M185 201l-30 -161l-29 161h-42l-4 -257h40l1 105l20 -105h30l21 106l2 -106h37l-2 257h-44zM2334 201l-30 -161l-29 161h-42l-4 -257h40l1 105l20 -105h30l21 106l2 -106h37l-2 257h-44zM939 -56q16 0 31.5 16t15.5 51q0 17 -4.5 35.5t-20.5 29.5q14 9 17.5 26t3.5 33
q0 35 -16 50.5t-31 15.5h-75v-257h79zM1492 110q0 22 -3 46.5t-25 38.5q-12 8 -28 8.5t-30 -3.5q-17 -6 -25.5 -21t-11.5 -32q-1 -10 -1 -19.5v-19.5v-70v-19.5t1 -19.5q3 -17 11.5 -32t25.5 -21q14 -4 30 -3.5t28 8.5q22 14 25 38.5t3 46.5v74zM1704 -56h47q35 0 51 19.5
t16 61.5v96q0 40 -16.5 60t-56.5 20h-41v-257zM1330 705q-53 0 -62 52q-2 11 -2 22v22q0 24 -1 51.5t5 50.5q6 20 21.5 29.5t34.5 10.5q20 1 37.5 -7t24.5 -28q8 -22 7.5 -49.5t-0.5 -51.5q0 -14 -0.5 -27.5t-3.5 -26.5q-11 -48 -61 -48zM1269 439q-25 0 -41 12.5t-21 36.5
q-2 12 -1.5 23.5t0.5 24.5q0 23 -1 49.5t4 49.5q6 21 21 30.5t35 9.5q21 1 38 -6t24 -27q9 -23 7 -50.5t-2 -50.5q0 -16 0.5 -28.5t-2.5 -26.5q-9 -47 -61 -47zM1836 201v-257h43v111h11l23 -111h43l-29 120q18 11 24 31.5t6 39.5q0 35 -15.5 50.5t-30.5 15.5h-75zM341 78
l-44 123h-33v-257h40v126l45 -126h32v257h-40v-123zM1593 77l-44 124h-33v-257h40v126l45 -126h32v257h-40v-124zM665 40h26v-16.5t-2 -22t-7.5 -17t-16.5 -2.5q-7 2 -10 9t-4 15.5t-0.5 17t0.5 13.5v61q0 12 -0.5 27.5t2.5 28.5q3 5 8.5 8.5t11.5 2.5q13 -4 14 -16
q2 -9 1.5 -18.5t-0.5 -20.5h43q0 22 -3 47t-25 39q-12 8 -28 8.5t-30 -4.5q-17 -5 -25.5 -20t-11.5 -32q-2 -18 -1.5 -37t0.5 -38q0 -18 -0.5 -35.5t1.5 -35.5q2 -15 7.5 -30.5t19.5 -22.5q13 -9 32 -8.5t30 11.5l1 -8h34v134h-67v-38zM984 707v235q23 0 47.5 0.5
t44.5 -10.5q12 -8 19 -23.5t7 -32.5t-7 -31.5t-21 -19.5l31 -118h-31l-31 111h-25v-111h-34zM2484 78l-21 23q-7 7 -13.5 13t-9.5 17q-3 8 -0.5 21.5t15.5 12.5q7 -1 10 -7t4.5 -13.5t2 -15.5t0.5 -14l40 2q0 24 -5 48t-28 34q-14 6 -28 5t-25.5 -7t-19 -17.5t-8.5 -26.5
q-2 -15 0.5 -31t11.5 -28q3 -8 9.5 -13t12.5 -12q12 -14 26 -29.5t14 -35.5q0 -8 -1.5 -14.5t-8.5 -7.5q-6 -2 -10 1t-6 8q-6 11 -7 22.5t-2 23.5l-40 -3q0 -17 1.5 -32t8.5 -30q8 -18 25.5 -26t36.5 -4q20 4 31.5 19t13.5 32q6 48 -30 85zM557 78l-21 23q-7 7 -13.5 13
t-9.5 17q-3 8 -0.5 21.5t15.5 12.5q7 -1 10 -7t4.5 -13.5t2 -15.5t0.5 -14l40 2q0 24 -5 48t-28 34q-14 6 -28 5t-25.5 -7t-19 -17.5t-8.5 -26.5q-2 -15 0.5 -31t11.5 -28q3 -8 9.5 -13t12.5 -12q12 -14 26 -29.5t14 -35.5q0 -8 -1.5 -14.5t-8.5 -7.5q-6 -2 -10 1t-6 8
q-6 11 -7 22.5t-2 23.5l-40 -3q0 -17 1.5 -32t8.5 -30q8 -18 25.5 -26t36.5 -4q20 4 31.5 19t13.5 32q6 48 -30 85zM2128 201l-47 -257h43l10 61h28l8 -61h43l-45 257h-40zM2014 56h46v45h-46v55h56v45h-99v-257h99v45h-56v67zM729 707v235h49q18 0 33.5 -4t24.5 -22
q5 -10 7.5 -22.5t1.5 -24.5t-6 -23t-14 -18q-13 -11 -31 -11h-33v-110h-32zM1365 441v233h22l66 -156v156h29v-233h-22l-68 159v-159h-27zM1427 707v235h22l65 -156v156h28v-235h-21l-68 159v-159h-26zM1566 707l49 235h32l49 -235h-30l-12 58h-47l-11 -58h-30zM818 442
q-21 -8 -46 -1t-34 32q-5 12 -6 25.5t-1 30.5v145h31v-156q0 -13 2 -30t17 -25q13 -4 21.5 0t13 12t6.5 18.5t2 20.5q1 20 0.5 37.5t-0.5 37.5v85h33v-107q0 -15 0.5 -34t-2 -37t-11 -33t-26.5 -21zM1069 -56h99v45h-56v212h-43v-257zM1189 705q-29 0 -45.5 19.5t-17.5 47.5
l30 8q2 -11 4 -22.5t9 -18.5q8 -8 19 -9t19 6q9 8 8.5 22t-7.5 25q-6 10 -26 25q-11 10 -23.5 20.5t-20.5 22.5t-10 26.5t1 27t11.5 22.5t22.5 14q13 3 29 1.5t27 -9.5q12 -8 16 -22t5 -28l-25 -8q-2 12 -6.5 26t-19.5 18q-11 1 -20 -4.5t-11 -15.5t1 -18.5t9 -15.5
t13.5 -13t14.5 -11q15 -14 29 -28.5t19 -34.5q5 -29 -10 -51t-45 -22zM945 439q-30 0 -45 19t-17 48l31 8q1 -11 2.5 -22t8.5 -19q8 -9 19 -10t19 7q10 8 9 22t-8 23q-5 7 -11.5 14t-14.5 12q-11 11 -24 21.5t-21 23.5q-7 11 -9 24.5t1.5 26.5t11.5 23t22 14q13 3 29 2
t28 -9q11 -8 15 -22.5t5 -28.5l-25 -9q-2 14 -6.5 27.5t-19.5 16.5q-11 2 -19.5 -3.5t-10.5 -17.5q-3 -9 0 -17t9 -15t13.5 -12.5t13.5 -11.5q16 -14 29.5 -28t17.5 -36q7 -27 -8.5 -49t-44.5 -22zM741 -88h37l73 322h-41zM1026 441v233h91v-25h-58v-76h47v-24h-47v-87h58
v-21h-91zM868 707v235h90v-25h-58v-76h47v-24h-47v-87h59v-23h-91zM1046 -56v257h-44v-257h44zM1253 466q7 -4 16 -4t14 4q9 5 12.5 13.5t5.5 17.5q1 5 0.5 12t-0.5 12v83q0 10 -1 20.5t-9 18.5q-13 13 -29 8q-16 -4 -23 -22q-3 -17 -2 -37t1 -37v-42q0 -12 1.5 -26
t13.5 -21zM1667 441v48q0 9 1 18t-1 17q-2 13 -6.5 23.5t-9.5 21.5l-33 105h30l35 -112l34 112h32l-16 -48t-16 -49l-16 -48q-3 -8 -2.5 -16t0.5 -14v-58h-32zM1317 732q13 -5 29 0q10 5 12.5 13.5t3.5 16.5v109q0 10 -1 20.5t-9 17.5q-5 8 -12.5 9t-15.5 -1q-17 -1 -22 -20
q-5 -17 -3 -37.5t2 -37.5v-43q0 -12 1 -26t15 -21zM1721 707v235h32v-212h60v-23h-92zM1518 441v233h32v-212h59v-21h-91zM760 -388q-15 0 -22 6.5t-9.5 16t-2.5 21v20.5q0 11 0.5 22t4 19t11 12.5t21.5 3.5q12 -1 18.5 -7t9 -15t2.5 -19.5v-19.5v-19.5t-3 -19.5t-10 -15
t-20 -6zM861 -240q-14 0 -21 6.5t-9.5 16.5t-2.5 21.5v21.5t0.5 20.5t4 18.5t10.5 13t21 4q12 -1 18 -7t9 -15t3 -19.5v-19.5t-0.5 -20t-3.5 -20t-9.5 -15t-19.5 -6zM1766 -388q-14 0 -21 6.5t-9.5 16t-2.5 21v20.5q0 11 0.5 22t4 19t11 12.5t21.5 3.5q13 -1 18.5 -7
t7.5 -15t1.5 -19.5t-0.5 -19.5v-19.5t-2.5 -19.5t-9 -15t-19.5 -6zM1696 -238v119q11 0 26 0.5t26 -8.5t10 -24.5t-1 -27.5t0.5 -28.5t-13.5 -24.5q-9 -8 -23 -7t-25 1zM1449 36q0 -11 0.5 -20.5t-1.5 -17.5q-1 -12 -14 -16q-6 -1 -11.5 2t-8.5 8q-3 11 -2.5 25.5t0.5 25.5
v60q0 11 -0.5 25.5t2.5 25.5q3 5 8.5 8t11.5 2q13 -4 14 -16q2 -8 1.5 -17.5t-0.5 -20.5v-74zM808 -387l2 119h18l21 -95l20 95h16l2 -119h-13l-1 88l-20 -88h-11l-19 88l-1 -88h-14zM1062 -387v119q12 0 24 1t22 -4q7 -4 10.5 -12t3.5 -17t-4 -16.5t-11 -10.5l17 -60h-16
l-14 57h-13v-57h-19zM905 -387l2 119h17l21 -95l21 95h17l1 -119h-11l-2 88l-21 -88h-11l-18 88l-2 -88h-14zM910 -238v119q11 0 22.5 1t21.5 -4q7 -4 11 -12.5t4.5 -17.5t-3 -16.5t-12.5 -10.5l18 -59h-17l-17 55h-12v-55h-16zM1552 -387v119q11 0 23 1t23 -4q6 -4 10 -12
t4 -17t-3.5 -16.5t-10.5 -10.5l15 -60h-15l-15 57h-14v-57h-17zM1759 156q6 0 9 -5t4 -10q2 -8 1.5 -17.5t-0.5 -18.5v-70q0 -10 0.5 -19t-1.5 -17q-1 -11 -13 -15h-13v172h13zM922 263v121h30t26 -12q4 -11 3 -25t-9 -21q-8 -6 -16.5 -6.5t-17.5 -0.5v-56h-16zM1080 -238
v119h15v-52h31v52h18v-119h-18v55h-31v-55h-15zM1618 -238v119h10l35 -79v79h13v-119h-10l-34 80v-80h-14zM1105 263l26 121h16l26 -121h-18l-5 32h-25l-5 -32h-15zM1817 -387v119h10l35 -79v79h13v-119h-11l-35 82v-82h-12zM1540 -238l23 119h18l25 -119h-16l-6 30h-24
l-7 -30h-13zM1246 -387l25 119h17l25 -119h-15l-5 31h-26l-5 -31h-16zM1776 491l-9 183h30l-10 -183h-11zM761 841q8 0 16 -0.5t18 1.5q12 3 15.5 12.5t3.5 20.5q1 13 -2 25t-17 16q-10 2 -18 1.5t-16 -0.5v-76zM1359 -238q-17 -5 -29.5 2.5t-16.5 24.5q-2 8 -1 15t1 13v64
h15v-53q0 -5 -0.5 -14.5t0.5 -18.5t4.5 -16t11.5 -7t12 7t5.5 16t1 18.5t-0.5 14.5v53h14v-54q0 -8 0.5 -17.5t-0.5 -19t-4.5 -17.5t-12.5 -11zM682 -388q-15 0 -22 9t-9 21.5t-1.5 27t0.5 25.5q0 16 8.5 28t28.5 10q18 -2 22 -14.5t4 -26.5h-16q0 5 0.5 10.5t-2.5 10.5
q-2 8 -11 9t-13 -7q-6 -6 -4.5 -20t1.5 -23q0 -7 -1.5 -20t5.5 -21q3 -7 12 -5.5t11 9.5q3 5 2.5 11t-0.5 11h16q0 -15 -5 -30t-26 -15zM1169 -388q-16 0 -22.5 9t-8 21.5t-0.5 27t1 25.5q0 16 7.5 28t27.5 10q19 -2 23 -14.5t4 -26.5h-18q0 5 1 10.5t-2 10.5q-2 8 -10.5 9
t-13.5 -7q-6 -6 -5 -20t1 -23q0 -7 -1 -20t6 -21q4 -7 12.5 -5.5t10.5 9.5q3 5 2 11t-1 11h18q0 -15 -5 -30t-27 -15zM1486 262q-16 0 -23 10t-8 25l16 5q0 -6 2.5 -14t8.5 -12q8 -2 12.5 2.5t4.5 11.5q1 12 -9.5 21.5t-18.5 17.5q-11 9 -15.5 24t8.5 27q17 8 33 3
q8 -4 11.5 -12.5t4.5 -16.5l-14 -3q-1 5 -2.5 11t-6.5 11q-5 2 -10.5 0t-6.5 -10q-6 -8 2 -16l14 -14q7 -6 14.5 -13.5t9.5 -18.5q5 -14 -2.5 -26.5t-24.5 -12.5zM1658 -388q-16 0 -23.5 10.5t-9.5 24.5l16 4q0 -6 2 -13.5t8 -9.5q9 -5 14 -0.5t5 11.5q0 12 -10.5 21.5
t-18.5 15.5q-11 11 -15 26.5t10 25.5q7 5 16.5 6t15.5 -3q8 -2 11.5 -10.5t4.5 -16.5l-14 -5l-2 12t-6 11q-16 4 -20 -9q-4 -9 3.5 -16t14.5 -13q7 -8 14.5 -15.5t9.5 -18.5q5 -14 -3 -26t-23 -12zM1212 262q-14 0 -22.5 10t-9.5 25l16 5q0 -6 2 -14t8 -12q8 -2 13.5 2.5
t5.5 11.5q0 12 -10.5 21.5t-18.5 17.5q-11 9 -15 24t9 27q7 4 16 4.5t16 -1.5q9 -4 12.5 -12.5t4.5 -16.5l-14 -3q-1 5 -2.5 11t-6.5 11q-6 2 -11.5 0t-7.5 -10q-3 -8 4 -16t12 -14q8 -6 16 -13.5t10 -18.5q5 -14 -3 -26.5t-24 -12.5zM1018 841h16t17 2q11 5 14.5 15.5
t1.5 23.5q0 11 -2.5 19t-13.5 13q-8 4 -17 3.5t-16 -0.5v-76zM1368 263l-27 121h18l17 -88l19 88h13l-25 -121h-15zM1439 -387l-27 119h15l20 -87l16 87h17l-28 -119h-13zM1253 263v121h48v-11h-31v-41h25v-12h-25v-45h32v-12h-49zM1492 -387v119h48v-10h-31v-39h25v-13h-25
v-45h31v-12h-48zM1003 -387v119h47v-10h-30v-39h25v-13h-25v-45h30v-12h-47zM1162 -238v119h46v-12h-29v-40h25v-12h-25v-45h29v-10h-46zM853 -226q10 -5 14.5 -1t6.5 11.5t2 16.5v15q0 4 0.5 12t0.5 16t-2 14.5t-6 9.5q-11 6 -18 -2t-7 -18v-19q0 -4 -0.5 -12.5t-0.5 -17
t2 -16t8 -9.5zM1051 263v121h46v-11h-31v-41h26v-12h-26v-45h31v-12h-46zM1758 -371q10 -6 15 -2.5t7.5 10.5t2.5 16v15q0 4 0.5 12t-0.5 15.5t-3 14t-6 8.5q-12 8 -17 0t-5 -17v-18q0 -5 -1 -13t-1 -17t1.5 -16t6.5 -8zM751 -371q10 -6 15 -2.5t7 10.5t2 16v15q0 4 0.5 12
t0 15.5t-2 14t-5.5 8.5q-13 8 -18.5 0t-5.5 -17q-1 -5 -0.5 -9.5t0.5 -8.5q0 -5 -0.5 -13t-0.5 -17t1.5 -16t6.5 -8zM772 -238v119h46v-12h-28v-40h22v-12h-22v-55h-18zM903 56h16q13 0 17.5 -10t5.5 -21q1 -16 -3.5 -29.5t-16.5 -13.5h-19v74zM1712 -228q11 0 18.5 2
t9.5 15v63q-1 13 -9 15t-19 2v-97zM1033 -238v107h-22v12h61v-12h-22v-107h-17zM1689 49v45h-43v-45h43zM1452 -238v119h17v-109h30v-10h-47zM1579 263v110h-23v11h58v-11h-20v-110h-15zM903 164h15q11 0 15.5 -12t4.5 -26q0 -11 -4 -22t-15 -11h-16v71zM1258 -238v119h45
v-12h-32v-40h24v-12h-24v-55h-13zM1395 -238v119h16v-109h30v-10h-46zM1879 164h14q10 0 15 -10t5.5 -23t-2.5 -24t-9 -14h-23v71zM993 263v121h15v-109h31v-12h-46zM1528 263v121h18v-121h-18zM1326 -387v119h15v-107h32v-12h-47zM1611 789h40l-20 107zM409 -56h43v48h-43
v-48zM1217 -387v119h17v-119h-17zM1423 263v121h16v-121h-16zM1700 -387v119h15v-119h-15zM938 331h9t10 2q6 3 7 9t1 13q-1 14 -8.5 16t-18.5 2v-42zM1767 441v33h30v-33h-30zM926 -171q11 0 19 3.5t8 17.5t-8 16.5t-19 2.5v-40zM1569 -317q11 0 19 2.5t8 16.5q0 12 -8 16
t-19 4v-39zM1081 -317q11 0 18 2.5t7 16.5q0 12 -7 16t-18 4v-39zM1126 306h22l-9 55zM1269 -345h21l-10 55zM1562 -196h21l-11 54zM2140 43l8 51l7 -51h-15zM1184 -56h99v45h-56v212h-43v-257zM1343 -56v257h-44v-257h44z" />
    <glyph glyph-name="six" unicode="6" horiz-adv-x="2602" 
d="M185 201l-30 -161l-29 161h-42l-4 -257h40l1 105l20 -105h30l21 106l2 -106h37l-2 257h-44zM2334 201l-30 -161l-29 161h-42l-4 -257h40l1 105l20 -105h30l21 106l2 -106h37l-2 257h-44zM939 -56q16 0 31.5 16t15.5 51q0 17 -4.5 35.5t-20.5 29.5q14 9 17.5 26t3.5 33
q0 35 -16 50.5t-31 15.5h-75v-257h79zM1492 110q0 22 -3 46.5t-25 38.5q-12 8 -28 8.5t-30 -3.5q-17 -6 -25.5 -21t-11.5 -32q-1 -10 -1 -19.5v-19.5v-70v-19.5t1 -19.5q3 -17 11.5 -32t25.5 -21q14 -4 30 -3.5t28 8.5q22 14 25 38.5t3 46.5v74zM1704 -56h47q35 0 51 19.5
t16 61.5v96q0 40 -16.5 60t-56.5 20h-41v-257zM1330 705q-53 0 -62 52q-2 11 -2 22v22q0 24 -1 51.5t5 50.5q6 20 21.5 29.5t34.5 10.5q20 1 37.5 -7t24.5 -28q8 -22 7.5 -49.5t-0.5 -51.5q0 -14 -0.5 -27.5t-3.5 -26.5q-11 -48 -61 -48zM1269 439q-25 0 -41 12.5t-21 36.5
q-2 12 -1.5 23.5t0.5 24.5q0 23 -1 49.5t4 49.5q6 21 21 30.5t35 9.5q21 1 38 -6t24 -27q9 -23 7 -50.5t-2 -50.5q0 -16 0.5 -28.5t-2.5 -26.5q-9 -47 -61 -47zM1836 201v-257h43v111h11l23 -111h43l-29 120q18 11 24 31.5t6 39.5q0 35 -15.5 50.5t-30.5 15.5h-75zM341 78
l-44 123h-33v-257h40v126l45 -126h32v257h-40v-123zM1593 77l-44 124h-33v-257h40v126l45 -126h32v257h-40v-124zM665 40h26v-16.5t-2 -22t-7.5 -17t-16.5 -2.5q-7 2 -10 9t-4 15.5t-0.5 17t0.5 13.5v61q0 12 -0.5 27.5t2.5 28.5q3 5 8.5 8.5t11.5 2.5q13 -4 14 -16
q2 -9 1.5 -18.5t-0.5 -20.5h43q0 22 -3 47t-25 39q-12 8 -28 8.5t-30 -4.5q-17 -5 -25.5 -20t-11.5 -32q-2 -18 -1.5 -37t0.5 -38q0 -18 -0.5 -35.5t1.5 -35.5q2 -15 7.5 -30.5t19.5 -22.5q13 -9 32 -8.5t30 11.5l1 -8h34v134h-67v-38zM984 707v235q23 0 47.5 0.5
t44.5 -10.5q12 -8 19 -23.5t7 -32.5t-7 -31.5t-21 -19.5l31 -118h-31l-31 111h-25v-111h-34zM2484 78l-21 23q-7 7 -13.5 13t-9.5 17q-3 8 -0.5 21.5t15.5 12.5q7 -1 10 -7t4.5 -13.5t2 -15.5t0.5 -14l40 2q0 24 -5 48t-28 34q-14 6 -28 5t-25.5 -7t-19 -17.5t-8.5 -26.5
q-2 -15 0.5 -31t11.5 -28q3 -8 9.5 -13t12.5 -12q12 -14 26 -29.5t14 -35.5q0 -8 -1.5 -14.5t-8.5 -7.5q-6 -2 -10 1t-6 8q-6 11 -7 22.5t-2 23.5l-40 -3q0 -17 1.5 -32t8.5 -30q8 -18 25.5 -26t36.5 -4q20 4 31.5 19t13.5 32q6 48 -30 85zM557 78l-21 23q-7 7 -13.5 13
t-9.5 17q-3 8 -0.5 21.5t15.5 12.5q7 -1 10 -7t4.5 -13.5t2 -15.5t0.5 -14l40 2q0 24 -5 48t-28 34q-14 6 -28 5t-25.5 -7t-19 -17.5t-8.5 -26.5q-2 -15 0.5 -31t11.5 -28q3 -8 9.5 -13t12.5 -12q12 -14 26 -29.5t14 -35.5q0 -8 -1.5 -14.5t-8.5 -7.5q-6 -2 -10 1t-6 8
q-6 11 -7 22.5t-2 23.5l-40 -3q0 -17 1.5 -32t8.5 -30q8 -18 25.5 -26t36.5 -4q20 4 31.5 19t13.5 32q6 48 -30 85zM2128 201l-47 -257h43l10 61h28l8 -61h43l-45 257h-40zM2014 56h46v45h-46v55h56v45h-99v-257h99v45h-56v67zM729 707v235h49q18 0 33.5 -4t24.5 -22
q5 -10 7.5 -22.5t1.5 -24.5t-6 -23t-14 -18q-13 -11 -31 -11h-33v-110h-32zM1365 441v233h22l66 -156v156h29v-233h-22l-68 159v-159h-27zM1427 707v235h22l65 -156v156h28v-235h-21l-68 159v-159h-26zM1566 707l49 235h32l49 -235h-30l-12 58h-47l-11 -58h-30zM818 442
q-21 -8 -46 -1t-34 32q-5 12 -6 25.5t-1 30.5v145h31v-156q0 -13 2 -30t17 -25q13 -4 21.5 0t13 12t6.5 18.5t2 20.5q1 20 0.5 37.5t-0.5 37.5v85h33v-107q0 -15 0.5 -34t-2 -37t-11 -33t-26.5 -21zM1069 -56h99v45h-56v212h-43v-257zM1189 705q-29 0 -45.5 19.5t-17.5 47.5
l30 8q2 -11 4 -22.5t9 -18.5q8 -8 19 -9t19 6q9 8 8.5 22t-7.5 25q-6 10 -26 25q-11 10 -23.5 20.5t-20.5 22.5t-10 26.5t1 27t11.5 22.5t22.5 14q13 3 29 1.5t27 -9.5q12 -8 16 -22t5 -28l-25 -8q-2 12 -6.5 26t-19.5 18q-11 1 -20 -4.5t-11 -15.5t1 -18.5t9 -15.5
t13.5 -13t14.5 -11q15 -14 29 -28.5t19 -34.5q5 -29 -10 -51t-45 -22zM945 439q-30 0 -45 19t-17 48l31 8q1 -11 2.5 -22t8.5 -19q8 -9 19 -10t19 7q10 8 9 22t-8 23q-5 7 -11.5 14t-14.5 12q-11 11 -24 21.5t-21 23.5q-7 11 -9 24.5t1.5 26.5t11.5 23t22 14q13 3 29 2
t28 -9q11 -8 15 -22.5t5 -28.5l-25 -9q-2 14 -6.5 27.5t-19.5 16.5q-11 2 -19.5 -3.5t-10.5 -17.5q-3 -9 0 -17t9 -15t13.5 -12.5t13.5 -11.5q16 -14 29.5 -28t17.5 -36q7 -27 -8.5 -49t-44.5 -22zM741 -88h37l73 322h-41zM1026 441v233h91v-25h-58v-76h47v-24h-47v-87h58
v-21h-91zM868 707v235h90v-25h-58v-76h47v-24h-47v-87h59v-23h-91zM1046 -56v257h-44v-257h44zM1253 466q7 -4 16 -4t14 4q9 5 12.5 13.5t5.5 17.5q1 5 0.5 12t-0.5 12v83q0 10 -1 20.5t-9 18.5q-13 13 -29 8q-16 -4 -23 -22q-3 -17 -2 -37t1 -37v-42q0 -12 1.5 -26
t13.5 -21zM1667 441v48q0 9 1 18t-1 17q-2 13 -6.5 23.5t-9.5 21.5l-33 105h30l35 -112l34 112h32l-16 -48t-16 -49l-16 -48q-3 -8 -2.5 -16t0.5 -14v-58h-32zM1317 732q13 -5 29 0q10 5 12.5 13.5t3.5 16.5v109q0 10 -1 20.5t-9 17.5q-5 8 -12.5 9t-15.5 -1q-17 -1 -22 -20
q-5 -17 -3 -37.5t2 -37.5v-43q0 -12 1 -26t15 -21zM1721 707v235h32v-212h60v-23h-92zM1518 441v233h32v-212h59v-21h-91zM760 -388q-15 0 -22 6.5t-9.5 16t-2.5 21v20.5q0 11 0.5 22t4 19t11 12.5t21.5 3.5q12 -1 18.5 -7t9 -15t2.5 -19.5v-19.5v-19.5t-3 -19.5t-10 -15
t-20 -6zM861 -240q-14 0 -21 6.5t-9.5 16.5t-2.5 21.5v21.5t0.5 20.5t4 18.5t10.5 13t21 4q12 -1 18 -7t9 -15t3 -19.5v-19.5t-0.5 -20t-3.5 -20t-9.5 -15t-19.5 -6zM1766 -388q-14 0 -21 6.5t-9.5 16t-2.5 21v20.5q0 11 0.5 22t4 19t11 12.5t21.5 3.5q13 -1 18.5 -7
t7.5 -15t1.5 -19.5t-0.5 -19.5v-19.5t-2.5 -19.5t-9 -15t-19.5 -6zM1696 -238v119q11 0 26 0.5t26 -8.5t10 -24.5t-1 -27.5t0.5 -28.5t-13.5 -24.5q-9 -8 -23 -7t-25 1zM1449 36q0 -11 0.5 -20.5t-1.5 -17.5q-1 -12 -14 -16q-6 -1 -11.5 2t-8.5 8q-3 11 -2.5 25.5t0.5 25.5
v60q0 11 -0.5 25.5t2.5 25.5q3 5 8.5 8t11.5 2q13 -4 14 -16q2 -8 1.5 -17.5t-0.5 -20.5v-74zM808 -387l2 119h18l21 -95l20 95h16l2 -119h-13l-1 88l-20 -88h-11l-19 88l-1 -88h-14zM1062 -387v119q12 0 24 1t22 -4q7 -4 10.5 -12t3.5 -17t-4 -16.5t-11 -10.5l17 -60h-16
l-14 57h-13v-57h-19zM905 -387l2 119h17l21 -95l21 95h17l1 -119h-11l-2 88l-21 -88h-11l-18 88l-2 -88h-14zM910 -238v119q11 0 22.5 1t21.5 -4q7 -4 11 -12.5t4.5 -17.5t-3 -16.5t-12.5 -10.5l18 -59h-17l-17 55h-12v-55h-16zM1552 -387v119q11 0 23 1t23 -4q6 -4 10 -12
t4 -17t-3.5 -16.5t-10.5 -10.5l15 -60h-15l-15 57h-14v-57h-17zM1759 156q6 0 9 -5t4 -10q2 -8 1.5 -17.5t-0.5 -18.5v-70q0 -10 0.5 -19t-1.5 -17q-1 -11 -13 -15h-13v172h13zM922 263v121h30t26 -12q4 -11 3 -25t-9 -21q-8 -6 -16.5 -6.5t-17.5 -0.5v-56h-16zM1080 -238
v119h15v-52h31v52h18v-119h-18v55h-31v-55h-15zM1618 -238v119h10l35 -79v79h13v-119h-10l-34 80v-80h-14zM1105 263l26 121h16l26 -121h-18l-5 32h-25l-5 -32h-15zM1817 -387v119h10l35 -79v79h13v-119h-11l-35 82v-82h-12zM1540 -238l23 119h18l25 -119h-16l-6 30h-24
l-7 -30h-13zM1246 -387l25 119h17l25 -119h-15l-5 31h-26l-5 -31h-16zM1776 491l-9 183h30l-10 -183h-11zM761 841q8 0 16 -0.5t18 1.5q12 3 15.5 12.5t3.5 20.5q1 13 -2 25t-17 16q-10 2 -18 1.5t-16 -0.5v-76zM1359 -238q-17 -5 -29.5 2.5t-16.5 24.5q-2 8 -1 15t1 13v64
h15v-53q0 -5 -0.5 -14.5t0.5 -18.5t4.5 -16t11.5 -7t12 7t5.5 16t1 18.5t-0.5 14.5v53h14v-54q0 -8 0.5 -17.5t-0.5 -19t-4.5 -17.5t-12.5 -11zM682 -388q-15 0 -22 9t-9 21.5t-1.5 27t0.5 25.5q0 16 8.5 28t28.5 10q18 -2 22 -14.5t4 -26.5h-16q0 5 0.5 10.5t-2.5 10.5
q-2 8 -11 9t-13 -7q-6 -6 -4.5 -20t1.5 -23q0 -7 -1.5 -20t5.5 -21q3 -7 12 -5.5t11 9.5q3 5 2.5 11t-0.5 11h16q0 -15 -5 -30t-26 -15zM1169 -388q-16 0 -22.5 9t-8 21.5t-0.5 27t1 25.5q0 16 7.5 28t27.5 10q19 -2 23 -14.5t4 -26.5h-18q0 5 1 10.5t-2 10.5q-2 8 -10.5 9
t-13.5 -7q-6 -6 -5 -20t1 -23q0 -7 -1 -20t6 -21q4 -7 12.5 -5.5t10.5 9.5q3 5 2 11t-1 11h18q0 -15 -5 -30t-27 -15zM1486 262q-16 0 -23 10t-8 25l16 5q0 -6 2.5 -14t8.5 -12q8 -2 12.5 2.5t4.5 11.5q1 12 -9.5 21.5t-18.5 17.5q-11 9 -15.5 24t8.5 27q17 8 33 3
q8 -4 11.5 -12.5t4.5 -16.5l-14 -3q-1 5 -2.5 11t-6.5 11q-5 2 -10.5 0t-6.5 -10q-6 -8 2 -16l14 -14q7 -6 14.5 -13.5t9.5 -18.5q5 -14 -2.5 -26.5t-24.5 -12.5zM1658 -388q-16 0 -23.5 10.5t-9.5 24.5l16 4q0 -6 2 -13.5t8 -9.5q9 -5 14 -0.5t5 11.5q0 12 -10.5 21.5
t-18.5 15.5q-11 11 -15 26.5t10 25.5q7 5 16.5 6t15.5 -3q8 -2 11.5 -10.5t4.5 -16.5l-14 -5l-2 12t-6 11q-16 4 -20 -9q-4 -9 3.5 -16t14.5 -13q7 -8 14.5 -15.5t9.5 -18.5q5 -14 -3 -26t-23 -12zM1212 262q-14 0 -22.5 10t-9.5 25l16 5q0 -6 2 -14t8 -12q8 -2 13.5 2.5
t5.5 11.5q0 12 -10.5 21.5t-18.5 17.5q-11 9 -15 24t9 27q7 4 16 4.5t16 -1.5q9 -4 12.5 -12.5t4.5 -16.5l-14 -3q-1 5 -2.5 11t-6.5 11q-6 2 -11.5 0t-7.5 -10q-3 -8 4 -16t12 -14q8 -6 16 -13.5t10 -18.5q5 -14 -3 -26.5t-24 -12.5zM1018 841h16t17 2q11 5 14.5 15.5
t1.5 23.5q0 11 -2.5 19t-13.5 13q-8 4 -17 3.5t-16 -0.5v-76zM1368 263l-27 121h18l17 -88l19 88h13l-25 -121h-15zM1439 -387l-27 119h15l20 -87l16 87h17l-28 -119h-13zM1253 263v121h48v-11h-31v-41h25v-12h-25v-45h32v-12h-49zM1492 -387v119h48v-10h-31v-39h25v-13h-25
v-45h31v-12h-48zM1003 -387v119h47v-10h-30v-39h25v-13h-25v-45h30v-12h-47zM1162 -238v119h46v-12h-29v-40h25v-12h-25v-45h29v-10h-46zM853 -226q10 -5 14.5 -1t6.5 11.5t2 16.5v15q0 4 0.5 12t0.5 16t-2 14.5t-6 9.5q-11 6 -18 -2t-7 -18v-19q0 -4 -0.5 -12.5t-0.5 -17
t2 -16t8 -9.5zM1051 263v121h46v-11h-31v-41h26v-12h-26v-45h31v-12h-46zM1758 -371q10 -6 15 -2.5t7.5 10.5t2.5 16v15q0 4 0.5 12t-0.5 15.5t-3 14t-6 8.5q-12 8 -17 0t-5 -17v-18q0 -5 -1 -13t-1 -17t1.5 -16t6.5 -8zM751 -371q10 -6 15 -2.5t7 10.5t2 16v15q0 4 0.5 12
t0 15.5t-2 14t-5.5 8.5q-13 8 -18.5 0t-5.5 -17q-1 -5 -0.5 -9.5t0.5 -8.5q0 -5 -0.5 -13t-0.5 -17t1.5 -16t6.5 -8zM772 -238v119h46v-12h-28v-40h22v-12h-22v-55h-18zM903 56h16q13 0 17.5 -10t5.5 -21q1 -16 -3.5 -29.5t-16.5 -13.5h-19v74zM1712 -228q11 0 18.5 2
t9.5 15v63q-1 13 -9 15t-19 2v-97zM1033 -238v107h-22v12h61v-12h-22v-107h-17zM1689 49v45h-43v-45h43zM1452 -238v119h17v-109h30v-10h-47zM1579 263v110h-23v11h58v-11h-20v-110h-15zM903 164h15q11 0 15.5 -12t4.5 -26q0 -11 -4 -22t-15 -11h-16v71zM1258 -238v119h45
v-12h-32v-40h24v-12h-24v-55h-13zM1395 -238v119h16v-109h30v-10h-46zM1879 164h14q10 0 15 -10t5.5 -23t-2.5 -24t-9 -14h-23v71zM993 263v121h15v-109h31v-12h-46zM1528 263v121h18v-121h-18zM1326 -387v119h15v-107h32v-12h-47zM1611 789h40l-20 107zM409 -56h43v48h-43
v-48zM1217 -387v119h17v-119h-17zM1423 263v121h16v-121h-16zM1700 -387v119h15v-119h-15zM938 331h9t10 2q6 3 7 9t1 13q-1 14 -8.5 16t-18.5 2v-42zM1767 441v33h30v-33h-30zM926 -171q11 0 19 3.5t8 17.5t-8 16.5t-19 2.5v-40zM1569 -317q11 0 19 2.5t8 16.5q0 12 -8 16
t-19 4v-39zM1081 -317q11 0 18 2.5t7 16.5q0 12 -7 16t-18 4v-39zM1126 306h22l-9 55zM1269 -345h21l-10 55zM1562 -196h21l-11 54zM2140 43l8 51l7 -51h-15zM1184 -56h99v45h-56v212h-43v-257zM1343 -56v257h-44v-257h44z" />
    <glyph glyph-name="seven" unicode="7" horiz-adv-x="2602" 
d="M185 201l-30 -161l-29 161h-42l-4 -257h40l1 105l20 -105h30l21 106l2 -106h37l-2 257h-44zM2334 201l-30 -161l-29 161h-42l-4 -257h40l1 105l20 -105h30l21 106l2 -106h37l-2 257h-44zM939 -56q16 0 31.5 16t15.5 51q0 17 -4.5 35.5t-20.5 29.5q14 9 17.5 26t3.5 33
q0 35 -16 50.5t-31 15.5h-75v-257h79zM1492 110q0 22 -3 46.5t-25 38.5q-12 8 -28 8.5t-30 -3.5q-17 -6 -25.5 -21t-11.5 -32q-1 -10 -1 -19.5v-19.5v-70v-19.5t1 -19.5q3 -17 11.5 -32t25.5 -21q14 -4 30 -3.5t28 8.5q22 14 25 38.5t3 46.5v74zM1704 -56h47q35 0 51 19.5
t16 61.5v96q0 40 -16.5 60t-56.5 20h-41v-257zM1330 705q-53 0 -62 52q-2 11 -2 22v22q0 24 -1 51.5t5 50.5q6 20 21.5 29.5t34.5 10.5q20 1 37.5 -7t24.5 -28q8 -22 7.5 -49.5t-0.5 -51.5q0 -14 -0.5 -27.5t-3.5 -26.5q-11 -48 -61 -48zM1269 439q-25 0 -41 12.5t-21 36.5
q-2 12 -1.5 23.5t0.5 24.5q0 23 -1 49.5t4 49.5q6 21 21 30.5t35 9.5q21 1 38 -6t24 -27q9 -23 7 -50.5t-2 -50.5q0 -16 0.5 -28.5t-2.5 -26.5q-9 -47 -61 -47zM1836 201v-257h43v111h11l23 -111h43l-29 120q18 11 24 31.5t6 39.5q0 35 -15.5 50.5t-30.5 15.5h-75zM341 78
l-44 123h-33v-257h40v126l45 -126h32v257h-40v-123zM1593 77l-44 124h-33v-257h40v126l45 -126h32v257h-40v-124zM665 40h26v-16.5t-2 -22t-7.5 -17t-16.5 -2.5q-7 2 -10 9t-4 15.5t-0.5 17t0.5 13.5v61q0 12 -0.5 27.5t2.5 28.5q3 5 8.5 8.5t11.5 2.5q13 -4 14 -16
q2 -9 1.5 -18.5t-0.5 -20.5h43q0 22 -3 47t-25 39q-12 8 -28 8.5t-30 -4.5q-17 -5 -25.5 -20t-11.5 -32q-2 -18 -1.5 -37t0.5 -38q0 -18 -0.5 -35.5t1.5 -35.5q2 -15 7.5 -30.5t19.5 -22.5q13 -9 32 -8.5t30 11.5l1 -8h34v134h-67v-38zM984 707v235q23 0 47.5 0.5
t44.5 -10.5q12 -8 19 -23.5t7 -32.5t-7 -31.5t-21 -19.5l31 -118h-31l-31 111h-25v-111h-34zM2484 78l-21 23q-7 7 -13.5 13t-9.5 17q-3 8 -0.5 21.5t15.5 12.5q7 -1 10 -7t4.5 -13.5t2 -15.5t0.5 -14l40 2q0 24 -5 48t-28 34q-14 6 -28 5t-25.5 -7t-19 -17.5t-8.5 -26.5
q-2 -15 0.5 -31t11.5 -28q3 -8 9.5 -13t12.5 -12q12 -14 26 -29.5t14 -35.5q0 -8 -1.5 -14.5t-8.5 -7.5q-6 -2 -10 1t-6 8q-6 11 -7 22.5t-2 23.5l-40 -3q0 -17 1.5 -32t8.5 -30q8 -18 25.5 -26t36.5 -4q20 4 31.5 19t13.5 32q6 48 -30 85zM557 78l-21 23q-7 7 -13.5 13
t-9.5 17q-3 8 -0.5 21.5t15.5 12.5q7 -1 10 -7t4.5 -13.5t2 -15.5t0.5 -14l40 2q0 24 -5 48t-28 34q-14 6 -28 5t-25.5 -7t-19 -17.5t-8.5 -26.5q-2 -15 0.5 -31t11.5 -28q3 -8 9.5 -13t12.5 -12q12 -14 26 -29.5t14 -35.5q0 -8 -1.5 -14.5t-8.5 -7.5q-6 -2 -10 1t-6 8
q-6 11 -7 22.5t-2 23.5l-40 -3q0 -17 1.5 -32t8.5 -30q8 -18 25.5 -26t36.5 -4q20 4 31.5 19t13.5 32q6 48 -30 85zM2128 201l-47 -257h43l10 61h28l8 -61h43l-45 257h-40zM2014 56h46v45h-46v55h56v45h-99v-257h99v45h-56v67zM729 707v235h49q18 0 33.5 -4t24.5 -22
q5 -10 7.5 -22.5t1.5 -24.5t-6 -23t-14 -18q-13 -11 -31 -11h-33v-110h-32zM1365 441v233h22l66 -156v156h29v-233h-22l-68 159v-159h-27zM1427 707v235h22l65 -156v156h28v-235h-21l-68 159v-159h-26zM1566 707l49 235h32l49 -235h-30l-12 58h-47l-11 -58h-30zM818 442
q-21 -8 -46 -1t-34 32q-5 12 -6 25.5t-1 30.5v145h31v-156q0 -13 2 -30t17 -25q13 -4 21.5 0t13 12t6.5 18.5t2 20.5q1 20 0.5 37.5t-0.5 37.5v85h33v-107q0 -15 0.5 -34t-2 -37t-11 -33t-26.5 -21zM1069 -56h99v45h-56v212h-43v-257zM1189 705q-29 0 -45.5 19.5t-17.5 47.5
l30 8q2 -11 4 -22.5t9 -18.5q8 -8 19 -9t19 6q9 8 8.5 22t-7.5 25q-6 10 -26 25q-11 10 -23.5 20.5t-20.5 22.5t-10 26.5t1 27t11.5 22.5t22.5 14q13 3 29 1.5t27 -9.5q12 -8 16 -22t5 -28l-25 -8q-2 12 -6.5 26t-19.5 18q-11 1 -20 -4.5t-11 -15.5t1 -18.5t9 -15.5
t13.5 -13t14.5 -11q15 -14 29 -28.5t19 -34.5q5 -29 -10 -51t-45 -22zM945 439q-30 0 -45 19t-17 48l31 8q1 -11 2.5 -22t8.5 -19q8 -9 19 -10t19 7q10 8 9 22t-8 23q-5 7 -11.5 14t-14.5 12q-11 11 -24 21.5t-21 23.5q-7 11 -9 24.5t1.5 26.5t11.5 23t22 14q13 3 29 2
t28 -9q11 -8 15 -22.5t5 -28.5l-25 -9q-2 14 -6.5 27.5t-19.5 16.5q-11 2 -19.5 -3.5t-10.5 -17.5q-3 -9 0 -17t9 -15t13.5 -12.5t13.5 -11.5q16 -14 29.5 -28t17.5 -36q7 -27 -8.5 -49t-44.5 -22zM741 -88h37l73 322h-41zM1026 441v233h91v-25h-58v-76h47v-24h-47v-87h58
v-21h-91zM868 707v235h90v-25h-58v-76h47v-24h-47v-87h59v-23h-91zM1046 -56v257h-44v-257h44zM1253 466q7 -4 16 -4t14 4q9 5 12.5 13.5t5.5 17.5q1 5 0.5 12t-0.5 12v83q0 10 -1 20.5t-9 18.5q-13 13 -29 8q-16 -4 -23 -22q-3 -17 -2 -37t1 -37v-42q0 -12 1.5 -26
t13.5 -21zM1667 441v48q0 9 1 18t-1 17q-2 13 -6.5 23.5t-9.5 21.5l-33 105h30l35 -112l34 112h32l-16 -48t-16 -49l-16 -48q-3 -8 -2.5 -16t0.5 -14v-58h-32zM1317 732q13 -5 29 0q10 5 12.5 13.5t3.5 16.5v109q0 10 -1 20.5t-9 17.5q-5 8 -12.5 9t-15.5 -1q-17 -1 -22 -20
q-5 -17 -3 -37.5t2 -37.5v-43q0 -12 1 -26t15 -21zM1721 707v235h32v-212h60v-23h-92zM1518 441v233h32v-212h59v-21h-91zM760 -388q-15 0 -22 6.5t-9.5 16t-2.5 21v20.5q0 11 0.5 22t4 19t11 12.5t21.5 3.5q12 -1 18.5 -7t9 -15t2.5 -19.5v-19.5v-19.5t-3 -19.5t-10 -15
t-20 -6zM861 -240q-14 0 -21 6.5t-9.5 16.5t-2.5 21.5v21.5t0.5 20.5t4 18.5t10.5 13t21 4q12 -1 18 -7t9 -15t3 -19.5v-19.5t-0.5 -20t-3.5 -20t-9.5 -15t-19.5 -6zM1766 -388q-14 0 -21 6.5t-9.5 16t-2.5 21v20.5q0 11 0.5 22t4 19t11 12.5t21.5 3.5q13 -1 18.5 -7
t7.5 -15t1.5 -19.5t-0.5 -19.5v-19.5t-2.5 -19.5t-9 -15t-19.5 -6zM1696 -238v119q11 0 26 0.5t26 -8.5t10 -24.5t-1 -27.5t0.5 -28.5t-13.5 -24.5q-9 -8 -23 -7t-25 1zM1449 36q0 -11 0.5 -20.5t-1.5 -17.5q-1 -12 -14 -16q-6 -1 -11.5 2t-8.5 8q-3 11 -2.5 25.5t0.5 25.5
v60q0 11 -0.5 25.5t2.5 25.5q3 5 8.5 8t11.5 2q13 -4 14 -16q2 -8 1.5 -17.5t-0.5 -20.5v-74zM808 -387l2 119h18l21 -95l20 95h16l2 -119h-13l-1 88l-20 -88h-11l-19 88l-1 -88h-14zM1062 -387v119q12 0 24 1t22 -4q7 -4 10.5 -12t3.5 -17t-4 -16.5t-11 -10.5l17 -60h-16
l-14 57h-13v-57h-19zM905 -387l2 119h17l21 -95l21 95h17l1 -119h-11l-2 88l-21 -88h-11l-18 88l-2 -88h-14zM910 -238v119q11 0 22.5 1t21.5 -4q7 -4 11 -12.5t4.5 -17.5t-3 -16.5t-12.5 -10.5l18 -59h-17l-17 55h-12v-55h-16zM1552 -387v119q11 0 23 1t23 -4q6 -4 10 -12
t4 -17t-3.5 -16.5t-10.5 -10.5l15 -60h-15l-15 57h-14v-57h-17zM1759 156q6 0 9 -5t4 -10q2 -8 1.5 -17.5t-0.5 -18.5v-70q0 -10 0.5 -19t-1.5 -17q-1 -11 -13 -15h-13v172h13zM922 263v121h30t26 -12q4 -11 3 -25t-9 -21q-8 -6 -16.5 -6.5t-17.5 -0.5v-56h-16zM1080 -238
v119h15v-52h31v52h18v-119h-18v55h-31v-55h-15zM1618 -238v119h10l35 -79v79h13v-119h-10l-34 80v-80h-14zM1105 263l26 121h16l26 -121h-18l-5 32h-25l-5 -32h-15zM1817 -387v119h10l35 -79v79h13v-119h-11l-35 82v-82h-12zM1540 -238l23 119h18l25 -119h-16l-6 30h-24
l-7 -30h-13zM1246 -387l25 119h17l25 -119h-15l-5 31h-26l-5 -31h-16zM1776 491l-9 183h30l-10 -183h-11zM761 841q8 0 16 -0.5t18 1.5q12 3 15.5 12.5t3.5 20.5q1 13 -2 25t-17 16q-10 2 -18 1.5t-16 -0.5v-76zM1359 -238q-17 -5 -29.5 2.5t-16.5 24.5q-2 8 -1 15t1 13v64
h15v-53q0 -5 -0.5 -14.5t0.5 -18.5t4.5 -16t11.5 -7t12 7t5.5 16t1 18.5t-0.5 14.5v53h14v-54q0 -8 0.5 -17.5t-0.5 -19t-4.5 -17.5t-12.5 -11zM682 -388q-15 0 -22 9t-9 21.5t-1.5 27t0.5 25.5q0 16 8.5 28t28.5 10q18 -2 22 -14.5t4 -26.5h-16q0 5 0.5 10.5t-2.5 10.5
q-2 8 -11 9t-13 -7q-6 -6 -4.5 -20t1.5 -23q0 -7 -1.5 -20t5.5 -21q3 -7 12 -5.5t11 9.5q3 5 2.5 11t-0.5 11h16q0 -15 -5 -30t-26 -15zM1169 -388q-16 0 -22.5 9t-8 21.5t-0.5 27t1 25.5q0 16 7.5 28t27.5 10q19 -2 23 -14.5t4 -26.5h-18q0 5 1 10.5t-2 10.5q-2 8 -10.5 9
t-13.5 -7q-6 -6 -5 -20t1 -23q0 -7 -1 -20t6 -21q4 -7 12.5 -5.5t10.5 9.5q3 5 2 11t-1 11h18q0 -15 -5 -30t-27 -15zM1486 262q-16 0 -23 10t-8 25l16 5q0 -6 2.5 -14t8.5 -12q8 -2 12.5 2.5t4.5 11.5q1 12 -9.5 21.5t-18.5 17.5q-11 9 -15.5 24t8.5 27q17 8 33 3
q8 -4 11.5 -12.5t4.5 -16.5l-14 -3q-1 5 -2.5 11t-6.5 11q-5 2 -10.5 0t-6.5 -10q-6 -8 2 -16l14 -14q7 -6 14.5 -13.5t9.5 -18.5q5 -14 -2.5 -26.5t-24.5 -12.5zM1658 -388q-16 0 -23.5 10.5t-9.5 24.5l16 4q0 -6 2 -13.5t8 -9.5q9 -5 14 -0.5t5 11.5q0 12 -10.5 21.5
t-18.5 15.5q-11 11 -15 26.5t10 25.5q7 5 16.5 6t15.5 -3q8 -2 11.5 -10.5t4.5 -16.5l-14 -5l-2 12t-6 11q-16 4 -20 -9q-4 -9 3.5 -16t14.5 -13q7 -8 14.5 -15.5t9.5 -18.5q5 -14 -3 -26t-23 -12zM1212 262q-14 0 -22.5 10t-9.5 25l16 5q0 -6 2 -14t8 -12q8 -2 13.5 2.5
t5.5 11.5q0 12 -10.5 21.5t-18.5 17.5q-11 9 -15 24t9 27q7 4 16 4.5t16 -1.5q9 -4 12.5 -12.5t4.5 -16.5l-14 -3q-1 5 -2.5 11t-6.5 11q-6 2 -11.5 0t-7.5 -10q-3 -8 4 -16t12 -14q8 -6 16 -13.5t10 -18.5q5 -14 -3 -26.5t-24 -12.5zM1018 841h16t17 2q11 5 14.5 15.5
t1.5 23.5q0 11 -2.5 19t-13.5 13q-8 4 -17 3.5t-16 -0.5v-76zM1368 263l-27 121h18l17 -88l19 88h13l-25 -121h-15zM1439 -387l-27 119h15l20 -87l16 87h17l-28 -119h-13zM1253 263v121h48v-11h-31v-41h25v-12h-25v-45h32v-12h-49zM1492 -387v119h48v-10h-31v-39h25v-13h-25
v-45h31v-12h-48zM1003 -387v119h47v-10h-30v-39h25v-13h-25v-45h30v-12h-47zM1162 -238v119h46v-12h-29v-40h25v-12h-25v-45h29v-10h-46zM853 -226q10 -5 14.5 -1t6.5 11.5t2 16.5v15q0 4 0.5 12t0.5 16t-2 14.5t-6 9.5q-11 6 -18 -2t-7 -18v-19q0 -4 -0.5 -12.5t-0.5 -17
t2 -16t8 -9.5zM1051 263v121h46v-11h-31v-41h26v-12h-26v-45h31v-12h-46zM1758 -371q10 -6 15 -2.5t7.5 10.5t2.5 16v15q0 4 0.5 12t-0.5 15.5t-3 14t-6 8.5q-12 8 -17 0t-5 -17v-18q0 -5 -1 -13t-1 -17t1.5 -16t6.5 -8zM751 -371q10 -6 15 -2.5t7 10.5t2 16v15q0 4 0.5 12
t0 15.5t-2 14t-5.5 8.5q-13 8 -18.5 0t-5.5 -17q-1 -5 -0.5 -9.5t0.5 -8.5q0 -5 -0.5 -13t-0.5 -17t1.5 -16t6.5 -8zM772 -238v119h46v-12h-28v-40h22v-12h-22v-55h-18zM903 56h16q13 0 17.5 -10t5.5 -21q1 -16 -3.5 -29.5t-16.5 -13.5h-19v74zM1712 -228q11 0 18.5 2
t9.5 15v63q-1 13 -9 15t-19 2v-97zM1033 -238v107h-22v12h61v-12h-22v-107h-17zM1689 49v45h-43v-45h43zM1452 -238v119h17v-109h30v-10h-47zM1579 263v110h-23v11h58v-11h-20v-110h-15zM903 164h15q11 0 15.5 -12t4.5 -26q0 -11 -4 -22t-15 -11h-16v71zM1258 -238v119h45
v-12h-32v-40h24v-12h-24v-55h-13zM1395 -238v119h16v-109h30v-10h-46zM1879 164h14q10 0 15 -10t5.5 -23t-2.5 -24t-9 -14h-23v71zM993 263v121h15v-109h31v-12h-46zM1528 263v121h18v-121h-18zM1326 -387v119h15v-107h32v-12h-47zM1611 789h40l-20 107zM409 -56h43v48h-43
v-48zM1217 -387v119h17v-119h-17zM1423 263v121h16v-121h-16zM1700 -387v119h15v-119h-15zM938 331h9t10 2q6 3 7 9t1 13q-1 14 -8.5 16t-18.5 2v-42zM1767 441v33h30v-33h-30zM926 -171q11 0 19 3.5t8 17.5t-8 16.5t-19 2.5v-40zM1569 -317q11 0 19 2.5t8 16.5q0 12 -8 16
t-19 4v-39zM1081 -317q11 0 18 2.5t7 16.5q0 12 -7 16t-18 4v-39zM1126 306h22l-9 55zM1269 -345h21l-10 55zM1562 -196h21l-11 54zM2140 43l8 51l7 -51h-15zM1184 -56h99v45h-56v212h-43v-257zM1343 -56v257h-44v-257h44z" />
    <glyph glyph-name="eight" unicode="8" horiz-adv-x="2602" 
d="M185 201l-30 -161l-29 161h-42l-4 -257h40l1 105l20 -105h30l21 106l2 -106h37l-2 257h-44zM2334 201l-30 -161l-29 161h-42l-4 -257h40l1 105l20 -105h30l21 106l2 -106h37l-2 257h-44zM939 -56q16 0 31.5 16t15.5 51q0 17 -4.5 35.5t-20.5 29.5q14 9 17.5 26t3.5 33
q0 35 -16 50.5t-31 15.5h-75v-257h79zM1492 110q0 22 -3 46.5t-25 38.5q-12 8 -28 8.5t-30 -3.5q-17 -6 -25.5 -21t-11.5 -32q-1 -10 -1 -19.5v-19.5v-70v-19.5t1 -19.5q3 -17 11.5 -32t25.5 -21q14 -4 30 -3.5t28 8.5q22 14 25 38.5t3 46.5v74zM1704 -56h47q35 0 51 19.5
t16 61.5v96q0 40 -16.5 60t-56.5 20h-41v-257zM1330 705q-53 0 -62 52q-2 11 -2 22v22q0 24 -1 51.5t5 50.5q6 20 21.5 29.5t34.5 10.5q20 1 37.5 -7t24.5 -28q8 -22 7.5 -49.5t-0.5 -51.5q0 -14 -0.5 -27.5t-3.5 -26.5q-11 -48 -61 -48zM1269 439q-25 0 -41 12.5t-21 36.5
q-2 12 -1.5 23.5t0.5 24.5q0 23 -1 49.5t4 49.5q6 21 21 30.5t35 9.5q21 1 38 -6t24 -27q9 -23 7 -50.5t-2 -50.5q0 -16 0.5 -28.5t-2.5 -26.5q-9 -47 -61 -47zM1836 201v-257h43v111h11l23 -111h43l-29 120q18 11 24 31.5t6 39.5q0 35 -15.5 50.5t-30.5 15.5h-75zM341 78
l-44 123h-33v-257h40v126l45 -126h32v257h-40v-123zM1593 77l-44 124h-33v-257h40v126l45 -126h32v257h-40v-124zM665 40h26v-16.5t-2 -22t-7.5 -17t-16.5 -2.5q-7 2 -10 9t-4 15.5t-0.5 17t0.5 13.5v61q0 12 -0.5 27.5t2.5 28.5q3 5 8.5 8.5t11.5 2.5q13 -4 14 -16
q2 -9 1.5 -18.5t-0.5 -20.5h43q0 22 -3 47t-25 39q-12 8 -28 8.5t-30 -4.5q-17 -5 -25.5 -20t-11.5 -32q-2 -18 -1.5 -37t0.5 -38q0 -18 -0.5 -35.5t1.5 -35.5q2 -15 7.5 -30.5t19.5 -22.5q13 -9 32 -8.5t30 11.5l1 -8h34v134h-67v-38zM984 707v235q23 0 47.5 0.5
t44.5 -10.5q12 -8 19 -23.5t7 -32.5t-7 -31.5t-21 -19.5l31 -118h-31l-31 111h-25v-111h-34zM2484 78l-21 23q-7 7 -13.5 13t-9.5 17q-3 8 -0.5 21.5t15.5 12.5q7 -1 10 -7t4.5 -13.5t2 -15.5t0.5 -14l40 2q0 24 -5 48t-28 34q-14 6 -28 5t-25.5 -7t-19 -17.5t-8.5 -26.5
q-2 -15 0.5 -31t11.5 -28q3 -8 9.5 -13t12.5 -12q12 -14 26 -29.5t14 -35.5q0 -8 -1.5 -14.5t-8.5 -7.5q-6 -2 -10 1t-6 8q-6 11 -7 22.5t-2 23.5l-40 -3q0 -17 1.5 -32t8.5 -30q8 -18 25.5 -26t36.5 -4q20 4 31.5 19t13.5 32q6 48 -30 85zM557 78l-21 23q-7 7 -13.5 13
t-9.5 17q-3 8 -0.5 21.5t15.5 12.5q7 -1 10 -7t4.5 -13.5t2 -15.5t0.5 -14l40 2q0 24 -5 48t-28 34q-14 6 -28 5t-25.5 -7t-19 -17.5t-8.5 -26.5q-2 -15 0.5 -31t11.5 -28q3 -8 9.5 -13t12.5 -12q12 -14 26 -29.5t14 -35.5q0 -8 -1.5 -14.5t-8.5 -7.5q-6 -2 -10 1t-6 8
q-6 11 -7 22.5t-2 23.5l-40 -3q0 -17 1.5 -32t8.5 -30q8 -18 25.5 -26t36.5 -4q20 4 31.5 19t13.5 32q6 48 -30 85zM2128 201l-47 -257h43l10 61h28l8 -61h43l-45 257h-40zM2014 56h46v45h-46v55h56v45h-99v-257h99v45h-56v67zM729 707v235h49q18 0 33.5 -4t24.5 -22
q5 -10 7.5 -22.5t1.5 -24.5t-6 -23t-14 -18q-13 -11 -31 -11h-33v-110h-32zM1365 441v233h22l66 -156v156h29v-233h-22l-68 159v-159h-27zM1427 707v235h22l65 -156v156h28v-235h-21l-68 159v-159h-26zM1566 707l49 235h32l49 -235h-30l-12 58h-47l-11 -58h-30zM818 442
q-21 -8 -46 -1t-34 32q-5 12 -6 25.5t-1 30.5v145h31v-156q0 -13 2 -30t17 -25q13 -4 21.5 0t13 12t6.5 18.5t2 20.5q1 20 0.5 37.5t-0.5 37.5v85h33v-107q0 -15 0.5 -34t-2 -37t-11 -33t-26.5 -21zM1069 -56h99v45h-56v212h-43v-257zM1189 705q-29 0 -45.5 19.5t-17.5 47.5
l30 8q2 -11 4 -22.5t9 -18.5q8 -8 19 -9t19 6q9 8 8.5 22t-7.5 25q-6 10 -26 25q-11 10 -23.5 20.5t-20.5 22.5t-10 26.5t1 27t11.5 22.5t22.5 14q13 3 29 1.5t27 -9.5q12 -8 16 -22t5 -28l-25 -8q-2 12 -6.5 26t-19.5 18q-11 1 -20 -4.5t-11 -15.5t1 -18.5t9 -15.5
t13.5 -13t14.5 -11q15 -14 29 -28.5t19 -34.5q5 -29 -10 -51t-45 -22zM945 439q-30 0 -45 19t-17 48l31 8q1 -11 2.5 -22t8.5 -19q8 -9 19 -10t19 7q10 8 9 22t-8 23q-5 7 -11.5 14t-14.5 12q-11 11 -24 21.5t-21 23.5q-7 11 -9 24.5t1.5 26.5t11.5 23t22 14q13 3 29 2
t28 -9q11 -8 15 -22.5t5 -28.5l-25 -9q-2 14 -6.5 27.5t-19.5 16.5q-11 2 -19.5 -3.5t-10.5 -17.5q-3 -9 0 -17t9 -15t13.5 -12.5t13.5 -11.5q16 -14 29.5 -28t17.5 -36q7 -27 -8.5 -49t-44.5 -22zM741 -88h37l73 322h-41zM1026 441v233h91v-25h-58v-76h47v-24h-47v-87h58
v-21h-91zM868 707v235h90v-25h-58v-76h47v-24h-47v-87h59v-23h-91zM1046 -56v257h-44v-257h44zM1253 466q7 -4 16 -4t14 4q9 5 12.5 13.5t5.5 17.5q1 5 0.5 12t-0.5 12v83q0 10 -1 20.5t-9 18.5q-13 13 -29 8q-16 -4 -23 -22q-3 -17 -2 -37t1 -37v-42q0 -12 1.5 -26
t13.5 -21zM1667 441v48q0 9 1 18t-1 17q-2 13 -6.5 23.5t-9.5 21.5l-33 105h30l35 -112l34 112h32l-16 -48t-16 -49l-16 -48q-3 -8 -2.5 -16t0.5 -14v-58h-32zM1317 732q13 -5 29 0q10 5 12.5 13.5t3.5 16.5v109q0 10 -1 20.5t-9 17.5q-5 8 -12.5 9t-15.5 -1q-17 -1 -22 -20
q-5 -17 -3 -37.5t2 -37.5v-43q0 -12 1 -26t15 -21zM1721 707v235h32v-212h60v-23h-92zM1518 441v233h32v-212h59v-21h-91zM760 -388q-15 0 -22 6.5t-9.5 16t-2.5 21v20.5q0 11 0.5 22t4 19t11 12.5t21.5 3.5q12 -1 18.5 -7t9 -15t2.5 -19.5v-19.5v-19.5t-3 -19.5t-10 -15
t-20 -6zM861 -240q-14 0 -21 6.5t-9.5 16.5t-2.5 21.5v21.5t0.5 20.5t4 18.5t10.5 13t21 4q12 -1 18 -7t9 -15t3 -19.5v-19.5t-0.5 -20t-3.5 -20t-9.5 -15t-19.5 -6zM1766 -388q-14 0 -21 6.5t-9.5 16t-2.5 21v20.5q0 11 0.5 22t4 19t11 12.5t21.5 3.5q13 -1 18.5 -7
t7.5 -15t1.5 -19.5t-0.5 -19.5v-19.5t-2.5 -19.5t-9 -15t-19.5 -6zM1696 -238v119q11 0 26 0.5t26 -8.5t10 -24.5t-1 -27.5t0.5 -28.5t-13.5 -24.5q-9 -8 -23 -7t-25 1zM1449 36q0 -11 0.5 -20.5t-1.5 -17.5q-1 -12 -14 -16q-6 -1 -11.5 2t-8.5 8q-3 11 -2.5 25.5t0.5 25.5
v60q0 11 -0.5 25.5t2.5 25.5q3 5 8.5 8t11.5 2q13 -4 14 -16q2 -8 1.5 -17.5t-0.5 -20.5v-74zM808 -387l2 119h18l21 -95l20 95h16l2 -119h-13l-1 88l-20 -88h-11l-19 88l-1 -88h-14zM1062 -387v119q12 0 24 1t22 -4q7 -4 10.5 -12t3.5 -17t-4 -16.5t-11 -10.5l17 -60h-16
l-14 57h-13v-57h-19zM905 -387l2 119h17l21 -95l21 95h17l1 -119h-11l-2 88l-21 -88h-11l-18 88l-2 -88h-14zM910 -238v119q11 0 22.5 1t21.5 -4q7 -4 11 -12.5t4.5 -17.5t-3 -16.5t-12.5 -10.5l18 -59h-17l-17 55h-12v-55h-16zM1552 -387v119q11 0 23 1t23 -4q6 -4 10 -12
t4 -17t-3.5 -16.5t-10.5 -10.5l15 -60h-15l-15 57h-14v-57h-17zM1759 156q6 0 9 -5t4 -10q2 -8 1.5 -17.5t-0.5 -18.5v-70q0 -10 0.5 -19t-1.5 -17q-1 -11 -13 -15h-13v172h13zM922 263v121h30t26 -12q4 -11 3 -25t-9 -21q-8 -6 -16.5 -6.5t-17.5 -0.5v-56h-16zM1080 -238
v119h15v-52h31v52h18v-119h-18v55h-31v-55h-15zM1618 -238v119h10l35 -79v79h13v-119h-10l-34 80v-80h-14zM1105 263l26 121h16l26 -121h-18l-5 32h-25l-5 -32h-15zM1817 -387v119h10l35 -79v79h13v-119h-11l-35 82v-82h-12zM1540 -238l23 119h18l25 -119h-16l-6 30h-24
l-7 -30h-13zM1246 -387l25 119h17l25 -119h-15l-5 31h-26l-5 -31h-16zM1776 491l-9 183h30l-10 -183h-11zM761 841q8 0 16 -0.5t18 1.5q12 3 15.5 12.5t3.5 20.5q1 13 -2 25t-17 16q-10 2 -18 1.5t-16 -0.5v-76zM1359 -238q-17 -5 -29.5 2.5t-16.5 24.5q-2 8 -1 15t1 13v64
h15v-53q0 -5 -0.5 -14.5t0.5 -18.5t4.5 -16t11.5 -7t12 7t5.5 16t1 18.5t-0.5 14.5v53h14v-54q0 -8 0.5 -17.5t-0.5 -19t-4.5 -17.5t-12.5 -11zM682 -388q-15 0 -22 9t-9 21.5t-1.5 27t0.5 25.5q0 16 8.5 28t28.5 10q18 -2 22 -14.5t4 -26.5h-16q0 5 0.5 10.5t-2.5 10.5
q-2 8 -11 9t-13 -7q-6 -6 -4.5 -20t1.5 -23q0 -7 -1.5 -20t5.5 -21q3 -7 12 -5.5t11 9.5q3 5 2.5 11t-0.5 11h16q0 -15 -5 -30t-26 -15zM1169 -388q-16 0 -22.5 9t-8 21.5t-0.5 27t1 25.5q0 16 7.5 28t27.5 10q19 -2 23 -14.5t4 -26.5h-18q0 5 1 10.5t-2 10.5q-2 8 -10.5 9
t-13.5 -7q-6 -6 -5 -20t1 -23q0 -7 -1 -20t6 -21q4 -7 12.5 -5.5t10.5 9.5q3 5 2 11t-1 11h18q0 -15 -5 -30t-27 -15zM1486 262q-16 0 -23 10t-8 25l16 5q0 -6 2.5 -14t8.5 -12q8 -2 12.5 2.5t4.5 11.5q1 12 -9.5 21.5t-18.5 17.5q-11 9 -15.5 24t8.5 27q17 8 33 3
q8 -4 11.5 -12.5t4.5 -16.5l-14 -3q-1 5 -2.5 11t-6.5 11q-5 2 -10.5 0t-6.5 -10q-6 -8 2 -16l14 -14q7 -6 14.5 -13.5t9.5 -18.5q5 -14 -2.5 -26.5t-24.5 -12.5zM1658 -388q-16 0 -23.5 10.5t-9.5 24.5l16 4q0 -6 2 -13.5t8 -9.5q9 -5 14 -0.5t5 11.5q0 12 -10.5 21.5
t-18.5 15.5q-11 11 -15 26.5t10 25.5q7 5 16.5 6t15.5 -3q8 -2 11.5 -10.5t4.5 -16.5l-14 -5l-2 12t-6 11q-16 4 -20 -9q-4 -9 3.5 -16t14.5 -13q7 -8 14.5 -15.5t9.5 -18.5q5 -14 -3 -26t-23 -12zM1212 262q-14 0 -22.5 10t-9.5 25l16 5q0 -6 2 -14t8 -12q8 -2 13.5 2.5
t5.5 11.5q0 12 -10.5 21.5t-18.5 17.5q-11 9 -15 24t9 27q7 4 16 4.5t16 -1.5q9 -4 12.5 -12.5t4.5 -16.5l-14 -3q-1 5 -2.5 11t-6.5 11q-6 2 -11.5 0t-7.5 -10q-3 -8 4 -16t12 -14q8 -6 16 -13.5t10 -18.5q5 -14 -3 -26.5t-24 -12.5zM1018 841h16t17 2q11 5 14.5 15.5
t1.5 23.5q0 11 -2.5 19t-13.5 13q-8 4 -17 3.5t-16 -0.5v-76zM1368 263l-27 121h18l17 -88l19 88h13l-25 -121h-15zM1439 -387l-27 119h15l20 -87l16 87h17l-28 -119h-13zM1253 263v121h48v-11h-31v-41h25v-12h-25v-45h32v-12h-49zM1492 -387v119h48v-10h-31v-39h25v-13h-25
v-45h31v-12h-48zM1003 -387v119h47v-10h-30v-39h25v-13h-25v-45h30v-12h-47zM1162 -238v119h46v-12h-29v-40h25v-12h-25v-45h29v-10h-46zM853 -226q10 -5 14.5 -1t6.5 11.5t2 16.5v15q0 4 0.5 12t0.5 16t-2 14.5t-6 9.5q-11 6 -18 -2t-7 -18v-19q0 -4 -0.5 -12.5t-0.5 -17
t2 -16t8 -9.5zM1051 263v121h46v-11h-31v-41h26v-12h-26v-45h31v-12h-46zM1758 -371q10 -6 15 -2.5t7.5 10.5t2.5 16v15q0 4 0.5 12t-0.5 15.5t-3 14t-6 8.5q-12 8 -17 0t-5 -17v-18q0 -5 -1 -13t-1 -17t1.5 -16t6.5 -8zM751 -371q10 -6 15 -2.5t7 10.5t2 16v15q0 4 0.5 12
t0 15.5t-2 14t-5.5 8.5q-13 8 -18.5 0t-5.5 -17q-1 -5 -0.5 -9.5t0.5 -8.5q0 -5 -0.5 -13t-0.5 -17t1.5 -16t6.5 -8zM772 -238v119h46v-12h-28v-40h22v-12h-22v-55h-18zM903 56h16q13 0 17.5 -10t5.5 -21q1 -16 -3.5 -29.5t-16.5 -13.5h-19v74zM1712 -228q11 0 18.5 2
t9.5 15v63q-1 13 -9 15t-19 2v-97zM1033 -238v107h-22v12h61v-12h-22v-107h-17zM1689 49v45h-43v-45h43zM1452 -238v119h17v-109h30v-10h-47zM1579 263v110h-23v11h58v-11h-20v-110h-15zM903 164h15q11 0 15.5 -12t4.5 -26q0 -11 -4 -22t-15 -11h-16v71zM1258 -238v119h45
v-12h-32v-40h24v-12h-24v-55h-13zM1395 -238v119h16v-109h30v-10h-46zM1879 164h14q10 0 15 -10t5.5 -23t-2.5 -24t-9 -14h-23v71zM993 263v121h15v-109h31v-12h-46zM1528 263v121h18v-121h-18zM1326 -387v119h15v-107h32v-12h-47zM1611 789h40l-20 107zM409 -56h43v48h-43
v-48zM1217 -387v119h17v-119h-17zM1423 263v121h16v-121h-16zM1700 -387v119h15v-119h-15zM938 331h9t10 2q6 3 7 9t1 13q-1 14 -8.5 16t-18.5 2v-42zM1767 441v33h30v-33h-30zM926 -171q11 0 19 3.5t8 17.5t-8 16.5t-19 2.5v-40zM1569 -317q11 0 19 2.5t8 16.5q0 12 -8 16
t-19 4v-39zM1081 -317q11 0 18 2.5t7 16.5q0 12 -7 16t-18 4v-39zM1126 306h22l-9 55zM1269 -345h21l-10 55zM1562 -196h21l-11 54zM2140 43l8 51l7 -51h-15zM1184 -56h99v45h-56v212h-43v-257zM1343 -56v257h-44v-257h44z" />
    <glyph glyph-name="nine" unicode="9" horiz-adv-x="2602" 
d="M185 201l-30 -161l-29 161h-42l-4 -257h40l1 105l20 -105h30l21 106l2 -106h37l-2 257h-44zM2334 201l-30 -161l-29 161h-42l-4 -257h40l1 105l20 -105h30l21 106l2 -106h37l-2 257h-44zM939 -56q16 0 31.5 16t15.5 51q0 17 -4.5 35.5t-20.5 29.5q14 9 17.5 26t3.5 33
q0 35 -16 50.5t-31 15.5h-75v-257h79zM1492 110q0 22 -3 46.5t-25 38.5q-12 8 -28 8.5t-30 -3.5q-17 -6 -25.5 -21t-11.5 -32q-1 -10 -1 -19.5v-19.5v-70v-19.5t1 -19.5q3 -17 11.5 -32t25.5 -21q14 -4 30 -3.5t28 8.5q22 14 25 38.5t3 46.5v74zM1704 -56h47q35 0 51 19.5
t16 61.5v96q0 40 -16.5 60t-56.5 20h-41v-257zM1330 705q-53 0 -62 52q-2 11 -2 22v22q0 24 -1 51.5t5 50.5q6 20 21.5 29.5t34.5 10.5q20 1 37.5 -7t24.5 -28q8 -22 7.5 -49.5t-0.5 -51.5q0 -14 -0.5 -27.5t-3.5 -26.5q-11 -48 -61 -48zM1269 439q-25 0 -41 12.5t-21 36.5
q-2 12 -1.5 23.5t0.5 24.5q0 23 -1 49.5t4 49.5q6 21 21 30.5t35 9.5q21 1 38 -6t24 -27q9 -23 7 -50.5t-2 -50.5q0 -16 0.5 -28.5t-2.5 -26.5q-9 -47 -61 -47zM1836 201v-257h43v111h11l23 -111h43l-29 120q18 11 24 31.5t6 39.5q0 35 -15.5 50.5t-30.5 15.5h-75zM341 78
l-44 123h-33v-257h40v126l45 -126h32v257h-40v-123zM1593 77l-44 124h-33v-257h40v126l45 -126h32v257h-40v-124zM665 40h26v-16.5t-2 -22t-7.5 -17t-16.5 -2.5q-7 2 -10 9t-4 15.5t-0.5 17t0.5 13.5v61q0 12 -0.5 27.5t2.5 28.5q3 5 8.5 8.5t11.5 2.5q13 -4 14 -16
q2 -9 1.5 -18.5t-0.5 -20.5h43q0 22 -3 47t-25 39q-12 8 -28 8.5t-30 -4.5q-17 -5 -25.5 -20t-11.5 -32q-2 -18 -1.5 -37t0.5 -38q0 -18 -0.5 -35.5t1.5 -35.5q2 -15 7.5 -30.5t19.5 -22.5q13 -9 32 -8.5t30 11.5l1 -8h34v134h-67v-38zM984 707v235q23 0 47.5 0.5
t44.5 -10.5q12 -8 19 -23.5t7 -32.5t-7 -31.5t-21 -19.5l31 -118h-31l-31 111h-25v-111h-34zM2484 78l-21 23q-7 7 -13.5 13t-9.5 17q-3 8 -0.5 21.5t15.5 12.5q7 -1 10 -7t4.5 -13.5t2 -15.5t0.5 -14l40 2q0 24 -5 48t-28 34q-14 6 -28 5t-25.5 -7t-19 -17.5t-8.5 -26.5
q-2 -15 0.5 -31t11.5 -28q3 -8 9.5 -13t12.5 -12q12 -14 26 -29.5t14 -35.5q0 -8 -1.5 -14.5t-8.5 -7.5q-6 -2 -10 1t-6 8q-6 11 -7 22.5t-2 23.5l-40 -3q0 -17 1.5 -32t8.5 -30q8 -18 25.5 -26t36.5 -4q20 4 31.5 19t13.5 32q6 48 -30 85zM557 78l-21 23q-7 7 -13.5 13
t-9.5 17q-3 8 -0.5 21.5t15.5 12.5q7 -1 10 -7t4.5 -13.5t2 -15.5t0.5 -14l40 2q0 24 -5 48t-28 34q-14 6 -28 5t-25.5 -7t-19 -17.5t-8.5 -26.5q-2 -15 0.5 -31t11.5 -28q3 -8 9.5 -13t12.5 -12q12 -14 26 -29.5t14 -35.5q0 -8 -1.5 -14.5t-8.5 -7.5q-6 -2 -10 1t-6 8
q-6 11 -7 22.5t-2 23.5l-40 -3q0 -17 1.5 -32t8.5 -30q8 -18 25.5 -26t36.5 -4q20 4 31.5 19t13.5 32q6 48 -30 85zM2128 201l-47 -257h43l10 61h28l8 -61h43l-45 257h-40zM2014 56h46v45h-46v55h56v45h-99v-257h99v45h-56v67zM729 707v235h49q18 0 33.5 -4t24.5 -22
q5 -10 7.5 -22.5t1.5 -24.5t-6 -23t-14 -18q-13 -11 -31 -11h-33v-110h-32zM1365 441v233h22l66 -156v156h29v-233h-22l-68 159v-159h-27zM1427 707v235h22l65 -156v156h28v-235h-21l-68 159v-159h-26zM1566 707l49 235h32l49 -235h-30l-12 58h-47l-11 -58h-30zM818 442
q-21 -8 -46 -1t-34 32q-5 12 -6 25.5t-1 30.5v145h31v-156q0 -13 2 -30t17 -25q13 -4 21.5 0t13 12t6.5 18.5t2 20.5q1 20 0.5 37.5t-0.5 37.5v85h33v-107q0 -15 0.5 -34t-2 -37t-11 -33t-26.5 -21zM1069 -56h99v45h-56v212h-43v-257zM1189 705q-29 0 -45.5 19.5t-17.5 47.5
l30 8q2 -11 4 -22.5t9 -18.5q8 -8 19 -9t19 6q9 8 8.5 22t-7.5 25q-6 10 -26 25q-11 10 -23.5 20.5t-20.5 22.5t-10 26.5t1 27t11.5 22.5t22.5 14q13 3 29 1.5t27 -9.5q12 -8 16 -22t5 -28l-25 -8q-2 12 -6.5 26t-19.5 18q-11 1 -20 -4.5t-11 -15.5t1 -18.5t9 -15.5
t13.5 -13t14.5 -11q15 -14 29 -28.5t19 -34.5q5 -29 -10 -51t-45 -22zM945 439q-30 0 -45 19t-17 48l31 8q1 -11 2.5 -22t8.5 -19q8 -9 19 -10t19 7q10 8 9 22t-8 23q-5 7 -11.5 14t-14.5 12q-11 11 -24 21.5t-21 23.5q-7 11 -9 24.5t1.5 26.5t11.5 23t22 14q13 3 29 2
t28 -9q11 -8 15 -22.5t5 -28.5l-25 -9q-2 14 -6.5 27.5t-19.5 16.5q-11 2 -19.5 -3.5t-10.5 -17.5q-3 -9 0 -17t9 -15t13.5 -12.5t13.5 -11.5q16 -14 29.5 -28t17.5 -36q7 -27 -8.5 -49t-44.5 -22zM741 -88h37l73 322h-41zM1026 441v233h91v-25h-58v-76h47v-24h-47v-87h58
v-21h-91zM868 707v235h90v-25h-58v-76h47v-24h-47v-87h59v-23h-91zM1046 -56v257h-44v-257h44zM1253 466q7 -4 16 -4t14 4q9 5 12.5 13.5t5.5 17.5q1 5 0.5 12t-0.5 12v83q0 10 -1 20.5t-9 18.5q-13 13 -29 8q-16 -4 -23 -22q-3 -17 -2 -37t1 -37v-42q0 -12 1.5 -26
t13.5 -21zM1667 441v48q0 9 1 18t-1 17q-2 13 -6.5 23.5t-9.5 21.5l-33 105h30l35 -112l34 112h32l-16 -48t-16 -49l-16 -48q-3 -8 -2.5 -16t0.5 -14v-58h-32zM1317 732q13 -5 29 0q10 5 12.5 13.5t3.5 16.5v109q0 10 -1 20.5t-9 17.5q-5 8 -12.5 9t-15.5 -1q-17 -1 -22 -20
q-5 -17 -3 -37.5t2 -37.5v-43q0 -12 1 -26t15 -21zM1721 707v235h32v-212h60v-23h-92zM1518 441v233h32v-212h59v-21h-91zM760 -388q-15 0 -22 6.5t-9.5 16t-2.5 21v20.5q0 11 0.5 22t4 19t11 12.5t21.5 3.5q12 -1 18.5 -7t9 -15t2.5 -19.5v-19.5v-19.5t-3 -19.5t-10 -15
t-20 -6zM861 -240q-14 0 -21 6.5t-9.5 16.5t-2.5 21.5v21.5t0.5 20.5t4 18.5t10.5 13t21 4q12 -1 18 -7t9 -15t3 -19.5v-19.5t-0.5 -20t-3.5 -20t-9.5 -15t-19.5 -6zM1766 -388q-14 0 -21 6.5t-9.5 16t-2.5 21v20.5q0 11 0.5 22t4 19t11 12.5t21.5 3.5q13 -1 18.5 -7
t7.5 -15t1.5 -19.5t-0.5 -19.5v-19.5t-2.5 -19.5t-9 -15t-19.5 -6zM1696 -238v119q11 0 26 0.5t26 -8.5t10 -24.5t-1 -27.5t0.5 -28.5t-13.5 -24.5q-9 -8 -23 -7t-25 1zM1449 36q0 -11 0.5 -20.5t-1.5 -17.5q-1 -12 -14 -16q-6 -1 -11.5 2t-8.5 8q-3 11 -2.5 25.5t0.5 25.5
v60q0 11 -0.5 25.5t2.5 25.5q3 5 8.5 8t11.5 2q13 -4 14 -16q2 -8 1.5 -17.5t-0.5 -20.5v-74zM808 -387l2 119h18l21 -95l20 95h16l2 -119h-13l-1 88l-20 -88h-11l-19 88l-1 -88h-14zM1062 -387v119q12 0 24 1t22 -4q7 -4 10.5 -12t3.5 -17t-4 -16.5t-11 -10.5l17 -60h-16
l-14 57h-13v-57h-19zM905 -387l2 119h17l21 -95l21 95h17l1 -119h-11l-2 88l-21 -88h-11l-18 88l-2 -88h-14zM910 -238v119q11 0 22.5 1t21.5 -4q7 -4 11 -12.5t4.5 -17.5t-3 -16.5t-12.5 -10.5l18 -59h-17l-17 55h-12v-55h-16zM1552 -387v119q11 0 23 1t23 -4q6 -4 10 -12
t4 -17t-3.5 -16.5t-10.5 -10.5l15 -60h-15l-15 57h-14v-57h-17zM1759 156q6 0 9 -5t4 -10q2 -8 1.5 -17.5t-0.5 -18.5v-70q0 -10 0.5 -19t-1.5 -17q-1 -11 -13 -15h-13v172h13zM922 263v121h30t26 -12q4 -11 3 -25t-9 -21q-8 -6 -16.5 -6.5t-17.5 -0.5v-56h-16zM1080 -238
v119h15v-52h31v52h18v-119h-18v55h-31v-55h-15zM1618 -238v119h10l35 -79v79h13v-119h-10l-34 80v-80h-14zM1105 263l26 121h16l26 -121h-18l-5 32h-25l-5 -32h-15zM1817 -387v119h10l35 -79v79h13v-119h-11l-35 82v-82h-12zM1540 -238l23 119h18l25 -119h-16l-6 30h-24
l-7 -30h-13zM1246 -387l25 119h17l25 -119h-15l-5 31h-26l-5 -31h-16zM1776 491l-9 183h30l-10 -183h-11zM761 841q8 0 16 -0.5t18 1.5q12 3 15.5 12.5t3.5 20.5q1 13 -2 25t-17 16q-10 2 -18 1.5t-16 -0.5v-76zM1359 -238q-17 -5 -29.5 2.5t-16.5 24.5q-2 8 -1 15t1 13v64
h15v-53q0 -5 -0.5 -14.5t0.5 -18.5t4.5 -16t11.5 -7t12 7t5.5 16t1 18.5t-0.5 14.5v53h14v-54q0 -8 0.5 -17.5t-0.5 -19t-4.5 -17.5t-12.5 -11zM682 -388q-15 0 -22 9t-9 21.5t-1.5 27t0.5 25.5q0 16 8.5 28t28.5 10q18 -2 22 -14.5t4 -26.5h-16q0 5 0.5 10.5t-2.5 10.5
q-2 8 -11 9t-13 -7q-6 -6 -4.5 -20t1.5 -23q0 -7 -1.5 -20t5.5 -21q3 -7 12 -5.5t11 9.5q3 5 2.5 11t-0.5 11h16q0 -15 -5 -30t-26 -15zM1169 -388q-16 0 -22.5 9t-8 21.5t-0.5 27t1 25.5q0 16 7.5 28t27.5 10q19 -2 23 -14.5t4 -26.5h-18q0 5 1 10.5t-2 10.5q-2 8 -10.5 9
t-13.5 -7q-6 -6 -5 -20t1 -23q0 -7 -1 -20t6 -21q4 -7 12.5 -5.5t10.5 9.5q3 5 2 11t-1 11h18q0 -15 -5 -30t-27 -15zM1486 262q-16 0 -23 10t-8 25l16 5q0 -6 2.5 -14t8.5 -12q8 -2 12.5 2.5t4.5 11.5q1 12 -9.5 21.5t-18.5 17.5q-11 9 -15.5 24t8.5 27q17 8 33 3
q8 -4 11.5 -12.5t4.5 -16.5l-14 -3q-1 5 -2.5 11t-6.5 11q-5 2 -10.5 0t-6.5 -10q-6 -8 2 -16l14 -14q7 -6 14.5 -13.5t9.5 -18.5q5 -14 -2.5 -26.5t-24.5 -12.5zM1658 -388q-16 0 -23.5 10.5t-9.5 24.5l16 4q0 -6 2 -13.5t8 -9.5q9 -5 14 -0.5t5 11.5q0 12 -10.5 21.5
t-18.5 15.5q-11 11 -15 26.5t10 25.5q7 5 16.5 6t15.5 -3q8 -2 11.5 -10.5t4.5 -16.5l-14 -5l-2 12t-6 11q-16 4 -20 -9q-4 -9 3.5 -16t14.5 -13q7 -8 14.5 -15.5t9.5 -18.5q5 -14 -3 -26t-23 -12zM1212 262q-14 0 -22.5 10t-9.5 25l16 5q0 -6 2 -14t8 -12q8 -2 13.5 2.5
t5.5 11.5q0 12 -10.5 21.5t-18.5 17.5q-11 9 -15 24t9 27q7 4 16 4.5t16 -1.5q9 -4 12.5 -12.5t4.5 -16.5l-14 -3q-1 5 -2.5 11t-6.5 11q-6 2 -11.5 0t-7.5 -10q-3 -8 4 -16t12 -14q8 -6 16 -13.5t10 -18.5q5 -14 -3 -26.5t-24 -12.5zM1018 841h16t17 2q11 5 14.5 15.5
t1.5 23.5q0 11 -2.5 19t-13.5 13q-8 4 -17 3.5t-16 -0.5v-76zM1368 263l-27 121h18l17 -88l19 88h13l-25 -121h-15zM1439 -387l-27 119h15l20 -87l16 87h17l-28 -119h-13zM1253 263v121h48v-11h-31v-41h25v-12h-25v-45h32v-12h-49zM1492 -387v119h48v-10h-31v-39h25v-13h-25
v-45h31v-12h-48zM1003 -387v119h47v-10h-30v-39h25v-13h-25v-45h30v-12h-47zM1162 -238v119h46v-12h-29v-40h25v-12h-25v-45h29v-10h-46zM853 -226q10 -5 14.5 -1t6.5 11.5t2 16.5v15q0 4 0.5 12t0.5 16t-2 14.5t-6 9.5q-11 6 -18 -2t-7 -18v-19q0 -4 -0.5 -12.5t-0.5 -17
t2 -16t8 -9.5zM1051 263v121h46v-11h-31v-41h26v-12h-26v-45h31v-12h-46zM1758 -371q10 -6 15 -2.5t7.5 10.5t2.5 16v15q0 4 0.5 12t-0.5 15.5t-3 14t-6 8.5q-12 8 -17 0t-5 -17v-18q0 -5 -1 -13t-1 -17t1.5 -16t6.5 -8zM751 -371q10 -6 15 -2.5t7 10.5t2 16v15q0 4 0.5 12
t0 15.5t-2 14t-5.5 8.5q-13 8 -18.5 0t-5.5 -17q-1 -5 -0.5 -9.5t0.5 -8.5q0 -5 -0.5 -13t-0.5 -17t1.5 -16t6.5 -8zM772 -238v119h46v-12h-28v-40h22v-12h-22v-55h-18zM903 56h16q13 0 17.5 -10t5.5 -21q1 -16 -3.5 -29.5t-16.5 -13.5h-19v74zM1712 -228q11 0 18.5 2
t9.5 15v63q-1 13 -9 15t-19 2v-97zM1033 -238v107h-22v12h61v-12h-22v-107h-17zM1689 49v45h-43v-45h43zM1452 -238v119h17v-109h30v-10h-47zM1579 263v110h-23v11h58v-11h-20v-110h-15zM903 164h15q11 0 15.5 -12t4.5 -26q0 -11 -4 -22t-15 -11h-16v71zM1258 -238v119h45
v-12h-32v-40h24v-12h-24v-55h-13zM1395 -238v119h16v-109h30v-10h-46zM1879 164h14q10 0 15 -10t5.5 -23t-2.5 -24t-9 -14h-23v71zM993 263v121h15v-109h31v-12h-46zM1528 263v121h18v-121h-18zM1326 -387v119h15v-107h32v-12h-47zM1611 789h40l-20 107zM409 -56h43v48h-43
v-48zM1217 -387v119h17v-119h-17zM1423 263v121h16v-121h-16zM1700 -387v119h15v-119h-15zM938 331h9t10 2q6 3 7 9t1 13q-1 14 -8.5 16t-18.5 2v-42zM1767 441v33h30v-33h-30zM926 -171q11 0 19 3.5t8 17.5t-8 16.5t-19 2.5v-40zM1569 -317q11 0 19 2.5t8 16.5q0 12 -8 16
t-19 4v-39zM1081 -317q11 0 18 2.5t7 16.5q0 12 -7 16t-18 4v-39zM1126 306h22l-9 55zM1269 -345h21l-10 55zM1562 -196h21l-11 54zM2140 43l8 51l7 -51h-15zM1184 -56h99v45h-56v212h-43v-257zM1343 -56v257h-44v-257h44z" />
    <glyph glyph-name="colon" unicode=":" horiz-adv-x="292" 
d="M22 171q15 23 30.5 34.5t32.5 14.5q31 4 53 -19q19 -24 14 -67q-10 -47 -38 -61q-30 -13 -59 -3q-28 11 -42 40q-13 28 9 61zM126 439q29 44 63 49q32 5 53 -19q19 -26 12 -67q-9 -47 -38 -61q-26 -14 -58 -3q-29 12 -41 40q-14 26 9 61z" />
    <glyph glyph-name="semicolon" unicode=";" horiz-adv-x="302" 
d="M40 171q21 37 54 42q33 4 58 -16q24 -21 18 -63q-6 -23 -18 -51.5t-32 -63.5t-37.5 -61t-31.5 -44q-8 -11 -21 -8q-7 2 -12 5t-10 8q-8 11 -3 23q36 62 49 140q-41 30 -14 89zM134 439q31 44 64 49t52 -19q20 -23 14 -67q-9 -47 -38 -61q-28 -14 -58 -3q-31 13 -42 40
q-14 26 8 61z" />
    <glyph glyph-name="less" unicode="&#x3c;" horiz-adv-x="475" 
d="M378 617q26 0 43 -23q17 -25 20 -46q3 -23 -15 -23q-6 0 -21 -5l-39 -13q-23 -9 -48.5 -19t-52.5 -23q-27 -11 -51 -23t-44 -23q-41 -21 -41 -29q0 -11 29 -34q30 -27 67 -51q20 -14 37.5 -25.5t34.5 -21.5q34 -20 44 -20q9 0 6 -12q-2 -6 -5.5 -13t-10.5 -15
q-11 -16 -29 -28q-17 -12 -36 -12q-26 0 -91 50q-32 26 -61.5 52t-57.5 54q-56 56 -56 76q0 15 50 53q25 19 54 38t63 39t65.5 37t62.5 31q58 29 83 29z" />
    <glyph glyph-name="equal" unicode="=" horiz-adv-x="554" 
d="M445 352q34 -3 35 -27q0 -28 -21 -52q-19 -26 -45 -26h-368q-29 0 -38 15q-8 13 -3 34q6 20 20 34q13 15 31 15q32 1 64.5 1.5t65.5 0.5q66 2 129.5 2.5t129.5 2.5zM488 507q35 -2 35 -27q0 -27 -20 -51q-20 -27 -46 -27h-367q-28 0 -38 16q-9 14 -3 34q5 17 19 34
q17 15 31 15q25 0 49.5 0.5t48.5 0.5q73 2 145.5 3t145.5 2z" />
    <glyph glyph-name="greater" unicode="&#x3e;" horiz-adv-x="474" 
d="M178 617q27 0 89 -50q33 -25 62.5 -51.5t58.5 -54.5q55 -55 55 -75q0 -16 -49 -55q-25 -18 -54 -37t-63 -40q-34 -19 -66 -36t-62 -32q-31 -14 -51.5 -21t-31.5 -7q-12 0 -23.5 5.5t-19.5 17.5q-17 22 -20 46q-2 23 14 23q7 0 22 5t38 13q24 9 49 19.5t52 22.5
q28 12 52 23.5t44 22.5q41 20 41 30t-29 33q-30 27 -67 51q-37 27 -73 47q-32 19 -43 19t-6 13q1 6 5 13t9 15q12 15 30 28q16 12 37 12z" />
    <glyph glyph-name="question" unicode="?" horiz-adv-x="622" 
d="M434 806q56 -6 92 -47q40 -41 52 -105q14 -62 -15 -127q-26 -54 -86 -97q-58 -40 -127 -77q-70 -36 -129 -80q-57 -42 -75 -99q-11 -26 -32 -32q-22 -7 -40 5q-17 11 -12 43q10 78 72 135q30 28 65.5 54t75.5 51q73 46 137 100q62 53 86 128q8 34 -28 38q-37 5 -91 -13
q-28 -8 -55 -19.5t-54 -27.5q-52 -29 -80 -66q-27 -36 -3 -72q-33 -15 -57 22q-21 37 -20 91q3 57 43 95q51 43 127 73q40 14 78.5 21.5t75.5 5.5zM20 40q38 73 74 61q39 -11 40 -75q-2 -55 -39 -67q-35 -13 -65 9q-31 23 -10 72z" />
    <glyph glyph-name="at" unicode="@" horiz-adv-x="859" 
d="M505 798q99 0 161 -36q62 -40 91 -98q14 -31 22 -63.5t10 -68.5q2 -74 -16 -144q-19 -71 -55 -133q-34 -60 -80 -97q-45 -36 -96 -36q-48 0 -83 31q-33 32 -41 85q-36 -90 -89 -112q-54 -21 -94 16q-40 35 -45 120q0 45 9.5 89.5t26.5 91.5q37 94 97 154q50 43 100 37
q51 -9 70 -68q14 28 41 52q12 6 26 5.5t30 -10.5q31 -19 46 -45q15 -28 -4 -41q-11 -7 -22.5 -22.5t-22.5 -42.5q-11 -25 -20.5 -52.5t-17.5 -59.5q-8 -31 -10.5 -57.5t-2.5 -50.5q3 -46 29 -49q21 -1 45 26q21 27 41 74q9 24 16.5 49t12.5 53q10 56 10 113q-3 59 -20 103
q-16 47 -54 76t-99 29q-91 0 -163 -42q-71 -43 -121 -111q-25 -34 -44 -70.5t-31 -75.5q-12 -40 -18.5 -77.5t-5.5 -75.5q2 -37 9.5 -68.5t23.5 -59.5q16 -26 39 -45t55 -29q20 -5 42 -4.5t47 7.5q48 12 61 52q31 0 28 -23q-2 -25 -29 -57q-29 -32 -73 -54
q-23 -11 -47.5 -15t-53.5 0q-44 8 -78 25t-60 42q-52 52 -70 127t-7 162q12 83 50 169q40 86 101 153q32 35 68 62t78 49q83 41 187 41zM450 454q12 79 -12 87q-26 8 -68 -82q-6 -14 -12 -30.5t-14 -36.5t-13.5 -39t-9.5 -39q-11 -39 -8 -64q1 -27 23 -27q23 0 56 70
q17 35 31.5 75t26.5 86z" />
    <glyph glyph-name="A" unicode="A" horiz-adv-x="586" 
d="M471 493q15 33 30.5 69.5t28 66.5t18.5 49t1 18q-48 -34 -96 -84t-99 -122q35 9 61.5 8t55.5 -5zM437 402q-2 8 -23 9.5t-48 -3t-53.5 -14t-40.5 -21.5q-7 -10 -21 -36t-30.5 -61t-33 -75.5t-27.5 -80.5t-14.5 -76t6.5 -62q4 -9 1 -14t-8.5 -6.5t-12 0t-10.5 4.5
q-17 15 -31.5 41.5t-17.5 68.5t10.5 101t54.5 139q-1 0 -16 -12t-33 -29t-33 -36.5t-16 -35.5q-11 -6 -24.5 4t-23.5 27t-13 37.5t8 34.5q14 18 45.5 41t67.5 44.5t70 38.5t53 24q29 45 65 92.5t75 91t78 80t74 60.5q22 15 49 14t48.5 -12t34.5 -29.5t7 -39.5
q-8 -26 -21 -62.5t-24 -64.5q-26 -65 -55 -139t-56 -148.5t-50 -146.5t-38 -133q-5 -18 -24 -24t-39 -3t-35 14t-10 26q26 93 61 185.5t74 186.5z" />
    <glyph glyph-name="B" unicode="B" horiz-adv-x="642" 
d="M275 382q12 13 39 39t58.5 58t62.5 67.5t52 67t26.5 56.5t-14.5 37q-9 6 -28 3.5t-42 -10t-47.5 -19.5t-45.5 -27q6 -1 15 -5t16 -10.5t10 -14.5t-1 -16q-13 -25 -26.5 -54.5t-26.5 -60t-25.5 -59.5t-22.5 -52zM179 -20q16 7 40 25.5t51 43.5t55 53.5t51.5 56.5t40 52
t21.5 39q-30 -19 -71.5 -52t-80.5 -71t-69 -77t-38 -70zM279 620q-53 -42 -92 -87t-57 -81t-12 -57t42 -16q-4 -21 -26 -26t-46.5 4t-43.5 31.5t-17 57.5q2 30 23.5 67t55.5 75t77.5 73.5t89.5 63t92 42.5t85 13q31 -2 60 -18.5t49.5 -41t29 -53.5t-1.5 -55t-27 -49.5
t-35.5 -43.5t-36.5 -36t-30 -26q29 -3 57.5 -23.5t44.5 -47.5q37 13 67.5 24t65.5 14q6 1 8.5 -7.5t2 -20t-5.5 -21.5t-15 -12q-32 -7 -63 -18t-50 -21q-6 -48 -32.5 -101t-66 -105t-89.5 -98.5t-104 -80.5q-51 -33 -93 -38.5t-65.5 11t-24 51.5t30.5 83q28 42 70 86
t89 83.5t94.5 72.5t86.5 54q1 1 1.5 8t-1 15t-5.5 16t-12 11q-16 6 -39 -3t-48.5 -27t-51 -42t-48 -47t-39.5 -43t-24 -30q-13 -17 -25.5 -17t-23.5 5q-14 7 -22 19.5t-2 29.5q11 35 30.5 87.5t41.5 107t44 105.5t37 83z" />
    <glyph glyph-name="C" unicode="C" horiz-adv-x="526" 
d="M170 45q35 -4 73.5 13t76.5 46t74.5 67.5t67.5 77.5t55.5 75.5t39.5 63.5q8 15 19 18t19 -1.5t10.5 -15.5t-5.5 -25q-53 -90 -110 -166.5t-117.5 -130.5t-124 -81.5t-130.5 -19.5q-43 4 -70.5 28.5t-42 63t-17 88.5t5.5 106q9 68 32 140t55.5 140t74 126t88.5 97t97.5 55
t101.5 -1q32 -10 45.5 -43.5t13.5 -80t-11 -101.5t-28 -109t-38 -102.5t-41 -82.5q-6 -9 -24 -8t-34.5 10t-25 23.5t5.5 31.5q10 13 27 47t35 77.5t33 91t21 87.5t0 66t-30 28q-24 1 -54.5 -27.5t-62.5 -76t-62.5 -109t-55 -126.5t-40 -128t-16.5 -113t15 -82.5t54 -36.5z
" />
    <glyph glyph-name="D" unicode="D" horiz-adv-x="786" 
d="M431 494q63 44 120 75t119 62q4 18 -4 42t-34 37t-72.5 8t-119.5 -44q10 0 21.5 -5t20.5 -12t13 -16t0 -17q-23 -41 -38.5 -74t-25.5 -56zM667 549q-18 -8 -59 -30t-87.5 -51t-88.5 -60t-61 -56q-28 -65 -48 -134.5t-31 -119.5q-3 -12 -17 -16.5t-29.5 -2.5t-27.5 9
t-12 19q0 6 4 21t9.5 35t12.5 41l13 39q-36 -29 -69.5 -72t-54.5 -83.5t-24.5 -71t20.5 -36.5q35 -8 85.5 11.5t106.5 59.5t113 97t106.5 123t86.5 137t52 141zM395 647q-26 -14 -61 -41.5t-68.5 -60.5t-62 -68t-42 -64t-7 -48.5t41.5 -20.5q-17 -16 -42.5 -15t-46.5 16
t-31 43.5t4 66.5q19 49 63.5 102t101.5 98.5t119.5 79t116.5 44.5q42 9 84.5 2t79.5 -23.5t65.5 -41.5t40.5 -52q51 16 88.5 12t60 -19t28.5 -38t-5 -45q1 14 -10.5 26t-32 16.5t-49 0.5t-61.5 -21q6 -50 -12.5 -116.5t-57.5 -138t-96.5 -142.5t-128.5 -129
q-87 -72 -172.5 -110.5t-151 -42.5t-102 26.5t-27.5 95.5q4 29 18.5 65t41.5 79q21 34 45.5 62.5t51.5 54t56.5 50.5t59.5 51q3 7 11.5 28.5t22 54.5t30.5 74.5t36 88.5z" />
    <glyph glyph-name="E" unicode="E" horiz-adv-x="596" 
d="M600 252q-16 -35 -54 -78t-88.5 -83t-109 -71.5t-114.5 -45.5t-105 -4.5t-82 52.5q-29 38 -29 80t18 85q19 46 53 89.5t69 78t64.5 56.5t40.5 26q-13 12 -27.5 26t-25.5 30.5t-15 36.5t4 44q10 28 32.5 54.5t48 49t48 38.5t32.5 22q38 22 68 31.5t53 8.5t40.5 -10.5
t30.5 -23.5q17 -20 22 -45.5t-2.5 -52.5t-28.5 -55t-55 -53q-12 -9 -31 -1t-33 22.5t-16.5 30.5t18.5 24q12 4 28.5 15t29 23.5t18.5 25.5t-1 21q-4 5 -23.5 -2.5t-46 -23t-55.5 -36.5t-53.5 -44.5t-40 -46.5t-13.5 -42q1 -14 11 -19t22 -5.5t23.5 2t15.5 3.5q18 5 35 -9.5
t27.5 -33.5t11 -36t-15.5 -18q-15 -2 -44 -18.5t-62.5 -42.5t-68 -58.5t-62 -66t-43 -65.5t-10.5 -56q5 -30 36 -34t75.5 10.5t98.5 44.5t105.5 69.5t95.5 85t70 91.5q7 13 12.5 5.5t7 -24.5t-0.5 -39t-9 -38z" />
    <glyph glyph-name="F" unicode="F" horiz-adv-x="537" 
d="M181 585q22 -10 37 -19t26 -21.5t18 -30.5t13 -46l66 183q-24 -9 -42.5 -16.5t-36.5 -15t-37 -16t-44 -18.5zM546 816q24 -1 40 -13.5t24.5 -30t11 -37t0 -33.5t-9 -20t-14.5 4q-14 16 -44 18t-64.5 -4t-66.5 -16t-49 -19q11 1 23 -2.5t21 -9.5t14.5 -14t2.5 -14
l-98 -252q37 21 73.5 15.5t61.5 -21.5t33 -35t-11 -26q-3 1 -10.5 6t-27.5 4t-57 -11.5t-100 -38.5l-109 -286q-6 -16 -24 -18.5t-36 3.5t-30 19t-6 29l72 189q-5 -2 -14 -8l-19.5 -13t-20 -13.5t-14.5 -9.5q-11 -7 -26.5 1t-27.5 22t-16 29t8 22q22 13 44.5 25t43.5 23.5
t38 20.5t28 16q5 21 10 50t7.5 58.5t0.5 57.5t-12 47.5t-29.5 28t-52.5 -0.5q-15 -5 -28.5 5.5t-20 26.5t-4 32t17.5 23q69 30 136.5 61t128 56t112 40t90.5 14z" />
    <glyph glyph-name="G" unicode="G" horiz-adv-x="658" 
d="M137 247q29 23 64.5 57t72.5 72.5t73 79t66.5 76.5t53 65t32.5 45q2 3 3.5 9.5t1.5 14t-2.5 14t-7.5 10.5q-19 16 -44.5 9t-54.5 -30t-60 -58t-60 -76t-54.5 -84.5t-44.5 -83t-29.5 -71t-9.5 -49.5zM546 695q11 14 22 27.5t15 19.5q9 12 28 13t37 -4.5t31 -16t11 -22.5
q-12 -59 -30.5 -128.5t-42.5 -142t-55 -144.5t-67 -135t-78.5 -113t-90.5 -79q-51 -30 -101.5 -37.5t-92.5 2.5t-71.5 35t-38.5 60q-12 50 20 104q6 -30 16 -56.5t24 -46t31 -30.5t37 -9q50 4 106.5 52t110.5 126.5t100 180.5t74 214q-19 -24 -49.5 -61t-66 -78.5t-74 -83.5
t-73 -76.5t-63 -58t-44.5 -26.5q-24 -6 -50 4t-46 27.5t-31.5 38t-8.5 35.5q15 62 52 136t87 140.5t108.5 114.5t116.5 58q42 7 81 -4.5t66 -35.5z" />
    <glyph glyph-name="H" unicode="H" horiz-adv-x="921" 
d="M487 386q-22 -8 -55.5 -29t-73 -52.5t-82 -71t-82.5 -83.5q-66 -75 -84 -118.5t-0.5 -52t64 19t109.5 94.5q34 35 64 74.5t56 78.5t47.5 75t36.5 65zM738 66q27 15 60 56q29 35 68.5 100.5t89.5 175.5q4 5 11 5t13.5 -3t10 -9.5t-0.5 -14.5q-31 -79 -64 -146t-65.5 -118
t-61.5 -84.5t-53 -45.5q-14 -7 -32 -5t-35 9t-30.5 17t-17.5 21q-9 26 -3 71t22.5 101.5t41 121t52.5 130.5q-14 1 -31.5 0t-35 -3.5t-33.5 -6.5t-26 -8q-16 -42 -40.5 -93t-56 -104t-70 -104.5t-81.5 -94.5q-48 -47 -97 -75t-92.5 -38.5t-78 -4t-52.5 29.5q-20 23 -19 62.5
t31 93.5q37 66 119 148q69 68 154 125t188 93q4 9 11.5 32.5t14 52.5t11 61t2 59.5t-13.5 47t-34 23.5q-29 5 -68 -9.5t-80.5 -42t-82 -65t-70.5 -78.5t-47 -82.5t-11 -77.5q5 -28 32 -42.5t61 -2.5q-14 -12 -34 -18.5t-42.5 -7t-44.5 5t-39 19t-26.5 35t-6.5 51.5
q4 39 26.5 85.5t58.5 92t82.5 84.5t98.5 64.5t106.5 32.5t106.5 -13q61 -23 90.5 -52.5t37 -65t0 -76.5t-19.5 -87q42 4 70.5 3t50.5 -6q21 43 40.5 82.5t36.5 72t31 56.5t24 36t27.5 7t33 -17.5t24 -28t-0.5 -24.5q-17 -17 -46 -65t-61 -110.5t-62.5 -132.5t-51.5 -132
t-28 -108t8 -61z" />
    <glyph glyph-name="I" unicode="I" horiz-adv-x="354" 
d="M215 -66q-18 9 -45 11.5t-55.5 0t-55.5 -8.5t-45 -15q-5 -2 -11.5 8.5t-10 25.5t-2.5 29.5t12 20.5q26 12 68 20q12 79 36 165.5t55.5 170.5t68 162t72.5 140q-38 -8 -61 -16q-8 -4 -15.5 8t-12 28.5t-5.5 32t3 17.5q9 6 33.5 11.5t56.5 10t68 8t68 4.5t56 -1t33 -7
q10 -7 11.5 -23t-2 -32.5t-9 -30t-8.5 -14.5q-31 12 -78 14l-2 -4q-40 -46 -74.5 -101.5t-63.5 -115t-51.5 -120t-39.5 -116t-27 -103.5t-14 -81q20 -1 34 -2.5t19 -6.5q8 -6 9 -20t-1.5 -28t-6.5 -26.5t-7 -15.5z" />
    <glyph glyph-name="J" unicode="J" horiz-adv-x="718" 
d="M533 426q-41 -24 -83.5 -56.5t-83 -69.5t-77.5 -77t-67 -77q-60 -75 -80 -125.5t-3 -62t70 24t139 131.5q36 40 64.5 82t50.5 82.5t39 78t31 69.5zM258 342q-14 -14 -37 -24.5t-49 -15.5t-52.5 -3.5t-48 11.5t-35.5 29.5t-14 50.5q-1 40 19.5 90.5t56.5 101.5t85.5 98.5
t107 82t120.5 52t127 9.5q63 -8 99.5 -31.5t53 -58.5t17 -79t-8.5 -93q35 6 59 -4t39 -27q-36 -7 -69 -19.5t-50 -25.5q-13 -45 -34.5 -99t-51.5 -111t-68 -114.5t-84 -108.5q-48 -54 -98.5 -89.5t-98 -53.5t-87.5 -19t-66 15t-34.5 48t6.5 83q14 41 44.5 91t83.5 113
q31 37 72 74t89 72.5t102 68t112 59.5q3 9 9 33.5t11.5 55t7.5 64t-4.5 60.5t-23 44.5t-47.5 17.5q-34 -1 -78 -22.5t-89.5 -57t-87.5 -80t-72 -91t-44 -91t-2 -79.5q4 -14 15 -23t27 -13t34.5 -2t36.5 11z" />
    <glyph glyph-name="K" unicode="K" horiz-adv-x="708" 
d="M286 459q-2 -14 3 -34t13 -39.5t18 -36t17 -23.5q5 7 13 24.5t18.5 41t22 52.5t23.5 61q16 43 29 87.5t20 82t5.5 64t-15.5 35.5q-25 14 -59.5 -2t-72 -52.5t-75 -87.5t-68 -106.5t-50 -110.5t-22.5 -98.5t15 -70.5t64 -28q-35 -17 -72 -16.5t-63 24.5q-10 9 -17.5 22
t-11.5 30q-3 11 -5 23t0 25q1 36 20 93q14 44 38 94.5t56 100t70.5 92.5t82.5 72t92.5 38.5t99.5 -8.5q39 -13 55 -48t15.5 -81t-13 -98.5t-29.5 -102t-35.5 -91t-30.5 -65.5q8 7 32 29.5t56.5 55.5t70 73t72.5 81t64.5 79.5t45 69.5t14 50.5t-27.5 21.5q18 14 41 11.5
t42.5 -16t30 -35.5t4.5 -46q-9 -34 -37 -74.5t-67.5 -83.5t-87.5 -86.5t-96.5 -84t-94.5 -75.5t-81 -60q13 -15 37.5 -36.5t55.5 -45.5t66 -48.5t68.5 -44.5t63 -34t50.5 -17q10 -2 23 -0.5t25 6t21.5 11.5t12.5 17q6 1 5 -11t-8 -29t-19.5 -36t-30 -33.5t-39.5 -21.5t-47 1
q-45 15 -95.5 47t-98 69.5t-86.5 74.5t-62 62q-7 -14 -20 -38.5t-28 -49.5t-30.5 -46.5t-27.5 -30.5q-8 -6 -28 -3t-39.5 10.5t-32 18.5t-4.5 22q19 11 41 35t44 53q18 26 34 51.5t27 47.5q-11 16 -25 40.5t-21 54.5q-6 31 0 64.5t36 66.5z" />
    <glyph glyph-name="L" unicode="L" horiz-adv-x="646" 
d="M725 821q24 -10 35 -28.5t12 -42.5t-5 -51t-16 -53t-22.5 -49t-22.5 -39q-66 -103 -144.5 -171t-175.5 -113q-16 -44 -25 -80.5t-14 -68.5q108 14 179 -10q30 -10 56.5 -36.5t42.5 -57t18 -58.5t-17 -41q0 37 -21.5 63t-58 41t-86.5 18t-106.5 -7.5t-118 -34.5
t-121.5 -62q-10 -7 -25.5 3.5t-27.5 27t-17 33.5t6 25q48 23 95.5 41.5t92.5 30.5q3 31 12.5 70.5t20.5 79.5q-6 -2 -24.5 -3t-41.5 -1.5t-47.5 1t-43.5 5.5q-40 9 -61.5 34t-29 52.5t-3 50.5t15.5 27q-1 -20 14 -35t39 -25t54 -16.5t60 -8.5t55.5 -0.5t41.5 6.5
q29 81 64.5 160t89.5 161q20 32 48.5 67.5t63 62t75 38t84.5 -5.5zM594 679q-26 -33 -51.5 -72t-49 -79.5t-43.5 -80t-33 -73.5q37 15 75.5 45t73 68t63 80t46.5 82q24 52 30 83t-4.5 37t-37.5 -15.5t-69 -74.5z" />
    <glyph glyph-name="M" unicode="M" horiz-adv-x="864" 
d="M813 -42q-27 -23 -60 -25.5t-60 16t-43 56.5t-9 96q6 51 18 108t25 109.5t25.5 94t20.5 61.5q-5 -8 -18.5 -32t-30.5 -55.5t-36.5 -68t-36 -70.5t-28.5 -62t-15 -43q-2 -7 -16.5 -9t-32 2t-31.5 14.5t-15 30.5q-1 13 2.5 37.5t9.5 55.5t14 64.5t15.5 64t13.5 55t10 36.5
q-37 -59 -70 -122.5t-61 -126.5t-51 -121t-39 -106q-4 -12 -24 -12t-40.5 9.5t-34 26.5t-4.5 40l11.5 27.5t29 72.5t38 102t40 116.5t34 116.5t20.5 101.5t-0.5 71.5t-29.5 27q-24 -1 -52 -24t-55 -60.5t-51.5 -84.5t-41 -95.5t-23 -94t1.5 -78.5q7 -26 30.5 -34.5t50.5 8.5
q-4 -15 -21.5 -25.5t-40 -13t-46.5 3t-42 23t-26.5 47.5t0.5 76q13 66 43.5 138t74 131t97 97.5t112.5 38.5q43 0 66.5 -22.5t31.5 -57t5 -78t-12 -87t-21 -82.5t-21 -65q16 32 42.5 80t54.5 96.5t53.5 89.5t40.5 60q8 10 25.5 6t34 -16t26.5 -27t4 -25q-24 -42 -42.5 -92.5
t-32 -97t-21.5 -83t-12 -51.5q6 12 24 45t42.5 77.5t53.5 94.5t57 94.5t52 79.5t39 49q7 7 22.5 2.5t30.5 -14t24.5 -22t3.5 -22.5q-15 -26 -36 -72.5t-44 -105.5t-45.5 -125.5t-39.5 -131t-26.5 -123t-6.5 -102t20.5 -67t54.5 -17.5z" />
    <glyph glyph-name="N" unicode="N" horiz-adv-x="746" 
d="M685 -42q-25 -22 -56 -25.5t-58 11t-44.5 47t-16.5 81.5q2 51 17 112t35 123.5t40 123.5t32 113q15 61 9 85.5t-26 18.5t-49.5 -38t-60.5 -84q-51 -84 -108.5 -207.5t-114.5 -300.5q-4 -12 -24.5 -11.5t-41.5 10t-34 26.5t-2 39q6 13 20.5 47t33 81t38.5 103t37.5 112.5
t30 109.5t16.5 93.5t-3.5 64.5t-30.5 24q-24 -1 -52 -24t-55 -60.5t-51 -84.5t-40.5 -95.5t-23 -94t1.5 -78.5q3 -13 11.5 -21.5t19.5 -12.5t24 -2t26 10q-4 -15 -21.5 -25.5t-40 -13t-46 3t-41.5 23t-26.5 47.5t0.5 76q9 44 25.5 91.5t39.5 92.5t52 85t62 70.5t69.5 48
t75.5 17.5q43 0 65.5 -21.5t31 -54t5 -72.5t-11 -77t-17 -67t-14.5 -43q10 21 27.5 57t40.5 76t51.5 78.5t60.5 66t66.5 37.5t70.5 -6q18 -8 29.5 -29t14 -56t-6 -86t-29.5 -119q-18 -58 -37 -118.5t-33.5 -117.5t-23 -106.5t-6 -85.5t18 -54.5t48.5 -13.5z" />
    <glyph glyph-name="O" unicode="O" horiz-adv-x="690" 
d="M300 -18q44 23 85.5 68t76.5 102.5t62 123.5t43 131.5t19.5 125t-8.5 105.5q-5 16 -13 30t-22.5 21.5t-37 6t-55.5 -15.5q-65 -29 -123 -82t-102.5 -117.5t-73.5 -134.5t-37.5 -133t6 -112t57.5 -71q-17 35 -19.5 82.5t6.5 100t28 106t45 101.5t57.5 86.5t66.5 60.5
q15 10 32 2.5t29.5 -21.5t17.5 -29t-3 -21q-33 -25 -62.5 -66t-52 -90t-37.5 -102t-19 -102t3.5 -90t30.5 -66zM674 618q15 -53 11 -119.5t-21.5 -137t-46.5 -139.5t-65 -127.5t-75.5 -101t-78.5 -59.5q-26 -11 -59 -8t-63.5 14.5t-55 30t-34.5 39.5q-85 17 -123 67.5
t-42 118.5q-2 51 12.5 109t42 115.5t65.5 111.5t82 98.5t91 76.5t94 44q42 12 86 3.5t81.5 -29.5t64 -49.5t34.5 -57.5z" />
    <glyph glyph-name="P" unicode="P" horiz-adv-x="622" 
d="M276 216q20 -12 45.5 -0.5t54.5 42t60.5 79t63.5 110.5q22 44 39.5 87t26.5 78.5t8 60.5t-17 33q-10 4 -30 1.5t-44.5 -11t-50.5 -21t-48 -27.5q7 0 15.5 -6t15 -14.5t9 -18t-1.5 -17.5q-8 -18 -20 -49t-26 -68t-29 -76.5t-28.5 -75t-24.5 -64t-18 -43.5zM325 614
q-55 -42 -94.5 -86t-57.5 -79t-11 -55t45 -14q-3 -9 -15 -14t-28 -5.5t-34.5 3t-33.5 13t-24.5 25t-8.5 37.5q2 29 23 65t55.5 73.5t79 73t93 63.5t97 44.5t90.5 15.5q33 -1 65 -18.5t55.5 -43.5t35.5 -56.5t7 -57.5q-8 -36 -26.5 -87t-47 -105t-64.5 -104.5t-77.5 -84.5
t-88 -45t-95.5 14q-10 -26 -21.5 -52.5t-24.5 -52t-26 -48t-25 -39.5q-17 -24 -40 -36t-46 -14.5t-44.5 2t-35.5 13.5t-19 20.5t4 22.5q21 -14 45.5 2.5t51 53t53 89t52 110.5t48.5 117t41 108.5t30 85t17 46.5z" />
    <glyph glyph-name="Q" unicode="Q" horiz-adv-x="718" 
d="M314 14q88 58 154 184q64 126 93 264q26 137 1 230q-10 34 -39 49q-30 13 -91 -19q-97 -54 -171 -152q-37 -50 -65 -101t-47 -106q-41 -110 -32 -195q8 -86 73 -117q-37 70 -22 181q8 55 23 108t40 105q47 101 116 158q16 10 33 4q8 -3 16 -7.5t14 -12.5q15 -13 19 -27
q6 -12 -3 -21q-65 -59 -106 -165q-41 -104 -47 -208q-5 -103 41 -152zM505 56q14 0 27.5 -1t26.5 -3q40 -9 72 -41t44 -66q12 -35 -8 -55q-13 66 -80 73q-67 9 -170 -21t-217 -106q-10 -7 -26 2q-17 10 -33 26q-16 15 -23 32q-6 18 2 26q29 17 60.5 33t67.5 33q-17 8 -29 19
t-21 24q-134 21 -164 124q-13 51 -8.5 110t28.5 126q48 134 139 247q92 112 193 152q88 25 169 -12q80 -37 103 -98q33 -109 2 -256q-16 -75 -40.5 -143t-57.5 -132q-15 -27 -29.5 -50t-29.5 -43h2z" />
    <glyph glyph-name="R" unicode="R" horiz-adv-x="600" 
d="M226 238q29 -16 66.5 3t75 59t71 94.5t53.5 108.5t22.5 102t-20.5 75q-7 8 -26.5 7t-44 -8.5t-51 -20.5t-48.5 -28q7 0 16.5 -3.5t17 -9.5t12 -13.5t0.5 -16.5q-9 -16 -21 -44t-25.5 -61.5t-28 -70.5t-27.5 -70.5t-24 -60.5t-18 -42zM106 330q6 -11 15 -22t20 -25
l124 313q-56 -42 -88.5 -76.5t-41.5 -58t5.5 -33.5t53.5 -4q-5 -13 -28.5 -18t-49.5 1t-47 24t-19 51q0 21 19 50t50 59.5t71 60t83.5 53t87 37.5t81.5 13q33 0 65 -21t56.5 -51.5t38.5 -64.5t11 -61q-3 -33 -18.5 -76.5t-40.5 -88.5t-58 -88t-71.5 -75t-81.5 -48.5
t-87 -9.5q35 -30 72.5 -58t73.5 -50t68.5 -36t57.5 -16q26 -2 43 8t22 25q9 -1 9 -12.5t-7.5 -27t-21 -33t-31 -31t-38.5 -19.5t-43 0q-27 7 -61.5 26.5t-72 46.5t-75.5 59.5t-71 65.5l-68 -184q-3 -9 -19.5 -8.5t-33.5 6.5t-29.5 15.5t-8.5 20.5q14 36 37.5 98.5
t50.5 134.5l-6 8l-6 8q-9 14 -12.5 31t-2.5 33t7 29t16 19z" />
    <glyph glyph-name="S" unicode="S" horiz-adv-x="645" 
d="M173 258q-17 -14 -34 -38t-28.5 -51t-15.5 -53.5t3.5 -46t29 -28t62.5 0.5q40 10 83 32t79 50.5t59 59.5t23 58q0 29 -19.5 49t-49 35.5t-65 28t-68 27t-57.5 33.5t-33 47q-11 38 8.5 86.5t57.5 95.5t89 85.5t102.5 55.5t97 7t74.5 -60q7 15 18.5 34t22.5 37t21.5 32
t16.5 18q9 6 29 -0.5t37.5 -19t27 -27.5t-2.5 -24q-19 -17 -43 -48.5t-47.5 -70t-44.5 -80t-34.5 -78t-17 -64t7.5 -38.5q-10 -9 -26 -6.5t-31 14t-25.5 30t-7.5 41.5q3 28 14.5 62t22.5 68.5t16.5 66t-3.5 55.5q-5 13 -26.5 7.5t-51.5 -24t-63.5 -46.5t-62.5 -59.5
t-49.5 -63.5t-23.5 -57t18.5 -41.5t56 -32t75.5 -32t75.5 -40t56.5 -58t19 -85.5q-1 -25 -18.5 -54t-46.5 -58t-67 -56t-81 -48.5t-88 -35.5t-87 -17q-36 -2 -61 3t-42 15q-20 13 -29 32t-9 42.5t7 49.5t19 52q20 43 47.5 82t55.5 66q5 4 12 3.5t12 -4t6.5 -8.5t-3.5 -8z
" />
    <glyph glyph-name="T" unicode="T" horiz-adv-x="391" 
d="M120 564q49 -16 79 -46q32 -29 40 -78l67 175l-122 -33q-14 -3 -29.5 -8t-34.5 -10zM595 723q23 -26 27 -53q2 -32 -4 -47q-8 -15 -20 0q-38 31 -136 20q-50 -5 -80.5 -10t-42.5 -10q18 0 31 -9q7 -4 14 -9l14 -10q12 -12 7 -24q-154 -312 -240 -577q-10 -19 -35 -16
q-28 6 -48 23q-21 19 -14 39q20 48 35 86.5t26 68.5q10 29 18 54.5t13 47.5q8 34 14 75q6 43 0 82q-8 40 -40 68q-30 29 -80 24q-21 -3 -37 19q-8 10 -11.5 20t-5.5 21q-3 22 18 32q55 16 108 33q74 20 132.5 35t103.5 24t82 14t67 4q62 -2 84 -25z" />
    <glyph glyph-name="U" unicode="U" horiz-adv-x="787" 
d="M398 758q-25 3 -56 -16t-63.5 -52t-63 -76.5t-53 -89t-35 -89.5t-8.5 -78q4 -26 27 -38t52 2q-6 -15 -25 -23t-42 -7.5t-46.5 9.5t-39.5 28.5t-21 50.5t10 75q14 43 37 87.5t52 86t64 77t72.5 60.5t77 37t78.5 6q38 -5 59 -26.5t28.5 -53t4 -70.5t-13.5 -80.5t-24.5 -82
t-28.5 -74.5q-13 -31 -33 -77.5t-38 -95t-30.5 -92t-9.5 -68.5q2 -23 18.5 -12.5t42 45.5t58.5 88t68.5 114t71 125t65.5 120t52.5 99t33.5 63q8 15 26.5 15t36 -9t28.5 -24t4 -30q-30 -65 -58.5 -141t-51.5 -152.5t-39 -148.5t-21.5 -129t1.5 -94.5t30 -43.5
q-15 -12 -36.5 -4.5t-42 25t-35.5 41.5t-17 47q1 47 10 95.5t21 93t24.5 83t21.5 65.5q-9 -15 -29.5 -53.5t-48 -87.5t-58.5 -102t-61 -97t-57 -72.5t-45 -28.5q-22 0 -42 11.5t-36.5 30t-27 41t-13.5 45.5q-2 16 4.5 43.5t17.5 61t25 71t28.5 73t27.5 66t21 50.5
q18 43 37 92.5t29.5 91.5t8.5 71t-24 32z" />
    <glyph glyph-name="V" unicode="V" horiz-adv-x="738" 
d="M330 695q-26 -1 -54.5 -23.5t-55 -58.5t-48.5 -81t-35.5 -91t-16.5 -89t9 -74q9 -24 36 -31.5t54 9.5q-3 -15 -21 -25t-42 -13.5t-51 1.5t-48.5 21t-33.5 44t-6 71q8 63 35 131.5t69 125.5t97 94.5t119 38.5q41 0 66 -16t38.5 -43.5t17 -63.5t1 -76t-8.5 -80.5t-12 -76.5
q-3 -21 -8.5 -51t-11 -64.5t-9.5 -69.5t-4.5 -64.5t4 -51.5t15.5 -30q112 280 201 461t167 266q21 23 49.5 35.5t58.5 16t58 0t47.5 -12t28 -22t-0.5 -28.5q-5 11 -18 16t-30.5 3t-38 -12t-40.5 -28q-40 -36 -81.5 -95t-83 -131t-81 -151.5t-74.5 -156t-64.5 -145
t-50.5 -119.5q-23 -3 -48 3.5t-47 20t-39.5 32t-25.5 39.5q-6 14 -6.5 41.5t2 62t7.5 73t11 76t11.5 71t9.5 56.5q8 43 15.5 90.5t8 86.5t-8 64t-32.5 24z" />
    <glyph glyph-name="W" unicode="W" horiz-adv-x="968" 
d="M378 713q-25 0 -57 -22t-64.5 -58.5t-63.5 -83t-54 -94.5t-35 -93t-8 -79q1 -13 8.5 -22.5t18.5 -13.5t24.5 -2.5t28.5 9.5q-6 -15 -25 -25t-42.5 -12t-47.5 4.5t-40.5 24.5t-21.5 48.5t10 75.5q14 44 37 91.5t52.5 92t64.5 83.5t73.5 68.5t78.5 45.5t80 15q39 -2 59 -21
t27 -49.5t2.5 -70t-15.5 -81.5t-26.5 -84t-29.5 -78q-9 -22 -21 -53t-24.5 -66t-24.5 -71t-21 -67t-13 -55t0 -35q5 -17 19 -3.5t34.5 47.5t45.5 84.5t51 107.5t51 117t46.5 113t38 95t23.5 64q4 11 15.5 14t25.5 1t29.5 -9t26.5 -16t16 -19.5t-1 -20.5
q-27 -64 -48.5 -131.5t-37 -130.5t-25.5 -118t-14.5 -94.5t-2.5 -60.5t11 -15q23 16 53.5 56t63 94.5t65 119t59.5 130t46 127t25.5 110t-3 79.5t-39.5 35q14 13 42.5 6.5t54 -30t40 -62t0.5 -89.5t-43.5 -122t-67.5 -147.5t-80.5 -151t-81.5 -133.5t-71 -95t-49 -35
q-22 1 -43 8.5t-38.5 21t-30 31.5t-16.5 40q-3 15 -0.5 44.5t7.5 62.5t12 65.5t12 54.5q-12 -25 -28 -61t-33.5 -75t-36.5 -77.5t-37.5 -69.5t-37 -50t-34.5 -20q-23 -1 -43.5 8.5t-36.5 25.5t-27 37t-14 44q-2 16 4.5 44t17.5 63.5t25.5 74.5t29 76t27.5 68.5t22 52.5
q18 45 37 96.5t29.5 94.5t8.5 72t-24 29z" />
    <glyph glyph-name="X" unicode="X" horiz-adv-x="592" 
d="M99 -186q-8 -16 -27 -7.5t-36.5 33.5t-26 62.5t4.5 78.5q13 42 45 95.5t71 107t78.5 101.5t66.5 79q-16 77 -28.5 158.5t-12.5 162.5q0 28 21 47t46.5 28t45.5 7.5t19 -13.5q-8 -30 -11 -71t-2 -83t4.5 -79t7.5 -59q20 21 56.5 58t80 76.5t90 76t86.5 57.5q34 18 71 12
t64 -22.5t38 -35.5t-5 -25q-21 12 -52.5 2.5t-70.5 -33t-83 -59t-88 -76t-86 -82.5t-77 -80q19 -83 49 -159t64 -131.5t68.5 -83t62.5 -12.5q7 -15 -8 -24.5t-41 -11.5t-55.5 2.5t-50.5 18.5q-18 11 -41 41.5t-46 73t-45 93t-37 102.5q-26 -29 -57.5 -66t-61 -77.5
t-54.5 -82.5t-39.5 -80t-15.5 -69t18 -51z" />
    <glyph glyph-name="Y" unicode="Y" horiz-adv-x="761" 
d="M344 719q-39 -6 -76 -36t-67 -71t-50.5 -86t-26.5 -81t5.5 -56.5t44.5 -11.5q-11 -23 -34.5 -23.5t-47 15t-40.5 44t-16 63.5q1 32 18.5 68.5t45.5 72.5t64.5 67.5t76.5 53t79.5 30t74.5 -1.5q24 -8 39 -25.5t21 -40t3.5 -48t-12.5 -48.5q-10 -21 -29 -59.5t-40 -84.5
t-41 -94.5t-32 -88.5t-13 -67.5t16 -31.5q18 -4 45 21.5t59.5 71.5t68.5 107t71.5 128t68 135.5t58.5 128.5q7 16 27.5 17t41.5 -6.5t35.5 -22t10.5 -30.5q-20 -60 -44 -151.5t-55 -191.5t-69 -194.5t-86 -160.5q-49 -68 -99.5 -102.5t-96 -44.5t-82.5 0.5t-60.5 33
t-30 52.5t10.5 60q15 -48 45.5 -67.5t69.5 -9.5t83.5 48t87.5 104t82 159.5t67 213.5q-22 -40 -47.5 -86.5t-54.5 -92t-60 -85.5t-63.5 -67t-65 -36.5t-63.5 6.5q-40 20 -52.5 57.5t-7 85t25.5 101t43.5 106t47 100t37.5 83t13.5 55t-25.5 15.5z" />
    <glyph glyph-name="Z" unicode="Z" horiz-adv-x="746" 
d="M89 27q10 3 30.5 11.5t43 19.5t43 23t31.5 21q-13 1 -36 -6.5t-46 -18.5t-42 -24.5t-24 -25.5zM488 176q30 -7 58.5 -21.5t52.5 -32.5t41 -38t24 -38q8 -19 5 -52.5t-13.5 -65.5t-27 -53.5t-34.5 -16.5q22 52 7.5 95t-48 74t-78 48.5t-82.5 18.5q-18 -14 -52 -38
t-74.5 -48t-82.5 -43t-76 -23q-25 -3 -49.5 9t-41 31.5t-20.5 43.5t13 46q25 32 66 55t88 38t94.5 22.5t84.5 8.5q30 22 69 62.5t78.5 89.5t75 101t58 95t28.5 72.5t-14 34.5q-40 10 -90 -5.5t-99.5 -45t-93.5 -69.5t-73.5 -79.5t-38.5 -73.5t12 -52q-20 -7 -38.5 8.5
t-29 42.5t-10.5 61t17 63q24 44 68.5 86t96.5 76.5t105.5 57.5t97.5 29q43 6 76.5 -15t54.5 -56t28 -79t-4 -84q-15 -51 -46.5 -103.5t-67 -98t-67.5 -82t-48 -56.5z" />
    <glyph glyph-name="bracketleft" unicode="[" horiz-adv-x="490" 
d="M563 836q13 0 19 -6q4 -6 3 -12q-2 -8 -7 -13q-9 -7 -19 -7h-89l-331 -876h90q12 0 21 -7q3 -4 5.5 -7t0.5 -6v-3q-2 -4 -4.5 -7.5t-8.5 -8.5q-12 -6 -37 -6h-147q-27 0 -43 12q-14 10 -14 33q42 112 80 211t72 189q3 10 6.5 19t7.5 19q4 9 7.5 18t5.5 18q12 32 24 63
l24 62l52 141q11 30 20.5 55t16.5 45q16 35 16 38q6 14 28 26q12 5 23.5 7.5t23.5 2.5h154v0z" />
    <glyph glyph-name="backslash" unicode="\" horiz-adv-x="392" 
d="M141 880q11 -35 25 -90t31 -132q16 -78 33 -159.5t34 -170.5q57 -290 93 -433q5 -23 -16 -37q-21 -15 -47 -17q-25 -1 -36 20q-10 25 -21.5 65.5t-25.5 97.5q-14 56 -28.5 119t-30.5 134q-20 84 -38 163t-36 155q-38 154 -70 231q-8 26 22 48q15 10 30.5 16t33.5 8
q36 6 47 -18z" />
    <glyph glyph-name="bracketright" unicode="]" horiz-adv-x="533" 
d="M22 -108q-12 0 -18 6q-3 6 -3 11v1q1 5 8 12t17 7h89l331 876h-89q-13 0 -21 8q-8 6 -6 13v2q1 9 12 15q11 8 37 8h147q14 0 25 -3.5t19 -8.5q15 -13 14 -34q-43 -111 -80 -210.5t-72 -189.5q-4 -10 -7 -19t-7 -19q-3 -9 -6.5 -17.5t-6.5 -18.5q-12 -31 -24 -62.5
t-24 -62.5l-52 -140q-11 -31 -20.5 -55.5t-17.5 -44.5q-4 -10 -6.5 -16.5t-4.5 -11.5q-3 -5 -4 -10q-6 -15 -28 -26q-11 -5 -22.5 -7.5t-24.5 -2.5h-155v0z" />
    <glyph glyph-name="asciicircum" unicode="^" horiz-adv-x="398" 
d="M363 594q-4 -12 -20 -21q-15 -9 -32 -12q-18 -4 -29 -3q-6 0 -9 2.5t-1 4.5q2 6 -1 32q-2 25 -9 53q-3 15 -6 27.5t-6 23.5q-8 21 -15 25q-7 0 -30 -20q-24 -20 -53 -50q-14 -15 -26.5 -28.5t-23.5 -27.5q-22 -24 -27 -35q-3 -7 -16 -6q-10 2 -27 11q-16 12 -23 22
q-5 6 -6 13t1 13q5 15 41 49q17 17 36.5 34.5t41.5 36.5q23 18 43.5 33t39.5 28q37 24 50 23q15 -7 43 -56q28 -47 48 -99q21 -52 16 -73z" />
    <glyph glyph-name="underscore" unicode="_" horiz-adv-x="622" 
d="M554 126q23 0 31 -16q8 -14 0 -34q-6 -18 -23 -34q-17 -15 -42 -15h-166q-154 3 -306 0q-36 3 -42 26q-6 22 10 48q17 25 44 25h255q120 -2 239 0z" />
    <glyph glyph-name="grave" unicode="`" horiz-adv-x="250" 
d="M94 798q24 -20 60 -67q18 -25 32.5 -47t24.5 -42q8 -20 -4 -34q-10 -15 -29 -21q-16 -5 -26 3q-9 10 -23 23.5t-34 31.5q-19 19 -38.5 34.5t-39.5 29.5q-17 16 -3 42q12 25 39 42q23 17 41 5z" />
    <glyph glyph-name="a" unicode="a" horiz-adv-x="384" 
d="M402 382q3 4 11.5 3.5t16 -4.5t12 -10.5t0.5 -13.5q-19 -33 -43.5 -73.5t-52 -79.5t-56.5 -70.5t-57 -44.5q-15 -7 -31.5 -4.5t-30 11t-23 21t-10.5 24.5q-2 16 4 44t13 51q-12 -14 -25.5 -32.5t-29.5 -39.5t-33.5 -42t-36.5 -39q-9 -9 -27.5 -7t-36.5 10.5t-31.5 22
t-11.5 28.5q3 38 18 81t36.5 83.5t48 75.5t52.5 57q19 15 35 17t31 -3.5t30 -16t32 -20.5q11 12 21.5 25.5t22.5 26.5q7 9 22.5 7t29.5 -11t22.5 -21.5t1.5 -23.5q-34 -58 -54.5 -103t-30 -76t-9 -47t7.5 -16q20 1 61 54t101 156zM159 343q3 4 3 14t-3.5 18.5t-10.5 10.5
t-18 -10q-23 -22 -42.5 -52t-34 -59t-23.5 -53.5t-9 -36.5q11 9 29.5 29.5t38.5 45.5t39 50t31 43z" />
    <glyph glyph-name="b" unicode="b" horiz-adv-x="357" 
d="M294 344q58 35 95 38t63 -19q-18 -5 -47 -20.5t-58.5 -35.5t-54.5 -41.5t-34 -38.5q-7 -12 -21.5 -36.5t-34 -52t-42.5 -54.5t-46 -44q-22 -16 -42.5 -20.5t-37.5 9.5q-19 15 -20 33t10 37.5t30.5 40.5t41 40.5t41 37.5t31.5 33q11 13 19.5 32t13 38t4.5 34t-6 20
q-32 -14 -61.5 -49t-53.5 -76.5t-41.5 -84t-25.5 -71.5q-3 -11 -19.5 -11.5t-34 5.5t-29.5 18t-6 27q24 62 51.5 141t57.5 158.5t63.5 151t70.5 117.5q10 12 30 8t37.5 -16t26 -27t-4.5 -24q-17 -12 -35.5 -36.5t-37 -57t-35.5 -69.5t-31 -73q11 8 21 15t20 11.5t21.5 4.5
t26.5 -5q25 -8 42 -12.5t26.5 -12t13 -21.5t2.5 -42z" />
    <glyph glyph-name="c" unicode="c" horiz-adv-x="293" 
d="M306 376q3 4 9.5 1.5t13 -7t10.5 -10.5t2 -9q-16 -27 -40.5 -68.5t-54.5 -83t-64.5 -75t-71.5 -43.5q-18 -5 -43.5 0.5t-49 17t-41 28t-18.5 33.5q-3 26 3.5 60t19.5 69.5t31 70t39 62.5t43.5 47t43.5 24q13 2 23 -3t29 -15q5 8 15 21.5t13 14.5q12 6 28 -1t28.5 -18.5
t19 -24t-0.5 -18.5q-19 -18 -35.5 -40t-28 -44t-16.5 -40.5t-2 -29.5q-4 -6 -15.5 -5t-23.5 8t-21 18.5t-9 27.5q0 9 2.5 21t7 24.5t10 24t9.5 19.5q-14 -6 -31 -31t-32.5 -58.5t-26.5 -70t-14 -66t5 -46t32 -10.5q25 6 49.5 28t49.5 53t50.5 68.5t52.5 75.5z" />
    <glyph glyph-name="d" unicode="d" horiz-adv-x="325" 
d="M363 708q13 7 31 1.5t32.5 -17t20.5 -25t-4 -21.5q-40 -31 -79.5 -92.5t-72.5 -135.5t-56.5 -152t-31 -143t4 -107.5t47.5 -45.5q-8 -9 -24 -11.5t-34.5 4t-36 23.5t-28.5 46t-13 70.5t11 98.5q0 4 -1 4.5t-3 -3.5q-8 -14 -18 -30t-21.5 -30.5t-22 -25.5t-18.5 -14
q-12 -4 -28.5 -3t-32 7.5t-26.5 18.5t-12 30q-1 24 5.5 57t19 69t30.5 72t39.5 64.5t46 47t50.5 20.5q20 1 37.5 -7t33.5 -16q4 11 14 31.5t23 45.5t28.5 52t31 51t30.5 41.5t27 24.5zM172 389q4 13 0.5 21.5t-18.5 3.5q-14 -5 -29.5 -23t-30.5 -42.5t-27.5 -51.5t-20 -50.5
t-9 -40.5t6.5 -20q4 -2 15 10t24.5 32t28.5 44.5t27.5 48t21.5 42t11 26.5z" />
    <glyph glyph-name="e" unicode="e" horiz-adv-x="277" 
d="M288 362q4 4 10.5 3t12.5 -5t9 -10.5t-1 -13.5q-13 -39 -36.5 -77.5t-53.5 -72.5t-63 -62t-65 -46q-15 -8 -32 -6t-34 9.5t-31 17.5t-23 19q-19 20 -21 53.5t7.5 72.5t28.5 81t42.5 79t49.5 65t49 41q14 7 26 7.5t25 -4t26.5 -13t30.5 -18.5q24 -15 22 -38
q0 -11 -8.5 -39t-24 -58.5t-38 -57t-50.5 -35.5q-20 -5 -35 -3t-33 10q-5 -10 -11 -29.5t-9 -39.5t-2 -35.5t12 -17.5q16 -3 45.5 17t61.5 52.5t63 73.5t50 80zM188 436q-10 -7 -25.5 -26.5t-30 -41.5t-25 -41t-10.5 -24q18 -3 33.5 11t28 35.5t20 45.5t9.5 41z" />
    <glyph glyph-name="f" unicode="f" horiz-adv-x="219" 
d="M251 336q6 4 11 -1t7 -13.5t0 -18t-9 -13.5q-33 -26 -77.5 -33t-89.5 1q20 -15 28 -38.5t7.5 -51.5t-8 -58.5t-18.5 -59t-24 -53t-24 -40.5q-20 -30 -47 -33.5t-61 4.5q-20 4 -30 16t-14.5 27.5t-4.5 33t2 32.5q3 27 16.5 74.5t34 105t47 119t56.5 117t62 99.5t63 66
q10 7 26 -0.5t29.5 -21.5t19.5 -29.5t-5 -24.5q-25 -18 -48.5 -43t-44.5 -54t-38 -60t-28 -61q19 -9 41 -12.5t43.5 -2t41.5 8t36 18.5zM-10 -11q13 15 26 39.5t23.5 51.5t17 54t5.5 48q0 11 -2.5 22.5t-9.5 22.5q-4 -7 -9.5 -21.5t-11 -31l-10.5 -31.5l-8 -24
q-10 -31 -17 -64.5t-4 -65.5z" />
    <glyph glyph-name="g" unicode="g" horiz-adv-x="359" 
d="M394 346q10 5 14.5 -1.5t3 -17.5t-8 -24.5t-18.5 -21.5q-38 -23 -72.5 -47t-65.5 -50q-12 -9 -21 -26q-19 -41 -46.5 -92t-58.5 -98.5t-62.5 -82.5t-59.5 -44q-12 -4 -36.5 2t-45 21t-29.5 38t9 52q23 37 63 76.5t80 73.5t71.5 60t36.5 36q11 20 21 46.5t17 46.5
q-14 -17 -31.5 -38t-37 -42t-39.5 -39t-38 -30q-11 -7 -29 -4t-34.5 12t-27.5 22.5t-8 27.5q7 36 25 75.5t42.5 76t52.5 67.5t56 51q18 13 33 15t28 -2.5t25.5 -13.5t25.5 -19q4 5 11.5 16t11.5 14q9 7 22.5 6.5t26 -6t20.5 -14t7 -17.5q-4 -21 -11 -45.5t-14.5 -49.5
t-15 -48t-12.5 -40q37 26 64.5 44t54.5 34zM-55 -94q33 24 66.5 67t58.5 85q-18 -18 -39.5 -40t-40.5 -43.5t-31.5 -40t-13.5 -28.5zM181 378q5 8 8 18.5t2.5 17.5t-6 8t-18.5 -10q-20 -17 -39.5 -40.5t-36.5 -48.5t-30 -48t-19 -40q-2 -9 4 -9t20.5 12t33 33t40 48.5
t41.5 58.5z" />
    <glyph glyph-name="h" unicode="h" horiz-adv-x="366" 
d="M385 366q3 7 11 7t15 -4.5t12 -12t2 -14.5q-16 -38 -39 -76t-48 -71t-49 -57t-43 -34q-13 -7 -31 -5.5t-35 7.5t-30 16t-16 20q-4 17 1 44t13.5 54t16.5 49t10 29q-20 -17 -46.5 -51t-52.5 -73t-48.5 -76t-33.5 -60q-5 -10 -19.5 -10.5t-30 5t-27 14.5t-8.5 19
q8 30 26 80.5t42 110.5t52.5 124.5t58 122t58 103t52.5 67.5q13 13 32 10.5t35 -12t24 -23.5t1 -24q-13 -6 -41.5 -41t-63 -89t-69.5 -122t-60 -141q16 23 35 48.5t38.5 49.5t39 43.5t37.5 30.5q13 8 30.5 5.5t32.5 -11.5t23 -22t2 -26q-9 -20 -22.5 -48t-26 -58.5t-22 -59
t-9.5 -49.5q23 12 46 33.5t45 50t42 61.5t38 66z" />
    <glyph glyph-name="i" unicode="i" horiz-adv-x="176" 
d="M188 354q5 7 12 7.5t12.5 -2.5t9 -8t0.5 -10q-11 -23 -32 -60t-46 -74t-51.5 -67t-47.5 -39q-13 -5 -30 -3t-32 9.5t-25 20t-9 28.5q1 20 8.5 53.5t20 71t27.5 74t31 62.5q5 8 20.5 8t30.5 -6t25 -16t5 -21q-47 -90 -64 -140.5t-11 -65.5q4 -11 17 -2.5t32.5 32.5
t44.5 62t52 86zM125 459q-6 -8 -17.5 -9t-23 2.5t-20 10.5t-7.5 15q2 14 6.5 29.5t9.5 29t10 24.5t8 17q6 9 22 9.5t31.5 -5.5t25.5 -16t4 -20q-3 -6 -9.5 -17.5t-13.5 -24t-14 -24.5t-12 -21z" />
    <glyph glyph-name="j" unicode="j" horiz-adv-x="149" 
d="M129 448q-5 -8 -17 -8.5t-25 4t-22 11.5t-7 15q2 12 6.5 27t9 29t8.5 26t7 18q6 9 21.5 7.5t30.5 -8t25 -16.5t5 -19q-7 -13 -19.5 -39.5t-22.5 -46.5zM165 312q7 3 13 -2t8.5 -13t1.5 -16.5t-7 -13.5q-18 -14 -48.5 -42.5t-60.5 -58.5t-54 -55.5t-28 -35.5
q-18 -41 -39.5 -86.5t-44.5 -85.5t-47 -70t-49 -39q-12 -5 -36 1.5t-44 21.5t-29 37.5t8 51.5q21 37 53 70t62.5 60.5t53.5 47.5t28 30q13 26 30 67.5t34 84t31.5 78.5t20.5 52q6 14 22 17t32.5 -1.5t27 -15t6.5 -23.5q-6 -18 -15.5 -40.5t-19.5 -45t-19 -43t-14 -35.5
q10 9 28.5 25.5t38 33t35.5 29.5t21 15zM-248 -142q27 23 50 54.5t47 73.5q-17 -17 -34 -35.5t-30.5 -35.5t-22.5 -32t-10 -25z" />
    <glyph glyph-name="k" unicode="k" horiz-adv-x="301" 
d="M308 661q-15 -6 -38.5 -32t-49.5 -63t-52.5 -79.5t-48.5 -81.5t-36.5 -69.5t-16.5 -42.5q15 19 34 42.5t39.5 47t41 44.5t38.5 35q7 6 16.5 11.5t18.5 0.5q29 -14 41 -26t-1 -34q-12 -20 -34.5 -48t-48 -56.5t-49 -53.5t-37.5 -39q32 1 61 -4.5t40 -15.5q3 -4 -0.5 -18
t-11.5 -27.5t-17.5 -22t-18.5 -2.5q-14 10 -34.5 17t-44.5 8t-48.5 -4.5t-44.5 -18.5q-6 -21 -10.5 -38t-6.5 -29q-3 -11 -17.5 -11.5t-30 4t-27.5 13.5t-9 18q8 30 26.5 80t43 110t54.5 124t61 122.5t62 105.5t59 73q17 16 32 13t37 -17q13 -8 24 -15t4 -21zM174 381
q-20 -16 -42 -39t-41.5 -47.5t-34.5 -47t-22 -37.5q19 18 41 43t42 50t35.5 46.5t21.5 31.5z" />
    <glyph glyph-name="l" unicode="l" horiz-adv-x="160" 
d="M81 -43q-4 -1 -10.5 -0.5t-16.5 1.5q-19 0 -50 25q-31 24 -44 76q-1 5 -1.5 11t-0.5 12q-2 37 6.5 87t28.5 113q19 63 45 126.5t58 127.5q32 63 61.5 106.5t55.5 67.5q8 5 15 5q8 0 19.5 -4t25.5 -15l6 -3q27 -16 29 -32q1 -5 -6 -12q-53 -48 -103 -132q-49 -85 -83 -177
q-36 -92 -51 -178q-12 -61 -10 -108q1 -8 2.5 -20.5t4.5 -29.5q8 -34 52 -35q-14 -12 -33 -12z" />
    <glyph glyph-name="m" unicode="m" horiz-adv-x="508" 
d="M531 344q4 -2 7 -3t6 -3q3 -3 5.5 -5t4.5 -4q3 -5 2 -7q-13 -26 -29.5 -58t-38.5 -70q-45 -76 -90 -103q-16 -8 -43 -5q-12 3 -22.5 7t-21.5 11q-20 11 -23 26q-6 23 5 70q5 23 11.5 45.5t13.5 45.5q8 23 15.5 41.5t13.5 32.5q-20 -20 -40.5 -45.5t-40.5 -59.5
q-21 -33 -38.5 -69t-31.5 -74q-3 -9 -19 -7q-14 0 -31 10q-14 9 -16 24q0 20 9 59q5 21 9.5 41t9.5 39q5 20 9 32l6 18q-28 -29 -75 -109q-26 -41 -48.5 -80.5t-43.5 -79.5q-6 -10 -25 -9q-10 2 -18.5 4.5t-16.5 7.5q-16 8 -18 21q6 70 42 179q19 55 36.5 95t35.5 66
q5 8 20 6q6 -2 13 -4t14 -6q7 -5 12.5 -9t9.5 -9q9 -10 6 -17q-8 -10 -16 -24t-19 -34q-20 -36 -39 -86q9 14 21.5 33.5t28.5 43.5t32 47.5t33 44.5q30 45 51 61q12 9 29 3q9 -2 17.5 -6.5t14.5 -11.5q17 -13 14 -26q-1 -2 -1.5 -6t-2.5 -10q-2 -5 -4.5 -11.5t-5.5 -13.5
q-3 -11 -6.5 -21t-5.5 -19q-7 -18 -6 -22q2 2 4.5 6t7.5 10q11 17 26.5 36.5t35.5 45.5q40 49 69 69q28 17 54 -12q8 -8 13.5 -15.5t7.5 -14.5q6 -14 -5 -35q-8 -15 -17 -36.5t-21 -50.5q-11 -29 -21.5 -56.5t-19.5 -55.5q-19 -56 -20 -80q43 24 80 84q20 30 36.5 58
t31.5 55v2l17 3v0z" />
    <glyph glyph-name="n" unicode="n" horiz-adv-x="376" 
d="M388 348q3 7 10.5 6t15 -5t12.5 -9.5t4 -8.5q-14 -29 -34.5 -64t-44 -67.5t-48 -58.5t-45.5 -37q-14 -7 -32 -5.5t-35 7.5t-30 16t-15 20q-4 17 0 46t11.5 58t15 52.5t10.5 30.5q-20 -17 -45 -49t-49.5 -68t-45 -71t-31.5 -58q-5 -9 -20 -9.5t-30 4.5t-26.5 14t-8.5 18
q6 24 18 63.5t28 86t36 95.5t44 91q7 14 22.5 14t30.5 -7t24.5 -18t6.5 -19q-10 -21 -21.5 -42.5t-22 -40t-18 -32.5t-8.5 -19q16 23 34.5 46t37 43t37.5 36t37 27q12 7 29.5 4t32.5 -12t23.5 -21.5t3.5 -24.5q-8 -20 -21 -49.5t-25 -62t-21 -62.5t-9 -51q19 11 41 31
t43.5 46t41.5 56t36 60z" />
    <glyph glyph-name="o" unicode="o" horiz-adv-x="306" 
d="M288 229q8 1 11.5 -5.5t3.5 -15t-3.5 -15.5t-8.5 -7q-23 -3 -43 -2t-47 10q-5 -10 -13 -27.5t-19.5 -36t-27 -36t-34.5 -27.5q-16 -9 -40.5 -5.5t-49 14.5t-43.5 28t-24 37q-8 27 -3 59t16 62.5t26.5 56t29.5 38.5q5 5 11 9t11 9q-4 21 -5 42.5t10 41.5q9 16 37.5 20.5
t60 -4.5t57.5 -33t31 -64q5 -37 -0.5 -71t-13.5 -70q9 -6 29.5 -9t40.5 1zM34 114q39 23 57.5 54t32.5 66q-35 24 -54 61q-5 -5 -13 -27t-15.5 -50.5t-10.5 -57t3 -46.5zM139 291q6 14 8 33.5t0.5 39t-5 35t-7.5 22.5q-16 -20 -14.5 -55t18.5 -75z" />
    <glyph glyph-name="p" unicode="p" horiz-adv-x="354" 
d="M285 342q52 29 86 34.5t66 -14.5q-17 -5 -45.5 -20t-57.5 -34t-52 -37t-28 -28q-6 -12 -19.5 -33t-32.5 -44t-40.5 -46t-43.5 -39q-20 -14 -39 -18.5t-36 7.5q-19 14 -18.5 32t12 38t32 40t41 39t39 34.5t26.5 25.5q7 9 13.5 24.5t10 31.5t3.5 29.5t-6 17.5
q-30 -7 -62 -44t-62 -89.5t-57.5 -114t-49.5 -117.5t-36.5 -100t-19.5 -62q-3 -11 -18 -12t-31.5 5t-28 17.5t-6.5 25.5q8 22 26 68.5t41 104.5t49 122.5t50 124t44 108t31 74.5q4 12 18.5 12.5t29 -5t24.5 -14.5t6 -17q-5 -10 -10 -22t-13 -34q10 8 19.5 14.5t19 10t20.5 4
t25 -4.5q24 -8 40 -13.5t25 -14.5t12.5 -24t2.5 -43z" />
    <glyph glyph-name="q" unicode="q" horiz-adv-x="339" 
d="M242 472q7 8 22.5 6t29.5 -10t22.5 -20t2.5 -22q-4 -8 -14.5 -33.5t-25.5 -62.5t-32 -82t-35 -92.5t-35.5 -94t-31.5 -85.5q16 16 30.5 19.5t25 0.5t15 -9.5t0.5 -9.5q-19 -14 -38 -36.5t-35.5 -47t-29 -48t-19.5 -39.5q-7 -15 -26.5 -20.5t-38.5 -1.5t-31 17t-4 34
q10 27 24.5 66.5t32 83t34.5 88t31.5 80.5t24 60.5t10.5 28.5q-11 -12 -24.5 -30.5t-29 -39t-32.5 -41.5t-35 -37q-9 -8 -26 -6t-34 10t-29 20t-11 26q3 35 18.5 79t37 86t47.5 78.5t50 56.5q18 14 33 16t29 -3t27.5 -14.5t28.5 -18.5q11 11 20.5 23t20.5 25zM137 333
q3 3 7.5 16.5t6 26t-1 18.5t-13.5 -4q-18 -17 -36 -44t-33.5 -56t-27 -56t-15.5 -43q3 1 17 18.5t32 41l36 47t28 35.5z" />
    <glyph glyph-name="r" unicode="r" horiz-adv-x="279" 
d="M232 274q1 -9 4.5 -12.5t7 -5t6 -3t1.5 -6.5q-2 -8 -17.5 -9t-33.5 3t-33.5 11.5t-17.5 17.5q-5 17 -4 36.5t0 39.5q-53 -58 -91 -125.5t-60 -157.5q-3 -11 -16.5 -11.5t-28.5 5.5t-26 16t-9 21q9 54 25.5 113t38.5 116.5t47 109.5t49 93q5 9 14 11t19 -1
q23 -8 32.5 -19.5t2.5 -26.5q-13 -28 -28 -58.5t-31 -69.5q15 21 27 39q11 15 19.5 29t10.5 17q9 14 15 15.5t20 -4.5q28 -11 42 -16t19 -13t3 -23t-5 -46q-6 -45 -2 -86z" />
    <glyph glyph-name="s" unicode="s" horiz-adv-x="292" 
d="M315 367q14 2 32 -7t26 -16q-4 -4 -5.5 -4.5t-3.5 0t-5.5 1.5t-9.5 0q-15 -3 -44 -19.5t-60 -37t-57.5 -40t-34.5 -28.5q5 -8 10 -15t10 -15q15 -27 13 -54t-16.5 -52.5t-38.5 -47.5t-51 -37q-18 -10 -40.5 -14.5t-44 -3t-40 8.5t-29 20.5t-11 32.5t14.5 44
q23 38 59.5 71t74.5 62q-18 26 -36.5 49.5t-25.5 52.5q-6 26 -2.5 52.5t14.5 50.5t28.5 44.5t39.5 35.5q11 7 26 6.5t30 -5.5t27.5 -12t19.5 -12q26 42 45.5 62.5t31.5 31.5q7 5 19 -2.5t22.5 -20t16 -25.5t-1.5 -18q-16 -11 -38 -35t-41 -51t-29.5 -52.5t-3.5 -41.5
q-5 -2 -13.5 1t-17 9t-15.5 15.5t-10 20.5q-2 8 0 18.5t5 20.5t7 19t6 14q-19 1 -35.5 -20.5t-24.5 -51.5t-6 -62.5t21 -54.5q19 12 44.5 30t51.5 35.5t51.5 30.5t44.5 16zM-8 40q14 1 33.5 15.5t36 34.5t26 41t3.5 34q-31 -29 -58.5 -58.5t-40.5 -66.5z" />
    <glyph glyph-name="t" unicode="t" horiz-adv-x="165" 
d="M266 627q42 -8 65 -15q25 -9 35 -22q6 -9 13 -25l4 -16t3 -15q0 -15 -9 -17q-15 20 -60 32q-68 15 -103 13l-16 -24l-16 -24q-49 -84 -84 -172q-35 -91 -55 -176q-18 -85 -11 -137q7 -55 46 -59q-15 -13 -44 -9q-26 3 -54 31q-28 26 -35 78q-4 39 5.5 91.5t31.5 119.5
t49.5 131t59.5 126q2 5 5 9.5t5 9.5q-5 0 -12.5 -1t-16.5 -3t-17 -4t-16 -5q-8 -2 -13 -5.5t-7 -5.5q-6 -10 -11 -6q-7 5 -12 13q-2 5 -5 9.5t-5 9.5t-3 9t-2 6q-4 11 2 20q2 5 6 8t9 6q31 12 68 18q18 2 34 4t30 4h7t9 1q33 47 66 83q10 10 29 5q16 -3 34 -19
q17 -16 20 -28q3 -14 -5 -19l-14 -17.5z" />
    <glyph glyph-name="u" unicode="u" 
d="M355 340q3 5 9.5 4.5t13 -4t11 -8.5t3.5 -8q-7 -16 -18.5 -42t-27 -56t-33 -59.5t-36.5 -51.5t-38 -33.5t-37 -3.5q-32 15 -48.5 35t-12.5 58q-18 -27 -34 -50t-47 -55q-11 -12 -31 -14t-39.5 3.5t-34.5 17.5t-16 28q-1 18 4 46t13.5 60.5t20 65.5t23 61.5t21.5 48
t17 25.5q7 7 21 5.5t26.5 -7.5t20 -14.5t3.5 -15.5q-8 -14 -22 -47.5t-28 -72t-25 -74t-12 -52.5q5 1 16.5 15t27 37.5t33.5 54.5t37.5 65.5t38 70.5t34.5 71q6 13 21.5 13t30.5 -7t24.5 -18.5t5.5 -20.5q-11 -24 -25 -62.5t-25.5 -80t-18.5 -78.5t-4 -56q19 12 39 38
t38.5 56t34 60.5t25.5 51.5z" />
    <glyph glyph-name="v" unicode="v" horiz-adv-x="305" 
d="M162 514q18 8 40.5 -1.5t39.5 -31.5t25 -53.5t-2 -65.5q-11 -36 -32 -80.5t-46.5 -87t-52 -77.5t-48.5 -51q-12 -9 -32 -10.5t-39.5 3t-34.5 15.5t-18 27q-3 18 -1 46t7.5 60.5t14 65.5t17 61.5t16.5 48t14 25.5q7 7 21 5.5t27 -7.5t22 -14.5t6 -15.5q-7 -14 -18 -48.5
t-21.5 -73.5t-18 -75t-6.5 -53q5 1 24 24t42 58.5t45.5 79.5t34 87t7.5 80t-33 59z" />
    <glyph glyph-name="w" unicode="w" horiz-adv-x="446" 
d="M274 504q3 7 15 9.5t27.5 0t32.5 -11.5t30.5 -24.5t20.5 -38.5t3 -54q-6 -46 -28 -95.5t-48.5 -92.5t-51 -74.5t-36.5 -40.5q-14 -11 -27 -10.5t-26.5 10t-27.5 27.5t-28 41q-21 -23 -37.5 -43.5t-34.5 -34.5q-12 -10 -31 -5.5t-37 18t-31 33t-14 37.5q-1 27 12.5 72
t32.5 91.5t39 84.5t34 50q10 8 26 2.5t29.5 -17t20 -26t-2.5 -24.5q-14 -15 -32.5 -46.5t-34 -67t-26 -68t-8.5 -48.5q17 12 37.5 37t40.5 54.5t38 59.5t31 53q7 12 19 10t23.5 -11t18.5 -21t5 -19q-2 -9 -10.5 -30.5t-17.5 -45t-15.5 -44t-5.5 -27.5q39 39 71 91
t46.5 101.5t6 88t-48.5 49.5z" />
    <glyph glyph-name="x" unicode="x" horiz-adv-x="236" 
d="M255 339q4 3 11 3t13.5 -1.5t11 -5.5t5.5 -8q-25 -41 -56 -82.5t-63 -74t-62.5 -52t-54.5 -17.5q-20 2 -35.5 15.5t-20.5 53.5q-21 -26 -39 -58t-28 -63t-10 -56t15 -36q-20 -2 -39 6t-31.5 23.5t-17 37.5t4.5 49t25.5 56.5t35.5 58t38 55t34 48.5q9 69 16 111t16 56
q6 8 20.5 9t29 -3t24.5 -11.5t8 -16.5q-2 -4 -4 -11.5t-4.5 -15t-3.5 -13l-1 -5.5q9 10 26 28.5t37 37.5t39 35t31 22q10 4 23 -3t22.5 -19t13 -24t-4.5 -18q-16 -11 -42.5 -32.5t-55.5 -48.5t-56.5 -56.5t-43.5 -54.5q-6 -46 0.5 -64t21 -16t34.5 19.5t41.5 42t41.5 51.5
t34 48z" />
    <glyph glyph-name="y" unicode="y" horiz-adv-x="386" 
d="M408 346q10 5 15 -0.5t4.5 -16t-6.5 -23.5t-19 -22q-39 -24 -72.5 -47.5t-64.5 -49.5q-14 -11 -21 -25q-20 -41 -47 -91t-59 -95.5t-67 -81.5t-69 -49q-13 -5 -36 0.5t-41.5 20t-26 37t10.5 51.5q23 37 63 76.5t80.5 73.5t72 60t36.5 36t11.5 25.5t12.5 32t12 32t9 26.5
q-15 -25 -34.5 -50.5t-39.5 -48.5t-40.5 -42t-38.5 -31q-11 -7 -29 -4t-34.5 12t-27.5 22.5t-8 27.5q5 25 15.5 57.5t24.5 66t32 64.5t38 55q7 8 22.5 6t30 -9.5t22.5 -18.5t-1 -21q-12 -14 -29.5 -44t-31.5 -60t-20.5 -52t2.5 -20t26 21t38 47t44 61.5t43 64.5t35.5 55.5
t21.5 35.5q6 9 20 8.5t29 -7t25.5 -16.5t8.5 -19q-3 -21 -10.5 -49t-16.5 -57.5t-17 -56t-13 -44.5q37 27 62 43.5t53 32.5zM-43 -94q16 12 34 29.5t35.5 38.5t33.5 43t28 43q-18 -17 -40.5 -39.5t-42 -44.5t-33.5 -41t-15 -29z" />
    <glyph glyph-name="z" unicode="z" horiz-adv-x="324" 
d="M366 266q5 0 9.5 -6t7 -14.5t1.5 -17t-7 -12.5q-35 -12 -71 -31.5t-66 -37.5q-20 -41 -46.5 -84.5t-56.5 -82.5t-63 -71.5t-64 -50.5q-32 -19 -61.5 -13t-47.5 26t-20 49.5t21 57.5q27 32 64 63.5t74.5 57.5t69.5 45.5t48 28.5q9 13 16.5 27t15.5 39q-16 3 -34 -7.5
t-35.5 -25.5t-32 -31.5t-22.5 -25.5q-9 -10 -26 -4t-32 19t-22.5 27.5t1.5 22.5l53 52q-9 7 -20 16t-18.5 20t-9.5 24.5t7 30.5q12 23 38.5 50.5t57.5 53t62 46t52 29.5q13 5 31 -4t33 -24.5t23.5 -34.5t2.5 -33q-5 -14 -18 -33.5t-28.5 -40t-30.5 -38.5t-24 -30
q7 -5 19.5 -11t24 -15t19.5 -21t6 -27q7 5 20 11.5t28 13t28.5 11t22.5 6.5zM50 277q10 11 26 27.5t33.5 35.5t34.5 39.5t30 40.5q-2 0 -12.5 -7.5t-24.5 -20t-30 -29t-29 -32.5t-21 -30.5t-7 -23.5zM-75 -93q16 4 36 18t40.5 32.5t40 39.5t35.5 39.5t26.5 32.5t13.5 19
q-10 -5 -27.5 -18.5t-38 -31t-42 -37t-39.5 -38t-30.5 -33.5t-14.5 -23z" />
    <glyph glyph-name="braceleft" unicode="{" horiz-adv-x="498" 
d="M334 866q58 51 120 48q60 0 104 -30q40 -29 39 -60q-3 -15 -25 -27q-2 0 -2 4q-2 3 -4.5 7t-6.5 10q-9 8 -22 13q-12 5 -36 -1q-56 -21 -95 -91q-20 -35 -38 -72.5t-34 -77.5q-15 -38 -30.5 -69.5t-30.5 -57.5q-29 -53 -67 -51q23 -23 14 -85q-7 -36 -17 -76t-25 -85
q-15 -48 -25 -91t-18 -83q-7 -45 2 -78q9 -32 43 -37q20 -3 39 10q8 5 15.5 11.5t13.5 12.5l4 4q24 -13 21 -28q-8 -30 -51 -54q-47 -23 -102 -19q-38 4 -70 35q-15 15 -26.5 39t-18.5 56q-4 34 9 87q8 27 17 55.5t20 59.5q11 29 20 57t17 56q8 27 12 51.5t4 45.5
q2 44 -25 65q-10 9 -12 23t5 23q7 10 22 6l12 -3q40 -3 75 42q17 23 32 51.5t29 63.5q26 64 48 131q14 43 25 70.5t19 38.5z" />
    <glyph glyph-name="bar" unicode="|" horiz-adv-x="689" 
d="M477 854q14 28 51 38q39 9 70 2q31 -6 23 -32l-425 -1003q-12 -23 -37 -30q-28 -10 -50 -2q-22 7 -15 31l383 996v0z" />
    <glyph glyph-name="braceright" unicode="}" horiz-adv-x="498" 
d="M462 783q5 -34 -10 -87q-8 -26 -17 -55t-20 -59q-10 -29 -19 -57t-17 -56q-17 -57 -17 -98t25 -65q10 -7 13 -23q1 -12 -5 -23q-8 -10 -22 -6l-6 2t-7 2q-40 3 -74 -43q-33 -44 -61 -114q-14 -34 -26 -66.5t-21 -64.5q-15 -44 -26.5 -71t-19.5 -38q-58 -52 -119 -49
q-32 1 -57 8.5t-47 21.5q-42 30 -39 60q0 9 6.5 15.5t17.5 12.5q1 0 3 -4q2 -3 4 -7t6 -9q6 -9 23 -15q11 -6 36 1q53 20 95 91q20 35 37.5 72.5t34.5 78.5q30 76 61 127q30 53 67 50q-25 24 -14 86q5 35 16 75.5t25 85.5q29 92 43 173q9 44 -1 79q-9 31 -44 37
q-20 3 -38 -10q-8 -5 -16 -11t-13 -14q-2 -1 -2.5 -1.5t-2.5 -1.5q-23 10 -20 28q6 28 52 53q47 25 101 19q37 -4 69 -35q31 -29 46 -95z" />
    <glyph glyph-name="asciitilde" unicode="~" horiz-adv-x="489" 
d="M448 457q11 0 8 -19q-1 -17 -14 -45q-13 -29 -31 -54q-21 -27 -46 -45q-26 -18 -55 -18q-42 0 -78 17q-17 9 -33.5 18t-30.5 19q-11 7 -21 13t-19 11q-19 10 -35 10q-22 0 -36 -11q-8 -5 -13.5 -11t-10.5 -12q-3 -4 -11 -12q-5 -3 -9 -3q-13 0 -7 24q4 14 10.5 27.5
t17.5 28.5q18 32 48 53q32 22 63 18q25 -7 58 -28q29 -18 64 -35q33 -16 74 -19q22 0 35 8q15 7 25 19q10 10 18 21q7 10 15 18q7 7 14 7z" />
    <glyph glyph-name="exclamdown" unicode="&#xa1;" horiz-adv-x="395" 
d="M126 -11q-9 -22 -41 -19q-32 4 -58 24q-28 20 -20 44q29 75 58 151.5t58 157.5q23 66 43.5 120.5t38.5 99.5q9 21 30 19q20 -1 39 -17q16 -17 12 -36q-18 -66 -37 -136t-42 -146q-22 -76 -42 -141.5t-39 -120.5zM346 671q-28 -48 -57 -52q-30 -5 -47 21q-18 27 -12 72
q7 50 34 66q27 14 51 2q27 -12 39 -42q10 -29 -8 -67z" />
    <glyph glyph-name="cent" unicode="&#xa2;" horiz-adv-x="633" 
d="M545 373q6 10 21 8q16 -2 25 -11q10 -9 6 -21q-34 -61 -87 -125q-52 -65 -132 -110q-79 -46 -179 -40q-1 -2 -1 -4t-2 -5q-2 -5 -3 -11t-3 -12t-4.5 -12t-4.5 -11q-5 -9 -10 -9q-11 0 -19 7q-9 7 -12 24q-2 9 -0.5 20t6.5 25q-84 30 -116 93q-30 64 -16 145q14 82 64 156
q25 38 57.5 70.5t71.5 59.5q78 51 179 62q9 16 15 27.5t9 18.5q10 14 28 10q20 -3 31 -18q12 -17 -2 -41q79 -15 99 -59q23 -44 12 -92q-12 -48 -36 -72q-41 -35 -88 -38q-44 -3 -69 13q-24 16 -2 35q18 -21 50 -2q29 19 52 57q7 14 11 27t5 27q3 25 -11 44q-12 18 -48 18
q-18 -31 -42.5 -76.5t-55.5 -106.5q-29 -61 -59.5 -136.5t-62.5 -167.5q54 -19 125 15q69 35 123 95q55 60 75 123zM169 171q18 56 39.5 113t45.5 114q52 117 98 208q-59 -29 -113 -86q-25 -29 -45.5 -59t-35.5 -63q-32 -67 -32 -126q0 -60 43 -101z" />
    <glyph glyph-name="sterling" unicode="&#xa3;" horiz-adv-x="598" 
d="M413 693q27 10 56 1q15 -5 28.5 -12t27.5 -18q25 -21 37 -43q11 -27 4 -66q-3 -19 -9.5 -37t-14.5 -35q-17 -33 -39 -53q-22 -18 -49 -16q-28 3 -44 16q-18 13 -10 29q12 -9 27 -1q16 10 32 30q18 21 29 45q8 13 12.5 25t7.5 24q6 25 2 40q-5 16 -25 16q-23 0 -48 -30
q-14 -14 -26 -32.5t-25 -41.5q-12 -22 -23.5 -45t-21.5 -48q-11 -25 -20 -47.5t-17 -43.5q14 1 25 1t19 1q31 3 40 0q8 -3 5 -18q-11 -45 -33 -54q-13 -5 -27 -6t-31 0q-6 1 -12 1h-13q-14 -40 -26 -81t-20 -83q15 -1 30.5 -2.5t31.5 -2.5q14 -2 28.5 -2h28.5q46 0 76 10
q33 12 41 39l2 2q1 0 5 2q1 1 6 1q3 0 5 -2q1 -1 1.5 -2.5t1.5 -3.5v-6t-2 -8q-8 -30 -36 -69q-28 -38 -61 -46q-34 -4 -79 0q-21 2 -44 5t-46 8q-51 8 -91 12q-44 5 -73 -3t-35 -32q-20 1 -18 25q3 23 21 49q10 12 20.5 20.5t24.5 13.5q21 4 47 3q5 -1 10 -1h10
q17 77 46 154h-26q-22 -2 -30 1t-6 14q12 46 29 55q20 8 43 5h15q53 130 104 222t102 121z" />
    <glyph glyph-name="currency" unicode="&#xa4;" horiz-adv-x="330" 
d="M145 435q37 3 71 -14q33 -17 54 -45q20 -29 20 -56q-1 -41 -29 -78q-29 -35 -71 -44q-28 -5 -60 4q-16 5 -30 11t-27 15q-27 19 -31 39q-8 33 4 69q5 20 14.5 35.5t22.5 29.5q27 28 62 34zM114 236q18 -9 41 8t43 48q9 15 15.5 29.5t8.5 28.5q6 27 -10 40q-16 7 -41 -10
q-22 -17 -45 -47q-9 -14 -16 -28.5t-10 -28.5q-6 -28 14 -40z" />
    <glyph glyph-name="yen" unicode="&#xa5;" horiz-adv-x="535" 
d="M418 662q0 15 15 18q14 3 33 -5q16 -6 32 -18q13 -15 9 -27q-10 -36 -27.5 -76t-43.5 -85q-26 -46 -52.5 -84.5t-52.5 -70.5h55q15 0 19 -11q3 -11 0 -27q-2 -8 -5.5 -14t-9.5 -12q-12 -12 -26 -12h-105q-4 -7 -6.5 -14t-5.5 -13q49 -1 97 0q15 0 18 -11q5 -12 1 -27
q-2 -8 -5.5 -14.5t-8.5 -12.5q-11 -12 -27 -12h-107q-5 -13 -11 -28.5t-14 -32.5q-8 -18 -40 -23q-29 -6 -52 4q-25 7 -20 29q7 14 12 27t10 24h-70q-23 0 -26 20q-2 9 -0.5 18t6.5 19q10 20 27 20q24 1 48 1h48q2 5 4.5 10.5t4.5 11.5q0 2 2 4h-73q-22 0 -25 20q-5 18 6 38
q5 10 11.5 14t14.5 4q17 1 32 1h32q-5 48 10 122q8 37 16 72.5t18 67.5q21 64 36 80q12 8 32 4q22 -5 39 -18t13 -24q-6 -12 -13.5 -31t-18.5 -46q-19 -51 -33 -112q-13 -60 -6 -97q17 8 35 27.5t40 50.5q21 32 40 65.5t36 69.5q15 36 23.5 65t8.5 51z" />
    <glyph glyph-name="brokenbar" unicode="&#xa6;" horiz-adv-x="689" 
d="M403 355l-207 -496q-12 -23 -37 -30q-28 -10 -50 -2q-22 7 -15 31l187 497h122zM308 426l169 428q14 28 51 38q39 9 70 2q31 -6 23 -32l-188 -437z" />
    <glyph glyph-name="section" unicode="&#xa7;" horiz-adv-x="6058" 
d="M992 437q-6 -11 -21 -13.5t-30 1.5t-26.5 12.5t-10.5 18.5q2 18 7 37.5t11 37.5t11.5 32t9.5 22q7 13 28 14.5t41 -4.5t33 -18.5t6 -26.5q-5 -8 -12 -22.5t-15.5 -31t-16.5 -32.5t-15 -27zM1438 369q-79 -210 -92 -371q-12 -163 72 -181q-6 -10 -32 -18q-27 -9 -63 -4
q-17 2 -32.5 10t-29.5 22q-14 13 -23 34t-11 50q-7 57 23 157q-6 -11 -12.5 -23.5t-13.5 -26.5q-12 -26 -24 -48.5t-24 -45.5q-12 -22 -22.5 -36.5t-20.5 -20.5q-37 -22 -87 -8q-64 24 -52 151q1 14 3 28.5t4 29.5q-24 -34 -47.5 -59.5t-43.5 -35.5q-17 -8 -39 -6.5
t-41.5 10.5t-33 24.5t-13.5 36.5q0 19 4.5 48.5t13 64t19.5 71.5t23 72q-28 -10 -52.5 -21t-41.5 -21q-5 -61 -36 -130.5t-79.5 -138t-110 -131t-127.5 -109.5q-64 -46 -117.5 -55t-84.5 11t-34 65t34 108q33 55 85 113.5t110 112t117.5 98.5t107.5 74q2 1 2.5 10t-2 19.5
t-8.5 20t-16 12.5q-21 7 -50 -6t-60 -37t-63 -56t-59 -63.5t-48 -58t-30 -39.5q-15 -21 -31 -22.5t-31 6.5q-18 8 -29.5 22.5t-4.5 37.5q13 46 35 114t47.5 140t50.5 138t43 108q-66 -57 -113.5 -116.5t-68.5 -106.5t-12 -74t55 -19q-3 -18 -17 -27.5t-34 -10.5t-42 6
t-40.5 22t-30 37.5t-10.5 52.5q1 39 26.5 87.5t66.5 98.5t94.5 98t111.5 85.5t116 60t109 21.5q40 -1 78 -21t65 -50.5t39.5 -67t0.5 -70.5q-11 -34 -31.5 -65t-43.5 -57.5t-45 -48t-36 -34.5q19 -2 38.5 -9.5t37.5 -18.5t33 -26t26 -31q45 17 81.5 32t77.5 22q12 4 30.5 1
t34 -10.5t25 -18t4.5 -22.5q-55 -118 -73.5 -183t-10.5 -84q4 -11 16 -5.5t29.5 25.5t39.5 53.5t47 77.5l12 42t14 44q27 84 55.5 160.5t60.5 147.5q31 71 54.5 118t40.5 71q21 22 55 18t58 -25q23 -23 7 -48q-62 -93 -120 -216q-28 -63 -51 -121t-41 -115
q-30 -95 -46 -162.5t-19 -112.5q-3 -43 5 -54.5t25 10.5q18 26 35.5 59.5t34.5 75.5q17 41 33 81t31 81q2 3 3 5.5t2 4.5q92 271 239 509q15 22 48 13q32 -10 52 -31q22 -22 10 -42q-114 -155 -194 -364zM367 310q15 17 48 52t71.5 78t77 90t63.5 89t30.5 74.5t-20.5 46.5
q-12 6 -36.5 2.5t-53.5 -15t-60 -28.5t-57 -37q8 0 19.5 -5t21 -12.5t14.5 -17.5t0 -21q-15 -32 -30.5 -71t-30.5 -79t-29.5 -78t-27.5 -68zM267 -210q20 10 49.5 35t63 58.5t67.5 72t62.5 75t48 68t25.5 51.5q-25 -17 -57 -43t-65 -57.5t-65.5 -66t-59 -69t-45 -66.5
t-24.5 -58zM1681 688q11 14 35 11.5t46 -13.5t34.5 -28t1.5 -32q-7 -9 -21.5 -30.5t-30.5 -46t-31.5 -47t-24.5 -34.5q-10 -12 -28 -12t-34.5 7.5t-27.5 19.5t-8 24q6 21 18.5 49t26.5 54.5t26 48t18 29.5zM2728 399q7 -12 3 -33t-26 -70q-11 -23 -29 -54.5t-43 -69.5
q-52 -77 -102 -110q-26 -14 -59 -10q-33 3 -62 19q-14 7 -23 15.5t-11 18.5q-5 14 -4.5 34t4.5 46q5 26 10 51.5t12 51.5q6 26 11 45.5t10 34.5q2 5 2.5 8.5t1.5 5.5q-29 -31 -60 -76t-65 -105q-34 -61 -59 -109.5t-41 -86.5q-10 -17 -40 -16q-15 1 -29.5 4.5t-27.5 11.5
q-27 13 -25 33q3 15 10 38t16 55q14 45 26.5 91.5t25.5 97.5q7 33 11.5 60.5t5.5 51.5v3v14q-3 44 -37 53q-36 9 -76 -3q-21 -5 -37.5 -13t-28.5 -17q72 -28 81 -101q4 -54 -6 -110.5t-36 -116.5q-49 -119 -102 -153q-59 -29 -135 -9q-77 19 -100 96q-4 29 0 63
q-31 -48 -62.5 -86t-57.5 -50q-16 -8 -38 -7t-41.5 10t-33 25t-13.5 37q0 26 8 69.5t21.5 92t31 95.5t37.5 81q6 11 25.5 11.5t39 -6t33 -19t6.5 -26.5q-54 -118 -72.5 -183t-11.5 -85q6 -13 17 -8t26 22.5t33.5 46t38.5 62.5t41.5 71t42.5 73q12 16 44 10q14 -5 27 -11
t24 -17q24 -19 14 -37q-9 -14 -18.5 -33.5t-20.5 -44.5q-10 -25 -18 -49t-13 -50q-11 -51 5 -80q6 -13 21 -10t37 30q31 39 52.5 83t34.5 91q24 93 5 145q-19 51 -92 4q-27 -17 -57 0q-32 18 -42 45q-13 27 13 46q41 25 90.5 44t108.5 33q120 27 222 -30q46 -26 63 -69
q9 -21 12.5 -42.5t2.5 -44.5q-3 -40 -16 -79q-9 -34 -22 -65q4 5 7 11t8 12q22 38 47 77t53 81q28 41 53 70.5t48 47.5q23 16 56 8q31 -9 55 -29q21 -22 15 -45q-4 -10 -8 -21t-10 -25q-13 -36 -27 -74.5t-29 -81.5q-14 -42 -20.5 -75.5t-4.5 -57.5q42 23 86 83q22 32 41 64
t36 67q23 50 35 62q9 5 16 5q21 -3 29 -13zM3656 726q11 -64 -9.5 -150t-67 -180t-116 -188t-157.5 -173q-72 -65 -144.5 -110.5t-139 -71.5t-123 -31.5t-97 9t-61.5 49.5t-15 91q4 37 21.5 84t49.5 104q25 44 54.5 81.5t63 72t69.5 67.5t73 68q3 9 12.5 38t25 72t35 97.5
t42.5 115.5q-33 -19 -76.5 -56.5t-85 -82t-75.5 -91t-49.5 -84.5t-6.5 -62t54 -24q-21 -22 -53.5 -22t-60.5 18.5t-42.5 54t1.5 85.5q14 43 43.5 89t69.5 91t87.5 86.5t98 75.5t101 59t96.5 36q53 13 108.5 7t104 -25.5t86 -49.5t55.5 -64q64 23 112 20t77.5 -21t39 -46.5
t-3.5 -57.5q0 18 -15.5 32t-41.5 19t-62 -2t-78 -30zM3228 806q12 0 27 -5t27 -13.5t18.5 -19t0.5 -21.5q-26 -54 -44.5 -97.5t-30.5 -73.5q39 30 76.5 55t74 47.5t73.5 44t76 42.5q2 16 -2 35t-16.5 36t-35 28t-56.5 10.5t-80.5 -16.5t-107.5 -52zM2852 -100q46 -8 109 20
t132.5 82.5t140 130t130 163t103 181t59.5 183.5q-15 -8 -43.5 -24.5t-64.5 -39.5t-75.5 -49.5t-75.5 -54t-65 -54t-44 -47.5q-16 -42 -29.5 -87t-24.5 -88.5t-19.5 -83t-14.5 -70.5q-3 -16 -20.5 -22.5t-37.5 -5t-36.5 10t-17.5 23.5q0 7 4.5 26.5t11 45t14 53.5t13.5 51
q-30 -26 -58.5 -60.5t-52 -71.5t-40.5 -73.5t-23.5 -66t-1 -49t26.5 -23.5zM5947 530q9 1 20 -1.5t21.5 -7t19.5 -10t14 -9.5q-5 -5 -7 -6t-4.5 0t-6.5 1.5t-12 -1.5q-12 -3 -33 -14.5t-46 -27.5t-51.5 -34.5t-49.5 -36.5t-40 -32.5t-24 -22.5q7 -10 13.5 -19.5t12.5 -19.5
q21 -33 20 -68t-18 -68.5t-46.5 -62.5t-63.5 -50q-23 -14 -51 -21t-56 -6.5t-52 8.5t-38 24.5t-15.5 41t16.5 57.5q27 51 71.5 95t92.5 84q-15 17 -29.5 34t-26.5 35q-11 -23 -24 -48.5t-28 -54.5q-27 -50 -54 -84.5t-56 -52.5q-22 -12 -54 -8q-15 2 -29.5 7t-27.5 13
q-13 6 -20.5 14.5t-10.5 17.5q-9 30 2 90q5 29 12.5 58.5t15.5 59.5q9 30 17 54t15 43q-49 -52 -98 -140q-25 -43 -45 -90t-36 -97q-5 -10 -26 -10q-10 0 -19 3.5t-19 8.5q-18 8 -23 29q0 13 1.5 32t6.5 45l10 52t11 51q5 26 9 41.5t6 23.5q-31 -37 -90 -143
q-30 -54 -56.5 -106.5t-50.5 -104.5q-5 -7 -12.5 -10.5t-21.5 -1.5q-21 0 -45 13q-21 11 -24 26q2 25 6 54.5t10 62.5q-28 -40 -57.5 -72.5t-58.5 -47.5q-20 -11 -41 -8.5t-39 13t-30.5 26t-14.5 30.5q-2 10 -1 25t4 32t6.5 34t7.5 32q-15 -18 -32 -43t-35.5 -53t-40 -56
t-45.5 -52q-12 -11 -35.5 -9.5t-47 12t-41 27t-15.5 34.5q0 7 0.5 13.5t0.5 13.5q-29 -33 -61 -60t-64 -47q-18 -11 -40.5 -9.5t-44.5 10t-41 20.5t-30 23q-25 24 -30 65.5t5 91.5q-10 -5 -26.5 -9.5t-33.5 -6.5t-33 0t-24 10q-9 9 -13.5 26.5t-5.5 37t-0.5 39t1.5 32.5
q-63 -77 -109 -166t-70 -204q-3 -14 -20 -16t-36.5 5t-34.5 19.5t-13 26.5q9 69 27.5 145.5t43 151.5t53.5 144t59 122q6 11 17.5 14t24.5 -1q29 -8 42 -22.5t4 -34.5q-15 -36 -32.5 -76t-35.5 -91q18 28 32 52q12 20 23 38t13 23q11 17 19 19.5t27 -4.5q36 -12 53.5 -18
t24.5 -16t5.5 -29.5l-4.5 -58.5q-1 -12 -1 -26.5t3 -29t10 -25.5t20 -15q11 45 32 91t47.5 86.5t56.5 72.5t58 49q17 10 32.5 11t32 -4.5t35 -16t41.5 -22.5q30 -17 30 -46q0 -15 -9.5 -51t-28 -76t-45.5 -75t-63 -48q-24 -9 -43.5 -6.5t-42.5 10.5q-6 -13 -13 -38.5
t-10 -51t-0.5 -45.5t16.5 -21q27 -4 56 17t59.5 56.5t61 81t60.5 90.5t59 84.5t56 63.5q23 20 43.5 23.5t40 -2.5t39 -18.5t41.5 -24.5l26 34t27 35q10 12 30 10t38.5 -12.5t29.5 -25.5t3 -29q-41 -77 -64.5 -136t-34 -99.5t-9 -61t10.5 -19.5q24 1 69.5 64.5t112.5 184.5
q11 27 21 49.5t21 39.5q8 11 24 8q17 -1 37 -12q19 -7 29 -21q12 -12 7 -21q-8 -13 -18 -31.5t-23 -44.5q-12 -26 -23 -54t-21 -60q11 20 25.5 45t33.5 57t38.5 63t38.5 60q40 59 63 80q14 11 37 6q25 -6 44 -21q19 -18 18 -35q0 -2 -1 -6l-3 -12t-4.5 -16.5t-6.5 -17.5
q-10 -30 -15 -52q-6 -24 -6 -28q4 8 14 21q15 22 34 48.5t42 59.5q25 32 46 56t38 38q36 24 70 -13q23 -23 30 -38q6 -18 -5 -45q-8 -20 -19 -48t-24 -66q-14 -37 -25.5 -73t-22.5 -72q-10 -36 -15 -61.5t-5 -42.5q51 33 98 112q21 36 39.5 70.5t34.5 66.5q-6 31 -1.5 62.5
t17 61t33 55t46.5 44.5q13 10 32.5 10t38.5 -6t36 -14.5t26 -14.5q32 56 55.5 84.5t39.5 42.5q8 7 23.5 -2.5t30 -25t22 -31.5t-1.5 -23q-20 -15 -46.5 -46.5t-49 -67t-35 -69.5t-2.5 -54q-7 -2 -18 1t-22 10.5t-20.5 19t-13.5 25.5q-4 10 -2.5 23t5 26.5t8 25.5t7.5 18
q-24 0 -44 -28t-29 -67t-4 -80.5t30 -68.5q24 16 55 40.5t64 48t65 42t56 23.5zM4282 547q-12 -10 -30.5 -36t-36.5 -55t-30.5 -53.5t-12.5 -31.5q23 -3 42.5 16t34 47t23.5 59t10 54zM4605 441q3 6 2.5 19t-5.5 23t-14 12.5t-23 -12.5q-27 -30 -50.5 -69.5t-40.5 -78
t-27.5 -70.5t-10.5 -46q13 12 36 39.5t47.5 60.5t48 66t37.5 56zM5550 92q18 2 42.5 21.5t45 46t31 53.5t1.5 44q-37 -38 -71 -77.5t-49 -87.5zM5160 -28q186 -33 262 -119q-119 71 -364 80q-125 5 -264 -2.5t-296 -24.5q-155 -18 -309.5 -42.5t-311.5 -55.5
q-156 -31 -293.5 -64t-261.5 -68q-10 1 -5 21q4 19 21 46q16 25 38 47q21 22 46 30q57 15 138 32.5t188 37.5q214 39 469 69q129 16 254.5 25t250.5 12q249 6 438 -24z" />
    <glyph glyph-name="dieresis" unicode="&#xa8;" horiz-adv-x="433" 
d="M229 593q27 38 55 42t46 -17t12 -58q-8 -42 -33 -53q-24 -13 -51 -2q-25 9 -36 34q-12 23 7 54zM86 598q26 38 56 44q28 3 45 -18q18 -21 13 -58q-9 -41 -34 -53q-24 -12 -50 -3q-25 10 -38 34q-10 24 8 54z" />
    <glyph glyph-name="copyright" unicode="&#xa9;" horiz-adv-x="902" 
d="M518 814q109 0 180 -37q74 -38 114 -98q41 -63 50 -136q9 -75 -12 -153q-19 -78 -68 -151q-37 -51 -84.5 -91.5t-107.5 -69.5q-116 -59 -234 -59q-89 0 -159 36q-69 35 -111 107q-40 70 -40 173q0 84 31 168q31 83 91 155q63 71 148 112q90 44 202 44zM783 463
q18 82 -16 153q-33 71 -105 112q-69 41 -164 32q-134 -18 -217 -83q-82 -66 -121 -157q-37 -89 -34 -182q6 -84 38 -135q33 -53 86 -80q53 -25 116 -25q85 0 168 41q42 22 80.5 53t71.5 72q66 80 97 199zM477 676q46 0 81 -22q35 -24 52 -54q17 -34 14 -66q-4 -46 -30 -75
q-27 -27 -57 -33q-32 -8 -51 -2q-21 8 -15 23q11 2 20.5 8t17.5 17q8 12 13.5 25.5t10.5 28.5q7 29 4 52q-4 23 -21 23q-37 -4 -79 -48q-41 -44 -74 -104q-31 -60 -37 -115q-3 -54 32 -74q44 -20 104 24q29 23 54.5 52t45.5 66q31 -20 19 -63q-10 -41 -52 -86
q-43 -44 -99 -63q-56 -18 -117 11q-78 44 -82 121q-6 75 35 157q41 83 101 139q61 58 110 58z" />
    <glyph glyph-name="ordfeminine" unicode="&#xaa;" horiz-adv-x="384" 
d="M402 382q3 4 11.5 3.5t16 -4.5t12 -10.5t0.5 -13.5q-19 -33 -43.5 -73.5t-52 -79.5t-56.5 -70.5t-57 -44.5q-15 -7 -31.5 -4.5t-30 11t-23 21t-10.5 24.5q-2 16 4 44t13 51q-12 -14 -25.5 -32.5t-29.5 -39.5t-33.5 -42t-36.5 -39q-9 -9 -27.5 -7t-36.5 10.5t-31.5 22
t-11.5 28.5q3 38 18 81t36.5 83.5t48 75.5t52.5 57q19 15 35 17t31 -3.5t30 -16t32 -20.5q11 12 21.5 25.5t22.5 26.5q7 9 22.5 7t29.5 -11t22.5 -21.5t1.5 -23.5q-34 -58 -54.5 -103t-30 -76t-9 -47t7.5 -16q20 1 61 54t101 156zM159 343q3 4 3 14t-3.5 18.5t-10.5 10.5
t-18 -10q-23 -22 -42.5 -52t-34 -59t-23.5 -53.5t-9 -36.5q11 9 29.5 29.5t38.5 45.5t39 50t31 43z" />
    <glyph glyph-name="guillemotleft" unicode="&#xab;" horiz-adv-x="635" 
d="M378 617q26 0 43 -23q17 -25 20 -46q3 -23 -15 -23q-6 0 -21 -5l-39 -13q-23 -9 -48.5 -19t-52.5 -23q-27 -11 -51 -23t-44 -23q-41 -21 -41 -29q0 -11 29 -34q30 -27 67 -51q20 -14 37.5 -25.5t34.5 -21.5q34 -20 44 -20q9 0 6 -12q-2 -6 -5.5 -13t-10.5 -15
q-11 -16 -29 -28q-17 -12 -36 -12q-26 0 -91 50q-32 26 -61.5 52t-57.5 54q-56 56 -56 76q0 15 50 53q25 19 54 38t63 39t65.5 37t62.5 31q58 29 83 29zM578 617q26 0 43 -23q17 -25 20 -46q3 -23 -15 -23q-6 0 -21 -5l-39 -13q-23 -9 -48.5 -19t-52.5 -23q-27 -11 -51 -23
t-44 -23q-41 -21 -41 -29q0 -11 29 -34q30 -27 67 -51q20 -14 37.5 -25.5t34.5 -21.5q34 -20 44 -20q9 0 6 -12q-2 -6 -5.5 -13t-10.5 -15q-11 -16 -29 -28q-17 -12 -36 -12q-26 0 -91 50q-32 26 -61.5 52t-57.5 54q-56 56 -56 76q0 15 50 53q25 19 54 38t63 39t65.5 37
t62.5 31q58 29 83 29z" />
    <glyph glyph-name="logicalnot" unicode="&#xac;" horiz-adv-x="411" 
d="M354 429q25 -3 24 -24q-2 -11 -6 -21t-12 -21l-64 -131q-10 -21 -23 -20q-17 3 -26 14q-12 14 -18 31t-1 28l23 53h-218q-24 0 -28 12q-5 16 1 30q8 18 20 30q13 13 25 13q19 1 37.5 1h37.5l228 5v0z" />
    <glyph glyph-name="uni00AD" unicode="&#xad;" horiz-adv-x="365" 
d="M243 312q19 0 24 -15q7 -15 1 -35q-5 -20 -18 -33q-15 -15 -34 -15h-178q-29 2 -33 25q-5 24 8 48q14 25 35 25h195z" />
    <glyph glyph-name="registered" unicode="&#xae;" horiz-adv-x="901" 
d="M514 806q107 0 179 -36q71 -36 112 -96q41 -58 53 -132t-2 -145q-8 -38 -21 -72t-33 -67q-74 -119 -183 -178q-110 -61 -218 -61q-79 0 -151 33q-72 32 -120 97q-50 63 -68 163q-16 91 13 179q31 90 95 159q63 69 153 113q87 43 191 43zM718 288q21 31 34 66t20 75
q5 39 4 76.5t-12 75.5q-19 73 -75 121q-57 48 -155 48q-104 0 -182 -38q-74 -35 -126 -96q-48 -57 -68 -129q-12 -35 -16.5 -70.5t-2.5 -70.5t11 -67.5t23 -61.5q29 -59 81 -95q54 -36 127 -36q65 0 132 28q32 15 61.5 33.5t55.5 42.5q52 42 88 98zM564 682q103 -12 131 -61
q26 -47 -3 -105q-15 -29 -37.5 -54.5t-54.5 -47.5q-61 -45 -131 -52q1 -4 6.5 -10t14.5 -15q9 -10 19.5 -19t23.5 -19q26 -19 47 -25q22 -8 33 7q14 0 13 -13q-5 -14 -16 -30q-15 -17 -33 -29q-19 -13 -38 -13q-21 0 -44 20q-10 10 -20 22t-19 26q-20 28 -34 50
q-17 31 -24 36q-1 0 -1.5 -1.5t-1.5 -2.5q-5 -9 -12.5 -21.5t-16.5 -31.5q-9 -18 -15.5 -35.5t-9.5 -34.5q-6 -32 20 -38q0 -14 -19 -14q-21 0 -53 23q-34 25 -37 58q2 22 15 53t39 73q49 79 107 152q54 69 75 80q16 5 26 -4q13 -9 19 -22q4 -14 0 -23q-17 -17 -43.5 -56.5
t-63.5 -102.5q35 7 75 32q19 14 36 28.5t31 31.5t25 34t17 34q12 34 -1 56q-14 22 -63 22q-66 0 -120 -24q-54 -25 -84 -56q-31 -30 -36 -55q-6 -24 27 -24q-3 -18 -30 -18q-25 0 -52 15q-27 13 -33 39q-8 26 27 59q32 29 69.5 50t80.5 36q90 27 169 20z" />
    <glyph glyph-name="macron" unicode="&#xaf;" horiz-adv-x="411" 
d="M354 688q25 -1 24 -23q-3 -25 -21 -44q-20 -23 -39 -23h-285q-24 0 -28 12q-5 14 1 30q8 18 20 30q13 13 25 13h37.5t37.5 1q57 2 114 2.5t114 1.5z" />
    <glyph glyph-name="degree" unicode="&#xb0;" horiz-adv-x="330" 
d="M145 865q37 3 71 -14q33 -17 54 -45q20 -29 20 -56q-1 -41 -29 -78q-29 -35 -71 -44q-28 -5 -60 4q-16 5 -30 11t-27 15q-27 19 -31 39q-8 33 4 69q5 20 14.5 35.5t22.5 29.5q27 28 62 34zM114 666q18 -9 41 8t43 48q9 15 15.5 29.5t8.5 28.5q6 27 -10 40q-16 7 -41 -10
q-22 -17 -45 -47q-9 -14 -16 -28.5t-10 -28.5q-6 -28 14 -40z" />
    <glyph glyph-name="plusminus" unicode="&#xb1;" horiz-adv-x="411" 
d="M409 367q25 -1 25 -23q-5 -23 -23 -45t-38 -22h-99l-52 -122q-6 -19 -28 -19q-23 1 -40 15q-18 14 -12 32l37 94h-91q-24 0 -28 13q-5 12 2 29q6 17 19 30q15 13 25 13l108 2l47 115q12 24 35 23q11 -1 21 -5.5t18 -11.5q18 -16 13 -35l-36 -84zM354 91q25 -2 24 -24
q-3 -23 -21 -45q-20 -22 -39 -22h-285q-24 0 -28 13q-5 14 1 29q7 17 20 30q12 13 25 13q19 1 37.5 1h37.5q57 2 114 2.5t114 2.5z" />
    <glyph glyph-name="twosuperior" unicode="&#xb2;" horiz-adv-x="507" 
d="M287 27q-26 -2 -57 -2.5t-63.5 -0.5h-63.5h-56q-17 0 -23.5 17t-6.5 40t4.5 46.5t10.5 35.5q17 37 51 67.5t74.5 58.5t84.5 53.5t82.5 53.5t66.5 58.5t38 67.5q6 20 -12 25t-48 -0.5t-64 -20.5t-61 -34.5t-39 -41.5t3 -42q-17 -10 -31.5 4.5t-20.5 40t-1 54.5t27 49
q17 15 40.5 28.5t50.5 23.5t55 15.5t54 4.5q28 -2 52 -20.5t38.5 -47t17 -63t-13.5 -68.5q-14 -32 -49 -63t-78 -60.5t-89 -56.5t-83.5 -51.5t-61 -45.5t-21.5 -38h42t61 1.5t67 5.5t60 11t40 18.5t8 27.5q24 0 26 -22.5t-11.5 -50.5t-40 -52t-59.5 -26z" />
    <glyph glyph-name="threesuperior" unicode="&#xb3;" horiz-adv-x="452" 
d="M426 437q-11 -19 -32 -39t-46 -38.5t-50.5 -32.5t-44.5 -21q62 -2 94 -19t40 -42q10 -33 -10.5 -73t-60 -75t-92 -58.5t-107.5 -23.5q-24 0 -42 7.5t-30.5 19.5t-19.5 27t-9 31q-3 34 13 60.5t46 25.5q-21 -40 -15 -61t27.5 -26.5t54 2.5t64 26t57.5 44.5t35 57.5
q2 12 -4 19t-18.5 10.5t-30.5 3t-40 -3.5q-18 -2 -28.5 11.5t-13 31.5t4 35.5t22.5 22.5q12 4 34.5 15.5t48.5 27.5t51.5 35t44.5 38.5t27.5 37t0.5 31.5q-9 14 -32.5 12.5t-53 -12.5t-60 -29t-52 -37.5t-29 -38.5t7.5 -31q-17 -12 -31 -1.5t-19 33t0.5 51.5t27.5 55
q16 19 40 35.5t52 27t56.5 14.5t52.5 -1q30 -6 51 -25.5t30 -45.5t6.5 -56.5t-18.5 -57.5z" />
    <glyph glyph-name="acute" unicode="&#xb4;" horiz-adv-x="318" 
d="M254 759q13 7 32 -9q21 -14 29 -35q11 -20 -3 -32q-17 -10 -37 -25t-41 -35t-39.5 -39.5t-32.5 -39.5q-6 -9 -19 -6q-11 2 -19 11q-8 8 -4 20q5 11 13.5 27t19.5 36q22 38 50 77q28 37 51 50z" />
    <glyph glyph-name="mu" unicode="&#xb5;" 
d="M355 340q3 5 9.5 4.5t13 -4t11 -8.5t3.5 -8q-7 -16 -18.5 -42t-27 -56t-33 -59.5t-36.5 -51.5t-38 -33.5t-37 -3.5q-32 15 -48.5 35t-12.5 58q-18 -27 -34 -50t-47 -55q-11 -12 -31 -14t-39.5 3.5t-34.5 17.5t-16 28q-1 18 4 46t13.5 60.5t20 65.5t23 61.5t21.5 48
t17 25.5q7 7 21 5.5t26.5 -7.5t20 -14.5t3.5 -15.5q-8 -14 -22 -47.5t-28 -72t-25 -74t-12 -52.5q5 1 16.5 15t27 37.5t33.5 54.5t37.5 65.5t38 70.5t34.5 71q6 13 21.5 13t30.5 -7t24.5 -18.5t5.5 -20.5q-11 -24 -25 -62.5t-25.5 -80t-18.5 -78.5t-4 -56q19 12 39 38
t38.5 56t34 60.5t25.5 51.5zM-33 249q17 38 24 47.5t7 -1t-7 -35.5t-17 -56q-7 -21 -16.5 -48.5t-20 -57.5t-21 -60.5t-18.5 -57t-12 -47.5t-2 -32q3 -16 2 -37t-7.5 -36t-19.5 -19t-34 14q-14 12 -12.5 41t13.5 67.5t31 83.5t39.5 88.5t39.5 81.5t31 64z" />
    <glyph glyph-name="paragraph" unicode="&#xb6;" horiz-adv-x="689" 
d="M343 653l-320 -802q-6 -19 13 -25q18 -7 41 2q22 6 31 24l355 807q7 21 -19 26q-26 6 -59 -2q-31 -7 -42 -30zM510 653l-320 -802q-6 -19 13 -25q18 -7 41 2q22 6 31 24l355 807q7 21 -19 26q-26 6 -59 -2q-31 -7 -42 -30zM689 712q25 -3 24 -24q-3 -23 -21 -45
q-19 -22 -39 -22h-285l-86 -139q-18 7 -32 24.5t-19.5 41t-1 49.5t22 49t50.5 39.5t84 20.5q19 2 37.5 1.5t37.5 -0.5q57 2 114 2.5t114 2.5z" />
    <glyph glyph-name="periodcentered" unicode="&#xb7;" horiz-adv-x="157" 
d="M21 360q24 33 49 37q24 4 40 -15q16 -17 11 -51q-5 -25 -16.5 -37.5t-27.5 -15.5q-33 -3 -55 21q-23 26 -1 61z" />
    <glyph glyph-name="cedilla" unicode="&#xb8;" horiz-adv-x="165" 
d="M202 -14q7 -28 -6 -55q-14 -31 -41 -54q-28 -25 -64 -35q-12 -2 -24.5 -2.5t-25.5 1.5q-23 3 -45 13q-18 10 -23 22q-7 13 15 28q0 -19 25 -22q13 -2 24.5 -1.5t22.5 2.5q22 4 47 26q16 15 27 33q9 20 8 30q0 11 -12 14q-11 3 -26 -2q-14 -4 -26 -16q-6 -5 -10.5 -9.5
t-8.5 -7.5l-4 -4q-16 0 -33 10q-17 8 -24 19q2 5 6 13t10 19q5 10 10 18.5t10 18.5q6 8 8 11q58 -5 48 -18q-1 -1 -3 -4q-5 -8 -10 -15l-10 -14q-8 -14 -12 -23q5 6 11.5 11.5t14.5 10.5t15.5 9t15.5 6q15 4 36 1t35 -13q16 -9 19 -21z" />
    <glyph glyph-name="onesuperior" unicode="&#xb9;" horiz-adv-x="310" 
 />
    <glyph glyph-name="ordmasculine" unicode="&#xba;" horiz-adv-x="306" 
d="M288 229q8 1 11.5 -5.5t3.5 -15t-3.5 -15.5t-8.5 -7q-23 -3 -43 -2t-47 10q-5 -10 -13 -27.5t-19.5 -36t-27 -36t-34.5 -27.5q-16 -9 -40.5 -5.5t-49 14.5t-43.5 28t-24 37q-8 27 -3 59t16 62.5t26.5 56t29.5 38.5q5 5 11 9t11 9q-4 21 -5 42.5t10 41.5q9 16 37.5 20.5
t60 -4.5t57.5 -33t31 -64q5 -37 -0.5 -71t-13.5 -70q9 -6 29.5 -9t40.5 1zM34 114q39 23 57.5 54t32.5 66q-35 24 -54 61q-5 -5 -13 -27t-15.5 -50.5t-10.5 -57t3 -46.5zM139 291q6 14 8 33.5t0.5 39t-5 35t-7.5 22.5q-16 -20 -14.5 -55t18.5 -75z" />
    <glyph glyph-name="guillemotright" unicode="&#xbb;" horiz-adv-x="639" 
d="M178 617q27 0 89 -50q33 -25 62.5 -51.5t58.5 -54.5q55 -55 55 -75q0 -16 -49 -55q-25 -18 -54 -37t-63 -40q-34 -19 -66 -36t-62 -32q-31 -14 -51.5 -21t-31.5 -7q-12 0 -23.5 5.5t-19.5 17.5q-17 22 -20 46q-2 23 14 23q7 0 22 5t38 13q24 9 49 19.5t52 22.5
q28 12 52 23.5t44 22.5q41 20 41 30t-29 33q-30 27 -67 51q-37 27 -73 47q-32 19 -43 19t-6 13q1 6 5 13t9 15q12 15 30 28q16 12 37 12zM378 617q27 0 89 -50q33 -25 62.5 -51.5t58.5 -54.5q55 -55 55 -75q0 -16 -49 -55q-25 -18 -54 -37t-63 -40q-34 -19 -66 -36t-62 -32
q-31 -14 -51.5 -21t-31.5 -7q-12 0 -23.5 5.5t-19.5 17.5q-17 22 -20 46q-2 23 14 23q7 0 22 5t38 13q24 9 49 19.5t52 22.5q28 12 52 23.5t44 22.5q41 20 41 30t-29 33q-30 27 -67 51q-37 27 -73 47q-32 19 -43 19t-6 13q1 6 5 13t9 15q12 15 30 28q16 12 37 12z" />
    <glyph glyph-name="onequarter" unicode="&#xbc;" horiz-adv-x="928" 
d="M467 826q10 22 46 18q33 -3 62 -23q28 -22 22 -47q-21 -48 -48 -113t-60 -146q-34 -81 -67 -160t-65 -157q-32 -77 -55.5 -133.5t-37.5 -92.5q-11 -22 -35 -20q-26 2 -46 16t-15 37q13 47 35 111t53 147q30 83 60.5 164t60.5 161t53 139t37 99zM588 61q-32 -1 -67.5 -5
t-84.5 -15q-9 0 -21 12t-22 27.5t-15.5 31t0.5 21.5q33 42 66 86.5t64.5 87t61.5 81t57 67.5q15 17 34.5 19.5t37.5 -3.5t32.5 -17t19.5 -22q6 11 13 26t10 18q7 9 23 7t31.5 -10t25 -20t3.5 -24q-14 -26 -33 -64t-38 -79t-36 -79.5t-28 -64.5q14 -8 23.5 -34.5t11.5 -51.5
q-12 2 -31 3.5t-39 2.5l-75 -182q-5 -10 -20 -11t-30.5 5t-26 17t-5.5 25q14 36 26 66q10 26 19.5 49t12.5 30zM468 132q29 8 72.5 12t82.5 4q13 30 29 65t31.5 70.5t31 69t29.5 61.5q-8 12 -23 6t-35.5 -25.5t-45.5 -49.5t-53 -65.5t-58.5 -73.5t-60.5 -74z" />
    <glyph glyph-name="onehalf" unicode="&#xbd;" horiz-adv-x="971" 
d="M536 826q10 22 46 18q33 -3 62 -23q28 -22 22 -47q-21 -48 -48 -113t-60 -146q-34 -81 -67 -160t-65 -157q-32 -77 -55.5 -133.5t-37.5 -92.5q-11 -22 -35 -20q-26 2 -46 16t-15 37q13 47 35 111t53 147q30 83 60.5 164t60.5 161t53 139t37 99zM707 -90q-26 -2 -57 -2.5
t-63.5 -0.5h-63.5h-56q-17 0 -23.5 17t-6.5 40t4.5 46.5t10.5 35.5q17 37 51 67.5t74.5 58.5t84.5 53.5t82.5 53.5t66.5 58.5t38 67.5q6 20 -12 25t-48 -0.5t-64 -20.5t-61 -34.5t-39 -41.5t3 -42q-17 -10 -31.5 4.5t-20.5 40t-1 54.5t27 49q17 15 40.5 28.5t50.5 23.5
t55 15.5t54 4.5q28 -2 52 -20.5t38.5 -47t17 -63t-13.5 -68.5q-14 -32 -49 -63t-78 -60.5t-89 -56.5t-83.5 -51.5t-61 -45.5t-21.5 -38h42t61 1.5t67 5.5t60 11t40 18.5t8 27.5q24 0 26 -22.5t-11.5 -50.5t-40 -52t-59.5 -26z" />
    <glyph glyph-name="threequarters" unicode="&#xbe;" horiz-adv-x="1069" 
d="M459 639q-11 -19 -32 -39t-46 -38.5t-50.5 -32.5t-44.5 -21q62 -2 94 -19t40 -42q10 -33 -10.5 -73t-60 -75t-92 -58.5t-107.5 -23.5q-24 0 -42 7.5t-30.5 19.5t-19.5 27t-9 31q-3 34 13 60.5t46 25.5q-21 -40 -15 -61t27.5 -26.5t54 2.5t64 26t57.5 44.5t35 57.5
q2 12 -4 19t-18.5 10.5t-30.5 3t-40 -3.5q-18 -2 -28.5 11.5t-13 31.5t4 35.5t22.5 22.5q12 4 34.5 15.5t48.5 27.5t51.5 35t44.5 38.5t27.5 37t0.5 31.5q-9 14 -32.5 12.5t-53 -12.5t-60 -29t-52 -37.5t-29 -38.5t7.5 -31q-17 -12 -31 -1.5t-19 33t0.5 51.5t27.5 55
q16 19 40 35.5t52 27t56.5 14.5t52.5 -1q30 -6 51 -25.5t30 -45.5t6.5 -56.5t-18.5 -57.5zM632 826q10 22 46 18q33 -3 62 -23q28 -22 22 -47q-21 -48 -48 -113t-60 -146q-34 -81 -67 -160t-65 -157q-32 -77 -55.5 -133.5t-37.5 -92.5q-11 -22 -35 -20q-26 2 -46 16t-15 37
q13 47 35 111t53 147q30 83 60.5 164t60.5 161t53 139t37 99zM758 21q-32 -1 -67.5 -5t-84.5 -15q-9 0 -21 12t-22 27.5t-15.5 31t0.5 21.5q33 42 66 86.5t64.5 87t61.5 81t57 67.5q15 17 34.5 19.5t37.5 -3.5t32.5 -17t19.5 -22q6 11 13 26t10 18q7 9 23 7t31.5 -10t25 -20
t3.5 -24q-14 -26 -33 -64t-38 -79t-36 -79.5t-28 -64.5q14 -8 23.5 -34.5t11.5 -51.5q-12 2 -31 3.5t-39 2.5l-75 -182q-5 -10 -20 -11t-30.5 5t-26 17t-5.5 25q14 36 26 66q10 26 19.5 49t12.5 30zM638 92q29 8 72.5 12t82.5 4q13 30 29 65t31.5 70.5t31 69t29.5 61.5
q-8 12 -23 6t-35.5 -25.5t-45.5 -49.5t-53 -65.5t-58.5 -73.5t-60.5 -74z" />
    <glyph glyph-name="questiondown" unicode="&#xbf;" horiz-adv-x="622" 
d="M187 -34q-51 4 -91 47q-39 41 -53 104q-13 61 16 127q14 28 35.5 52.5t51.5 44.5q29 21 60 40t66 37q36 20 68.5 39.5t61.5 40.5q28 21 46.5 46t26.5 54q11 26 33 32t40 -6q17 -12 11 -42q-7 -77 -71 -136q-31 -27 -65.5 -53.5t-75.5 -50.5q-38 -23 -72 -48t-65 -52
q-63 -54 -86 -128q-8 -35 28 -39q37 -3 91 13q56 15 109 47q27 15 46.5 32t33.5 35q27 36 3 71q35 15 56 -22q11 -18 16.5 -40.5t3.5 -50.5q-1 -55 -42 -94q-24 -22 -56 -40t-71 -33t-78 -22t-77 -5zM602 731q-36 -72 -74 -61q-37 10 -40 76q3 54 38 67q39 12 67 -10
q30 -21 9 -72z" />
    <glyph glyph-name="Agrave" unicode="&#xc0;" horiz-adv-x="586" 
d="M471 493q15 33 30.5 69.5t28 66.5t18.5 49t1 18q-48 -34 -96 -84t-99 -122q35 9 61.5 8t55.5 -5zM437 402q-2 8 -23 9.5t-48 -3t-53.5 -14t-40.5 -21.5q-7 -10 -21 -36t-30.5 -61t-33 -75.5t-27.5 -80.5t-14.5 -76t6.5 -62q4 -9 1 -14t-8.5 -6.5t-12 0t-10.5 4.5
q-17 15 -31.5 41.5t-17.5 68.5t10.5 101t54.5 139q-1 0 -16 -12t-33 -29t-33 -36.5t-16 -35.5q-11 -6 -24.5 4t-23.5 27t-13 37.5t8 34.5q14 18 45.5 41t67.5 44.5t70 38.5t53 24q29 45 65 92.5t75 91t78 80t74 60.5q22 15 49 14t48.5 -12t34.5 -29.5t7 -39.5
q-8 -26 -21 -62.5t-24 -64.5q-26 -65 -55 -139t-56 -148.5t-50 -146.5t-38 -133q-5 -18 -24 -24t-39 -3t-35 14t-10 26q26 93 61 185.5t74 186.5zM523 1059q23 -14 50 -50q13 -19 25.5 -38t23.5 -39q12 -20 20 -35.5t13 -27.5t-4 -20q-8 -10 -18 -11q-12 -3 -20 6
q-30 42 -71 79q-21 20 -40.5 35t-36.5 26q-14 11 -5 32q11 22 30 35q19 16 33 8z" />
    <glyph glyph-name="Aacute" unicode="&#xc1;" horiz-adv-x="586" 
d="M471 493q15 33 30.5 69.5t28 66.5t18.5 49t1 18q-48 -34 -96 -84t-99 -122q35 9 61.5 8t55.5 -5zM437 402q-2 8 -23 9.5t-48 -3t-53.5 -14t-40.5 -21.5q-7 -10 -21 -36t-30.5 -61t-33 -75.5t-27.5 -80.5t-14.5 -76t6.5 -62q4 -9 1 -14t-8.5 -6.5t-12 0t-10.5 4.5
q-17 15 -31.5 41.5t-17.5 68.5t10.5 101t54.5 139q-1 0 -16 -12t-33 -29t-33 -36.5t-16 -35.5q-11 -6 -24.5 4t-23.5 27t-13 37.5t8 34.5q14 18 45.5 41t67.5 44.5t70 38.5t53 24q29 45 65 92.5t75 91t78 80t74 60.5q22 15 49 14t48.5 -12t34.5 -29.5t7 -39.5
q-8 -26 -21 -62.5t-24 -64.5q-26 -65 -55 -139t-56 -148.5t-50 -146.5t-38 -133q-5 -18 -24 -24t-39 -3t-35 14t-10 26q26 93 61 185.5t74 186.5zM614 1034q13 6 32 -8q10 -8 17.5 -16.5t12.5 -19.5q10 -20 -4 -32q-35 -20 -78 -60q-21 -20 -39 -39.5t-32 -39.5
q-8 -9 -20 -6q-10 1 -18 11q-9 9 -4 19q5 12 13 27.5t20 36.5q11 20 23.5 38.5t25.5 38.5q14 18 26.5 31t24.5 19z" />
    <glyph glyph-name="Acircumflex" unicode="&#xc2;" horiz-adv-x="586" 
d="M471 493q15 33 30.5 69.5t28 66.5t18.5 49t1 18q-48 -34 -96 -84t-99 -122q35 9 61.5 8t55.5 -5zM437 402q-2 8 -23 9.5t-48 -3t-53.5 -14t-40.5 -21.5q-7 -10 -21 -36t-30.5 -61t-33 -75.5t-27.5 -80.5t-14.5 -76t6.5 -62q4 -9 1 -14t-8.5 -6.5t-12 0t-10.5 4.5
q-17 15 -31.5 41.5t-17.5 68.5t10.5 101t54.5 139q-1 0 -16 -12t-33 -29t-33 -36.5t-16 -35.5q-11 -6 -24.5 4t-23.5 27t-13 37.5t8 34.5q14 18 45.5 41t67.5 44.5t70 38.5t53 24q29 45 65 92.5t75 91t78 80t74 60.5q22 15 49 14t48.5 -12t34.5 -29.5t7 -39.5
q-8 -26 -21 -62.5t-24 -64.5q-26 -65 -55 -139t-56 -148.5t-50 -146.5t-38 -133q-5 -18 -24 -24t-39 -3t-35 14t-10 26q26 93 61 185.5t74 186.5zM767 868q-2 -5 -6 -10t-11 -8q-6 -4 -12.5 -6.5t-14.5 -4.5q-15 -3 -24 -2t-9 6q1 6 0 27q-2 11 -3.5 21.5t-4.5 23.5
q-2 13 -5 23.5t-6 19.5q-5 18 -12 22q-7 0 -25 -18q-11 -8 -21.5 -18.5l-23.5 -23.5q-13 -12 -23.5 -23.5t-19.5 -22.5q-10 -11 -15.5 -18.5t-7.5 -12.5q-1 -7 -13 -5q-11 2 -23 9q-12 8 -20 19t-5 22q3 8 12 17.5t24 24.5q28 28 66 60q19 15 36.5 28t33.5 24q30 21 43 19
q13 -6 36 -47q11 -20 21.5 -41.5t19.5 -42.5q18 -44 13 -62z" />
    </font>
</defs>
</svg>
