<?xml version="1.0" standalone="no"?>
<!DOCTYPE svg PUBLIC "-//W3C//DTD SVG 1.1//EN" "http://www.w3.org/Graphics/SVG/1.1/DTD/svg11.dtd" >
<svg xmlns="http://www.w3.org/2000/svg" xmlns:xlink="http://www.w3.org/1999/xlink" version="1.1">
<metadata>
Created by FontForge 20201107 at Sun Apr 23 04:35:10 2017
 By 
Copyright (c) 2016 by Deni Anggara. All rights reserved.
</metadata>
<defs>
<font id="Biotif-Regular" horiz-adv-x="582" >
  <font-face 
    font-family="Biotif"
    font-weight="400"
    font-stretch="normal"
    units-per-em="1000"
    panose-1="0 0 5 0 0 0 0 0 0 0"
    ascent="800"
    descent="-200"
    x-height="487"
    cap-height="720"
    bbox="-530 -244 1488 1047"
    underline-thickness="80"
    underline-position="-195"
    unicode-range="U+0020-FB02"
  />
<missing-glyph horiz-adv-x="539" 
d="M442 -215h-342v1078h342v-1078zM181 791v-36h70v-40h-71v-35h179v35h-71v40h71v36h-178zM180 652v-112h179v36h-71v76h-108zM251 576h-35v39h35v-39zM180 510v-35h71v-40h-71v-36h108v76h71v35h-179zM323 446v-71h-143v-37h179v108h-36zM251 314v-60h37v25h35v-51h-107
v86h-36v-122h179v122h-108zM180 128v-122h179v122h-179zM323 42h-107v50h107v-50zM180 -19v-35h75l-75 -51v-36h179v36h-110l75 51h35v35h-179z" />
    <glyph glyph-name="fi" unicode="fi" horiz-adv-x="556" 
d="M479 486v-486h-83v418l-224 1v-419h-82l-1 419h-72v68h72v85q0 82 41.5 121.5t110.5 39.5q21 0 49 -6v-73q-17 4 -39 4q-43 0 -61 -22t-18 -64v-85zM499 662q0 -26 -17.5 -43.5t-43.5 -17.5t-44 17.5t-18 43.5t18 44t44 18t43.5 -18t17.5 -44z" />
    <glyph glyph-name="fl" unicode="fl" horiz-adv-x="546" 
d="M471 732v-732h-82v419h-217v-419h-82l-1 419h-72v68h72v85q0 82 41.5 121.5t110.5 39.5q21 0 49 -6v-73q-17 4 -39 4q-43 0 -61 -22t-18 -64v-85h217v245h82z" />
    <glyph glyph-name="f_f" unicode="ff" horiz-adv-x="635" 
d="M567 658q-43 0 -61 -22t-18 -64v-85h101v-68h-101v-419h-82l-1 419h-230v-419h-82v419h-73v68h73v85q0 82 41 121.5t110 39.5q22 0 50 -6v-73q-17 4 -39 4q-43 0 -61.5 -22t-18.5 -64v-85h230v85q0 82 41.5 121.5t110.5 39.5q21 0 49 -6v-73q-17 4 -39 4z" />
    <glyph glyph-name="f_f_i" unicode="ffi" horiz-adv-x="869" 
d="M485 487l307 -1v-486h-82v418l-225 1v-419h-83v419h-230v-419h-82l-1 419h-72v68h72v85q0 82 41.5 121.5t110.5 39.5q21 0 49 -6v-73q-17 4 -39 4q-43 0 -61 -22t-18 -64v-85h230v85q0 82 42 121.5t109 39.5q22 0 50 -6v-73q-17 4 -39 4q-43 0 -61 -22t-18 -64v-85z
M812 662q0 -26 -17.5 -43.5t-43.5 -17.5t-44 17.5t-18 43.5t18 44t44 18t43.5 -18t17.5 -44z" />
    <glyph glyph-name="f_f_l" unicode="ffl" horiz-adv-x="859" 
d="M784 732v-732h-83v419h-216v-419h-83v419h-230v-419h-82l-1 419h-72v68h72v85q0 82 41.5 121.5t110.5 39.5q21 0 49 -6v-73q-17 4 -39 4q-43 0 -61 -22t-18 -64v-85h230v85q0 82 42 121.5t109 39.5q22 0 50 -6v-73q-17 4 -39 4q-43 0 -61 -22t-18 -64v-85h216v245h83z
" />
    <glyph glyph-name="f_t" unicode="ft" horiz-adv-x="616" 
d="M605 419h-116v-419h-81v419h-236v-419h-82l-1 419h-72v68h72v85q0 82 41.5 121.5t110.5 39.5q21 0 49 -6v-73q-17 4 -39 4q-43 0 -61 -22t-18 -64v-85h236v153h81v-153h116v-68z" />
    <glyph glyph-name="f_y" unicode="fy" horiz-adv-x="788" 
d="M778 487l-221 -595q-22 -60 -63.5 -88t-90.5 -28q-25 0 -50 7t-45 19l22 72q13 -10 31.5 -17t37.5 -7q26 0 48.5 14.5t33.5 45.5l19 49h-1l-182 460h-145v-419h-82l-1 419h-72v68h72v85q0 82 41.5 121.5t110.5 39.5q21 0 49 -6v-73q-17 4 -39 4q-43 0 -61 -22t-18 -64
v-85h208l160 -418l150 418h88z" />
    <glyph glyph-name="t_i" unicode="ti" horiz-adv-x="539" 
d="M485 662q0 -26 -17.5 -43.5t-43.5 -17.5t-44 17.5t-18 43.5t18 44t44 18t43.5 -18t17.5 -44zM465 0h-83v419h-187v-419h-82v419h-96v68h96v153h82v-153h270v-487z" />
    <glyph glyph-name="t_t" unicode="tt" horiz-adv-x="615" 
d="M598 419h-96v-419h-81v419h-96h-130v-419h-82v419h-96v68h96v153h82v-153h166h60v153h81v-153h96v-68z" />
    <glyph glyph-name="t_y" unicode="ty" horiz-adv-x="767" 
d="M757 487l-220 -595q-22 -60 -63.5 -88t-90.5 -28q-25 0 -50 7t-45 19l22 72q13 -10 31.5 -17t37.5 -7q26 0 48.5 14.5t33.5 45.5l18 49l-182 460h-102v-419h-82v419h-96v68h96v153h82v-153h147h18l158 -423l151 423h88z" />
    <glyph glyph-name=".notdef" horiz-adv-x="539" 
d="M442 -215h-342v1078h342v-1078zM181 791v-36h70v-40h-71v-35h179v35h-71v40h71v36h-178zM180 652v-112h179v36h-71v76h-108zM251 576h-35v39h35v-39zM180 510v-35h71v-40h-71v-36h108v76h71v35h-179zM323 446v-71h-143v-37h179v108h-36zM251 314v-60h37v25h35v-51h-107
v86h-36v-122h179v122h-108zM180 128v-122h179v122h-179zM323 42h-107v50h107v-50zM180 -19v-35h75l-75 -51v-36h179v36h-110l75 51h35v35h-179z" />
    <glyph glyph-name=".null" horiz-adv-x="0" 
 />
    <glyph glyph-name="nonmarkingreturn" horiz-adv-x="333" 
 />
    <glyph glyph-name="space" unicode=" " horiz-adv-x="275" 
 />
    <glyph glyph-name="exclam" unicode="!" horiz-adv-x="310" 
d="M121 164q-12 104 -12 253v302h93v-302q0 -39 -0.5 -72t-2 -63t-4 -59t-6.5 -59h-68zM90 50q0 28 19 46t47 18q27 0 45.5 -18t18.5 -46q0 -27 -18.5 -45t-45.5 -18t-46.5 18t-19.5 45z" />
    <glyph glyph-name="quotedbl" unicode="&#x22;" horiz-adv-x="304" 
d="M108 452h-52l-19 184q-2 26 12 40t34 14q19 0 32.5 -14t10.5 -40zM249 452h-52l-19 184q-3 26 11.5 40t34.5 14q19 0 32 -14t11 -40z" />
    <glyph glyph-name="numbersign" unicode="#" horiz-adv-x="686" 
d="M519 432l-28 -144h111l-15 -83h-112l-40 -205h-83l41 205h-163l-40 -205h-82l40 205h-102l15 83h103l28 144h-118l16 82h118l41 205h82l-40 -205h163l40 205h82l-40 -205h104l-15 -82h-106zM437 432h-162l-29 -144h163z" />
    <glyph glyph-name="dollar" unicode="$" horiz-adv-x="646" 
d="M571 185q0 -82 -56.5 -134.5t-155.5 -60.5v-80h-67v80q-94 8 -153 57t-69 130l84 13q6 -52 42 -83.5t96 -39.5v264l-25 7q-85 23 -128 70t-43 125q0 38 14 72t40 60.5t62 44t80 22.5v70h67v-70q82 -8 139.5 -53t74.5 -117l-81 -22q-11 48 -46.5 78t-86.5 37v-258l28 -8
q184 -49 184 -204zM292 415v238q-51 -10 -81 -43t-30 -75q0 -46 25.5 -74.5t82.5 -44.5zM487 186q0 52 -32 80t-86 43l-10 3v-245q63 7 95.5 40.5t32.5 78.5z" />
    <glyph glyph-name="percent" unicode="%" horiz-adv-x="900" 
d="M50 543q0 88 43.5 140t115.5 53q37 2 67.5 -11.5t52.5 -39t34 -61.5t12 -81q0 -88 -44.5 -140.5t-119.5 -52.5q-36 0 -66 14t-51 39t-32.5 61t-11.5 79zM771 719l-548 -719h-87l548 719h87zM213 417q43 1 69 35t26 91t-25.5 91t-70.5 34q-43 0 -69 -34t-26 -91t25.5 -91
t70.5 -35zM693 -16q-36 0 -66 14t-51 39t-32.5 61t-11.5 79q0 88 43.5 140t115.5 53q37 2 67.5 -11.5t52.5 -39t34 -61.5t12 -81q0 -88 -44.5 -140.5t-119.5 -52.5zM790 177q0 57 -25.5 91t-70.5 34q-43 0 -69 -34t-26 -91t25.5 -91t70.5 -35q43 1 69 35t26 91z" />
    <glyph glyph-name="ampersand" unicode="&#x26;" horiz-adv-x="695" 
d="M576 0l-52 63q-80 -74 -217 -74q-120 0 -186.5 57t-66.5 153q0 75 41.5 127t129.5 100q-24 27 -39.5 48t-25 39.5t-13.5 36t-4 36.5q0 33 12 60.5t34 46.5t51.5 29.5t65.5 10.5q35 0 64.5 -10.5t50.5 -29.5t33 -45t12 -58q0 -51 -32 -94t-99 -85l180 -218q18 47 18 117
v22t-1 16h84q1 -5 1 -13v-19q0 -111 -45 -191l103 -125h-99zM223 580q0 -25 15.5 -49.5t54.5 -69.5q92 53 92 122q0 34 -21 55.5t-59 21.5t-60 -22t-22 -58zM268 374q-129 -74 -128 -175q0 -63 46 -99.5t127 -36.5q106 0 161 60z" />
    <glyph glyph-name="quotesingle" unicode="'" horiz-adv-x="194" 
d="M125 453h-56l-20 189q-3 29 12 43.5t37 14.5q20 0 34.5 -15t11.5 -43z" />
    <glyph glyph-name="parenleft" unicode="(" horiz-adv-x="268" 
d="M196 -71q-34 42 -60.5 92t-46.5 108q-39 117 -39 241q0 118 38 237q39 118 108 203h72q-61 -81 -97 -195t-37 -245q2 -128 36.5 -243.5t97.5 -197.5h-72z" />
    <glyph glyph-name="parenright" unicode=")" horiz-adv-x="267" 
d="M134 370q-1 65 -10 125.5t-28 118.5q-37 117 -96 196h71q69 -85 108 -203q39 -115 39 -237q0 -125 -40 -241q-39 -115 -107 -200h-71q63 84 97 199q35 114 37 242z" />
    <glyph glyph-name="asterisk" unicode="*" horiz-adv-x="404" 
d="M283 489l36 -54l-39 -27l-37 53q-26 35 -42 76q-11 -32 -40 -76l-39 -53l-39 27l37 54q29 41 57 66q-26 5 -47 10t-37 10l-63 23l17 44l61 -21q44 -15 79 -38q-9 47 -9 87v66h47v-66q0 -44 -8 -87q34 23 78 38l61 21l18 -44l-64 -23q-22 -8 -43.5 -12.5t-40.5 -7.5
q20 -18 57 -66z" />
    <glyph glyph-name="plus" unicode="+" horiz-adv-x="661" 
d="M581 300h-213v-214h-74v214h-214v74h214v213h74v-213h213v-74z" />
    <glyph glyph-name="comma" unicode="," horiz-adv-x="254" 
d="M190 28q0 -26 -9.5 -48.5t-25 -38.5t-35 -25t-39.5 -8v33q21 0 38 17t17 38q-8 -4 -21 -4q-23 0 -38.5 14.5t-15.5 41.5t17.5 44t44.5 17q29 0 48 -20.5t19 -60.5z" />
    <glyph glyph-name="hyphen" unicode="-" horiz-adv-x="511" 
d="M448 317v-75h-385v75h385z" />
    <glyph glyph-name="period" unicode="." horiz-adv-x="269" 
d="M67 53q0 27 20 47t48 20q27 0 47 -20t20 -47t-20 -46.5t-47 -19.5q-28 0 -48 19.5t-20 46.5z" />
    <glyph glyph-name="slash" unicode="/" horiz-adv-x="363" 
d="M281 719h82l-281 -719h-82z" />
    <glyph glyph-name="zero" unicode="0" horiz-adv-x="748" 
d="M373 733q73 0 131 -28t98.5 -78t62 -119t21.5 -151q0 -83 -22 -151t-63 -116.5t-98.5 -75t-128.5 -26.5q-73 0 -131 27.5t-98 77t-61.5 118t-21.5 150.5q0 83 22.5 151t63 117.5t98 76.5t127.5 27zM375 66q53 0 95 22t71.5 61t45 93t15.5 118q0 65 -16 119t-45.5 93
t-72 60.5t-95.5 21.5t-95 -22t-71.5 -61.5t-45.5 -93.5t-16 -118q0 -65 16 -119t46 -92.5t72.5 -60t95.5 -21.5z" />
    <glyph glyph-name="one" unicode="1" horiz-adv-x="371" 
d="M59 643l131 77h84v-720h-84v634l-131 -74v83z" />
    <glyph glyph-name="two" unicode="2" horiz-adv-x="578" 
d="M178 79h342v-78l-454 -1v90l284 252q51 45 72.5 83t21.5 83q0 66 -40 106t-109 40q-70 0 -112.5 -42t-42.5 -114h-85q0 53 18 96.5t50 74.5t76.5 47.5t96.5 16.5q55 0 98.5 -18t73.5 -48.5t46 -71.5t16 -87q0 -69 -31.5 -120.5t-91.5 -103.5z" />
    <glyph glyph-name="three" unicode="3" horiz-adv-x="580" 
d="M531 221q0 -52 -19.5 -95t-53 -73.5t-79.5 -47.5t-100 -17t-98 17t-75.5 48t-49 74t-17.5 95h85q0 -73 42 -115t115 -42t118.5 42.5t45.5 114.5q0 63 -36.5 102.5t-105.5 49.5q-19 3 -64 3h-45v60l213 204h-333v79h442v-83l-197 -186q45 -5 83.5 -23.5t67 -48.5t45 -70
t16.5 -88z" />
    <glyph glyph-name="four" unicode="4" horiz-adv-x="620" 
d="M58 228l317 492h99l-317 -492l258 -1v235h82v-235h88v-78h-88v-149h-82v149h-357v79z" />
    <glyph glyph-name="five" unicode="5" horiz-adv-x="619" 
d="M565 237q0 -54 -19 -99.5t-53 -79t-81 -52t-103 -18.5q-55 0 -102 18.5t-81 51.5t-53 78t-19 97h85q0 -36 13 -66.5t35.5 -53t54 -35t68.5 -12.5q36 0 67 12.5t53.5 35t35.5 54t13 69.5q0 74 -47 123q-46 48 -122 48q-92 0 -152 -68l-80 14l91 366h352v-83h-286l-52 -198
q56 43 139 43q55 0 100 -19t76.5 -52t49 -78t17.5 -96z" />
    <glyph glyph-name="six" unicode="6" horiz-adv-x="673" 
d="M610 246q1 -55 -19 -103t-55 -82.5t-82.5 -54t-101.5 -18.5q-72 0 -125.5 27.5t-89.5 76t-53.5 114.5t-17.5 143q0 82 20 152.5t59.5 122t98.5 80.5t137 29q64 0 119 -21t94 -58l-51 -61q-36 30 -78.5 45t-87.5 15q-57 0 -100 -22t-71 -60t-42 -89.5t-13 -111.5
q25 60 81 92t122 32q54 0 101 -18t81.5 -51t54 -78.5t19.5 -100.5zM525 242q0 40 -13.5 73t-37.5 56t-56.5 36t-70.5 13q-36 0 -67 -13t-54.5 -36.5t-36.5 -56.5t-13 -72q0 -40 13.5 -72.5t37 -55.5t55 -36t68.5 -13t69 13t55.5 36t37 55.5t13.5 72.5z" />
    <glyph glyph-name="seven" unicode="7" horiz-adv-x="526" 
d="M501 720v-81q-132 -109 -195 -246q-61 -136 -75 -231q-7 -48 -10 -88t-3 -74h-84q0 123 46 298q47 178 219 341h-374v81h476z" />
    <glyph glyph-name="eight" unicode="8" horiz-adv-x="630" 
d="M569 194q0 -46 -19 -84t-53 -65t-80.5 -42t-101.5 -15t-101.5 15t-80.5 42t-53 65t-19 84q0 66 36.5 116.5t102.5 72.5q-54 22 -82 64t-28 99q0 43 17.5 77.5t48 59t71.5 37.5t89 13q47 0 88 -13t71 -37t47.5 -58.5t17.5 -78.5q-1 -57 -29.5 -100t-80.5 -63
q66 -20 102.5 -71.5t36.5 -117.5zM315 420q69 0 108.5 32.5t39.5 86.5q0 57 -41 87.5t-107 30.5t-107.5 -31t-41.5 -85t39.5 -87.5t109.5 -33.5zM485 205q0 64 -48 99t-122 35q-36 0 -67 -8.5t-53.5 -25.5t-35.5 -42t-13 -58t13 -59t35.5 -44t54 -27.5t67.5 -9.5t67 9.5
t53.5 27.5t35.5 44t13 59z" />
    <glyph glyph-name="nine" unicode="9" horiz-adv-x="666" 
d="M602 371q0 -82 -20 -152t-59 -121.5t-98 -80.5t-137 -29q-66 0 -120.5 21t-93.5 57l52 61q71 -60 165 -60q58 0 101 22t71 60t42 89.5t13 111.5q-26 -60 -82 -92t-125 -32q-54 1 -100 19t-79.5 50.5t-53 78.5t-19.5 101t19.5 102.5t54 82t81.5 54t102 19.5
q72 0 126 -27.5t89.5 -76t53 -114.5t17.5 -144zM493 478q0 41 -13.5 73.5t-37 55.5t-55.5 35.5t-69 12.5t-68.5 -12.5t-55 -35.5t-37 -55.5t-13.5 -73.5q0 -40 14 -73t38 -56t56.5 -36t69.5 -13q36 0 67 13t54.5 36.5t36.5 56.5t13 72z" />
    <glyph glyph-name="colon" unicode=":" horiz-adv-x="321" 
d="M93 427q0 28 20 47.5t48 19.5q27 0 47 -19.5t20 -47.5q0 -26 -20 -46t-47 -20q-28 0 -48 20t-20 46zM93 53q0 27 20 47t48 20q27 0 47 -20t20 -47t-20 -46.5t-47 -19.5q-28 0 -48 19.5t-20 46.5z" />
    <glyph glyph-name="semicolon" unicode=";" horiz-adv-x="257" 
d="M61 427q0 28 20 47.5t48 19.5q27 0 47 -19.5t20 -47.5q0 -26 -20 -46t-47 -20q-28 0 -48 20t-20 46zM190 28q0 -26 -9.5 -48.5t-25 -38.5t-35 -25t-39.5 -8v33q20 0 37 16.5t18 38.5q-7 -4 -20 -4q-24 0 -39.5 14.5t-15.5 41.5t17.5 44t44.5 17q29 0 48 -20.5t19 -60.5z
" />
    <glyph glyph-name="less" unicode="&#x3c;" horiz-adv-x="420" 
d="M35 289l338 191v-87l-256 -147l256 -147v-87l-338 191v86z" />
    <glyph glyph-name="equal" unicode="=" horiz-adv-x="535" 
d="M455 442v-74h-382v74h382zM73 224h382v-73h-382v73z" />
    <glyph glyph-name="greater" unicode="&#x3e;" horiz-adv-x="422" 
d="M47 99l255 147l-255 147v87l337 -191v-86l-337 -191v87z" />
    <glyph glyph-name="question" unicode="?" horiz-adv-x="525" 
d="M491 513q0 -49 -18 -87q-17 -37 -42.5 -62t-64.5 -56q-45 -36 -65.5 -60.5t-21.5 -57.5v-26h-82v29q0 37 15 65q15 29 36 50t58 50q25 19 43.5 35t31.5 33.5t20 37t8 46.5q0 29 -10.5 54.5t-29.5 45t-45.5 30.5t-58.5 11q-31 0 -58 -11.5t-47 -31t-31.5 -46.5t-11.5 -57
h-83q0 47 18 88.5t49 72.5t73.5 49t90.5 18q49 0 90.5 -16.5t71.5 -46t47 -70t17 -87.5zM309 50q0 -26 -19.5 -45t-46.5 -19q-29 0 -48 19t-19 45q0 27 19.5 46t47.5 19t47 -19t19 -46z" />
    <glyph glyph-name="at" unicode="@" horiz-adv-x="935" 
d="M885 366q0 -62 -16 -116t-43.5 -93.5t-65 -62.5t-80.5 -23q-48 0 -74.5 28t-22.5 76q-25 -43 -72 -68.5t-104 -25.5q-40 0 -74.5 14t-59.5 40t-39 63t-14 83q0 8 1 19.5t3 27.5q8 52 29.5 95.5t54 75t74 49.5t87.5 18q57 0 100 -28t60 -77l17 92h54l-61 -355
q-1 -8 -1.5 -13.5t-0.5 -9.5q0 -52 46 -52q28 0 53.5 19.5t45 53t31 78.5t11.5 96q0 69 -23.5 126t-66 98.5t-101 64.5t-127.5 23q-81 2 -153 -30t-126 -87t-85 -128.5t-30 -155.5q-1 -71 23.5 -132.5t68.5 -106.5t104 -70.5t130 -24.5q66 0 132.5 20t121.5 56l24 -49
q-59 -36 -136 -57q-76 -22 -149 -22q-76 -1 -145.5 26t-122 77.5t-83 121.5t-29.5 159q-2 95 34 178.5t98 145.5t145.5 97t176.5 33q82 1 152 -26.5t121 -77t79.5 -117t27.5 -146.5zM601 367q0 70 -35 109t-98 39q-71 0 -124 -54q-51 -54 -63 -139q-3 -21 -3 -39
q0 -72 37.5 -111t100.5 -39q72 0 120.5 52t61.5 140q3 23 3 42z" />
    <glyph glyph-name="A" unicode="A" horiz-adv-x="653" 
d="M484 185h-317l-67 -185h-87l263 720h87h12l265 -720h-90zM458 257l-130 366l-134 -366h264z" />
    <glyph glyph-name="B" unicode="B" horiz-adv-x="641" 
d="M596 189q0 -44 -16 -79t-45.5 -59.5t-71 -37.5t-92.5 -13h-242h-40v719h83h193q106 0 164.5 -52t58.5 -139q0 -60 -27 -102t-75 -65q51 -23 80.5 -67.5t29.5 -104.5zM172 645v-251h191q66 0 104 34t38 88q0 57 -38.5 93t-105.5 36h-189zM514 200q-1 58 -40 91.5
t-103 33.5h-199v-250h199q66 0 104.5 34t38.5 91z" />
    <glyph glyph-name="C" unicode="C" horiz-adv-x="734" 
d="M607 493q-23 73 -81 114t-139 41q-56 0 -102.5 -21t-79.5 -58.5t-51.5 -90.5t-18.5 -118q0 -66 18.5 -119t51.5 -90.5t79 -57.5t102 -20q80 0 141 40q60 40 83 103l81 -35q-34 -88 -117 -141q-82 -51 -189 -51q-75 0 -137.5 26.5t-107.5 75.5t-70 117t-25 152
q0 83 25 151.5t70 117.5t108 76t139 27q114 0 193 -58q80 -57 108 -151z" />
    <glyph glyph-name="D" unicode="D" horiz-adv-x="721" 
d="M676 360q1 -79 -26 -146t-75.5 -115t-115.5 -74t-146 -25h-224v720h224q78 1 145 -25.5t116 -74.5t76 -114.5t26 -145.5zM585 360q0 62 -19.5 113.5t-55.5 88t-86 57t-111 20.5h-138v-559h138q61 0 111 20.5t86 57t55.5 88t19.5 114.5z" />
    <glyph glyph-name="E" unicode="E" horiz-adv-x="586" 
d="M524 81v-81h-435v720h434v-82h-349v-238h316v-76h-316v-243h350z" />
    <glyph glyph-name="F" unicode="F" horiz-adv-x="551" 
d="M173 639v-251h289l-1 -77h-288v-311h-86v720h86h344l-1 -81h-343z" />
    <glyph glyph-name="G" unicode="G" horiz-adv-x="761" 
d="M703 397v-398h-76l-3 100q-35 -54 -100.5 -82.5t-143.5 -28.5q-73 -1 -135 26t-106.5 76.5t-69.5 117.5t-24 149q0 82 25 151t71 119t110.5 78t142.5 28q109 0 187.5 -51.5t109.5 -139.5l-76 -33q-26 72 -84 107t-136 35q-60 0 -109 -21t-83 -60t-52.5 -93.5
t-18.5 -120.5t19 -119.5t52.5 -90.5t80 -57t101.5 -20q37 0 77 9t74 31t58 59t28 92v61h-250v76h331z" />
    <glyph glyph-name="H" unicode="H" horiz-adv-x="717" 
d="M89 720h86v-317l367 -1v318h86v-720h-86v326l-367 1v-327h-86v720z" />
    <glyph glyph-name="I" unicode="I" horiz-adv-x="263" 
d="M89 0v720h86v-720h-86z" />
    <glyph glyph-name="J" unicode="J" horiz-adv-x="523" 
d="M443 720v-522q0 -47 -15.5 -86t-43.5 -66.5t-67.5 -43t-88.5 -15.5q-100 1 -152.5 58t-52.5 154v23h83v-23q0 -74 36 -103q37 -28 85 -28q55 0 92.5 31t37.5 102v519h86z" />
    <glyph glyph-name="K" unicode="K" horiz-adv-x="639" 
d="M355 391l260 -391h-110l-204 325l-126 -155v-171h-86v721h86v-418l338 418h110z" />
    <glyph glyph-name="L" unicode="L" horiz-adv-x="499" 
d="M471 78v-78h-369h-13v720h86v-642h296z" />
    <glyph glyph-name="M" unicode="M" horiz-adv-x="856" 
d="M768 719v-719h-86v526l-213 -526h-83l-214 524v-524h-83v720h83l256 -619l254 619z" />
    <glyph glyph-name="N" unicode="N" horiz-adv-x="730" 
d="M641 720v-720h-85l-381 580v-580h-86v720h86l381 -580v580h85z" />
    <glyph glyph-name="O" unicode="O" horiz-adv-x="776" 
d="M388 732q75 1 139 -27t110 -78.5t71.5 -118.5t24.5 -148q1 -80 -25 -148.5t-72 -118.5t-110 -78t-139 -27q-76 0 -139 27.5t-108.5 77t-70.5 118t-25 149.5q-1 80 24.5 148t71.5 118.5t109.5 78.5t138.5 27zM388 72q57 0 103.5 21t80.5 59t52.5 91t18.5 117
q0 65 -18.5 118t-52.5 91t-80.5 59t-103.5 21t-104 -21t-80.5 -59t-52 -91t-18.5 -118q0 -64 18.5 -117t52 -91t80.5 -59t104 -21z" />
    <glyph glyph-name="P" unicode="P" horiz-adv-x="626" 
d="M595 491q0 -49 -16 -91.5t-46 -73.5t-72.5 -48.5t-95.5 -17.5h-190v-260h-86v720h86h191q53 0 95.5 -16t72 -46t45.5 -72t16 -95zM505 493q0 67 -39.5 107.5t-111.5 40.5h-179v-304h175q75 0 115 43.5t40 112.5z" />
    <glyph glyph-name="Q" unicode="Q" horiz-adv-x="777" 
d="M705 -2h-99l-35 39q-80 -49 -182 -49q-76 0 -139.5 27.5t-109 77t-70.5 118t-25 149.5q-1 80 24.5 148t71.5 118.5t109.5 78.5t138.5 27q75 1 139 -27t110 -78.5t71.5 -118.5t24.5 -148q0 -85 -27 -155.5t-78 -121.5zM401 229h100l70 -80q35 39 54 93t19 118
q0 65 -18.5 118t-52 91t-80.5 59t-104 21q-56 0 -103 -21t-80.5 -59t-52 -91t-18.5 -118q0 -64 18 -117t51.5 -91t80.5 -59t104 -21q69 0 124 31z" />
    <glyph glyph-name="R" unicode="R" horiz-adv-x="653" 
d="M606 0h-97l-134 292h-200v-292h-86v720h275q115 0 178.5 -56.5t63.5 -156.5q0 -78 -37.5 -130.5t-106.5 -71.5zM515 506q0 64 -39.5 100t-111.5 36h-189v-272h190q73 0 111.5 36t38.5 100z" />
    <glyph glyph-name="S" unicode="S" 
d="M289 733q97 0 160 -48q63 -47 77 -124l-82 -22q-10 55 -52 85t-105 30q-69 0 -109.5 -33t-40.5 -90q0 -86 106 -114l122 -31q88 -22 131.5 -71t43.5 -121q0 -45 -17 -83t-49.5 -65.5t-78 -42.5t-102.5 -15q-102 0 -169.5 46.5t-81.5 128.5l83 23q8 -55 52.5 -86.5
t116.5 -31.5q75 0 117.5 32t42.5 90q0 91 -106 116l-121 30q-88 22 -131.5 71.5t-43.5 121.5q0 45 17 82.5t48 64.5t75 42t97 15z" />
    <glyph glyph-name="T" unicode="T" horiz-adv-x="550" 
d="M534 639h-215v-639h-86v639h-217v81h518v-81z" />
    <glyph glyph-name="U" unicode="U" horiz-adv-x="711" 
d="M80 720h87v-469q0 -96 55 -139t134 -43q81 0 134 46q55 46 55 136v469h86v-471q0 -65 -22.5 -114t-60 -82t-87.5 -49.5t-105 -16.5q-54 0 -104 15.5t-88 47.5t-61 81.5t-23 117.5v471z" />
    <glyph glyph-name="V" unicode="V" horiz-adv-x="665" 
d="M652 720l-273 -720h-90l-276 720h93l228 -602l228 602h90z" />
    <glyph glyph-name="W" unicode="W" horiz-adv-x="996" 
d="M980 720l-217 -720h-82l-182 574l-185 -574h-83l-214 720h92l165 -579l178 579h93l176 -581l168 581h91z" />
    <glyph glyph-name="X" unicode="X" horiz-adv-x="645" 
d="M123 720l200 -290l199 290h103l-249 -359l253 -361h-109l-197 290l-200 -290h-104l251 359l-254 361h107z" />
    <glyph glyph-name="Y" unicode="Y" horiz-adv-x="593" 
d="M107 720l191 -340l191 340h94l-242 -422v-298h-86v298l-245 422h97z" />
    <glyph glyph-name="Z" unicode="Z" horiz-adv-x="569" 
d="M527 638l-386 -556h381v-82h-476l-1 82l385 556l-384 -1v83h481v-82z" />
    <glyph glyph-name="bracketleft" unicode="[" horiz-adv-x="264" 
d="M259 -68h-203v861h203v-69h-132v-723h132v-69z" />
    <glyph glyph-name="backslash" unicode="\" horiz-adv-x="363" 
d="M282 0l-282 719h83l280 -719h-81z" />
    <glyph glyph-name="bracketright" unicode="]" horiz-adv-x="264" 
d="M137 1v723h-132v69h204v-861h-204v69h132z" />
    <glyph glyph-name="asciicircum" unicode="^" horiz-adv-x="539" 
d="M357 480l-72 152l-73 -152h-74l110 230h74l109 -230h-74z" />
    <glyph glyph-name="underscore" unicode="_" horiz-adv-x="524" 
d="M464 -19v-67h-404v67h404z" />
    <glyph glyph-name="grave" unicode="`" horiz-adv-x="208" 
d="M20 900h89l66 -133h-69z" />
    <glyph glyph-name="a" unicode="a" horiz-adv-x="525" 
d="M390 0q-2 8 -4 25.5t-4 45.5q-21 -37 -65 -60t-101 -23q-81 0 -129 41.5t-48 111.5t48.5 112t129.5 42h164v20q0 61 -33 88.5t-90 27.5q-101 0 -139 -80l-62 36q29 57 81 85t124 28q89 0 144 -45t55 -144v-213q0 -28 2.5 -56.5t6.5 -41.5h-80zM381 233h-146
q-54 0 -83.5 -24t-29.5 -67t29.5 -66t80.5 -23q69 0 109 44t40 122v14z" />
    <glyph glyph-name="b" unicode="b" horiz-adv-x="602" 
d="M564 242q0 -56 -16.5 -103t-46.5 -80.5t-72.5 -52t-95.5 -18.5q-63 0 -110 26t-71 71l-4 -85h-73v733h79v-328q26 48 74 71.5t105 23.5q52 0 94.5 -19t73 -53t47 -81.5t16.5 -104.5zM481 244q0 41 -11.5 74.5t-32.5 57.5t-50.5 37t-65.5 13q-37 0 -67 -13t-51 -37
t-32 -57.5t-11 -74.5q0 -81 43 -131t118 -50q36 0 65.5 13t50.5 37t32.5 57.5t11.5 73.5z" />
    <glyph glyph-name="c" unicode="c" horiz-adv-x="545" 
d="M284 500q81 0 138.5 -38.5t82.5 -104.5l-73 -29q-16 46 -56 72t-92 26q-73 0 -117 -49.5t-44 -133.5q0 -41 11.5 -74.5t33 -57t51 -36.5t65.5 -13q51 0 91 26t58 71l72 -28q-28 -69 -87 -106t-135 -37q-55 0 -100 18.5t-76.5 52t-49 80.5t-17.5 104t17.5 104.5t49.5 81.5
t77 52.5t100 18.5z" />
    <glyph glyph-name="d" unicode="d" horiz-adv-x="606" 
d="M458 0q-4 23 -5.5 43.5t-2.5 38.5q-25 -46 -72 -70t-105 -24q-53 0 -96 18t-73.5 51.5t-47 80.5t-16.5 105q0 56 16.5 103.5t47.5 81.5t74 53t96 19q57 0 103.5 -23t72.5 -68v324h81v-619q2 -85 9 -114h-82zM444 244q0 41 -11 74.5t-32 57.5t-51 37t-67 13
q-36 0 -65.5 -13t-50.5 -37t-32.5 -57.5t-11.5 -74.5q0 -82 42.5 -132t117.5 -50t118 50t43 132z" />
    <glyph glyph-name="e" unicode="e" horiz-adv-x="553" 
d="M513 207h-393q6 -73 49.5 -110.5t107.5 -37.5q52 0 89.5 24.5t57.5 67.5l69 -29q-29 -64 -86 -99t-132 -35q-52 0 -95.5 18t-74.5 51.5t-48 80.5t-17 104q0 56 17 103.5t48 82t75 53.5t98 19q53 0 96 -18t74 -51.5t48 -81t17 -105.5v-37zM428 268q-3 79 -43.5 120.5
t-107.5 41.5t-109 -42t-48 -120h308z" />
    <glyph glyph-name="f" unicode="f" horiz-adv-x="320" 
d="M255 658q-43 0 -61.5 -22t-18.5 -64v-85h115v-68h-115v-419h-82v419h-73v68h73v85q0 82 41 121.5t110 39.5q22 0 50 -6v-73q-17 4 -39 4z" />
    <glyph glyph-name="g" unicode="g" horiz-adv-x="535" 
d="M516 -83q0 -80 -70 -114q-72 -35 -183 -35q-99 0 -168 29q-67 28 -67 99q0 35 18.5 63t51.5 42q-22 12 -35 32.5t-13 46.5q0 29 16 55t51 36q-61 55 -61 138q0 42 15.5 77t43 60.5t66.5 39.5t86 14q63 0 114 -27q16 28 45 44t67 16l15 -1v-71q-3 1 -16 1q-40 0 -65 -25
q49 -52 49 -128q0 -42 -15 -76.5t-42.5 -59.5t-66 -39t-85.5 -14q-49 0 -94 17q-26 0 -39.5 -11.5t-13.5 -30.5q0 -17 12.5 -29t40.5 -12h180q78 0 120.5 -37t42.5 -100zM136 308q0 -52 34.5 -86.5t94.5 -34.5q61 0 96 34.5t35 86.5q0 54 -35 89.5t-95 35.5t-95 -35.5
t-35 -89.5zM435 -84q0 34 -24.5 51.5t-67.5 17.5h-174h-8q-31 -6 -46 -25.5t-15 -44.5q0 -24 12 -39t34 -23.5t52.5 -11.5t67.5 -3q82 0 125.5 16t43.5 62z" />
    <glyph glyph-name="h" unicode="h" horiz-adv-x="581" 
d="M515 292v-292h-82v275q0 150 -133 150q-29 0 -55 -10.5t-46 -30.5t-32 -49t-12 -66v-268h-82v732h83v-313q23 37 65 58.5t94 21.5q90 0 145 -50.5t55 -157.5z" />
    <glyph glyph-name="i" unicode="i" horiz-adv-x="235" 
d="M57 662q0 26 17.5 44t43.5 18t44 -18t18 -44t-18 -43.5t-44 -17.5t-43.5 17.5t-17.5 43.5zM160 487v-487h-83v487h83z" />
    <glyph glyph-name="j" unicode="j" horiz-adv-x="256" 
d="M70 662q0 26 17.5 44t43.5 18t44 -18t18 -44t-18 -43.5t-44 -17.5t-43.5 17.5t-17.5 43.5zM-35 -140q30 -10 52 -10q34 0 53.5 21.5t19.5 63.5v552h82v-550q0 -75 -38 -118.5t-107 -43.5q-39 0 -79 13z" />
    <glyph glyph-name="k" unicode="k" horiz-adv-x="500" 
d="M73 0v733h83v-483l227 237h104l-205 -215l201 -272h-99l-157 216l-71 -74v-142h-83z" />
    <glyph glyph-name="l" unicode="l" horiz-adv-x="227" 
d="M73 733h83v-733h-83v733z" />
    <glyph glyph-name="m" unicode="m" horiz-adv-x="857" 
d="M790 314v-314h-79v302q0 60 -30 93t-84 33q-57 0 -90 -37t-33 -95v-296h-81v303q0 60 -30 92.5t-84 32.5q-57 0 -90 -36.5t-33 -94.5v-297h-83v487h76l4 -54q21 32 58 49.5t85 17.5q55 0 96.5 -24.5t60.5 -69.5q19 45 61.5 69.5t99.5 24.5q79 0 127.5 -49t48.5 -137z" />
    <glyph glyph-name="n" unicode="n" horiz-adv-x="571" 
d="M505 298v-298h-82v286q0 76 -37 107q-38 32 -89 32q-63 0 -102.5 -40t-39.5 -110v-274h-82v486h77l3 -65q22 36 64 57t96 21q86 0 139 -50.5t53 -151.5z" />
    <glyph glyph-name="o" unicode="o" horiz-adv-x="574" 
d="M287 500q55 0 100.5 -19.5t78 -54t50.5 -81.5t18 -101t-18 -101t-50.5 -81.5t-78 -54t-100.5 -19.5t-100.5 19.5t-78 54t-50.5 81.5t-18 101t18 101t50.5 81.5t78 54t100.5 19.5zM287 62q74 0 119 51t45 131q0 79 -45 130q-45 52 -119 52q-73 0 -118 -52
q-45 -51 -45 -130q0 -80 45 -131t118 -51z" />
    <glyph glyph-name="p" unicode="p" horiz-adv-x="602" 
d="M331 -12q-58 0 -105.5 24t-72.5 69v-296h-78v702h71l5 -82q23 45 69.5 70t109.5 25q53 0 96 -18.5t73 -52t46.5 -81t16.5 -104.5t-16.5 -104.5t-47 -81t-73 -52t-94.5 -18.5zM479 244q0 82 -43 132t-116 50q-75 0 -118 -50t-43 -132q0 -40 11 -73.5t32 -57.5t51 -37.5
t67 -13.5q36 0 65.5 13.5t50.5 37.5t32 57.5t11 73.5z" />
    <glyph glyph-name="q" unicode="q" horiz-adv-x="603" 
d="M529 487v-702h-78v296q-25 -45 -72 -69t-107 -24q-52 0 -94.5 18.5t-73 52.5t-47.5 81t-17 105q0 57 16.5 103.5t47 80.5t73.5 52.5t97 18.5q60 0 107 -25t72 -70l5 82h71zM445 244q0 82 -43 132t-118 50t-117.5 -50t-42.5 -132q0 -40 11.5 -73.5t32.5 -57.5t50.5 -37.5
t65.5 -13.5q37 0 67 13.5t51 37.5t32 57.5t11 73.5z" />
    <glyph glyph-name="r" unicode="r" horiz-adv-x="362" 
d="M286 493q27 0 52 -6v-76q-27 6 -52 6q-63 0 -98 -39t-35 -108v-270h-83v486h77l4 -61q16 33 52.5 50.5t82.5 17.5z" />
    <glyph glyph-name="s" unicode="s" horiz-adv-x="446" 
d="M222 56q43 0 72.5 18t29.5 58q0 52 -68 70l-74 20q-130 34 -130 136q0 30 12 56t34 45t53.5 30t70.5 11q69 0 117.5 -32t56.5 -89l-73 -17q-4 32 -31.5 50.5t-67.5 18.5q-42 0 -67 -20t-25 -53q0 -28 18.5 -44.5t54.5 -26.5l73 -20q63 -16 95.5 -50t32.5 -85
q0 -66 -49 -105t-134 -39q-78 0 -126.5 35t-56.5 92l74 14q5 -33 33.5 -53t74.5 -20z" />
    <glyph glyph-name="t" unicode="t" horiz-adv-x="317" 
d="M295 419h-96v-419h-81v419h-96v68h96v153h81v-153h96v-68z" />
    <glyph glyph-name="u" unicode="u" 
d="M430 0q-3 16 -5 33t-3 35q-21 -38 -62.5 -59t-95.5 -21q-80 0 -137 48q-57 50 -57 157v294h83v-282q0 -39 10 -66.5t27.5 -44.5t40.5 -25t49 -8q61 0 100.5 40.5t39.5 109.5v276h83v-398q0 -21 2.5 -46.5t6.5 -42.5h-82z" />
    <glyph glyph-name="v" unicode="v" horiz-adv-x="508" 
d="M495 487l-202 -487h-82l-198 487h88l152 -390l157 390h85z" />
    <glyph glyph-name="w" unicode="w" horiz-adv-x="766" 
d="M749 487l-167 -487h-79l-120 364l-122 -364h-82l-162 487h87l117 -368l120 368h84l118 -371l119 371h87z" />
    <glyph glyph-name="x" unicode="x" horiz-adv-x="479" 
d="M16 0l172 242l-174 245h98q22 -31 54.5 -78t75.5 -110l127 188h96l-175 -245l174 -242h-99q-99 139 -128 185l-126 -185h-95z" />
    <glyph glyph-name="y" unicode="y" horiz-adv-x="508" 
d="M494 487l-223 -598q-23 -61 -61 -88t-86 -27q-51 0 -97 25l23 75q34 -25 70 -25q25 0 46 15.5t34 49.5l20 56l-207 517h87l159 -411l150 411h85z" />
    <glyph glyph-name="z" unicode="z" horiz-adv-x="450" 
d="M38 76l274 338h-274v73h373v-76l-276 -338h276v-73h-373v76z" />
    <glyph glyph-name="braceleft" unicode="{" horiz-adv-x="259" 
d="M145 361q46 -37 46 -105v-193q0 -31 17.5 -48t45.5 -17v-65q-11 0 -24 1t-27 3q-38 7 -61 37.5t-23 75.5v195q0 46 -21.5 64.5t-45.5 18.5v66q24 0 45.5 19t21.5 66v199q0 43 22 73t64 38q15 4 49 4v-66q-27 0 -45 -14.5t-18 -41.5v-203q0 -68 -46 -107z" />
    <glyph glyph-name="bar" unicode="|" horiz-adv-x="159" 
d="M113 788v-878h-66v878h66z" />
    <glyph glyph-name="braceright" unicode="}" horiz-adv-x="259" 
d="M207 394v-66q-24 0 -45.5 -18.5t-21.5 -64.5v-195q0 -43 -23 -73.5t-62 -39.5q-15 -4 -50 -4v65q27 0 44.5 17t17.5 48v193q0 66 47 105q-47 41 -47 107v203q0 27 -17.5 41.5t-44.5 14.5v66q35 0 48 -4q42 -8 64.5 -38t22.5 -73v-199q0 -47 21.5 -66t45.5 -19z" />
    <glyph glyph-name="asciitilde" unicode="~" horiz-adv-x="447" 
d="M407 312q0 -48 -29 -76.5t-72 -28.5q-25 0 -45.5 9.5t-48.5 28.5q-24 17 -40 24.5t-33 7.5q-22 0 -34.5 -13t-13.5 -35h-51q0 46 28.5 74.5t71.5 28.5q25 0 46 -10t51 -29q24 -16 39 -23.5t32 -7.5q21 0 33.5 13t13.5 37h52z" />
    <glyph glyph-name="exclamdown" unicode="&#xa1;" horiz-adv-x="310" 
d="M220 670q0 -28 -18.5 -46t-45.5 -18q-28 0 -47 18t-19 46q0 27 19.5 45t46.5 18t45.5 -18t18.5 -45zM202 1h-93v302q0 150 12 253h68q4 -30 6.5 -59t4 -59t2 -63t0.5 -72v-302z" />
    <glyph glyph-name="cent" unicode="&#xa2;" horiz-adv-x="577" 
d="M257 614l-1 105h74l1 -102q67 -7 118.5 -46.5t73.5 -100.5l-73 -25q-16 45 -54.5 71.5t-95.5 26.5q-36 0 -66.5 -14t-52.5 -38.5t-34 -57.5t-12 -71t12 -71.5t34 -58t52.5 -38.5t66.5 -14q54 0 90.5 23.5t53.5 63.5l73 -27q-22 -55 -71 -90t-115 -43l-1 -108h-74l1 111
q-43 8 -80 31t-64.5 57t-43.5 76t-16 88t16 88t43.5 76t64.5 57.5t80 30.5z" />
    <glyph glyph-name="sterling" unicode="&#xa3;" horiz-adv-x="666" 
d="M606 203q0 -96 -49 -149.5t-146 -53.5h-341v83q54 9 90 56q36 48 36 113q0 38 -13 76h-103v74h72q-24 59 -24 110q0 47 16.5 87.5t46.5 70t71.5 46.5t91.5 17q85 0 145 -44t80 -116l-78 -27q-14 48 -53.5 77t-94.5 29q-66 0 -104 -40.5t-38 -104.5q0 -26 6.5 -50
t19.5 -55h257v-74h-230q9 -37 9 -68q0 -57 -18.5 -105t-60.5 -72l222 -1q116 0 112 121h78z" />
    <glyph glyph-name="currency" unicode="&#xa4;" horiz-adv-x="649" 
d="M596 144l-55 -56l-78 77q-62 -44 -139 -44q-76 0 -137 44l-79 -77l-55 56l79 77q-43 61 -43 135q0 76 43 137l-79 77l55 56l79 -77q61 44 137 44q77 0 139 -44l78 77l55 -56l-78 -77q43 -61 43 -137q0 -75 -43 -136zM324 198q33 0 62 12.5t50.5 34t34.5 50.5t13 61
q0 33 -12.5 62t-34.5 50.5t-51 34.5t-62 13q-32 0 -61 -13t-50.5 -34.5t-34 -50.5t-12.5 -62q0 -32 12.5 -61t34.5 -50.5t50.5 -34t60.5 -12.5z" />
    <glyph glyph-name="yen" unicode="&#xa5;" horiz-adv-x="692" 
d="M418 355h137v-71h-169v-79h169v-71h-169v-134h-82v134h-170v71h170v79h-170v71h139l-213 364h95l190 -341v1l192 340h95z" />
    <glyph glyph-name="brokenbar" unicode="&#xa6;" horiz-adv-x="483" 
d="M279 791v-344h-74v344h74zM279 284v-354h-74v354h74z" />
    <glyph glyph-name="section" unicode="&#xa7;" horiz-adv-x="460" 
d="M331 247q68 -36 68 -108q0 -31 -12.5 -57.5t-35 -46.5t-53.5 -31.5t-68 -11.5q-69 0 -116.5 32t-60.5 89l68 15q14 -73 110 -73q45 0 71 22.5t26 59.5q0 51 -62 65l-64 12q-63 11 -104 46t-41 98q0 78 71 119q-32 17 -50 45t-18 64q0 31 12.5 58t35 46.5t53.5 30.5t68 11
q69 0 117.5 -32.5t60.5 -87.5l-67 -16q-8 35 -36 54.5t-76 19.5q-45 0 -71 -23t-26 -58q0 -53 62 -65l64 -13q64 -12 104.5 -47t40.5 -99q0 -77 -71 -118zM340 364q0 38 -31 58t-79 20q-54 0 -82.5 -23t-28.5 -58q0 -38 30.5 -58t81.5 -20q54 0 81.5 23t27.5 58z" />
    <glyph glyph-name="dieresis" unicode="&#xa8;" horiz-adv-x="345" 
d="M20 831q0 26 18.5 45t44.5 19q25 0 44 -19t19 -45q0 -25 -19 -43.5t-44 -18.5q-26 0 -44.5 18.5t-18.5 43.5zM200 831q0 26 18.5 45t44.5 19q25 0 43.5 -19t18.5 -45q0 -25 -18.5 -43.5t-43.5 -18.5q-26 0 -44.5 18.5t-18.5 43.5z" />
    <glyph glyph-name="copyright" unicode="&#xa9;" horiz-adv-x="818" 
d="M40 356q-2 74 27.5 141.5t80.5 118.5t118.5 81t142.5 28q74 2 141.5 -27.5t118.5 -80.5t81 -118.5t28 -142.5q2 -74 -27.5 -142t-80.5 -119t-118.5 -81t-142.5 -28q-75 -2 -142.5 28t-118.5 81t-80.5 119t-27.5 142zM711 356q2 61 -22.5 116.5t-66 97t-97 66t-116.5 22.5
q-61 2 -116.5 -22.5t-97.5 -66t-66 -97t-23 -116.5q-1 -61 23 -116.5t66 -97.5t97.5 -66t116.5 -23q61 -1 116.5 23t97 66t66 97.5t22.5 116.5zM527 413q-12 36 -41 56.5t-72 20.5q-53 0 -89 -40q-35 -40 -35 -95t35 -96q36 -39 89 -39q40 0 68 19t41 50l57 -22
q-19 -48 -64 -77t-102 -29q-38 0 -72 15.5t-59.5 41.5t-40.5 61.5t-15 75.5t15 75.5t40.5 62t59.5 42t72 15.5q60 0 106.5 -32t63.5 -86z" />
    <glyph glyph-name="guillemotleft" unicode="&#xab;" horiz-adv-x="598" 
d="M283 243l213 -243h-100h-26l-213 243l213 244h99h27z" />
    <glyph glyph-name="logicalnot" unicode="&#xac;" horiz-adv-x="563" 
d="M435 78v183h-394v87h481v-270h-87z" />
    <glyph glyph-name="registered" unicode="&#xae;" horiz-adv-x="434" 
d="M404 545q0 -39 -14.5 -73.5t-39.5 -60t-59 -40t-73 -14.5t-73 14.5t-59.5 40t-40.5 60t-15 73.5q0 38 15 71.5t40.5 59t60 40t72.5 14.5t72 -14.5t59.5 -40t40 -59t14.5 -71.5zM369 545q0 32 -12 59.5t-32 47.5t-47.5 31.5t-59.5 11.5q-31 0 -59 -11.5t-48 -31.5
t-32 -47.5t-12 -59.5q0 -65 43 -108t108 -43q32 0 59.5 12t47.5 32t32 48t12 59zM282 461h-36l-28 64h-22v-64h-33v165h33h24q59 0 61 -47v-2v-2q-2 -33 -29 -44zM196 554h29q20 1 20 21v1v3q-1 16 -25 16h-24v-41z" />
    <glyph glyph-name="macron" unicode="&#xaf;" horiz-adv-x="334" 
d="M307 837v-62h-280v62h280z" />
    <glyph glyph-name="degree" unicode="&#xb0;" horiz-adv-x="257" 
d="M20 617q0 44 32 76t76 32q45 0 77 -32t32 -76t-32 -76t-77 -32t-77 32q-31 31 -31 76zM180 617q0 20 -15.5 36t-36.5 16t-36 -15.5t-15 -36.5t15 -36.5t36 -15.5t36.5 15.5t15.5 36.5z" />
    <glyph glyph-name="plusminus" unicode="&#xb1;" horiz-adv-x="501" 
d="M461 366v-72h-174v-115h-72v115h-175v72h175v114h72v-114h174zM40 72h421v-72h-421v72z" />
    <glyph glyph-name="uni00B2" unicode="&#xb2;" horiz-adv-x="407" 
d="M46 374l207 171q25 21 34.5 40t9.5 39q0 42 -25.5 66.5t-68.5 24.5q-40 0 -66 -23t-28 -66h-69q2 73 47.5 115t115.5 42q37 0 67.5 -12t52 -33t33 -50t11.5 -62q0 -42 -18.5 -74.5t-53.5 -60.5l-149 -122l209 1v-69l-309 -1v74z" />
    <glyph glyph-name="uni00B3" unicode="&#xb3;" horiz-adv-x="408" 
d="M368 450q0 -34 -13 -63t-35 -50.5t-52 -33.5t-63 -12q-35 0 -65.5 12.5t-52.5 33.5t-34.5 49.5t-12.5 61.5h70q0 -37 26.5 -63t68.5 -26q39 0 66 25.5t27 65.5q0 42 -26.5 68.5t-68.5 26.5q-24 0 -42 -6l-23 56l116 108l-194 1v69h300v-64l-113 -105q54 -14 87.5 -55
t33.5 -99z" />
    <glyph glyph-name="acute" unicode="&#xb4;" horiz-adv-x="215" 
d="M40 767l66 133h88l-85 -133h-69z" />
    <glyph glyph-name="uni00B5" unicode="&#xb5;" horiz-adv-x="667" 
d="M620 75v-75h-87q-73 0 -91 62q-50 -74 -152 -77h-2h-3q-95 3 -145 68v-297h-81v730h81v-235q0 -191 148 -191q140 0 147 174v252h82v-356q0 -31 11 -42.5t33 -11.5z" />
    <glyph glyph-name="paragraph" unicode="&#xb6;" horiz-adv-x="496" 
d="M355 712v-783h-74v378h-56q-40 0 -74 14.5t-59 41t-38.5 64t-13.5 83.5q0 45 14 82.5t39 64t58.5 41t73.5 14.5h130zM456 710v-783h-46v783h46z" />
    <glyph glyph-name="periodcentered" unicode="&#xb7;" horiz-adv-x="289" 
d="M53 262q0 38 27 65t65 27t65 -27t27 -65q0 -18 -7.5 -34.5t-20 -29t-29.5 -20t-35 -7.5q-38 0 -65 27t-27 64z" />
    <glyph glyph-name="cedilla" unicode="&#xb8;" horiz-adv-x="600" 
d="M242 -119h82q26 0 26 25q-2 23 -26 23h-82v45l42 54h39v-28l-21 -26h36q32 0 49.5 -21t17.5 -50t-18 -49t-48 -20h-97v47z" />
    <glyph glyph-name="uni00B9" unicode="&#xb9;" horiz-adv-x="291" 
d="M205 774v-474h-70v403l-95 -39v70l95 40h70z" />
    <glyph glyph-name="guillemotright" unicode="&#xbb;" horiz-adv-x="598" 
d="M441 243l-213 -243h-100h-26l213 243l-213 244h99h27z" />
    <glyph glyph-name="onequarter" unicode="&#xbc;" horiz-adv-x="693" 
d="M43 679l67 31v-66l-67 -27v62zM174 710v-368h-63l-1 368h64zM10 0l541 710h81l-542 -710h-80zM650 68h-48v-71h-64v71h-176v63l176 237h64v-238h48v-62zM538 130v132l-96 -131z" />
    <glyph glyph-name="onehalf" unicode="&#xbd;" horiz-adv-x="725" 
d="M43 679l67 31v-66l-67 -27v62zM174 710v-368h-63l-1 368h64zM10 0l541 710h81l-542 -710h-80zM434 63l142 122q24 21 32.5 34t8.5 31q0 29 -17 44.5t-48 15.5q-28 0 -45 -16.5t-17 -44.5q0 -10 1 -13h-63q-2 29 7 54t27 43t43 28.5t54 10.5q54 -1 87.5 -34.5t34.5 -87.5
q0 -59 -64 -113l-89 -75h145v-62h-239v63z" />
    <glyph glyph-name="threequarters" unicode="&#xbe;" horiz-adv-x="779" 
d="M300 460q0 -52 -38 -88q-37 -36 -90 -36t-91 36t-38 88l1 13h63q-1 -3 -1 -14q0 -25 19.5 -43t46.5 -18t46 18t19 44q0 30 -24 51q-17 13 -41 13q-3 0 -7 -0.5t-9 -1.5q-4 -1 -7 -2t-5 -2l-31 49l80 80h-133v63h229v-57l-76 -75q30 -10 54 -34q33 -36 33 -84zM96 0
l541 710h81l-542 -710h-80zM736 68h-48v-71h-64v71h-176v63l176 237h64v-238h48v-62zM624 130v132l-96 -131z" />
    <glyph glyph-name="questiondown" unicode="&#xbf;" horiz-adv-x="525" 
d="M216 669q0 26 19.5 45t46.5 19q29 0 48 -19t19 -45q0 -27 -19.5 -46t-47.5 -19q-27 0 -46.5 19.5t-19.5 45.5zM491 214q0 -47 -18 -88.5t-49 -72.5t-73.5 -49t-90.5 -18q-49 0 -90.5 16.5t-71.5 46t-47 70t-17 87.5t17 86q18 38 43.5 63t64.5 56q45 36 65.5 60.5
t21.5 57.5v26h82v-29q0 -37 -15 -66q-15 -28 -36 -49t-58 -50q-25 -19 -43.5 -35t-31 -33.5t-19.5 -37t-9 -46.5q0 -29 10.5 -54.5t29.5 -45t45.5 -30.5t58.5 -11q31 0 58 11.5t47 31t31.5 46.5t11.5 57h83z" />
    <glyph glyph-name="Agrave" unicode="&#xc0;" horiz-adv-x="653" 
d="M484 185h-317l-67 -185h-87l263 720h87h12l265 -720h-90zM458 257l-130 366l-134 -366h264zM205 907h89l66 -133h-69z" />
    <glyph glyph-name="Aacute" unicode="&#xc1;" horiz-adv-x="653" 
d="M484 185h-317l-67 -185h-87l263 720h87h12l265 -720h-90zM458 257l-130 366l-134 -366h264zM291 774l66 133h88l-85 -133h-69z" />
    <glyph glyph-name="Acircumflex" unicode="&#xc2;" horiz-adv-x="653" 
d="M484 185h-317l-67 -185h-87l263 720h87h12l265 -720h-90zM458 257l-130 366l-134 -366h264zM378 774l-52 83l-52 -83h-76l80 133h80h16l80 -133h-76z" />
    <glyph glyph-name="Atilde" unicode="&#xc3;" horiz-adv-x="653" 
d="M484 185h-317l-67 -185h-87l263 720h87h12l265 -720h-90zM458 257l-130 366l-134 -366h264zM173 815q0 45 23.5 69.5t58.5 24.5q19 0 36 -6.5t39 -18.5q20 -10 31.5 -15t24.5 -5q35 0 32 43h60q4 -54 -20 -82t-66 -28q-21 0 -40 7t-40 20q-3 2 -9 5l-13 6.5t-14 5.5
t-11 1q-32 0 -31 -45h-60q-1 4 -1 18z" />
    <glyph glyph-name="Adieresis" unicode="&#xc4;" horiz-adv-x="653" 
d="M484 185h-317l-67 -185h-87l263 720h87h12l265 -720h-90zM458 257l-130 366l-134 -366h264zM173 838q0 26 18.5 45t44.5 19q25 0 44 -19t19 -45q0 -25 -19 -43.5t-44 -18.5q-26 0 -44.5 18.5t-18.5 43.5zM353 838q0 26 18.5 45t44.5 19q25 0 43.5 -19t18.5 -45
q0 -25 -18.5 -43.5t-43.5 -18.5q-26 0 -44.5 18.5t-18.5 43.5z" />
    <glyph glyph-name="Aring" unicode="&#xc5;" horiz-adv-x="653" 
d="M484 185h-317l-67 -185h-87l263 720h87h12l265 -720h-90zM458 257l-130 366l-134 -366h264zM215 881q0 46 33 79q33 34 78 34q46 0 79 -34q34 -33 34 -79t-34 -79q-33 -33 -79 -33q-24 0 -44 8.5t-35 23.5t-23.5 35.5t-8.5 44.5zM383 883q0 23 -16 39.5t-40 16.5
t-40 -16.5t-16 -39.5q0 -25 16 -41.5t40 -16.5t40 16.5t16 41.5z" />
    <glyph glyph-name="AE" unicode="&#xc6;" horiz-adv-x="897" 
d="M837 0h-352h-81v201h-226l-76 -201h-92l275 719h87h32h81h353l-1 -82l-352 1v-236l320 -1l-1 -79h-319v-241h354zM404 274v364h-63l-136 -364h199z" />
    <glyph glyph-name="Ccedilla" unicode="&#xc7;" horiz-adv-x="734" 
d="M415 -10l-18 -22h36q32 0 49.5 -21t17.5 -50t-18 -49t-48 -20h-97v47h82q26 0 26 25q-2 23 -26 23h-82v45l17 22q-69 5 -126 34t-97.5 77.5t-63 114t-22.5 144.5q0 83 25 151.5t70 117.5t108 76t139 27q114 0 193 -58q80 -57 108 -151l-81 -30q-23 73 -81 114t-139 41
q-56 0 -102.5 -21t-79.5 -58.5t-51.5 -90.5t-18.5 -118q0 -66 18.5 -119t51.5 -90.5t79 -57.5t102 -20q80 0 141 40q60 40 83 103l81 -35q-15 -41 -42 -74.5t-63 -58.5t-79.5 -40t-91.5 -18z" />
    <glyph glyph-name="Egrave" unicode="&#xc8;" horiz-adv-x="586" 
d="M524 81v-81h-435v720h434v-82h-349v-238h316v-76h-316v-243h350zM181 907h89l66 -133h-69z" />
    <glyph glyph-name="Eacute" unicode="&#xc9;" horiz-adv-x="586" 
d="M524 81v-81h-435v720h434v-82h-349v-238h316v-76h-316v-243h350zM267 774l66 133h88l-85 -133h-69z" />
    <glyph glyph-name="Ecircumflex" unicode="&#xca;" horiz-adv-x="586" 
d="M524 81v-81h-435v720h434v-82h-349v-238h316v-76h-316v-243h350zM353 774l-52 83l-52 -83h-76l80 133h80h16l80 -133h-76z" />
    <glyph glyph-name="Edieresis" unicode="&#xcb;" horiz-adv-x="586" 
d="M524 81v-81h-435v720h434v-82h-349v-238h316v-76h-316v-243h350zM149 838q0 26 18.5 45t44.5 19q25 0 44 -19t19 -45q0 -25 -19 -43.5t-44 -18.5q-26 0 -44.5 18.5t-18.5 43.5zM329 838q0 26 18.5 45t44.5 19q25 0 43.5 -19t18.5 -45q0 -25 -18.5 -43.5t-43.5 -18.5
q-26 0 -44.5 18.5t-18.5 43.5z" />
    <glyph glyph-name="Igrave" unicode="&#xcc;" horiz-adv-x="263" 
d="M89 0v720h86v-720h-86zM11 907h89l66 -133h-69z" />
    <glyph glyph-name="Iacute" unicode="&#xcd;" horiz-adv-x="263" 
d="M89 0v720h86v-720h-86zM97 774l66 133h88l-85 -133h-69z" />
    <glyph glyph-name="Icircumflex" unicode="&#xce;" horiz-adv-x="263" 
d="M89 0v720h86v-720h-86zM183 774l-52 83l-52 -83h-76l80 133h80h16l80 -133h-76z" />
    <glyph glyph-name="Idieresis" unicode="&#xcf;" horiz-adv-x="263" 
d="M89 0v720h86v-720h-86zM-21 838q0 26 18.5 45t44.5 19q25 0 44 -19t19 -45q0 -25 -19 -43.5t-44 -18.5q-26 0 -44.5 18.5t-18.5 43.5zM159 838q0 26 18.5 45t44.5 19q25 0 43.5 -19t18.5 -45q0 -25 -18.5 -43.5t-43.5 -18.5q-26 0 -44.5 18.5t-18.5 43.5z" />
    <glyph glyph-name="Eth" unicode="&#xd0;" horiz-adv-x="724" 
d="M676 360q1 -79 -26 -146t-75.5 -115t-115.5 -74t-146 -25h-224v323h-72v74h72v323h224q78 1 145 -25.5t116 -74.5t76 -114.5t26 -145.5zM585 360q0 62 -19.5 113.5t-55.5 88t-86 57t-111 20.5h-138v-242h102v-74h-102v-243h138q61 0 111 20.5t86 57t55.5 88t19.5 114.5z
" />
    <glyph glyph-name="Ntilde" unicode="&#xd1;" horiz-adv-x="730" 
d="M641 720v-720h-85l-381 580v-580h-86v720h86l381 -580v580h85zM214 815q0 45 23.5 69.5t58.5 24.5q19 0 36 -6.5t39 -18.5q20 -10 31.5 -15t24.5 -5q35 0 32 43h60q4 -54 -20 -82t-66 -28q-21 0 -40 7t-40 20q-3 2 -9 5l-13 6.5t-14 5.5t-11 1q-32 0 -31 -45h-60
q-1 4 -1 18z" />
    <glyph glyph-name="Ograve" unicode="&#xd2;" horiz-adv-x="776" 
d="M388 732q75 1 139 -27t110 -78.5t71.5 -118.5t24.5 -148q1 -80 -25 -148.5t-72 -118.5t-110 -78t-139 -27q-76 0 -139 27.5t-108.5 77t-70.5 118t-25 149.5q-1 80 24.5 148t71.5 118.5t109.5 78.5t138.5 27zM388 72q57 0 103.5 21t80.5 59t52.5 91t18.5 117
q0 65 -18.5 118t-52.5 91t-80.5 59t-103.5 21t-104 -21t-80.5 -59t-52 -91t-18.5 -118q0 -64 18.5 -117t52 -91t80.5 -59t104 -21zM267 907h89l66 -133h-69z" />
    <glyph glyph-name="Oacute" unicode="&#xd3;" horiz-adv-x="776" 
d="M388 732q75 1 139 -27t110 -78.5t71.5 -118.5t24.5 -148q1 -80 -25 -148.5t-72 -118.5t-110 -78t-139 -27q-76 0 -139 27.5t-108.5 77t-70.5 118t-25 149.5q-1 80 24.5 148t71.5 118.5t109.5 78.5t138.5 27zM388 72q57 0 103.5 21t80.5 59t52.5 91t18.5 117
q0 65 -18.5 118t-52.5 91t-80.5 59t-103.5 21t-104 -21t-80.5 -59t-52 -91t-18.5 -118q0 -64 18.5 -117t52 -91t80.5 -59t104 -21zM353 774l66 133h88l-85 -133h-69z" />
    <glyph glyph-name="Ocircumflex" unicode="&#xd4;" horiz-adv-x="776" 
d="M388 732q75 1 139 -27t110 -78.5t71.5 -118.5t24.5 -148q1 -80 -25 -148.5t-72 -118.5t-110 -78t-139 -27q-76 0 -139 27.5t-108.5 77t-70.5 118t-25 149.5q-1 80 24.5 148t71.5 118.5t109.5 78.5t138.5 27zM388 72q57 0 103.5 21t80.5 59t52.5 91t18.5 117
q0 65 -18.5 118t-52.5 91t-80.5 59t-103.5 21t-104 -21t-80.5 -59t-52 -91t-18.5 -118q0 -64 18.5 -117t52 -91t80.5 -59t104 -21zM440 774l-52 83l-52 -83h-76l80 133h80h16l80 -133h-76z" />
    <glyph glyph-name="Otilde" unicode="&#xd5;" horiz-adv-x="776" 
d="M388 732q75 1 139 -27t110 -78.5t71.5 -118.5t24.5 -148q1 -80 -25 -148.5t-72 -118.5t-110 -78t-139 -27q-76 0 -139 27.5t-108.5 77t-70.5 118t-25 149.5q-1 80 24.5 148t71.5 118.5t109.5 78.5t138.5 27zM388 72q57 0 103.5 21t80.5 59t52.5 91t18.5 117
q0 65 -18.5 118t-52.5 91t-80.5 59t-103.5 21t-104 -21t-80.5 -59t-52 -91t-18.5 -118q0 -64 18.5 -117t52 -91t80.5 -59t104 -21zM235 815q0 45 23.5 69.5t58.5 24.5q19 0 36 -6.5t39 -18.5q20 -10 31.5 -15t24.5 -5q35 0 32 43h60q4 -54 -20 -82t-66 -28q-21 0 -40 7
t-40 20q-3 2 -9 5l-13 6.5t-14 5.5t-11 1q-32 0 -31 -45h-60q-1 4 -1 18z" />
    <glyph glyph-name="Odieresis" unicode="&#xd6;" horiz-adv-x="776" 
d="M388 732q75 1 139 -27t110 -78.5t71.5 -118.5t24.5 -148q1 -80 -25 -148.5t-72 -118.5t-110 -78t-139 -27q-76 0 -139 27.5t-108.5 77t-70.5 118t-25 149.5q-1 80 24.5 148t71.5 118.5t109.5 78.5t138.5 27zM388 72q57 0 103.5 21t80.5 59t52.5 91t18.5 117
q0 65 -18.5 118t-52.5 91t-80.5 59t-103.5 21t-104 -21t-80.5 -59t-52 -91t-18.5 -118q0 -64 18.5 -117t52 -91t80.5 -59t104 -21zM235 838q0 26 18.5 45t44.5 19q25 0 44 -19t19 -45q0 -25 -19 -43.5t-44 -18.5q-26 0 -44.5 18.5t-18.5 43.5zM415 838q0 26 18.5 45t44.5 19
q25 0 43.5 -19t18.5 -45q0 -25 -18.5 -43.5t-43.5 -18.5q-26 0 -44.5 18.5t-18.5 43.5z" />
    <glyph glyph-name="multiply" unicode="&#xd7;" horiz-adv-x="524" 
d="M416 102l-154 155l-152 -156l-55 55l152 156l-154 156l56 55l153 -155l153 156l55 -55l-153 -156l154 -156z" />
    <glyph glyph-name="Oslash" unicode="&#xd8;" horiz-adv-x="769" 
d="M721 361q0 -81 -25.5 -149.5t-71 -118t-109 -77.5t-139.5 -28q-85 0 -154 34l-18 -30h-87l43 70q-61 51 -94.5 127.5t-33.5 170.5q-1 80 24.5 148.5t71.5 119t109.5 78.5t138.5 27q93 0 173 -44l24 39h84l-50 -81q55 -51 84.5 -124.5t29.5 -161.5zM504 617
q-56 32 -127 32q-57 0 -104 -21t-80.5 -59t-52 -91t-18.5 -117q0 -72 21.5 -129t63.5 -95zM632 361q0 130 -72 210l-293 -476q52 -23 110 -23q57 0 103.5 21t80.5 59t52.5 91t18.5 118z" />
    <glyph glyph-name="Ugrave" unicode="&#xd9;" horiz-adv-x="711" 
d="M80 720h87v-469q0 -96 55 -139t134 -43q81 0 134 46q55 46 55 136v469h86v-471q0 -65 -22.5 -114t-60 -82t-87.5 -49.5t-105 -16.5q-54 0 -104 15.5t-88 47.5t-61 81.5t-23 117.5v471zM235 907h89l66 -133h-69z" />
    <glyph glyph-name="Uacute" unicode="&#xda;" horiz-adv-x="711" 
d="M80 720h87v-469q0 -96 55 -139t134 -43q81 0 134 46q55 46 55 136v469h86v-471q0 -65 -22.5 -114t-60 -82t-87.5 -49.5t-105 -16.5q-54 0 -104 15.5t-88 47.5t-61 81.5t-23 117.5v471zM321 774l66 133h88l-85 -133h-69z" />
    <glyph glyph-name="Ucircumflex" unicode="&#xdb;" horiz-adv-x="711" 
d="M80 720h87v-469q0 -96 55 -139t134 -43q81 0 134 46q55 46 55 136v469h86v-471q0 -65 -22.5 -114t-60 -82t-87.5 -49.5t-105 -16.5q-54 0 -104 15.5t-88 47.5t-61 81.5t-23 117.5v471zM408 774l-52 83l-52 -83h-76l80 133h80h16l80 -133h-76z" />
    <glyph glyph-name="Udieresis" unicode="&#xdc;" horiz-adv-x="711" 
d="M80 720h87v-469q0 -96 55 -139t134 -43q81 0 134 46q55 46 55 136v469h86v-471q0 -65 -22.5 -114t-60 -82t-87.5 -49.5t-105 -16.5q-54 0 -104 15.5t-88 47.5t-61 81.5t-23 117.5v471zM203 838q0 26 18.5 45t44.5 19q25 0 44 -19t19 -45q0 -25 -19 -43.5t-44 -18.5
q-26 0 -44.5 18.5t-18.5 43.5zM383 838q0 26 18.5 45t44.5 19q25 0 43.5 -19t18.5 -45q0 -25 -18.5 -43.5t-43.5 -18.5q-26 0 -44.5 18.5t-18.5 43.5z" />
    <glyph glyph-name="Yacute" unicode="&#xdd;" horiz-adv-x="593" 
d="M107 720l191 -340l191 340h94l-242 -422v-298h-86v298l-245 422h97zM263 774l66 133h88l-85 -133h-69z" />
    <glyph glyph-name="Thorn" unicode="&#xde;" horiz-adv-x="622" 
d="M88 720h82v-149h150q54 0 96 -17.5t70.5 -47t43 -68t14.5 -79.5t-14.5 -79t-43 -67t-70.5 -46.5t-96 -17.5h-150v-149h-82v720zM317 230q66 0 103 39q37 38 37 92q0 26 -9 49.5t-27 41.5t-44 29t-60 11h-147v-262h147z" />
    <glyph glyph-name="germandbls" unicode="&#xdf;" horiz-adv-x="570" 
d="M530 219q0 -48 -17.5 -88t-50 -69.5t-77.5 -45.5t-100 -16q-34 0 -76 12v79q33 -16 74 -16q78 0 121.5 42t43.5 106q0 72 -49 112q-49 41 -123 39v70q54 0 86.5 31t32.5 76q0 49 -32.5 77t-84.5 28q-54 0 -85.5 -32t-31.5 -96v-528h-83v523q0 100 52 155t143 55
q88 0 143 -49q56 -48 56 -130q0 -45 -17.5 -79.5t-48.5 -57.5q58 -27 91 -78t33 -120z" />
    <glyph glyph-name="agrave" unicode="&#xe0;" horiz-adv-x="525" 
d="M390 0q-2 8 -4 25.5t-4 45.5q-21 -37 -65 -60t-101 -23q-81 0 -129 41.5t-48 111.5t48.5 112t129.5 42h164v20q0 61 -33 88.5t-90 27.5q-101 0 -139 -80l-62 36q29 57 81 85t124 28q89 0 144 -45t55 -144v-213q0 -28 2.5 -56.5t6.5 -41.5h-80zM381 233h-146
q-54 0 -83.5 -24t-29.5 -67t29.5 -66t80.5 -23q69 0 109 44t40 122v14zM139 677h89l66 -133h-69z" />
    <glyph glyph-name="aacute" unicode="&#xe1;" horiz-adv-x="525" 
d="M390 0q-2 8 -4 25.5t-4 45.5q-21 -37 -65 -60t-101 -23q-81 0 -129 41.5t-48 111.5t48.5 112t129.5 42h164v20q0 61 -33 88.5t-90 27.5q-101 0 -139 -80l-62 36q29 57 81 85t124 28q89 0 144 -45t55 -144v-213q0 -28 2.5 -56.5t6.5 -41.5h-80zM381 233h-146
q-54 0 -83.5 -24t-29.5 -67t29.5 -66t80.5 -23q69 0 109 44t40 122v14zM225 544l66 133h88l-85 -133h-69z" />
    <glyph glyph-name="acircumflex" unicode="&#xe2;" horiz-adv-x="525" 
d="M390 0q-2 8 -4 25.5t-4 45.5q-21 -37 -65 -60t-101 -23q-81 0 -129 41.5t-48 111.5t48.5 112t129.5 42h164v20q0 61 -33 88.5t-90 27.5q-101 0 -139 -80l-62 36q29 57 81 85t124 28q89 0 144 -45t55 -144v-213q0 -28 2.5 -56.5t6.5 -41.5h-80zM381 233h-146
q-54 0 -83.5 -24t-29.5 -67t29.5 -66t80.5 -23q69 0 109 44t40 122v14zM311 544l-52 83l-52 -83h-76l80 133h80h16l80 -133h-76z" />
    <glyph glyph-name="atilde" unicode="&#xe3;" horiz-adv-x="525" 
d="M390 0q-2 8 -4 25.5t-4 45.5q-21 -37 -65 -60t-101 -23q-81 0 -129 41.5t-48 111.5t48.5 112t129.5 42h164v20q0 61 -33 88.5t-90 27.5q-101 0 -139 -80l-62 36q29 57 81 85t124 28q89 0 144 -45t55 -144v-213q0 -28 2.5 -56.5t6.5 -41.5h-80zM381 233h-146
q-54 0 -83.5 -24t-29.5 -67t29.5 -66t80.5 -23q69 0 109 44t40 122v14zM106 585q0 45 23.5 69.5t58.5 24.5q19 0 36 -6.5t39 -18.5q20 -10 31.5 -15t24.5 -5q35 0 32 43h60q4 -54 -20 -82t-66 -28q-21 0 -40 7t-40 20q-3 2 -9 5l-13 6.5t-14 5.5t-11 1q-32 0 -31 -45h-60
q-1 4 -1 18z" />
    <glyph glyph-name="adieresis" unicode="&#xe4;" horiz-adv-x="525" 
d="M390 0q-2 8 -4 25.5t-4 45.5q-21 -37 -65 -60t-101 -23q-81 0 -129 41.5t-48 111.5t48.5 112t129.5 42h164v20q0 61 -33 88.5t-90 27.5q-101 0 -139 -80l-62 36q29 57 81 85t124 28q89 0 144 -45t55 -144v-213q0 -28 2.5 -56.5t6.5 -41.5h-80zM381 233h-146
q-54 0 -83.5 -24t-29.5 -67t29.5 -66t80.5 -23q69 0 109 44t40 122v14zM107 608q0 26 18.5 45t44.5 19q25 0 44 -19t19 -45q0 -25 -19 -43.5t-44 -18.5q-26 0 -44.5 18.5t-18.5 43.5zM287 608q0 26 18.5 45t44.5 19q25 0 43.5 -19t18.5 -45q0 -25 -18.5 -43.5t-43.5 -18.5
q-26 0 -44.5 18.5t-18.5 43.5z" />
    <glyph glyph-name="aring" unicode="&#xe5;" horiz-adv-x="525" 
d="M390 0q-2 8 -4 25.5t-4 45.5q-21 -37 -65 -60t-101 -23q-81 0 -129 41.5t-48 111.5t48.5 112t129.5 42h164v20q0 61 -33 88.5t-90 27.5q-101 0 -139 -80l-62 36q29 57 81 85t124 28q89 0 144 -45t55 -144v-213q0 -28 2.5 -56.5t6.5 -41.5h-80zM381 233h-146
q-54 0 -83.5 -24t-29.5 -67t29.5 -66t80.5 -23q69 0 109 44t40 122v14zM149 651q0 46 33 79q33 34 78 34q46 0 79 -34q34 -33 34 -79t-34 -79q-33 -33 -79 -33q-24 0 -44 8.5t-35 23.5t-23.5 35.5t-8.5 44.5zM317 653q0 23 -16 39.5t-40 16.5t-40 -16.5t-16 -39.5
q0 -25 16 -41.5t40 -16.5t40 16.5t16 41.5z" />
    <glyph glyph-name="ae" unicode="&#xe6;" horiz-adv-x="897" 
d="M857 213h-393q6 -75 49.5 -114t109.5 -39q51 0 89.5 24t60.5 66l64 -33q-30 -63 -87.5 -96t-129.5 -33q-67 0 -117.5 29.5t-77.5 81.5q-22 -54 -72 -82.5t-116 -28.5q-40 0 -74.5 10t-59 29t-38.5 46.5t-14 63.5q0 64 41 102t107 38h142q20 0 28 9.5t8 27.5
q0 58 -33.5 87t-84.5 29q-46 0 -82 -22t-58 -60l-61 35q29 54 82.5 85.5t116.5 31.5q60 0 106 -26.5t66 -74.5q29 48 78.5 74.5t113.5 26.5q53 0 96.5 -17.5t74.5 -50t48 -77.5t17 -100v-42zM773 275q0 35 -12 63.5t-32 49t-48.5 31.5t-61.5 11q-66 0 -107.5 -41t-47.5 -114
h309zM380 214h-163q-38 0 -60 -21t-22 -56q0 -42 31.5 -62t77.5 -20q69 0 101.5 39.5t34.5 100.5v19z" />
    <glyph glyph-name="ccedilla" unicode="&#xe7;" horiz-adv-x="545" 
d="M433 159l72 -28q-26 -63 -78 -100t-121 -42l-17 -21h36q32 0 49.5 -21t17.5 -50t-18 -49t-48 -20h-97v47h82q26 0 26 25q-2 23 -26 23h-82v45l17 22q-96 12 -151 79.5t-55 173.5q0 57 17.5 104.5t49.5 81.5t77 52.5t100 18.5q81 0 138.5 -38.5t82.5 -104.5l-73 -29
q-16 46 -56 72t-92 26q-73 0 -117 -49.5t-44 -133.5q0 -41 11.5 -74.5t33 -57t51 -36.5t65.5 -13q51 0 91 26t58 71z" />
    <glyph glyph-name="egrave" unicode="&#xe8;" horiz-adv-x="553" 
d="M513 207h-393q6 -73 49.5 -110.5t107.5 -37.5q52 0 89.5 24.5t57.5 67.5l69 -29q-29 -64 -86 -99t-132 -35q-52 0 -95.5 18t-74.5 51.5t-48 80.5t-17 104q0 56 17 103.5t48 82t75 53.5t98 19q53 0 96 -18t74 -51.5t48 -81t17 -105.5v-37zM428 268q-3 79 -43.5 120.5
t-107.5 41.5t-109 -42t-48 -120h308zM156 677h89l66 -133h-69z" />
    <glyph glyph-name="eacute" unicode="&#xe9;" horiz-adv-x="553" 
d="M513 207h-393q6 -73 49.5 -110.5t107.5 -37.5q52 0 89.5 24.5t57.5 67.5l69 -29q-29 -64 -86 -99t-132 -35q-52 0 -95.5 18t-74.5 51.5t-48 80.5t-17 104q0 56 17 103.5t48 82t75 53.5t98 19q53 0 96 -18t74 -51.5t48 -81t17 -105.5v-37zM428 268q-3 79 -43.5 120.5
t-107.5 41.5t-109 -42t-48 -120h308zM243 544l66 133h88l-85 -133h-69z" />
    <glyph glyph-name="ecircumflex" unicode="&#xea;" horiz-adv-x="553" 
d="M513 207h-393q6 -73 49.5 -110.5t107.5 -37.5q52 0 89.5 24.5t57.5 67.5l69 -29q-29 -64 -86 -99t-132 -35q-52 0 -95.5 18t-74.5 51.5t-48 80.5t-17 104q0 56 17 103.5t48 82t75 53.5t98 19q53 0 96 -18t74 -51.5t48 -81t17 -105.5v-37zM428 268q-3 79 -43.5 120.5
t-107.5 41.5t-109 -42t-48 -120h308zM329 544l-52 83l-52 -83h-76l80 133h80h16l80 -133h-76z" />
    <glyph glyph-name="edieresis" unicode="&#xeb;" horiz-adv-x="553" 
d="M513 207h-393q6 -73 49.5 -110.5t107.5 -37.5q52 0 89.5 24.5t57.5 67.5l69 -29q-29 -64 -86 -99t-132 -35q-52 0 -95.5 18t-74.5 51.5t-48 80.5t-17 104q0 56 17 103.5t48 82t75 53.5t98 19q53 0 96 -18t74 -51.5t48 -81t17 -105.5v-37zM428 268q-3 79 -43.5 120.5
t-107.5 41.5t-109 -42t-48 -120h308zM124 598q0 26 18.5 45t44.5 19q25 0 44 -19t19 -45q0 -25 -19 -43.5t-44 -18.5q-26 0 -44.5 18.5t-18.5 43.5zM304 598q0 26 18.5 45t44.5 19q25 0 43.5 -19t18.5 -45q0 -25 -18.5 -43.5t-43.5 -18.5q-26 0 -44.5 18.5t-18.5 43.5z" />
    <glyph glyph-name="igrave" unicode="&#xec;" horiz-adv-x="197" 
d="M140 487v-487h-83v487h83zM-22 677h89l66 -133h-69z" />
    <glyph glyph-name="iacute" unicode="&#xed;" horiz-adv-x="197" 
d="M140 487v-487h-83v487h83zM64 544l66 133h88l-85 -133h-69z" />
    <glyph glyph-name="icircumflex" unicode="&#xee;" horiz-adv-x="197" 
d="M140 487v-487h-83v487h83zM150 544l-52 83l-52 -83h-76l80 133h80h16l80 -133h-76z" />
    <glyph glyph-name="idieresis" unicode="&#xef;" horiz-adv-x="197" 
d="M140 487v-487h-83v487h83zM-54 608q0 26 18.5 45t44.5 19q25 0 44 -19t19 -45q0 -25 -19 -43.5t-44 -18.5q-26 0 -44.5 18.5t-18.5 43.5zM126 608q0 26 18.5 45t44.5 19q25 0 43.5 -19t18.5 -45q0 -25 -18.5 -43.5t-43.5 -18.5q-26 0 -44.5 18.5t-18.5 43.5z" />
    <glyph glyph-name="eth" unicode="&#xf0;" horiz-adv-x="616" 
d="M576 284q0 -69 -20 -123.5t-56 -93t-86 -59t-110 -20.5q-62 0 -111 21t-83 57t-52 84.5t-18 103.5q0 57 20.5 105t55.5 82.5t82 54t100 19.5q98 0 160 -56q-36 98 -111 166l-71 -65l-43 49l63 59q-17 14 -39 28.5t-50 29.5l45 58q67 -38 103 -66l64 57l44 -49l-59 -52
q81 -73 126 -180q46 -104 46 -210zM490 254q0 38 -13 71.5t-37 58t-57 38.5t-74 14t-75 -14.5t-59 -39.5t-38.5 -59.5t-13.5 -73.5q0 -37 12.5 -70.5t36.5 -58.5t58 -39.5t76 -14.5q44 0 78 15.5t57.5 41t36 60t12.5 71.5z" />
    <glyph glyph-name="ntilde" unicode="&#xf1;" horiz-adv-x="571" 
d="M505 0h-82v286q0 76 -37 107q-38 32 -89 32q-63 0 -102.5 -40t-39.5 -110v-274h-82v486h77l3 -65q22 36 64 57t96 21q86 0 139 -50.5t53 -151.5v-298zM138 585q0 45 23.5 69.5t58.5 24.5q19 0 36 -6.5t39 -18.5q20 -10 31.5 -15t24.5 -5q35 0 32 43h60q4 -54 -20 -82
t-66 -28q-21 0 -40 7t-40 20q-3 2 -9 5l-13 6.5t-14 5.5t-11 1q-32 0 -31 -45h-60q-1 4 -1 18z" />
    <glyph glyph-name="ograve" unicode="&#xf2;" horiz-adv-x="574" 
d="M287 500q55 0 100.5 -19.5t78 -54t50.5 -81.5t18 -101t-18 -101t-50.5 -81.5t-78 -54t-100.5 -19.5t-100.5 19.5t-78 54t-50.5 81.5t-18 101t18 101t50.5 81.5t78 54t100.5 19.5zM287 62q74 0 119 51t45 131q0 79 -45 130q-45 52 -119 52q-73 0 -118 -52
q-45 -51 -45 -130q0 -80 45 -131t118 -51zM166 677h89l66 -133h-69z" />
    <glyph glyph-name="oacute" unicode="&#xf3;" horiz-adv-x="574" 
d="M287 500q55 0 100.5 -19.5t78 -54t50.5 -81.5t18 -101t-18 -101t-50.5 -81.5t-78 -54t-100.5 -19.5t-100.5 19.5t-78 54t-50.5 81.5t-18 101t18 101t50.5 81.5t78 54t100.5 19.5zM287 62q74 0 119 51t45 131q0 79 -45 130q-45 52 -119 52q-73 0 -118 -52
q-45 -51 -45 -130q0 -80 45 -131t118 -51zM253 544l66 133h88l-85 -133h-69z" />
    <glyph glyph-name="ocircumflex" unicode="&#xf4;" horiz-adv-x="574" 
d="M287 500q55 0 100.5 -19.5t78 -54t50.5 -81.5t18 -101t-18 -101t-50.5 -81.5t-78 -54t-100.5 -19.5t-100.5 19.5t-78 54t-50.5 81.5t-18 101t18 101t50.5 81.5t78 54t100.5 19.5zM287 62q74 0 119 51t45 131q0 79 -45 130q-45 52 -119 52q-73 0 -118 -52
q-45 -51 -45 -130q0 -80 45 -131t118 -51zM339 544l-52 83l-52 -83h-76l80 133h80h16l80 -133h-76z" />
    <glyph glyph-name="otilde" unicode="&#xf5;" horiz-adv-x="574" 
d="M287 500q55 0 100.5 -19.5t78 -54t50.5 -81.5t18 -101t-18 -101t-50.5 -81.5t-78 -54t-100.5 -19.5t-100.5 19.5t-78 54t-50.5 81.5t-18 101t18 101t50.5 81.5t78 54t100.5 19.5zM287 62q74 0 119 51t45 131q0 79 -45 130q-45 52 -119 52q-73 0 -118 -52
q-45 -51 -45 -130q0 -80 45 -131t118 -51zM134 585q0 45 23.5 69.5t58.5 24.5q19 0 36 -6.5t39 -18.5q20 -10 31.5 -15t24.5 -5q35 0 32 43h60q4 -54 -20 -82t-66 -28q-21 0 -40 7t-40 20q-3 2 -9 5l-13 6.5t-14 5.5t-11 1q-32 0 -31 -45h-60q-1 4 -1 18z" />
    <glyph glyph-name="odieresis" unicode="&#xf6;" horiz-adv-x="574" 
d="M287 500q55 0 100.5 -19.5t78 -54t50.5 -81.5t18 -101t-18 -101t-50.5 -81.5t-78 -54t-100.5 -19.5t-100.5 19.5t-78 54t-50.5 81.5t-18 101t18 101t50.5 81.5t78 54t100.5 19.5zM287 62q74 0 119 51t45 131q0 79 -45 130q-45 52 -119 52q-73 0 -118 -52
q-45 -51 -45 -130q0 -80 45 -131t118 -51zM135 608q0 26 18.5 45t44.5 19q25 0 44 -19t19 -45q0 -25 -19 -43.5t-44 -18.5q-26 0 -44.5 18.5t-18.5 43.5zM315 608q0 26 18.5 45t44.5 19q25 0 43.5 -19t18.5 -45q0 -25 -18.5 -43.5t-43.5 -18.5q-26 0 -44.5 18.5t-18.5 43.5z
" />
    <glyph glyph-name="divide" unicode="&#xf7;" horiz-adv-x="541" 
d="M206 496q0 26 19.5 45t45.5 19t45 -19t19 -45q0 -25 -19 -44t-45 -19t-45.5 19t-19.5 44zM461 342v-70h-381v70h381zM206 110q0 26 19.5 45t45.5 19t45 -19t19 -45q0 -25 -19 -44t-45 -19t-45.5 19t-19.5 44z" />
    <glyph glyph-name="oslash" unicode="&#xf8;" horiz-adv-x="574" 
d="M534 244q0 -54 -18 -101t-50.5 -81.5t-78 -54t-100.5 -19.5q-58 0 -105 21l-36 -59h-76l58 93q-42 35 -65 86.5t-23 114.5q0 54 18 101t50.5 81.5t78 54t100.5 19.5q59 0 110 -24l32 52h73l-53 -86q42 -35 63.5 -86t21.5 -112zM356 411q-30 15 -69 15q-73 0 -118 -52
q-45 -51 -45 -130q0 -83 46 -133zM451 244q0 79 -44 129l-184 -299q29 -12 64 -12q74 0 119 51t45 131z" />
    <glyph glyph-name="ugrave" unicode="&#xf9;" 
d="M430 0q-3 16 -5 33t-3 35q-21 -38 -62.5 -59t-95.5 -21q-80 0 -137 48q-57 50 -57 157v294h83v-282q0 -39 10 -66.5t27.5 -44.5t40.5 -25t49 -8q61 0 100.5 40.5t39.5 109.5v276h83v-398q0 -21 2.5 -46.5t6.5 -42.5h-82zM165 677h89l66 -133h-69z" />
    <glyph glyph-name="uacute" unicode="&#xfa;" 
d="M430 0q-3 16 -5 33t-3 35q-21 -38 -62.5 -59t-95.5 -21q-80 0 -137 48q-57 50 -57 157v294h83v-282q0 -39 10 -66.5t27.5 -44.5t40.5 -25t49 -8q61 0 100.5 40.5t39.5 109.5v276h83v-398q0 -21 2.5 -46.5t6.5 -42.5h-82zM252 544l66 133h88l-85 -133h-69z" />
    <glyph glyph-name="ucircumflex" unicode="&#xfb;" 
d="M430 0q-3 16 -5 33t-3 35q-21 -38 -62.5 -59t-95.5 -21q-80 0 -137 48q-57 50 -57 157v294h83v-282q0 -39 10 -66.5t27.5 -44.5t40.5 -25t49 -8q61 0 100.5 40.5t39.5 109.5v276h83v-398q0 -21 2.5 -46.5t6.5 -42.5h-82zM338 544l-52 83l-52 -83h-76l80 133h80h16
l80 -133h-76z" />
    <glyph glyph-name="udieresis" unicode="&#xfc;" 
d="M430 0q-3 16 -5 33t-3 35q-21 -38 -62.5 -59t-95.5 -21q-80 0 -137 48q-57 50 -57 157v294h83v-282q0 -39 10 -66.5t27.5 -44.5t40.5 -25t49 -8q61 0 100.5 40.5t39.5 109.5v276h83v-398q0 -21 2.5 -46.5t6.5 -42.5h-82zM134 608q0 26 18.5 45t44.5 19q25 0 44 -19
t19 -45q0 -25 -19 -43.5t-44 -18.5q-26 0 -44.5 18.5t-18.5 43.5zM314 608q0 26 18.5 45t44.5 19q25 0 43.5 -19t18.5 -45q0 -25 -18.5 -43.5t-43.5 -18.5q-26 0 -44.5 18.5t-18.5 43.5z" />
    <glyph glyph-name="yacute" unicode="&#xfd;" horiz-adv-x="508" 
d="M494 487l-223 -598q-23 -61 -61 -88t-86 -27q-51 0 -97 25l23 75q34 -25 70 -25q25 0 46 15.5t34 49.5l20 56l-207 517h87l159 -411l150 411h85zM221 544l66 133h88l-85 -133h-69z" />
    <glyph glyph-name="thorn" unicode="&#xfe;" horiz-adv-x="607" 
d="M336 -12q-60 0 -107 23.5t-72 68.5v-294h-81v934h81v-310q25 43 71 66.5t106 23.5q54 0 97 -19t73.5 -53t46.5 -81.5t16 -104.5t-16.5 -104t-47 -80.5t-73 -51.5t-94.5 -18zM484 243q0 82 -42.5 132.5t-117.5 50.5t-117.5 -50.5t-42.5 -132.5q0 -81 42.5 -131t117.5 -50
t117.5 50t42.5 131z" />
    <glyph glyph-name="ydieresis" unicode="&#xff;" horiz-adv-x="508" 
d="M494 487l-223 -598q-23 -61 -61 -88t-86 -27q-51 0 -97 25l23 75q34 -25 70 -25q25 0 46 15.5t34 49.5l20 56l-207 517h87l159 -411l150 411h85zM103 608q0 26 18.5 45t44.5 19q25 0 44 -19t19 -45q0 -25 -19 -43.5t-44 -18.5q-26 0 -44.5 18.5t-18.5 43.5zM283 608
q0 26 18.5 45t44.5 19q25 0 43.5 -19t18.5 -45q0 -25 -18.5 -43.5t-43.5 -18.5q-26 0 -44.5 18.5t-18.5 43.5z" />
    <glyph glyph-name="Amacron" unicode="&#x100;" horiz-adv-x="653" 
d="M484 185h-317l-67 -185h-87l263 720h87h12l265 -720h-90zM458 257l-130 366l-134 -366h264zM466 844v-62h-280v62h280z" />
    <glyph glyph-name="amacron" unicode="&#x101;" horiz-adv-x="525" 
d="M390 0q-2 8 -4 25.5t-4 45.5q-21 -37 -65 -60t-101 -23q-81 0 -129 41.5t-48 111.5t48.5 112t129.5 42h164v20q0 61 -33 88.5t-90 27.5q-101 0 -139 -80l-62 36q29 57 81 85t124 28q89 0 144 -45t55 -144v-213q0 -28 2.5 -56.5t6.5 -41.5h-80zM381 233h-146
q-54 0 -83.5 -24t-29.5 -67t29.5 -66t80.5 -23q69 0 109 44t40 122v14zM400 614v-62h-280v62h280z" />
    <glyph glyph-name="Abreve" unicode="&#x102;" horiz-adv-x="653" 
d="M484 185h-317l-67 -185h-87l263 720h87h12l265 -720h-90zM458 257l-130 366l-134 -366h264zM327 774q-29 0 -55 10t-45.5 28t-30.5 42t-11 52h71q1 -28 20.5 -45t50.5 -17q30 0 49.5 17t20.5 45h71q0 -27 -11 -51t-30.5 -42t-45 -28.5t-54.5 -10.5z" />
    <glyph glyph-name="abreve" unicode="&#x103;" horiz-adv-x="525" 
d="M390 0q-2 8 -4 25.5t-4 45.5q-21 -37 -65 -60t-101 -23q-81 0 -129 41.5t-48 111.5t48.5 112t129.5 42h164v20q0 61 -33 88.5t-90 27.5q-101 0 -139 -80l-62 36q29 57 81 85t124 28q89 0 144 -45t55 -144v-213q0 -28 2.5 -56.5t6.5 -41.5h-80zM381 233h-146
q-54 0 -83.5 -24t-29.5 -67t29.5 -66t80.5 -23q69 0 109 44t40 122v14zM260 544q-29 0 -55 10t-45.5 28t-30.5 42t-11 52h71q1 -28 20.5 -45t50.5 -17q30 0 49.5 17t20.5 45h71q0 -27 -11 -51t-30.5 -42t-45 -28.5t-54.5 -10.5z" />
    <glyph glyph-name="Aogonek" unicode="&#x104;" horiz-adv-x="653" 
d="M484 185h-317l-67 -185h-87l263 720h87h12l265 -720h-90zM458 257l-130 366l-134 -366h264zM642 0q-29 -13 -43 -30.5t-14 -33.5q0 -14 10 -23.5t26 -9.5q9 0 19 3v-63q-21 -6 -40 -6q-37 0 -58.5 22t-21.5 53q0 27 17.5 51t49.5 37h55z" />
    <glyph glyph-name="aogonek" unicode="&#x105;" horiz-adv-x="525" 
d="M413 -64q0 -14 10 -23.5t26 -9.5q9 0 19 3v-63q-21 -6 -40 -6q-37 0 -58.5 22t-21.5 53q0 27 17.5 51t49.5 37h-25q-2 8 -4 25.5t-4 45.5q-21 -37 -65 -60t-101 -23q-81 0 -129 41.5t-48 111.5t48.5 112t129.5 42h164v20q0 61 -33 88.5t-90 27.5q-101 0 -139 -80l-62 36
q29 57 81 85t124 28q89 0 144 -45t55 -144v-213q0 -28 2.5 -56.5t6.5 -41.5q-29 -13 -43 -30.5t-14 -33.5zM381 233h-146q-54 0 -83.5 -24t-29.5 -67t29.5 -66t80.5 -23q69 0 109 44t40 122v14z" />
    <glyph glyph-name="Cacute" unicode="&#x106;" horiz-adv-x="734" 
d="M607 493q-23 73 -81 114t-139 41q-56 0 -102.5 -21t-79.5 -58.5t-51.5 -90.5t-18.5 -118q0 -66 18.5 -119t51.5 -90.5t79 -57.5t102 -20q80 0 141 40q60 40 83 103l81 -35q-34 -88 -117 -141q-82 -51 -189 -51q-75 0 -137.5 26.5t-107.5 75.5t-70 117t-25 152
q0 83 25 151.5t70 117.5t108 76t139 27q114 0 193 -58q80 -57 108 -151zM356 774l66 133h88l-85 -133h-69z" />
    <glyph glyph-name="cacute" unicode="&#x107;" horiz-adv-x="545" 
d="M284 500q81 0 138.5 -38.5t82.5 -104.5l-73 -29q-16 46 -56 72t-92 26q-73 0 -117 -49.5t-44 -133.5q0 -41 11.5 -74.5t33 -57t51 -36.5t65.5 -13q51 0 91 26t58 71l72 -28q-28 -69 -87 -106t-135 -37q-55 0 -100 18.5t-76.5 52t-49 80.5t-17.5 104t17.5 104.5t49.5 81.5
t77 52.5t100 18.5zM241 544l66 133h88l-85 -133h-69z" />
    <glyph glyph-name="Ccircumflex" unicode="&#x108;" horiz-adv-x="734" 
d="M607 493q-23 73 -81 114t-139 41q-56 0 -102.5 -21t-79.5 -58.5t-51.5 -90.5t-18.5 -118q0 -66 18.5 -119t51.5 -90.5t79 -57.5t102 -20q80 0 141 40q60 40 83 103l81 -35q-34 -88 -117 -141q-82 -51 -189 -51q-75 0 -137.5 26.5t-107.5 75.5t-70 117t-25 152
q0 83 25 151.5t70 117.5t108 76t139 27q114 0 193 -58q80 -57 108 -151zM442 774l-52 83l-52 -83h-76l80 133h80h16l80 -133h-76z" />
    <glyph glyph-name="ccircumflex" unicode="&#x109;" horiz-adv-x="545" 
d="M284 500q81 0 138.5 -38.5t82.5 -104.5l-73 -29q-16 46 -56 72t-92 26q-73 0 -117 -49.5t-44 -133.5q0 -41 11.5 -74.5t33 -57t51 -36.5t65.5 -13q51 0 91 26t58 71l72 -28q-28 -69 -87 -106t-135 -37q-55 0 -100 18.5t-76.5 52t-49 80.5t-17.5 104t17.5 104.5t49.5 81.5
t77 52.5t100 18.5zM327 544l-52 83l-52 -83h-76l80 133h80h16l80 -133h-76z" />
    <glyph glyph-name="Cdotaccent" unicode="&#x10a;" horiz-adv-x="734" 
d="M607 493q-23 73 -81 114t-139 41q-56 0 -102.5 -21t-79.5 -58.5t-51.5 -90.5t-18.5 -118q0 -66 18.5 -119t51.5 -90.5t79 -57.5t102 -20q80 0 141 40q60 40 83 103l81 -35q-34 -88 -117 -141q-82 -51 -189 -51q-75 0 -137.5 26.5t-107.5 75.5t-70 117t-25 152
q0 83 25 151.5t70 117.5t108 76t139 27q114 0 193 -58q80 -57 108 -151zM328 839q0 26 18.5 44.5t43.5 18.5t44 -18.5t19 -44.5q0 -25 -18.5 -43.5t-44.5 -18.5t-44 18.5t-18 43.5z" />
    <glyph glyph-name="cdotaccent" unicode="&#x10b;" horiz-adv-x="545" 
d="M284 500q81 0 138.5 -38.5t82.5 -104.5l-73 -29q-16 46 -56 72t-92 26q-73 0 -117 -49.5t-44 -133.5q0 -41 11.5 -74.5t33 -57t51 -36.5t65.5 -13q51 0 91 26t58 71l72 -28q-28 -69 -87 -106t-135 -37q-55 0 -100 18.5t-76.5 52t-49 80.5t-17.5 104t17.5 104.5t49.5 81.5
t77 52.5t100 18.5zM212 609q0 26 18.5 44.5t43.5 18.5t44 -18.5t19 -44.5q0 -25 -18.5 -43.5t-44.5 -18.5t-44 18.5t-18 43.5z" />
    <glyph glyph-name="Ccaron" unicode="&#x10c;" horiz-adv-x="734" 
d="M607 493q-23 73 -81 114t-139 41q-56 0 -102.5 -21t-79.5 -58.5t-51.5 -90.5t-18.5 -118q0 -66 18.5 -119t51.5 -90.5t79 -57.5t102 -20q80 0 141 40q60 40 83 103l81 -35q-34 -88 -117 -141q-82 -51 -189 -51q-75 0 -137.5 26.5t-107.5 75.5t-70 117t-25 152
q0 83 25 151.5t70 117.5t108 76t139 27q114 0 193 -58q80 -57 108 -151zM518 907l-80 -133h-80h-16l-80 133h76l52 -83l52 83h76z" />
    <glyph glyph-name="ccaron" unicode="&#x10d;" horiz-adv-x="545" 
d="M284 500q81 0 138.5 -38.5t82.5 -104.5l-73 -29q-16 46 -56 72t-92 26q-73 0 -117 -49.5t-44 -133.5q0 -41 11.5 -74.5t33 -57t51 -36.5t65.5 -13q51 0 91 26t58 71l72 -28q-28 -69 -87 -106t-135 -37q-55 0 -100 18.5t-76.5 52t-49 80.5t-17.5 104t17.5 104.5t49.5 81.5
t77 52.5t100 18.5zM403 677l-80 -133h-80h-16l-80 133h76l52 -83l52 83h76z" />
    <glyph glyph-name="Dcaron" unicode="&#x10e;" horiz-adv-x="721" 
d="M676 360q1 -79 -26 -146t-75.5 -115t-115.5 -74t-146 -25h-224v720h224q78 1 145 -25.5t116 -74.5t76 -114.5t26 -145.5zM585 360q0 62 -19.5 113.5t-55.5 88t-86 57t-111 20.5h-138v-559h138q61 0 111 20.5t86 57t55.5 88t19.5 114.5zM423 906l-80 -133h-80h-16l-80 133
h76l52 -83l52 83h76z" />
    <glyph glyph-name="dcaron" unicode="&#x10f;" horiz-adv-x="709" 
d="M649 526h-42l-16 169q-1 20 10 31t27 11t27 -11t9 -31zM529 114q0 -14 0.5 -29.5t1.5 -33.5q3 -34 6 -51h-82q-4 23 -5.5 43.5t-2.5 38.5q-26 -45 -72.5 -69.5t-104.5 -24.5q-53 0 -96 18t-73.5 51.5t-47 80.5t-16.5 105q0 56 16.5 103.5t47 81.5t73.5 53t96 19
q57 0 104 -22.5t73 -67.5v323h82v-619zM441 245q0 81 -43 131t-118 50q-36 0 -65.5 -13t-50.5 -37t-32.5 -57t-11.5 -74t11.5 -74.5t32.5 -57.5t50.5 -37.5t65.5 -13.5q75 0 118 50.5t43 132.5z" />
    <glyph glyph-name="Dcroat" unicode="&#x110;" horiz-adv-x="724" 
d="M676 360q1 -79 -26 -146t-75.5 -115t-115.5 -74t-146 -25h-224v323h-72v74h72v323h224q78 1 145 -25.5t116 -74.5t76 -114.5t26 -145.5zM585 360q0 62 -19.5 113.5t-55.5 88t-86 57t-111 20.5h-138v-242h102v-74h-102v-243h138q61 0 111 20.5t86 57t55.5 88t19.5 114.5z
" />
    <glyph glyph-name="dcroat" unicode="&#x111;" horiz-adv-x="606" 
d="M531 568v-454q2 -85 9 -114h-82q-4 23 -5.5 43.5t-2.5 38.5q-25 -46 -72 -70t-105 -24q-53 0 -96 18t-73.5 51.5t-47 80.5t-16.5 105q0 56 16.5 103.5t47.5 81.5t74 53t96 19q57 0 103.5 -23t72.5 -68v159h-176v71h176v94h81v-94h68v-71h-68zM444 244q0 41 -11 74.5
t-32 57.5t-51 37t-67 13q-36 0 -65.5 -13t-50.5 -37t-32.5 -57.5t-11.5 -74.5q0 -82 42.5 -132t117.5 -50t118 50t43 132z" />
    <glyph glyph-name="Emacron" unicode="&#x112;" horiz-adv-x="586" 
d="M524 81v-81h-435v720h434v-82h-349v-238h316v-76h-316v-243h350zM442 844v-62h-280v62h280z" />
    <glyph glyph-name="emacron" unicode="&#x113;" horiz-adv-x="553" 
d="M513 207h-393q6 -73 49.5 -110.5t107.5 -37.5q52 0 89.5 24.5t57.5 67.5l69 -29q-29 -64 -86 -99t-132 -35q-52 0 -95.5 18t-74.5 51.5t-48 80.5t-17 104q0 56 17 103.5t48 82t75 53.5t98 19q53 0 96 -18t74 -51.5t48 -81t17 -105.5v-37zM428 268q-3 79 -43.5 120.5
t-107.5 41.5t-109 -42t-48 -120h308zM417 614v-62h-280v62h280z" />
    <glyph glyph-name="Ebreve" unicode="&#x114;" horiz-adv-x="586" 
d="M524 81v-81h-435v720h434v-82h-349v-238h316v-76h-316v-243h350zM443 908q0 -28 -11 -52.5t-30 -42.5t-44.5 -28.5t-55.5 -10.5q-29 0 -55 10.5t-45.5 28.5t-30.5 42.5t-11 52.5h71q0 -30 19.5 -47t51.5 -17q31 0 50.5 17.5t19.5 46.5h71z" />
    <glyph glyph-name="ebreve" unicode="&#x115;" horiz-adv-x="553" 
d="M513 207h-393q6 -73 49.5 -110.5t107.5 -37.5q52 0 89.5 24.5t57.5 67.5l69 -29q-29 -64 -86 -99t-132 -35q-52 0 -95.5 18t-74.5 51.5t-48 80.5t-17 104q0 56 17 103.5t48 82t75 53.5t98 19q53 0 96 -18t74 -51.5t48 -81t17 -105.5v-37zM428 268q-3 79 -43.5 120.5
t-107.5 41.5t-109 -42t-48 -120h308zM419 678q0 -28 -11 -52.5t-30 -42.5t-44.5 -28.5t-55.5 -10.5q-29 0 -55 10.5t-45.5 28.5t-30.5 42.5t-11 52.5h71q0 -30 19.5 -47t51.5 -17q31 0 50.5 17.5t19.5 46.5h71z" />
    <glyph glyph-name="Edotaccent" unicode="&#x116;" horiz-adv-x="586" 
d="M524 81v-81h-435v720h434v-82h-349v-238h316v-76h-316v-243h350zM239 839q0 26 18.5 44.5t43.5 18.5t44 -18.5t19 -44.5q0 -25 -18.5 -43.5t-44.5 -18.5t-44 18.5t-18 43.5z" />
    <glyph glyph-name="edotaccent" unicode="&#x117;" horiz-adv-x="553" 
d="M513 207h-393q6 -73 49.5 -110.5t107.5 -37.5q52 0 89.5 24.5t57.5 67.5l69 -29q-29 -64 -86 -99t-132 -35q-52 0 -95.5 18t-74.5 51.5t-48 80.5t-17 104q0 56 17 103.5t48 82t75 53.5t98 19q53 0 96 -18t74 -51.5t48 -81t17 -105.5v-37zM428 268q-3 79 -43.5 120.5
t-107.5 41.5t-109 -42t-48 -120h308zM215 609q0 26 18.5 44.5t43.5 18.5t44 -18.5t19 -44.5q0 -25 -18.5 -43.5t-44.5 -18.5t-44 18.5t-18 43.5z" />
    <glyph glyph-name="Eogonek" unicode="&#x118;" horiz-adv-x="586" 
d="M524 81v-81h-435v720h434v-82h-349v-238h316v-76h-316v-243h350zM523 0q-29 -13 -43 -30.5t-14 -33.5q0 -14 10 -23.5t26 -9.5q9 0 19 3v-63q-21 -6 -40 -6q-37 0 -58.5 22t-21.5 53q0 27 17.5 51t49.5 37h55z" />
    <glyph glyph-name="eogonek" unicode="&#x119;" horiz-adv-x="553" 
d="M513 207h-393q6 -73 49.5 -110.5t107.5 -37.5q52 0 89.5 24.5t57.5 67.5l69 -29q-25 -55 -71.5 -89t-107.5 -43q-24 -13 -36 -28.5t-12 -30.5q0 -14 10.5 -23.5t26.5 -9.5q9 0 19 3v-63q-21 -6 -40 -6q-37 0 -58 22t-21 53q0 24 13 45.5t39 35.5q-48 4 -88 23.5t-68 52.5
t-43.5 78.5t-15.5 99.5q0 56 17 103.5t48 82t75 53.5t98 19q53 0 96 -18t74 -51.5t48 -81t17 -105.5v-37zM428 268q-3 79 -43.5 120.5t-107.5 41.5t-109 -42t-48 -120h308z" />
    <glyph glyph-name="Ecaron" unicode="&#x11a;" horiz-adv-x="586" 
d="M524 81v-81h-435v720h434v-82h-349v-238h316v-76h-316v-243h350zM429 907l-80 -133h-80h-16l-80 133h76l52 -83l52 83h76z" />
    <glyph glyph-name="ecaron" unicode="&#x11b;" horiz-adv-x="553" 
d="M513 207h-393q6 -73 49.5 -110.5t107.5 -37.5q52 0 89.5 24.5t57.5 67.5l69 -29q-29 -64 -86 -99t-132 -35q-52 0 -95.5 18t-74.5 51.5t-48 80.5t-17 104q0 56 17 103.5t48 82t75 53.5t98 19q53 0 96 -18t74 -51.5t48 -81t17 -105.5v-37zM428 268q-3 79 -43.5 120.5
t-107.5 41.5t-109 -42t-48 -120h308zM405 677l-80 -133h-80h-16l-80 133h76l52 -83l52 83h76z" />
    <glyph glyph-name="Gcircumflex" unicode="&#x11c;" horiz-adv-x="761" 
d="M703 397v-398h-76l-3 100q-35 -54 -100.5 -82.5t-143.5 -28.5q-73 -1 -135 26t-106.5 76.5t-69.5 117.5t-24 149q0 82 25 151t71 119t110.5 78t142.5 28q109 0 187.5 -51.5t109.5 -139.5l-76 -33q-26 72 -84 107t-136 35q-60 0 -109 -21t-83 -60t-52.5 -93.5
t-18.5 -120.5t19 -119.5t52.5 -90.5t80 -57t101.5 -20q37 0 77 9t74 31t58 59t28 92v61h-250v76h331zM423 774l-52 83l-52 -83h-76l80 133h80h16l80 -133h-76z" />
    <glyph glyph-name="gcircumflex" unicode="&#x11d;" horiz-adv-x="535" 
d="M210 555h-76l80 125h80h17l79 -125h-75l-52 78zM516 -83q0 -80 -70 -114q-72 -35 -183 -35q-99 0 -168 29q-67 28 -67 99q0 35 18.5 63t51.5 42q-22 12 -35 32.5t-13 46.5q0 29 16 55t51 36q-61 55 -61 138q0 42 15.5 77t43 60.5t66.5 39.5t86 14q63 0 114 -27
q16 28 45 44t67 16l15 -1v-71q-3 1 -16 1q-40 0 -65 -25q49 -52 49 -128q0 -42 -15 -76.5t-42.5 -59.5t-66 -39t-85.5 -14q-49 0 -94 17q-26 0 -39.5 -11.5t-13.5 -30.5q0 -17 12.5 -29t40.5 -12h180q78 0 120.5 -37t42.5 -100zM136 308q0 -52 34.5 -86.5t94.5 -34.5
q61 0 96 34.5t35 86.5q0 54 -35 89.5t-95 35.5t-95 -35.5t-35 -89.5zM435 -84q0 34 -24.5 51.5t-67.5 17.5h-174h-8q-31 -6 -46 -25.5t-15 -44.5q0 -24 12 -39t34 -23.5t52.5 -11.5t67.5 -3q82 0 125.5 16t43.5 62z" />
    <glyph glyph-name="Gbreve" unicode="&#x11e;" horiz-adv-x="761" 
d="M703 397v-398h-76l-3 100q-35 -54 -100.5 -82.5t-143.5 -28.5q-73 -1 -135 26t-106.5 76.5t-69.5 117.5t-24 149q0 82 25 151t71 119t110.5 78t142.5 28q109 0 187.5 -51.5t109.5 -139.5l-76 -33q-26 72 -84 107t-136 35q-60 0 -109 -21t-83 -60t-52.5 -93.5
t-18.5 -120.5t19 -119.5t52.5 -90.5t80 -57t101.5 -20q37 0 77 9t74 31t58 59t28 92v61h-250v76h331zM513 908q0 -28 -11 -52.5t-30 -42.5t-44.5 -28.5t-55.5 -10.5q-29 0 -55 10.5t-45.5 28.5t-30.5 42.5t-11 52.5h71q0 -30 19.5 -47t51.5 -17q31 0 50.5 17.5t19.5 46.5h71
z" />
    <glyph glyph-name="gbreve" unicode="&#x11f;" horiz-adv-x="535" 
d="M516 -83q0 -80 -70 -114q-72 -35 -183 -35q-99 0 -168 29q-67 28 -67 99q0 35 18.5 63t51.5 42q-22 12 -35 32.5t-13 46.5q0 29 16 55t51 36q-61 55 -61 138q0 42 15.5 77t43 60.5t66.5 39.5t86 14q63 0 114 -27q16 28 45 44t67 16l15 -1v-71q-3 1 -16 1q-40 0 -65 -25
q49 -52 49 -128q0 -42 -15 -76.5t-42.5 -59.5t-66 -39t-85.5 -14q-49 0 -94 17q-26 0 -39.5 -11.5t-13.5 -30.5q0 -17 12.5 -29t40.5 -12h180q78 0 120.5 -37t42.5 -100zM136 308q0 -52 34.5 -86.5t94.5 -34.5q61 0 96 34.5t35 86.5q0 54 -35 89.5t-95 35.5t-95 -35.5
t-35 -89.5zM435 -84q0 34 -24.5 51.5t-67.5 17.5h-174h-8q-31 -6 -46 -25.5t-15 -44.5q0 -24 12 -39t34 -23.5t52.5 -11.5t67.5 -3q82 0 125.5 16t43.5 62zM420 678q0 -28 -11 -52.5t-30 -42.5t-44.5 -28.5t-55.5 -10.5q-29 0 -55 10.5t-45.5 28.5t-30.5 42.5t-11 52.5h71
q0 -30 19.5 -47t51.5 -17q31 0 50.5 17.5t19.5 46.5h71z" />
    <glyph glyph-name="Gdotaccent" unicode="&#x120;" horiz-adv-x="761" 
d="M703 397v-398h-76l-3 100q-35 -54 -100.5 -82.5t-143.5 -28.5q-73 -1 -135 26t-106.5 76.5t-69.5 117.5t-24 149q0 82 25 151t71 119t110.5 78t142.5 28q109 0 187.5 -51.5t109.5 -139.5l-76 -33q-26 72 -84 107t-136 35q-60 0 -109 -21t-83 -60t-52.5 -93.5
t-18.5 -120.5t19 -119.5t52.5 -90.5t80 -57t101.5 -20q37 0 77 9t74 31t58 59t28 92v61h-250v76h331zM308 839q0 26 18.5 44.5t43.5 18.5t44 -18.5t19 -44.5q0 -25 -18.5 -43.5t-44.5 -18.5t-44 18.5t-18 43.5z" />
    <glyph glyph-name="gdotaccent" unicode="&#x121;" horiz-adv-x="535" 
d="M516 -83q0 -80 -70 -114q-72 -35 -183 -35q-99 0 -168 29q-67 28 -67 99q0 35 18.5 63t51.5 42q-22 12 -35 32.5t-13 46.5q0 29 16 55t51 36q-61 55 -61 138q0 42 15.5 77t43 60.5t66.5 39.5t86 14q63 0 114 -27q16 28 45 44t67 16l15 -1v-71q-3 1 -16 1q-40 0 -65 -25
q49 -52 49 -128q0 -42 -15 -76.5t-42.5 -59.5t-66 -39t-85.5 -14q-49 0 -94 17q-26 0 -39.5 -11.5t-13.5 -30.5q0 -17 12.5 -29t40.5 -12h180q78 0 120.5 -37t42.5 -100zM136 308q0 -52 34.5 -86.5t94.5 -34.5q61 0 96 34.5t35 86.5q0 54 -35 89.5t-95 35.5t-95 -35.5
t-35 -89.5zM435 -84q0 34 -24.5 51.5t-67.5 17.5h-174h-8q-31 -6 -46 -25.5t-15 -44.5q0 -24 12 -39t34 -23.5t52.5 -11.5t67.5 -3q82 0 125.5 16t43.5 62zM215 609q0 26 18.5 44.5t43.5 18.5t44 -18.5t19 -44.5q0 -25 -18.5 -43.5t-44.5 -18.5t-44 18.5t-18 43.5z" />
    <glyph glyph-name="Gcommaaccent" unicode="&#x122;" horiz-adv-x="761" 
d="M703 397v-398h-76l-3 100q-35 -54 -100.5 -82.5t-143.5 -28.5q-73 -1 -135 26t-106.5 76.5t-69.5 117.5t-24 149q0 82 25 151t71 119t110.5 78t142.5 28q109 0 187.5 -51.5t109.5 -139.5l-76 -33q-26 72 -84 107t-136 35q-60 0 -109 -21t-83 -60t-52.5 -93.5
t-18.5 -120.5t19 -119.5t52.5 -90.5t80 -57t101.5 -20q37 0 77 9t74 31t58 59t28 92v61h-250v76h331zM467 -112q0 -22 -8 -41t-21 -32.5t-29.5 -21t-33.5 -6.5v27q18 1 32 15t14 32q-9 -4 -17 -4q-19 0 -32 12.5t-13 34.5q0 23 14 37.5t37 14.5q24 0 40.5 -17.5t16.5 -50.5z
" />
    <glyph glyph-name="gcommaaccent" unicode="&#x123;" horiz-adv-x="535" 
d="M516 -83q0 -80 -70 -114q-72 -35 -183 -35q-99 0 -168 29q-67 28 -67 99q0 35 18.5 63t51.5 42q-22 12 -35 32.5t-13 46.5q0 29 16 55t51 36q-61 55 -61 138q0 42 15.5 77t43 60.5t66.5 39.5t86 14q63 0 114 -27q16 28 45 44t67 16l15 -1v-71q-3 1 -16 1q-40 0 -65 -25
q49 -52 49 -128q0 -42 -15 -76.5t-42.5 -59.5t-66 -39t-85.5 -14q-49 0 -94 17q-26 0 -39.5 -11.5t-13.5 -30.5q0 -17 12.5 -29t40.5 -12h180q78 0 120.5 -37t42.5 -100zM136 308q0 -52 34.5 -86.5t94.5 -34.5q61 0 96 34.5t35 86.5q0 54 -35 89.5t-95 35.5t-95 -35.5
t-35 -89.5zM435 -84q0 34 -24.5 51.5t-67.5 17.5h-174h-8q-31 -6 -46 -25.5t-15 -44.5q0 -24 12 -39t34 -23.5t52.5 -11.5t67.5 -3q82 0 125.5 16t43.5 62zM243 544l66 133h88l-85 -133h-69z" />
    <glyph glyph-name="Hbar" unicode="&#x126;" horiz-adv-x="717" 
d="M707 555h-79v-555h-86v326l-367 1v-327h-86v555h-88v76h88v89h86v-89h367v89h86v-89h79v-76zM542 555h-367v-152l367 -1v153z" />
    <glyph glyph-name="hbar" unicode="&#x127;" horiz-adv-x="581" 
d="M515 292v-292h-82v275q0 150 -133 150q-29 0 -55 -10.5t-46 -30.5t-32 -49t-12 -66v-268h-82v579h-59v50h59v103h83v-103h161v-50h-161v-160q23 37 65 58.5t94 21.5q90 0 145 -50.5t55 -157.5z" />
    <glyph glyph-name="Itilde" unicode="&#x128;" horiz-adv-x="263" 
d="M89 0v720h86v-720h-86zM-22 815q0 45 23.5 69.5t58.5 24.5q19 0 36 -6.5t39 -18.5q20 -10 31.5 -15t24.5 -5q35 0 32 43h60q4 -54 -20 -82t-66 -28q-21 0 -40 7t-40 20q-3 2 -9 5l-13 6.5t-14 5.5t-11 1q-32 0 -31 -45h-60q-1 4 -1 18z" />
    <glyph glyph-name="itilde" unicode="&#x129;" horiz-adv-x="197" 
d="M140 487v-487h-83v487h83zM-55 585q0 45 23.5 69.5t58.5 24.5q19 0 36 -6.5t39 -18.5q20 -10 31.5 -15t24.5 -5q35 0 32 43h60q4 -54 -20 -82t-66 -28q-21 0 -40 7t-40 20q-3 2 -9 5l-13 6.5t-14 5.5t-11 1q-32 0 -31 -45h-60q-1 4 -1 18z" />
    <glyph glyph-name="Imacron" unicode="&#x12a;" horiz-adv-x="263" 
d="M89 0v720h86v-720h-86zM272 844v-62h-280v62h280z" />
    <glyph glyph-name="imacron" unicode="&#x12b;" horiz-adv-x="197" 
d="M140 487v-487h-83v487h83zM239 614v-62h-280v62h280z" />
    <glyph glyph-name="Iogonek" unicode="&#x12e;" horiz-adv-x="263" 
d="M89 0v720h86v-720h-86zM174 0q-29 -13 -43 -30.5t-14 -33.5q0 -14 10 -23.5t26 -9.5q9 0 19 3v-63q-21 -6 -40 -6q-37 0 -58.5 22t-21.5 53q0 27 17.5 51t49.5 37h55z" />
    <glyph glyph-name="iogonek" unicode="&#x12f;" horiz-adv-x="197" 
d="M140 487v-487h-83v487h83zM140 0q-29 -13 -43 -30.5t-14 -33.5q0 -14 10 -23.5t26 -9.5q9 0 19 3v-63q-21 -6 -40 -6q-37 0 -58.5 22t-21.5 53q0 27 17.5 51t49.5 37h55zM36 609q0 26 18.5 44.5t43.5 18.5t44 -18.5t19 -44.5q0 -25 -18.5 -43.5t-44.5 -18.5t-44 18.5
t-18 43.5z" />
    <glyph glyph-name="Idotaccent" unicode="&#x130;" horiz-adv-x="263" 
d="M89 0v720h86v-720h-86zM69 839q0 26 18.5 44.5t43.5 18.5t44 -18.5t19 -44.5q0 -25 -18.5 -43.5t-44.5 -18.5t-44 18.5t-18 43.5z" />
    <glyph glyph-name="dotlessi" unicode="&#x131;" horiz-adv-x="197" 
d="M140 487v-487h-83v487h83z" />
    <glyph glyph-name="Jcircumflex" unicode="&#x134;" horiz-adv-x="523" 
d="M443 720v-522q0 -47 -15.5 -86t-43.5 -66.5t-67.5 -43t-88.5 -15.5q-100 1 -152.5 58t-52.5 154v23h83v-23q0 -74 36 -103q37 -28 85 -28q55 0 92.5 31t37.5 102v519h86zM451 775l-52 83l-52 -83h-76l80 133h80h16l80 -133h-76z" />
    <glyph glyph-name="jcircumflex" unicode="&#x135;" horiz-adv-x="243" 
d="M-28 -140q29 -9 51 -9q36 0 55 22t19 62l-1 551h84v-559q0 -70 -37 -111.5t-106 -41.5q-40 0 -82 13zM190 544l-52 83l-52 -83h-76l80 133h80h16l80 -133h-76z" />
    <glyph glyph-name="Kcommaaccent" unicode="&#x136;" horiz-adv-x="639" 
d="M355 391l260 -391h-110l-204 325l-126 -155v-171h-86v721h86v-418l338 418h110zM397 -98q0 -22 -8 -41t-21 -32.5t-29.5 -21t-33.5 -6.5v27q18 1 32 15t14 32q-9 -4 -17 -4q-19 0 -32 12.5t-13 34.5q0 23 14 37.5t37 14.5q24 0 40.5 -17.5t16.5 -50.5z" />
    <glyph glyph-name="kcommaaccent" unicode="&#x137;" horiz-adv-x="500" 
d="M73 0v733h83v-483l227 237h104l-205 -215l201 -272h-99l-157 216l-71 -74v-142h-83zM313 -98q0 -22 -8 -41t-21 -32.5t-29.5 -21t-33.5 -6.5v27q18 1 32 15t14 32q-9 -4 -17 -4q-19 0 -32 12.5t-13 34.5q0 23 14 37.5t37 14.5q24 0 40.5 -17.5t16.5 -50.5z" />
    <glyph glyph-name="Lacute" unicode="&#x139;" horiz-adv-x="499" 
d="M471 78v-78h-369h-13v720h86v-642h296zM98 767l66 133h88l-85 -133h-69z" />
    <glyph glyph-name="lacute" unicode="&#x13a;" horiz-adv-x="227" 
d="M73 733h83v-733h-83v733zM80 773l66 133h88l-85 -133h-69z" />
    <glyph glyph-name="Lcommaaccent" unicode="&#x13b;" horiz-adv-x="499" 
d="M471 78v-78h-369h-13v720h86v-642h296zM343 -98q0 -22 -8 -41t-21 -32.5t-29.5 -21t-33.5 -6.5v27q18 1 32 15t14 32q-9 -4 -17 -4q-19 0 -32 12.5t-13 34.5q0 23 14 37.5t37 14.5q24 0 40.5 -17.5t16.5 -50.5z" />
    <glyph glyph-name="lcommaaccent" unicode="&#x13c;" horiz-adv-x="227" 
d="M73 733h83v-733h-83v733zM170 -103q0 -22 -8 -41t-21 -32.5t-29.5 -21t-33.5 -6.5v27q18 1 32 15t14 32q-9 -4 -17 -4q-19 0 -32 12.5t-13 34.5q0 23 14 37.5t37 14.5q24 0 40.5 -17.5t16.5 -50.5z" />
    <glyph glyph-name="Lcaron" unicode="&#x13d;" horiz-adv-x="499" 
d="M471 78v-78h-369h-13v720h86v-642h296zM385 661q0 -22 -8 -41t-21 -32.5t-29.5 -21t-33.5 -6.5v27q18 1 32 15t14 32q-9 -4 -17 -4q-19 0 -32 12.5t-13 34.5q0 23 14 37.5t37 14.5q24 0 40.5 -17.5t16.5 -50.5z" />
    <glyph glyph-name="lcaron" unicode="&#x13e;" horiz-adv-x="227" 
d="M73 733h83v-733h-83v733z" />
    <glyph glyph-name="Ldot" unicode="&#x13f;" horiz-adv-x="499" 
d="M471 78v-78h-369h-13v720h86v-642h296zM260 370q0 28 20 48t48 20t48 -20t20 -48t-20 -47.5t-48 -19.5t-48 19.5t-20 47.5z" />
    <glyph glyph-name="ldot" unicode="&#x140;" horiz-adv-x="386" 
d="M73 733h83v-733h-83v733zM209 369q0 29 21 49.5t50 20.5t49.5 -20.5t20.5 -49.5q0 -28 -20.5 -48.5t-49.5 -20.5t-50 20.5t-21 48.5z" />
    <glyph glyph-name="Lslash" unicode="&#x141;" horiz-adv-x="495" 
d="M471 78v-78h-369h-13v333l-73 -34v78l73 34v309h86v-267l178 85v-78l-178 -85v-297h296z" />
    <glyph glyph-name="lslash" unicode="&#x142;" horiz-adv-x="243" 
d="M223 410l-57 -27v-383h-82v344l-64 -31v64l64 30v326h82v-286l57 27v-64z" />
    <glyph glyph-name="Nacute" unicode="&#x143;" horiz-adv-x="730" 
d="M641 720v-720h-85l-381 580v-580h-86v720h86l381 -580v580h85zM333 774l66 133h88l-85 -133h-69z" />
    <glyph glyph-name="nacute" unicode="&#x144;" horiz-adv-x="571" 
d="M505 0h-82v286q0 76 -37 107q-38 32 -89 32q-63 0 -102.5 -40t-39.5 -110v-274h-82v486h77l3 -65q22 36 64 57t96 21q86 0 139 -50.5t53 -151.5v-298zM257 544l66 133h88l-85 -133h-69z" />
    <glyph glyph-name="Ncommaaccent" unicode="&#x145;" horiz-adv-x="730" 
d="M641 720v-720h-85l-381 580v-580h-86v720h86l381 -580v580h85zM426 -98q0 -22 -8 -41t-21 -32.5t-29.5 -21t-33.5 -6.5v27q18 1 32 15t14 32q-9 -4 -17 -4q-19 0 -32 12.5t-13 34.5q0 23 14 37.5t37 14.5q24 0 40.5 -17.5t16.5 -50.5z" />
    <glyph glyph-name="ncommaaccent" unicode="&#x146;" horiz-adv-x="571" 
d="M505 0h-82v286q0 76 -37 107q-38 32 -89 32q-63 0 -102.5 -40t-39.5 -110v-274h-82v486h77l3 -65q22 36 64 57t96 21q86 0 139 -50.5t53 -151.5v-298zM344 -98q0 -22 -8 -41t-21 -32.5t-29.5 -21t-33.5 -6.5v27q18 1 32 15t14 32q-9 -4 -17 -4q-19 0 -32 12.5t-13 34.5
q0 23 14 37.5t37 14.5q24 0 40.5 -17.5t16.5 -50.5z" />
    <glyph glyph-name="Ncaron" unicode="&#x147;" horiz-adv-x="730" 
d="M641 720v-720h-85l-381 580v-580h-86v720h86l381 -580v580h85zM495 907l-80 -133h-80h-16l-80 133h76l52 -83l52 83h76z" />
    <glyph glyph-name="ncaron" unicode="&#x148;" horiz-adv-x="571" 
d="M505 0h-82v286q0 76 -37 107q-38 32 -89 32q-63 0 -102.5 -40t-39.5 -110v-274h-82v486h77l3 -65q22 36 64 57t96 21q86 0 139 -50.5t53 -151.5v-298zM419 677l-80 -133h-80h-16l-80 133h76l52 -83l52 83h76z" />
    <glyph glyph-name="Eng" unicode="&#x14a;" horiz-adv-x="714" 
d="M84 720h86l374 -575v575h86v-773q0 -32 -10.5 -57t-29 -42.5t-43 -26.5t-52.5 -9q-17 0 -42 5l3 69q14 -3 26 -3q31 0 50.5 18t19.5 60v39h-8l-374 574v-574h-86v720z" />
    <glyph glyph-name="eng" unicode="&#x14b;" horiz-adv-x="574" 
d="M507 297v-339q0 -63 -34.5 -95.5t-85.5 -32.5q-21 0 -48 8v60q12 -3 25 -3q27 0 44.5 16.5t17.5 49.5v325q0 38 -10 64.5t-27.5 43t-40.5 24t-50 7.5q-63 0 -102.5 -40t-39.5 -110v-274h-80v486h75l3 -66q22 37 64 57.5t96 20.5q80 0 136 -47q57 -46 57 -155z" />
    <glyph glyph-name="Omacron" unicode="&#x14c;" horiz-adv-x="776" 
d="M388 732q75 1 139 -27t110 -78.5t71.5 -118.5t24.5 -148q1 -80 -25 -148.5t-72 -118.5t-110 -78t-139 -27q-76 0 -139 27.5t-108.5 77t-70.5 118t-25 149.5q-1 80 24.5 148t71.5 118.5t109.5 78.5t138.5 27zM388 72q57 0 103.5 21t80.5 59t52.5 91t18.5 117
q0 65 -18.5 118t-52.5 91t-80.5 59t-103.5 21t-104 -21t-80.5 -59t-52 -91t-18.5 -118q0 -64 18.5 -117t52 -91t80.5 -59t104 -21zM528 844v-62h-280v62h280z" />
    <glyph glyph-name="omacron" unicode="&#x14d;" horiz-adv-x="574" 
d="M287 500q55 0 100.5 -19.5t78 -54t50.5 -81.5t18 -101t-18 -101t-50.5 -81.5t-78 -54t-100.5 -19.5t-100.5 19.5t-78 54t-50.5 81.5t-18 101t18 101t50.5 81.5t78 54t100.5 19.5zM287 62q74 0 119 51t45 131q0 79 -45 130q-45 52 -119 52q-73 0 -118 -52
q-45 -51 -45 -130q0 -80 45 -131t118 -51zM427 614v-62h-280v62h280z" />
    <glyph glyph-name="Ohungarumlaut" unicode="&#x150;" horiz-adv-x="776" 
d="M388 732q75 1 139 -27t110 -78.5t71.5 -118.5t24.5 -148q1 -80 -25 -148.5t-72 -118.5t-110 -78t-139 -27q-76 0 -139 27.5t-108.5 77t-70.5 118t-25 149.5q-1 80 24.5 148t71.5 118.5t109.5 78.5t138.5 27zM388 72q57 0 103.5 21t80.5 59t52.5 91t18.5 117
q0 65 -18.5 118t-52.5 91t-80.5 59t-103.5 21t-104 -21t-80.5 -59t-52 -91t-18.5 -118q0 -64 18.5 -117t52 -91t80.5 -59t104 -21zM294 782l66 133h88l-85 -133h-69zM417 782l79 133h88l-98 -133h-69z" />
    <glyph glyph-name="ohungarumlaut" unicode="&#x151;" horiz-adv-x="574" 
d="M287 500q55 0 100.5 -19.5t78 -54t50.5 -81.5t18 -101t-18 -101t-50.5 -81.5t-78 -54t-100.5 -19.5t-100.5 19.5t-78 54t-50.5 81.5t-18 101t18 101t50.5 81.5t78 54t100.5 19.5zM287 62q74 0 119 51t45 131q0 79 -45 130q-45 52 -119 52q-73 0 -118 -52
q-45 -51 -45 -130q0 -80 45 -131t118 -51zM191 552l66 133h88l-85 -133h-69zM314 552l79 133h88l-98 -133h-69z" />
    <glyph glyph-name="OE" unicode="&#x152;" horiz-adv-x="1147" 
d="M739 638v-237h316v-78h-316v-242h349v-81h-434v127q-35 -65 -106 -102q-73 -38 -159 -38q-76 -1 -140 27.5t-110.5 79t-72.5 119.5t-25 148q-1 80 25 148.5t72.5 119t111 78.5t139.5 27q85 0 156 -37q71 -36 109 -96v119l434 -1v-81h-349zM653 361q0 65 -19.5 118.5
t-54.5 91.5t-82.5 59t-104.5 21t-105 -21t-83 -59.5t-55 -91.5t-20 -117t20 -118t55 -92t83.5 -59.5t105.5 -21.5q56 0 104 21t82.5 59t54 91.5t19.5 118.5z" />
    <glyph glyph-name="oe" unicode="&#x153;" horiz-adv-x="961" 
d="M921 205h-387q8 -72 50 -108.5t105 -36.5q52 0 90 24t58 66l65 -33q-29 -61 -86 -95t-130 -34q-69 0 -121.5 31t-78.5 85q-27 -54 -80 -85t-122 -31q-54 0 -98.5 19.5t-77 54t-50.5 81.5t-18 101t18 101t50.5 81.5t77 54t98.5 19.5q69 0 122 -31t82 -85q27 55 79 85.5
t121 30.5q52 0 95 -18t73.5 -51t47.5 -80.5t17 -106.5v-39zM838 268q-1 75 -43.5 118.5t-108.5 43.5t-108 -44.5t-44 -117.5h304zM451 244q0 79 -45 130q-45 52 -118 52q-74 0 -119 -52q-45 -51 -45 -130q0 -80 45 -131t119 -51q73 0 118 51t45 131z" />
    <glyph glyph-name="Racute" unicode="&#x154;" horiz-adv-x="653" 
d="M606 0h-97l-134 292h-200v-292h-86v720h275q115 0 178.5 -56.5t63.5 -156.5q0 -78 -37.5 -130.5t-106.5 -71.5zM515 506q0 64 -39.5 100t-111.5 36h-189v-272h190q73 0 111.5 36t38.5 100zM256 774l66 133h88l-85 -133h-69z" />
    <glyph glyph-name="racute" unicode="&#x155;" horiz-adv-x="362" 
d="M286 493q27 0 52 -6v-76q-27 6 -52 6q-63 0 -98 -39t-35 -108v-270h-83v486h77l4 -61q16 33 52.5 50.5t82.5 17.5zM75 548l66 133h88l-85 -133h-69z" />
    <glyph glyph-name="Rcommaaccent" unicode="&#x156;" horiz-adv-x="653" 
d="M606 0h-97l-134 292h-200v-292h-86v720h275q115 0 178.5 -56.5t63.5 -156.5q0 -78 -37.5 -130.5t-106.5 -71.5zM515 506q0 64 -39.5 100t-111.5 36h-189v-272h190q73 0 111.5 36t38.5 100zM399 -98q0 -22 -8 -41t-21 -32.5t-29.5 -21t-33.5 -6.5v27q18 1 32 15t14 32
q-9 -4 -17 -4q-19 0 -32 12.5t-13 34.5q0 23 14 37.5t37 14.5q24 0 40.5 -17.5t16.5 -50.5z" />
    <glyph glyph-name="rcommaaccent" unicode="&#x157;" horiz-adv-x="362" 
d="M286 493q27 0 52 -6v-76q-27 6 -52 6q-63 0 -98 -39t-35 -108v-270h-83v486h77l4 -61q16 33 52.5 50.5t82.5 17.5zM168 -98q0 -22 -8 -41t-21 -32.5t-29.5 -21t-33.5 -6.5v27q18 1 32 15t14 32q-9 -4 -17 -4q-19 0 -32 12.5t-13 34.5q0 23 14 37.5t37 14.5
q24 0 40.5 -17.5t16.5 -50.5z" />
    <glyph glyph-name="Rcaron" unicode="&#x158;" horiz-adv-x="653" 
d="M606 0h-97l-134 292h-200v-292h-86v720h275q115 0 178.5 -56.5t63.5 -156.5q0 -78 -37.5 -130.5t-106.5 -71.5zM515 506q0 64 -39.5 100t-111.5 36h-189v-272h190q73 0 111.5 36t38.5 100zM418 907l-80 -133h-80h-16l-80 133h76l52 -83l52 83h76z" />
    <glyph glyph-name="rcaron" unicode="&#x159;" horiz-adv-x="362" 
d="M286 493q27 0 52 -6v-76q-27 6 -52 6q-63 0 -98 -39t-35 -108v-270h-83v486h77l4 -61q16 33 52.5 50.5t82.5 17.5zM237 681l-80 -133h-80h-16l-80 133h76l52 -83l52 83h76z" />
    <glyph glyph-name="Sacute" unicode="&#x15a;" 
d="M289 733q97 0 160 -48q63 -47 77 -124l-82 -22q-10 55 -52 85t-105 30q-69 0 -109.5 -33t-40.5 -90q0 -86 106 -114l122 -31q88 -22 131.5 -71t43.5 -121q0 -45 -17 -83t-49.5 -65.5t-78 -42.5t-102.5 -15q-102 0 -169.5 46.5t-81.5 128.5l83 23q8 -55 52.5 -86.5
t116.5 -31.5q75 0 117.5 32t42.5 90q0 91 -106 116l-121 30q-88 22 -131.5 71.5t-43.5 121.5q0 45 17 82.5t48 64.5t75 42t97 15zM257 774l66 133h88l-85 -133h-69z" />
    <glyph glyph-name="sacute" unicode="&#x15b;" horiz-adv-x="446" 
d="M222 56q43 0 72.5 18t29.5 58q0 52 -68 70l-74 20q-130 34 -130 136q0 30 12 56t34 45t53.5 30t70.5 11q69 0 117.5 -32t56.5 -89l-73 -17q-4 32 -31.5 50.5t-67.5 18.5q-42 0 -67 -20t-25 -53q0 -28 18.5 -44.5t54.5 -26.5l73 -20q63 -16 95.5 -50t32.5 -85
q0 -66 -49 -105t-134 -39q-78 0 -126.5 35t-56.5 92l74 14q5 -33 33.5 -53t74.5 -20zM190 564l66 133h88l-85 -133h-69z" />
    <glyph glyph-name="Scircumflex" unicode="&#x15c;" 
d="M289 733q97 0 160 -48q63 -47 77 -124l-82 -22q-10 55 -52 85t-105 30q-69 0 -109.5 -33t-40.5 -90q0 -86 106 -114l122 -31q88 -22 131.5 -71t43.5 -121q0 -45 -17 -83t-49.5 -65.5t-78 -42.5t-102.5 -15q-102 0 -169.5 46.5t-81.5 128.5l83 23q8 -55 52.5 -86.5
t116.5 -31.5q75 0 117.5 32t42.5 90q0 91 -106 116l-121 30q-88 22 -131.5 71.5t-43.5 121.5q0 45 17 82.5t48 64.5t75 42t97 15zM343 774l-52 83l-52 -83h-76l80 133h80h16l80 -133h-76z" />
    <glyph glyph-name="scircumflex" unicode="&#x15d;" horiz-adv-x="446" 
d="M222 56q43 0 72.5 18t29.5 58q0 52 -68 70l-74 20q-130 34 -130 136q0 30 12 56t34 45t53.5 30t70.5 11q69 0 117.5 -32t56.5 -89l-73 -17q-4 32 -31.5 50.5t-67.5 18.5q-42 0 -67 -20t-25 -53q0 -28 18.5 -44.5t54.5 -26.5l73 -20q63 -16 95.5 -50t32.5 -85
q0 -66 -49 -105t-134 -39q-78 0 -126.5 35t-56.5 92l74 14q5 -33 33.5 -53t74.5 -20zM276 564l-52 83l-52 -83h-76l80 133h80h16l80 -133h-76z" />
    <glyph glyph-name="Scedilla" unicode="&#x15e;" 
d="M317 -12l-20 -21h37q32 0 49.5 -21t17.5 -50t-18.5 -49t-47.5 -20h-98v48h83q11 0 18.5 7t7.5 18q-2 22 -26 22h-83v45l20 22q-88 8 -145 53.5t-70 120.5l83 23q8 -55 52.5 -86.5t116.5 -31.5q75 0 117.5 32t42.5 90q0 91 -106 116l-121 30q-88 22 -131.5 71.5
t-43.5 121.5q0 45 17 82.5t48 64.5t75 42t97 15q97 0 160 -48q63 -47 77 -124l-82 -22q-10 55 -52 85t-105 30q-69 0 -109.5 -33t-40.5 -90q0 -86 106 -114l122 -31q88 -22 131.5 -71t43.5 -121q0 -88 -59 -143.5t-164 -62.5z" />
    <glyph glyph-name="scedilla" unicode="&#x15f;" horiz-adv-x="446" 
d="M246 -12l-22 -23h37q32 0 49.5 -21t17.5 -50t-18.5 -49t-47.5 -20h-98v48h83q11 0 18.5 7t7.5 18q-2 22 -26 22h-83v45l23 25q-63 7 -101.5 40.5t-45.5 84.5l74 14q5 -33 33.5 -53t74.5 -20q43 0 72.5 18t29.5 58q0 52 -68 70l-74 20q-130 34 -130 136q0 30 12 56t34 45
t53.5 30t70.5 11q69 0 117.5 -32t56.5 -89l-73 -17q-4 32 -31.5 50.5t-67.5 18.5q-42 0 -67 -20t-25 -53q0 -28 18.5 -44.5t54.5 -26.5l73 -20q63 -16 95.5 -50t32.5 -85q0 -61 -42.5 -99.5t-117.5 -44.5z" />
    <glyph glyph-name="Scaron" unicode="&#x160;" 
d="M289 733q97 0 160 -48q63 -47 77 -124l-82 -22q-10 55 -52 85t-105 30q-69 0 -109.5 -33t-40.5 -90q0 -86 106 -114l122 -31q88 -22 131.5 -71t43.5 -121q0 -45 -17 -83t-49.5 -65.5t-78 -42.5t-102.5 -15q-102 0 -169.5 46.5t-81.5 128.5l83 23q8 -55 52.5 -86.5
t116.5 -31.5q75 0 117.5 32t42.5 90q0 91 -106 116l-121 30q-88 22 -131.5 71.5t-43.5 121.5q0 45 17 82.5t48 64.5t75 42t97 15zM419 907l-80 -133h-80h-16l-80 133h76l52 -83l52 83h76z" />
    <glyph glyph-name="scaron" unicode="&#x161;" horiz-adv-x="446" 
d="M222 56q43 0 72.5 18t29.5 58q0 52 -68 70l-74 20q-130 34 -130 136q0 30 12 56t34 45t53.5 30t70.5 11q69 0 117.5 -32t56.5 -89l-73 -17q-4 32 -31.5 50.5t-67.5 18.5q-42 0 -67 -20t-25 -53q0 -28 18.5 -44.5t54.5 -26.5l73 -20q63 -16 95.5 -50t32.5 -85
q0 -66 -49 -105t-134 -39q-78 0 -126.5 35t-56.5 92l74 14q5 -33 33.5 -53t74.5 -20zM352 697l-80 -133h-80h-16l-80 133h76l52 -83l52 83h76z" />
    <glyph glyph-name="uni0162" unicode="&#x162;" horiz-adv-x="550" 
d="M534 639h-215v-639h-86v639h-217v81h518v-81zM220 -120h83q11 0 18.5 7t7.5 18q-2 22 -26 22h-83v45l48 53h35v-28l-23 -25h37q32 0 49.5 -21t17.5 -50t-18.5 -49t-47.5 -20h-98v48z" />
    <glyph glyph-name="uni0163" unicode="&#x163;" horiz-adv-x="317" 
d="M295 419h-96v-419h-81v419h-96v68h96v153h81v-153h96v-68zM103 -120h83q11 0 18.5 7t7.5 18q-2 22 -26 22h-83v45l48 53h35v-28l-23 -25h37q32 0 49.5 -21t17.5 -50t-18.5 -49t-47.5 -20h-98v48z" />
    <glyph glyph-name="Tcaron" unicode="&#x164;" horiz-adv-x="550" 
d="M534 639h-215v-639h-86v639h-217v81h518v-81zM403 907l-80 -133h-80h-16l-80 133h76l52 -83l52 83h76z" />
    <glyph glyph-name="tcaron" unicode="&#x165;" horiz-adv-x="317" 
d="M287 541h-42l-15 157q-2 20 9.5 31t27.5 11t26.5 -11t8.5 -31zM195 487h96v-72h-96v-415h-82v415h-96v72h96v153h82v-153z" />
    <glyph glyph-name="Tbar" unicode="&#x166;" horiz-adv-x="550" 
d="M319 639v-205h149v-75h-149v-359h-86v359h-150v75h150v205h-217v81h518v-81h-215z" />
    <glyph glyph-name="tbar" unicode="&#x167;" horiz-adv-x="317" 
d="M199 419v-99h84v-66h-84v-254h-81v254h-93v66h93v99h-96v68h96v153h81v-153h96v-68h-96z" />
    <glyph glyph-name="Utilde" unicode="&#x168;" horiz-adv-x="711" 
d="M80 720h87v-469q0 -96 55 -139t134 -43q81 0 134 46q55 46 55 136v469h86v-471q0 -65 -22.5 -114t-60 -82t-87.5 -49.5t-105 -16.5q-54 0 -104 15.5t-88 47.5t-61 81.5t-23 117.5v471zM203 815q0 45 23.5 69.5t58.5 24.5q19 0 36 -6.5t39 -18.5q20 -10 31.5 -15t24.5 -5
q35 0 32 43h60q4 -54 -20 -82t-66 -28q-21 0 -40 7t-40 20q-3 2 -9 5l-13 6.5t-14 5.5t-11 1q-32 0 -31 -45h-60q-1 4 -1 18z" />
    <glyph glyph-name="utilde" unicode="&#x169;" 
d="M430 0q-3 16 -5 33t-3 35q-21 -38 -62.5 -59t-95.5 -21q-80 0 -137 48q-57 50 -57 157v294h83v-282q0 -39 10 -66.5t27.5 -44.5t40.5 -25t49 -8q61 0 100.5 40.5t39.5 109.5v276h83v-398q0 -21 2.5 -46.5t6.5 -42.5h-82zM133 585q0 45 23.5 69.5t58.5 24.5q19 0 36 -6.5
t39 -18.5q20 -10 31.5 -15t24.5 -5q35 0 32 43h60q4 -54 -20 -82t-66 -28q-21 0 -40 7t-40 20q-3 2 -9 5l-13 6.5t-14 5.5t-11 1q-32 0 -31 -45h-60q-1 4 -1 18z" />
    <glyph glyph-name="Umacron" unicode="&#x16a;" horiz-adv-x="711" 
d="M80 720h87v-469q0 -96 55 -139t134 -43q81 0 134 46q55 46 55 136v469h86v-471q0 -65 -22.5 -114t-60 -82t-87.5 -49.5t-105 -16.5q-54 0 -104 15.5t-88 47.5t-61 81.5t-23 117.5v471zM496 844v-62h-280v62h280z" />
    <glyph glyph-name="umacron" unicode="&#x16b;" 
d="M430 0q-3 16 -5 33t-3 35q-21 -38 -62.5 -59t-95.5 -21q-80 0 -137 48q-57 50 -57 157v294h83v-282q0 -39 10 -66.5t27.5 -44.5t40.5 -25t49 -8q61 0 100.5 40.5t39.5 109.5v276h83v-398q0 -21 2.5 -46.5t6.5 -42.5h-82zM426 614v-62h-280v62h280z" />
    <glyph glyph-name="Uring" unicode="&#x16e;" horiz-adv-x="711" 
d="M80 720h87v-469q0 -96 55 -139t134 -43q81 0 134 46q55 46 55 136v469h86v-471q0 -65 -22.5 -114t-60 -82t-87.5 -49.5t-105 -16.5q-54 0 -104 15.5t-88 47.5t-61 81.5t-23 117.5v471zM244 881q0 46 33 79q33 34 78 34q46 0 79 -34q34 -33 34 -79t-34 -79
q-33 -33 -79 -33q-24 0 -44 8.5t-35 23.5t-23.5 35.5t-8.5 44.5zM412 883q0 23 -16 39.5t-40 16.5t-40 -16.5t-16 -39.5q0 -25 16 -41.5t40 -16.5t40 16.5t16 41.5z" />
    <glyph glyph-name="uring" unicode="&#x16f;" 
d="M430 0q-3 16 -5 33t-3 35q-21 -38 -62.5 -59t-95.5 -21q-80 0 -137 48q-57 50 -57 157v294h83v-282q0 -39 10 -66.5t27.5 -44.5t40.5 -25t49 -8q61 0 100.5 40.5t39.5 109.5v276h83v-398q0 -21 2.5 -46.5t6.5 -42.5h-82zM175 651q0 46 33 79q33 34 78 34q46 0 79 -34
q34 -33 34 -79t-34 -79q-33 -33 -79 -33q-24 0 -44 8.5t-35 23.5t-23.5 35.5t-8.5 44.5zM343 653q0 23 -16 39.5t-40 16.5t-40 -16.5t-16 -39.5q0 -25 16 -41.5t40 -16.5t40 16.5t16 41.5z" />
    <glyph glyph-name="Uhungarumlaut" unicode="&#x170;" horiz-adv-x="711" 
d="M80 720h87v-469q0 -96 55 -139t134 -43q81 0 134 46q55 46 55 136v469h86v-471q0 -65 -22.5 -114t-60 -82t-87.5 -49.5t-105 -16.5q-54 0 -104 15.5t-88 47.5t-61 81.5t-23 117.5v471zM260 774l66 133h88l-85 -133h-69zM383 774l79 133h88l-98 -133h-69z" />
    <glyph glyph-name="uhungarumlaut" unicode="&#x171;" 
d="M430 0q-3 16 -5 33t-3 35q-21 -38 -62.5 -59t-95.5 -21q-80 0 -137 48q-57 50 -57 157v294h83v-282q0 -39 10 -66.5t27.5 -44.5t40.5 -25t49 -8q61 0 100.5 40.5t39.5 109.5v276h83v-398q0 -21 2.5 -46.5t6.5 -42.5h-82zM190 544l66 133h88l-85 -133h-69zM313 544l79 133
h88l-98 -133h-69z" />
    <glyph glyph-name="Uogonek" unicode="&#x172;" horiz-adv-x="711" 
d="M631 720v-471q0 -60 -18.5 -106.5t-51 -79t-76.5 -51.5t-94 -24q-23 -12 -33.5 -27t-10.5 -30q0 -14 10 -23.5t26 -9.5q9 0 19 3v-63q-21 -6 -40 -6q-37 0 -58 22t-21 53q0 24 12.5 45t37.5 35q-51 4 -96.5 21.5t-80.5 49.5t-55.5 79.5t-20.5 111.5v471h87v-469
q0 -96 55 -139t134 -43q81 0 134 46q55 46 55 136v469h86z" />
    <glyph glyph-name="uogonek" unicode="&#x173;" 
d="M454 -64q0 -14 10 -23.5t26 -9.5q9 0 19 3v-63q-21 -6 -40 -6q-37 0 -58.5 22t-21.5 53q0 27 17.5 51t49.5 37h-26q-3 16 -5 33t-3 35q-21 -38 -62.5 -59t-95.5 -21q-80 0 -137 48q-57 50 -57 157v294h83v-282q0 -39 10 -66.5t27.5 -44.5t40.5 -25t49 -8q61 0 100.5 40.5
t39.5 109.5v276h83v-398q0 -21 2.5 -46.5t6.5 -42.5h-1q-29 -13 -43 -30.5t-14 -33.5z" />
    <glyph glyph-name="Wcircumflex" unicode="&#x174;" horiz-adv-x="996" 
d="M980 720l-217 -720h-82l-182 574l-185 -574h-83l-214 720h92l165 -579l178 579h93l176 -581l168 581h91zM552 774l-52 83l-52 -83h-76l80 133h80h16l80 -133h-76z" />
    <glyph glyph-name="wcircumflex" unicode="&#x175;" horiz-adv-x="766" 
d="M749 487l-167 -487h-79l-120 364l-122 -364h-82l-162 487h87l117 -368l120 368h84l118 -371l119 371h87zM436 543l-52 83l-52 -83h-76l80 133h80h16l80 -133h-76z" />
    <glyph glyph-name="Ycircumflex" unicode="&#x176;" horiz-adv-x="593" 
d="M107 720l191 -340l191 340h94l-242 -422v-298h-86v298l-245 422h97zM350 774l-52 83l-52 -83h-76l80 133h80h16l80 -133h-76z" />
    <glyph glyph-name="ycircumflex" unicode="&#x177;" horiz-adv-x="508" 
d="M494 487l-223 -598q-23 -61 -61 -88t-86 -27q-51 0 -97 25l23 75q34 -25 70 -25q25 0 46 15.5t34 49.5l20 56l-207 517h87l159 -411l150 411h85zM307 544l-52 83l-52 -83h-76l80 133h80h16l80 -133h-76z" />
    <glyph glyph-name="Ydieresis" unicode="&#x178;" horiz-adv-x="593" 
d="M107 720l191 -340l191 340h94l-242 -422v-298h-86v298l-245 422h97zM145 838q0 26 18.5 45t44.5 19q25 0 44 -19t19 -45q0 -25 -19 -43.5t-44 -18.5q-26 0 -44.5 18.5t-18.5 43.5zM325 838q0 26 18.5 45t44.5 19q25 0 43.5 -19t18.5 -45q0 -25 -18.5 -43.5t-43.5 -18.5
q-26 0 -44.5 18.5t-18.5 43.5z" />
    <glyph glyph-name="Zacute" unicode="&#x179;" horiz-adv-x="569" 
d="M527 638l-386 -556h381v-82h-476l-1 82l385 556l-384 -1v83h481v-82zM253 774l66 133h88l-85 -133h-69z" />
    <glyph glyph-name="zacute" unicode="&#x17a;" horiz-adv-x="450" 
d="M38 76l274 338h-274v73h373v-76l-276 -338h276v-73h-373v76zM191 544l66 133h88l-85 -133h-69z" />
    <glyph glyph-name="Zdotaccent" unicode="&#x17b;" horiz-adv-x="569" 
d="M527 638l-386 -556h381v-82h-476l-1 82l385 556l-384 -1v83h481v-82zM224 839q0 26 18.5 44.5t43.5 18.5t44 -18.5t19 -44.5q0 -25 -18.5 -43.5t-44.5 -18.5t-44 18.5t-18 43.5z" />
    <glyph glyph-name="zdotaccent" unicode="&#x17c;" horiz-adv-x="450" 
d="M38 76l274 338h-274v73h373v-76l-276 -338h276v-73h-373v76zM162 609q0 26 18.5 44.5t43.5 18.5t44 -18.5t19 -44.5q0 -25 -18.5 -43.5t-44.5 -18.5t-44 18.5t-18 43.5z" />
    <glyph glyph-name="Zcaron" unicode="&#x17d;" horiz-adv-x="569" 
d="M527 638l-386 -556h381v-82h-476l-1 82l385 556l-384 -1v83h481v-82zM415 907l-80 -133h-80h-16l-80 133h76l52 -83l52 83h76z" />
    <glyph glyph-name="zcaron" unicode="&#x17e;" horiz-adv-x="450" 
d="M38 76l274 338h-274v73h373v-76l-276 -338h276v-73h-373v76zM353 677l-80 -133h-80h-16l-80 133h76l52 -83l52 83h76z" />
    <glyph glyph-name="florin" unicode="&#x192;" horiz-adv-x="528" 
d="M327 486h137v-72h-148l-5 -40l-57 -391q-8 -58 -44.5 -90.5t-96.5 -32.5h-53v78h54q24 0 39.5 13t18.5 37l53 358h-1l10 68h-118v72h128l16 107q8 60 46 95.5t101 35.5h60v-77h-68q-49 0 -57 -54z" />
    <glyph glyph-name="Aringacute" unicode="&#x1fa;" horiz-adv-x="653" 
d="M365 914h-69l66 133h88zM484 185h-317l-67 -185h-87l251 688q-23 14 -36.5 39t-13.5 55q0 46 33 80t78 34q46 0 79 -34q34 -34 34 -80q0 -28 -14 -53t-37 -41l253 -688h-90zM270 784q0 -25 16 -41.5t40 -16.5t40.5 16.5t16.5 41.5q0 23 -16.5 39.5t-40.5 16.5t-40 -16.5
t-16 -39.5zM458 257l-130 366l-134 -366h264z" />
    <glyph glyph-name="aringacute" unicode="&#x1fb;" horiz-adv-x="525" 
d="M305 690h-68l65 126h86zM390 0q-2 8 -4 25.5t-4 45.5q-21 -37 -65 -60t-101 -23q-81 0 -129 41.5t-48 111.5t48.5 112t129.5 42h164v20q0 61 -33 88.5t-90 27.5q-101 0 -139 -80l-62 36q39 77 124 102q-23 32 -23 69q0 47 33 80q33 34 79 34t79 -34t33 -80q0 -41 -27 -73
q51 -19 78.5 -62t27.5 -112v-213q0 -28 2.5 -56.5t6.5 -41.5h-80zM214 560q0 -25 16 -41.5t40 -16.5t40.5 16.5t16.5 41.5q0 23 -16.5 39.5t-40.5 16.5t-40 -16.5t-16 -39.5zM381 233h-146q-54 0 -83.5 -24t-29.5 -67t29.5 -66t80.5 -23q69 0 109 44t40 122v14z" />
    <glyph glyph-name="AEacute" unicode="&#x1fc;" horiz-adv-x="897" 
d="M837 0h-352h-81v201h-226l-76 -201h-92l275 719h87h32h81h353l-1 -82l-352 1v-236l320 -1l-1 -79h-319v-241h354zM404 274v364h-63l-136 -364h199zM514 774l66 133h88l-85 -133h-69z" />
    <glyph glyph-name="aeacute" unicode="&#x1fd;" horiz-adv-x="897" 
d="M857 213h-393q6 -75 49.5 -114t109.5 -39q51 0 89.5 24t60.5 66l64 -33q-30 -63 -87.5 -96t-129.5 -33q-67 0 -117.5 29.5t-77.5 81.5q-22 -54 -72 -82.5t-116 -28.5q-40 0 -74.5 10t-59 29t-38.5 46.5t-14 63.5q0 64 41 102t107 38h142q20 0 28 9.5t8 27.5
q0 58 -33.5 87t-84.5 29q-46 0 -82 -22t-58 -60l-61 35q29 54 82.5 85.5t116.5 31.5q60 0 106 -26.5t66 -74.5q29 48 78.5 74.5t113.5 26.5q53 0 96.5 -17.5t74.5 -50t48 -77.5t17 -100v-42zM773 275q0 35 -12 63.5t-32 49t-48.5 31.5t-61.5 11q-66 0 -107.5 -41t-47.5 -114
h309zM380 214h-163q-38 0 -60 -21t-22 -56q0 -42 31.5 -62t77.5 -20q69 0 101.5 39.5t34.5 100.5v19zM409 544l66 133h88l-85 -133h-69z" />
    <glyph glyph-name="Oslashacute" unicode="&#x1fe;" horiz-adv-x="769" 
d="M721 361q0 -81 -25.5 -149.5t-71 -118t-109 -77.5t-139.5 -28q-85 0 -154 34l-18 -30h-87l43 70q-61 51 -94.5 127.5t-33.5 170.5q-1 80 24.5 148.5t71.5 119t109.5 78.5t138.5 27q93 0 173 -44l24 39h84l-50 -81q55 -51 84.5 -124.5t29.5 -161.5zM504 617
q-56 32 -127 32q-57 0 -104 -21t-80.5 -59t-52 -91t-18.5 -117q0 -72 21.5 -129t63.5 -95zM632 361q0 130 -72 210l-293 -476q52 -23 110 -23q57 0 103.5 21t80.5 59t52.5 91t18.5 118zM345 769l66 133h88l-85 -133h-69z" />
    <glyph glyph-name="oslashacute" unicode="&#x1ff;" horiz-adv-x="574" 
d="M534 244q0 -54 -18 -101t-50.5 -81.5t-78 -54t-100.5 -19.5q-58 0 -105 21l-36 -59h-76l58 93q-42 35 -65 86.5t-23 114.5q0 54 18 101t50.5 81.5t78 54t100.5 19.5q59 0 110 -24l32 52h73l-53 -86q42 -35 63.5 -86t21.5 -112zM356 411q-30 15 -69 15q-73 0 -118 -52
q-45 -51 -45 -130q0 -83 46 -133zM451 244q0 79 -44 129l-184 -299q29 -12 64 -12q74 0 119 51t45 131zM253 544l66 133h88l-85 -133h-69z" />
    <glyph glyph-name="Scommaaccent" unicode="&#x218;" 
d="M289 733q97 0 160 -48q63 -47 77 -124l-82 -22q-10 55 -52 85t-105 30q-69 0 -109.5 -33t-40.5 -90q0 -86 106 -114l122 -31q88 -22 131.5 -71t43.5 -121q0 -45 -17 -83t-49.5 -65.5t-78 -42.5t-102.5 -15q-102 0 -169.5 46.5t-81.5 128.5l83 23q8 -55 52.5 -86.5
t116.5 -31.5q75 0 117.5 32t42.5 90q0 91 -106 116l-121 30q-88 22 -131.5 71.5t-43.5 121.5q0 45 17 82.5t48 64.5t75 42t97 15zM347 -103q0 -22 -8 -41t-21 -32.5t-29.5 -21t-33.5 -6.5v27q18 1 32 15t14 32q-9 -4 -17 -4q-19 0 -32 12.5t-13 34.5q0 23 14 37.5t37 14.5
q24 0 40.5 -17.5t16.5 -50.5z" />
    <glyph glyph-name="scommaaccent" unicode="&#x219;" horiz-adv-x="446" 
d="M222 56q43 0 72.5 18t29.5 58q0 52 -68 70l-74 20q-130 34 -130 136q0 30 12 56t34 45t53.5 30t70.5 11q69 0 117.5 -32t56.5 -89l-73 -17q-4 32 -31.5 50.5t-67.5 18.5q-42 0 -67 -20t-25 -53q0 -28 18.5 -44.5t54.5 -26.5l73 -20q63 -16 95.5 -50t32.5 -85
q0 -66 -49 -105t-134 -39q-78 0 -126.5 35t-56.5 92l74 14q5 -33 33.5 -53t74.5 -20zM274 -104q0 -22 -8 -41t-21 -32.5t-29.5 -21t-33.5 -6.5v27q18 1 32 15t14 32q-9 -4 -17 -4q-19 0 -32 12.5t-13 34.5q0 23 14 37.5t37 14.5q24 0 40.5 -17.5t16.5 -50.5z" />
    <glyph glyph-name="uni021A" unicode="&#x21a;" horiz-adv-x="550" 
d="M534 639h-215v-639h-86v639h-217v81h518v-81zM330 -98q0 -22 -8 -41t-21 -32.5t-29.5 -21t-33.5 -6.5v27q18 1 32 15t14 32q-9 -4 -17 -4q-19 0 -32 12.5t-13 34.5q0 23 14 37.5t37 14.5q24 0 40.5 -17.5t16.5 -50.5z" />
    <glyph glyph-name="uni021B" unicode="&#x21b;" horiz-adv-x="317" 
d="M295 419h-96v-419h-81v419h-96v68h96v153h81v-153h96v-68zM213 -98q0 -22 -8 -41t-21 -32.5t-29.5 -21t-33.5 -6.5v27q18 1 32 15t14 32q-9 -4 -17 -4q-19 0 -32 12.5t-13 34.5q0 23 14 37.5t37 14.5q24 0 40.5 -17.5t16.5 -50.5z" />
    <glyph glyph-name="uni0237" unicode="&#x237;" horiz-adv-x="243" 
d="M-28 -140q29 -9 51 -9q36 0 55 22t19 62l-1 551h84v-559q0 -70 -37 -111.5t-106 -41.5q-40 0 -82 13z" />
    <glyph glyph-name="circumflex" unicode="&#x2c6;" horiz-adv-x="323" 
d="M220 767l-52 83l-52 -83h-76l80 133h80h16l80 -133h-76z" />
    <glyph glyph-name="caron" unicode="&#x2c7;" horiz-adv-x="321" 
d="M277 900l-80 -133h-80h-16l-80 133h76l52 -83l52 83h76z" />
    <glyph glyph-name="breve" unicode="&#x2d8;" horiz-adv-x="338" 
d="M170 767q-29 0 -55 10t-45.5 28t-30.5 42t-11 52h71q1 -28 20.5 -45t50.5 -17q30 0 49.5 17t20.5 45h71q0 -27 -11 -51t-30.5 -42t-45 -28.5t-54.5 -10.5z" />
    <glyph glyph-name="dotaccent" unicode="&#x2d9;" horiz-adv-x="166" 
d="M20 831q0 26 18.5 45t44.5 19q25 0 44 -19t19 -45q0 -25 -19 -43.5t-44 -18.5q-26 0 -44.5 18.5t-18.5 43.5z" />
    <glyph glyph-name="ring" unicode="&#x2da;" horiz-adv-x="261" 
d="M17 874q0 46 33 79q33 34 78 34q46 0 79 -34q34 -33 34 -79t-34 -79q-33 -33 -79 -33q-24 0 -44 8.5t-35 23.5t-23.5 35.5t-8.5 44.5zM185 876q0 23 -16 39.5t-40 16.5t-40 -16.5t-16 -39.5q0 -25 16 -41.5t40 -16.5t40 16.5t16 41.5z" />
    <glyph glyph-name="ogonek" unicode="&#x2db;" horiz-adv-x="315" 
d="M213 0q-29 -13 -43 -30.5t-14 -33.5q0 -14 10 -23.5t26 -9.5q9 0 19 3v-63q-21 -6 -40 -6q-37 0 -58.5 22t-21.5 53q0 27 17.5 51t49.5 37h55z" />
    <glyph glyph-name="tilde" unicode="&#x2dc;" horiz-adv-x="348" 
d="M20 808q0 45 23.5 69.5t58.5 24.5q19 0 36 -6.5t39 -18.5q20 -10 31.5 -15t24.5 -5q35 0 32 43h60q4 -54 -20 -82t-66 -28q-21 0 -40 7t-40 20q-3 2 -9 5l-13 6.5t-14 5.5t-11 1q-32 0 -31 -45h-60q-1 4 -1 18z" />
    <glyph glyph-name="hungarumlaut" unicode="&#x2dd;" horiz-adv-x="358" 
d="M27 767l66 133h88l-85 -133h-69zM150 767l79 133h88l-98 -133h-69z" />
    <glyph glyph-name="gravecomb" unicode="&#x300;" horiz-adv-x="0" 
d="M-214 900h87l66 -133h-69z" />
    <glyph glyph-name="acutecomb" unicode="&#x301;" horiz-adv-x="0" 
d="M-179 767l66 133h88l-85 -133h-69z" />
    <glyph glyph-name="uni0302" unicode="&#x302;" horiz-adv-x="0" 
d="M-116 767l-52 83l-52 -83h-76l80 133h80h16l80 -133h-76z" />
    <glyph glyph-name="tildecomb" unicode="&#x303;" horiz-adv-x="0" 
d="M-326 808q0 45 23.5 69.5t58.5 24.5q19 0 36 -6.5t39 -18.5q20 -10 31.5 -15t24.5 -5q35 0 32 43h60q4 -54 -20 -82t-66 -28q-21 0 -40 7t-40 20q-3 2 -9 5l-13 6.5t-14 5.5t-11 1q-33 0 -31 -45h-60q-1 4 -1 18z" />
    <glyph glyph-name="uni0304" unicode="&#x304;" horiz-adv-x="0" 
d="M-27 886v-62h-280v62h280z" />
    <glyph glyph-name="uni0306" unicode="&#x306;" horiz-adv-x="0" 
d="M-26 901q0 -28 -11 -52.5t-30 -42.5t-44.5 -28.5t-55.5 -10.5q-29 0 -55 10.5t-45.5 28.5t-30.5 42.5t-11 52.5h71q0 -30 19.5 -47t51.5 -17q31 0 50.5 17.5t19.5 46.5h71z" />
    <glyph glyph-name="uni0307" unicode="&#x307;" horiz-adv-x="0" 
d="M-211 832q0 26 18.5 44.5t43.5 18.5t44 -18.5t19 -44.5q0 -25 -18.5 -43.5t-44.5 -18.5t-44 18.5t-18 43.5z" />
    <glyph glyph-name="uni0308" unicode="&#x308;" horiz-adv-x="0" 
d="M-316 832q0 26 18.5 44.5t44.5 18.5q25 0 44 -19t19 -44t-19 -43.5t-44 -18.5q-26 0 -44.5 18t-18.5 44zM-140 832q0 26 18.5 44.5t43.5 18.5t44 -18.5t19 -44.5q0 -25 -18.5 -43.5t-44.5 -18.5t-44 18.5t-18 43.5z" />
    <glyph glyph-name="uni030A" unicode="&#x30a;" horiz-adv-x="0" 
d="M-240 874q0 46 33 79q33 34 78 34q46 0 80 -34q33 -33 33 -79t-33 -79q-35 -33 -80 -33q-24 0 -44 8.5t-35 23.5t-23.5 35.5t-8.5 44.5zM-72 876q0 23 -16 39.5t-40 16.5t-40 -16.5t-16 -39.5q0 -25 16 -41.5t40 -16.5t40 16.5t16 41.5z" />
    <glyph glyph-name="uni030B" unicode="&#x30b;" horiz-adv-x="0" 
d="M-304 767l66 133h88l-85 -133h-69zM-196 767l86 133h88l-105 -133h-69z" />
    <glyph glyph-name="uni030C" unicode="&#x30c;" horiz-adv-x="0" 
d="M-36 900l-80 -133h-80h-16l-80 133h76l52 -83l52 83h76z" />
    <glyph glyph-name="uni0312" unicode="&#x312;" horiz-adv-x="0" 
d="M-46 816q0 -23 -14 -37.5t-37 -14.5q-24 0 -40.5 17.5t-16.5 50.5q0 22 8.5 41t22 32.5t29.5 21t32 6.5v-27q-18 -1 -32 -15t-14 -32q9 4 18 4q19 0 31.5 -12.5t12.5 -34.5z" />
    <glyph glyph-name="uni0326" unicode="&#x326;" horiz-adv-x="0" 
d="M-39 -91q0 -22 -8 -41t-21 -32.5t-29.5 -21t-33.5 -6.5v27q18 1 32 15t14 32q-9 -4 -17 -4q-19 0 -32 12.5t-13 34.5q0 23 14 37.5t37 14.5q24 0 40.5 -17.5t16.5 -50.5z" />
    <glyph glyph-name="uni0327" unicode="&#x327;" horiz-adv-x="0" 
d="M-318 -117h83q11 0 18.5 7t7.5 18q-2 22 -26 22h-83v45l48 53h35v-28l-23 -25h37q32 0 49.5 -21t17.5 -50t-18.5 -49t-47.5 -20h-98v48z" />
    <glyph glyph-name="uni0338" unicode="&#x338;" horiz-adv-x="0" 
d="M-530 -41l359 578h73l-356 -578h-76z" />
    <glyph glyph-name="uni03A9" unicode="&#x3a9;" horiz-adv-x="645" 
d="M578 69v-69h-210v69q66 26 100 78.5t34 113.5q0 37 -13.5 68t-37 53t-55.5 34t-68 12t-68 -12.5t-55.5 -34.5t-37.5 -53t-14 -68q0 -63 35.5 -115t98.5 -76v-69h-210v69h97q-45 38 -70 89t-25 108q0 50 19 92.5t52.5 74t79 49.5t98.5 18q54 0 99.5 -18t78.5 -49
t51.5 -73.5t18.5 -92.5q0 -60 -24.5 -110t-70.5 -88h97z" />
    <glyph glyph-name="pi" unicode="&#x3c0;" horiz-adv-x="616" 
d="M470 414v-284q0 -31 11 -42.5t33 -11.5l59 -1v-75h-86q-51 0 -75 29t-24 89v296h-193v-414h-82v414h-95v72h177h275h103v-72h-103z" />
    <glyph glyph-name="Wgrave" unicode="&#x1e80;" horiz-adv-x="996" 
d="M980 720l-217 -720h-82l-182 574l-185 -574h-83l-214 720h92l165 -579l178 579h93l176 -581l168 581h91zM379 907h89l66 -133h-69z" />
    <glyph glyph-name="wgrave" unicode="&#x1e81;" horiz-adv-x="766" 
d="M749 487l-167 -487h-79l-120 364l-122 -364h-82l-162 487h87l117 -368l120 368h84l118 -371l119 371h87zM263 676h89l66 -133h-69z" />
    <glyph glyph-name="Wacute" unicode="&#x1e82;" horiz-adv-x="996" 
d="M980 720l-217 -720h-82l-182 574l-185 -574h-83l-214 720h92l165 -579l178 579h93l176 -581l168 581h91zM465 774l66 133h88l-85 -133h-69z" />
    <glyph glyph-name="wacute" unicode="&#x1e83;" horiz-adv-x="766" 
d="M749 487l-167 -487h-79l-120 364l-122 -364h-82l-162 487h87l117 -368l120 368h84l118 -371l119 371h87zM349 543l66 133h88l-85 -133h-69z" />
    <glyph glyph-name="Wdieresis" unicode="&#x1e84;" horiz-adv-x="996" 
d="M980 720l-217 -720h-82l-182 574l-185 -574h-83l-214 720h92l165 -579l178 579h93l176 -581l168 581h91zM347 838q0 26 18.5 45t44.5 19q25 0 44 -19t19 -45q0 -25 -19 -43.5t-44 -18.5q-26 0 -44.5 18.5t-18.5 43.5zM527 838q0 26 18.5 45t44.5 19q25 0 43.5 -19
t18.5 -45q0 -25 -18.5 -43.5t-43.5 -18.5q-26 0 -44.5 18.5t-18.5 43.5z" />
    <glyph glyph-name="wdieresis" unicode="&#x1e85;" horiz-adv-x="766" 
d="M749 487l-167 -487h-79l-120 364l-122 -364h-82l-162 487h87l117 -368l120 368h84l118 -371l119 371h87zM231 607q0 26 18.5 45t44.5 19q25 0 44 -19t19 -45q0 -25 -19 -43.5t-44 -18.5q-26 0 -44.5 18.5t-18.5 43.5zM411 607q0 26 18.5 45t44.5 19q25 0 43.5 -19
t18.5 -45q0 -25 -18.5 -43.5t-43.5 -18.5q-26 0 -44.5 18.5t-18.5 43.5z" />
    <glyph glyph-name="Ygrave" unicode="&#x1ef2;" horiz-adv-x="593" 
d="M107 720l191 -340l191 340h94l-242 -422v-298h-86v298l-245 422h97zM177 907h89l66 -133h-69z" />
    <glyph glyph-name="ygrave" unicode="&#x1ef3;" horiz-adv-x="508" 
d="M494 487l-223 -598q-23 -61 -61 -88t-86 -27q-51 0 -97 25l23 75q34 -25 70 -25q25 0 46 15.5t34 49.5l20 56l-207 517h87l159 -411l150 411h85zM134 677h89l66 -133h-69z" />
    <glyph glyph-name="endash" unicode="&#x2013;" horiz-adv-x="919" 
d="M853 314v-76h-787v76h787z" />
    <glyph glyph-name="emdash" unicode="&#x2014;" horiz-adv-x="1137" 
d="M1063 314v-76h-990v76h990z" />
    <glyph glyph-name="quoteleft" unicode="&#x2018;" horiz-adv-x="254" 
d="M191 545q0 -27 -17 -44t-44 -17q-29 0 -48.5 21t-19.5 61q0 27 10 49t25.5 37.5t35.5 24.5t39 9v-33q-21 -1 -37.5 -17t-17.5 -37q8 3 19 3q24 0 39.5 -15t15.5 -42z" />
    <glyph glyph-name="quoteright" unicode="&#x2019;" horiz-adv-x="254" 
d="M191 593q0 -26 -9.5 -48.5t-25 -38.5t-35 -25t-39.5 -8v33q20 0 37 16.5t18 38.5q-8 -4 -20 -4q-24 0 -39.5 14.5t-15.5 41.5t17.5 44t44.5 17q29 0 48 -20.5t19 -60.5z" />
    <glyph glyph-name="quotesinglbase" unicode="&#x201a;" horiz-adv-x="222" 
d="M168 28q0 -26 -9.5 -48.5t-25 -38.5t-35 -25t-39.5 -8v33q21 0 38 17t17 38q-8 -4 -21 -4q-23 0 -38.5 14.5t-15.5 41.5t17.5 44t44.5 17q29 0 48 -20.5t19 -60.5z" />
    <glyph glyph-name="quotedblleft" unicode="&#x201c;" horiz-adv-x="407" 
d="M191 545q0 -27 -17 -44t-44 -17q-29 0 -48.5 21t-19.5 61q0 26 10 48t25.5 38t35.5 25t39 9v-33q-21 -1 -38 -17.5t-17 -37.5q7 4 20 4q23 0 38.5 -15t15.5 -42zM345 545q0 -27 -17.5 -44t-44.5 -17q-29 0 -48 20t-19 62q0 26 9.5 48t25 38t35 25t39.5 8v-33
q-20 0 -37 -16.5t-18 -37.5q9 4 20 4q24 0 39.5 -15t15.5 -42z" />
    <glyph glyph-name="quotedblright" unicode="&#x201d;" horiz-adv-x="407" 
d="M191 593q0 -26 -9.5 -48.5t-25 -38.5t-35 -25t-39.5 -8v33q20 0 37 16.5t18 38.5q-7 -4 -20 -4q-24 0 -39.5 14.5t-15.5 41.5t17.5 44t44.5 17q29 0 48 -20.5t19 -60.5zM345 593q0 -26 -10 -48.5t-25.5 -38.5t-35 -25t-39.5 -8v33q21 0 38 16.5t17 38.5q-7 -4 -20 -4
q-24 0 -39 14.5t-15 41.5t17 44t44 17q29 0 48.5 -20.5t19.5 -60.5z" />
    <glyph glyph-name="quotedblbase" unicode="&#x201e;" horiz-adv-x="407" 
d="M191 28q0 -26 -9.5 -48.5t-25 -38.5t-35 -25t-39.5 -8v33q20 0 37.5 17t17.5 38q-7 -4 -21 -4q-23 0 -38.5 14.5t-15.5 41.5t17.5 44t44.5 17q29 0 48 -20.5t19 -60.5zM345 28q0 -26 -10 -48.5t-25.5 -38.5t-35 -25t-39.5 -8v33q21 0 38 17t17 38q-7 -4 -21 -4
q-23 0 -38 14.5t-15 41.5t17 44t44 17q29 0 48.5 -20.5t19.5 -60.5z" />
    <glyph glyph-name="dagger" unicode="&#x2020;" horiz-adv-x="303" 
d="M283 549h-101v-285h-61v285h-101v61h101v100h61v-100h101v-61z" />
    <glyph glyph-name="daggerdbl" unicode="&#x2021;" horiz-adv-x="304" 
d="M284 384h-100v-120h-61v120h-101v61h101v84h-103v61h103v120h61v-120h99v-61h-99v-84h100v-61z" />
    <glyph glyph-name="bullet" unicode="&#x2022;" horiz-adv-x="390" 
d="M53 264q0 29 11.5 55t31 45.5t45.5 31t55 11.5t54.5 -11.5t45 -31t31 -45.5t11.5 -55q0 -28 -11.5 -53.5t-31 -44.5t-45 -30.5t-54.5 -11.5t-55 11.5t-45.5 30.5t-31 44.5t-11.5 53.5z" />
    <glyph glyph-name="ellipsis" unicode="&#x2026;" horiz-adv-x="728" 
d="M70 53q0 27 19.5 47t47.5 20q27 0 47 -20t20 -47t-20 -46.5t-47 -19.5q-28 0 -47.5 19.5t-19.5 46.5zM297 53q0 27 19.5 47t47.5 20q27 0 47 -20t20 -47t-20 -46.5t-47 -19.5q-28 0 -47.5 19.5t-19.5 46.5zM523 53q0 27 20 47t48 20q27 0 47 -20t20 -47t-20 -46.5
t-47 -19.5q-28 0 -48 19.5t-20 46.5z" />
    <glyph glyph-name="perthousand" unicode="&#x2030;" horiz-adv-x="1270" 
d="M50 543q0 88 43.5 140t115.5 53q37 2 67.5 -11.5t52.5 -39t34 -61.5t12 -81q0 -88 -44.5 -140.5t-119.5 -52.5q-36 0 -66 14t-51 39t-32.5 61t-11.5 79zM771 719l-548 -719h-87l548 719h87zM213 417q43 1 69 35t26 91t-25.5 91t-70.5 34q-43 0 -69 -34t-26 -91t25.5 -91
t70.5 -35zM857 177q0 -88 -44.5 -140.5t-119.5 -52.5q-36 0 -66 14t-51 39t-32.5 61t-11.5 79q0 88 43.5 140t115.5 53q37 2 67.5 -11.5t52.5 -39t34 -61.5t12 -81zM1063 -16q-36 0 -66 14t-51 39t-32.5 61t-11.5 79t11 78.5t32 61t50 39.5t65 14q75 3 121 -51
q46 -52 46 -142q0 -88 -44.5 -140.5t-119.5 -52.5zM790 177q0 57 -25.5 91t-70.5 34q-43 0 -69 -34t-26 -91t25.5 -91t70.5 -35q43 1 69 35t26 91zM1159 177q0 57 -26 91t-69 34t-69 -34t-26 -91t26 -91t69 -35q45 1 70 35t25 91z" />
    <glyph glyph-name="minute" unicode="&#x2032;" horiz-adv-x="177" 
d="M113 501h-48l-18 181q-2 24 11.5 37.5t31.5 12.5q18 0 30.5 -13t9.5 -37z" />
    <glyph glyph-name="guilsinglleft" unicode="&#x2039;" horiz-adv-x="371" 
d="M156 243l213 -243h-99l-213 243l213 244h99z" />
    <glyph glyph-name="guilsinglright" unicode="&#x203a;" horiz-adv-x="376" 
d="M326 243l-213 -243h-100l213 243l-213 244h100z" />
    <glyph glyph-name="uni2042" unicode="&#x2042;" horiz-adv-x="877" 
d="M517 408l-37 53q-27 36 -42 76q-7 -18 -17 -37t-24 -39l-39 -53l-39 27l38 54q26 36 57 66q-27 5 -48 10t-37 10l-62 23l17 44l60 -21q22 -7 41.5 -16.5t38.5 -21.5q-9 39 -9 87v66h47v-66q0 -49 -9 -87q35 23 79 38l61 21l18 -44l-64 -23q-22 -8 -43.5 -12.5t-40.5 -7.5
q23 -22 57 -66l35 -54zM310 195q-22 -8 -43.5 -12.5t-40.5 -7.5q20 -18 57 -66l36 -54l-39 -27l-37 53q-26 35 -42 76q-11 -32 -40 -76l-39 -53l-39 27l37 54q29 41 57 66q-26 5 -47 10t-37 10l-63 23l17 44l61 -21q44 -15 79 -38q-9 47 -9 87v66h47v-66q0 -44 -8 -87
q34 23 78 38l61 21l18 -44zM792 55l-38 -27l-38 53q-26 35 -42 76q-10 -34 -40 -76l-39 -53l-39 27l38 54q29 41 57 66q-27 5 -48 10t-37 10l-63 23l18 44l60 -21q44 -15 79 -38q-9 47 -9 87v66h47v-66q0 -52 -8 -87q36 24 78 38l62 21l17 -44l-63 -23q-16 -5 -37 -10
t-47 -10q13 -11 26.5 -27.5t29.5 -38.5z" />
    <glyph glyph-name="fraction" unicode="&#x2044;" horiz-adv-x="128" 
d="M-247 0l541 710h81l-542 -710h-80z" />
    <glyph glyph-name="uni2070" unicode="&#x2070;" horiz-adv-x="499" 
d="M250 292h-2q-97 2 -153 69q-55 67 -55 177q0 53 14.5 98t41.5 78t65.5 51.5t86.5 18.5h2h1q49 0 87.5 -18.5t65.5 -51.5t41 -78t14 -98q0 -110 -55 -177t-153 -69h-1zM384 538q0 76 -35.5 124.5t-98.5 49.5q-32 0 -57 -13.5t-42.5 -36.5t-27 -54.5t-9.5 -69.5t9.5 -70
t27 -55t42.5 -36.5t57 -13.5t57 13.5t42 36.5t26 55t9 70z" />
    <glyph glyph-name="uni2074" unicode="&#x2074;" horiz-adv-x="443" 
d="M403 392h-59v-92h-68v92h-236v69l236 313h68v-313h59v-69zM276 461v203l-152 -203h152z" />
    <glyph glyph-name="uni2075" unicode="&#x2075;" horiz-adv-x="417" 
d="M377 456q0 -34 -13.5 -64t-37 -52.5t-54.5 -35.5t-66 -13t-65 13t-52.5 35.5t-35.5 52.5t-13 64h69q0 -40 27.5 -67.5t69.5 -27.5q21 0 39.5 7.5t32 20.5t21.5 30.5t8 36.5q1 48 -27.5 77t-76.5 29q-26 0 -49.5 -12t-33.5 -30l-64 16l59 238h245v-69h-191l-27 -101
q31 19 71 19q36 0 66.5 -13t52 -35.5t33.5 -53t12 -65.5z" />
    <glyph glyph-name="uni2076" unicode="&#x2076;" horiz-adv-x="446" 
d="M406 465q0 -37 -14 -69t-38 -55.5t-57 -36.5t-71 -13q-93 0 -140 68q-46 67 -46 172q0 53 12 99t37 81t62 55t87 20q49 0 90 -20t67 -60l-59 -36q-37 46 -98 46q-28 0 -51 -11.5t-39.5 -31.5t-26 -47t-10.5 -59q18 33 51.5 50t72.5 17q32 0 62.5 -11.5t54.5 -33.5
t39 -53.5t15 -70.5zM337 464q0 48 -31 76t-77 28q-45 0 -75 -29t-30 -75q0 -48 30.5 -76.5t75.5 -28.5t76 28.5t31 76.5z" />
    <glyph glyph-name="uni2077" unicode="&#x2077;" horiz-adv-x="403" 
d="M363 774v-71q-117 -92 -149 -206q-30 -112 -30 -197h-71q0 78 28 189q29 115 134 214h-235v71h323z" />
    <glyph glyph-name="uni2078" unicode="&#x2078;" horiz-adv-x="418" 
d="M378 428q0 -63 -49 -100t-123 -37q-35 0 -65.5 10t-53 28.5t-35 44t-12.5 55.5q0 42 24.5 75.5t64.5 48.5q-32 13 -50.5 42t-18.5 65q0 28 11.5 51t31.5 39t47 25t59 9q66 0 107.5 -35t41.5 -92q0 -36 -19 -63.5t-51 -40.5q42 -13 66 -48t24 -77zM209 581q38 0 63 20
t25 50q0 32 -25.5 50.5t-62.5 18.5q-38 0 -63 -18.5t-25 -49.5t25.5 -51t62.5 -20zM209 517q-45 0 -73 -22.5t-27 -58.5q0 -36 29 -58t71 -22q43 0 71.5 24t28.5 60q0 35 -29 56t-71 21z" />
    <glyph glyph-name="uni2079" unicode="&#x2079;" horiz-adv-x="446" 
d="M209 291q-51 0 -91 20t-66 60l58 35q19 -24 43 -34.5t57 -10.5q60 0 91 39t35 111q-19 -33 -53 -50.5t-73 -17.5q-32 1 -62.5 12.5t-54.5 33t-38.5 52.5t-14.5 71q0 38 13.5 70t37.5 55t57 36t72 13q94 0 139 -69q45 -67 47 -175q0 -112 -50 -182q-49 -69 -147 -69z
M321 614q0 48 -30 76.5t-75 28.5t-76 -28.5t-31 -76.5t31 -76.5t76 -28.5t75 28.5t30 76.5z" />
    <glyph glyph-name="uni2080" unicode="&#x2080;" horiz-adv-x="499" 
d="M250 -108h-2q-97 1 -153 69q-55 67 -55 177q0 53 14.5 98t41.5 78t65.5 51.5t86.5 18.5h2h1q49 0 87.5 -18.5t65.5 -51.5t41 -78t14 -98q0 -110 -55 -177q-55 -68 -153 -69h-1zM384 138q0 76 -35.5 124.5t-98.5 49.5q-32 0 -57 -13.5t-42.5 -36.5t-27 -54.5t-9.5 -69.5
t9.5 -70t27 -55t42.5 -36.5t57 -13.5t57 13.5t42 36.5t26 55t9 70z" />
    <glyph glyph-name="uni2081" unicode="&#x2081;" horiz-adv-x="291" 
d="M205 374v-474h-70v403l-95 -39v70l95 40h70z" />
    <glyph glyph-name="uni2082" unicode="&#x2082;" horiz-adv-x="407" 
d="M46 -26l207 171q25 21 34.5 40t9.5 39q0 42 -25.5 66.5t-68.5 24.5q-40 0 -66 -23t-28 -66h-69q2 73 47.5 115t115.5 42q37 0 67.5 -12t52 -33t33 -50t11.5 -62q0 -42 -18.5 -74.5t-53.5 -60.5l-149 -122l209 1v-69l-309 -1v74z" />
    <glyph glyph-name="uni2083" unicode="&#x2083;" horiz-adv-x="408" 
d="M368 52q0 -35 -13 -64.5t-35 -50.5t-52 -33t-63 -12q-35 0 -65.5 12.5t-52.5 33.5t-34.5 50t-12.5 62h70q0 -38 26.5 -64t68.5 -26q39 0 66 26t27 66q0 43 -27 68.5t-70 25.5q-26 0 -40 -6l-23 56l116 109h-194v69h300v-64l-113 -105q54 -13 87.5 -54t33.5 -99z" />
    <glyph glyph-name="uni2084" unicode="&#x2084;" horiz-adv-x="443" 
d="M403 -8h-59v-92h-68v92h-236v69l236 313h68v-313h59v-69zM276 61v203l-152 -203h152z" />
    <glyph glyph-name="uni2085" unicode="&#x2085;" horiz-adv-x="417" 
d="M377 56q0 -34 -13.5 -64t-37 -52.5t-54.5 -35.5t-66 -13t-65 13t-52.5 35.5t-35.5 52.5t-13 64h69q0 -40 27.5 -67.5t69.5 -27.5q21 0 39.5 7.5t32 20.5t21.5 30.5t8 36.5q1 48 -27.5 77t-76.5 29q-26 0 -49.5 -12t-33.5 -30l-64 16l59 238h245v-69h-191l-27 -101
q31 19 71 19q36 0 66.5 -13t52 -35.5t33.5 -53t12 -65.5z" />
    <glyph glyph-name="uni2086" unicode="&#x2086;" horiz-adv-x="446" 
d="M406 65q0 -37 -14 -69t-38 -55.5t-57 -36.5t-71 -13q-93 0 -140 68q-46 67 -46 172q0 53 12 99t37 81t62 55t87 20q49 0 90 -20t67 -60l-59 -36q-37 46 -98 46q-28 0 -51 -11.5t-39.5 -31.5t-26 -47t-10.5 -59q18 33 51.5 50t72.5 17q32 0 62.5 -11.5t54.5 -33.5
t39 -53.5t15 -70.5zM337 64q0 48 -31 76t-77 28q-45 0 -75 -29t-30 -75q0 -48 30.5 -76.5t75.5 -28.5t76 28.5t31 76.5z" />
    <glyph glyph-name="uni2087" unicode="&#x2087;" horiz-adv-x="403" 
d="M363 374v-71q-117 -92 -149 -206q-30 -113 -30 -197h-71q0 78 28 189q29 115 134 214h-235v71h323z" />
    <glyph glyph-name="uni2088" unicode="&#x2088;" horiz-adv-x="418" 
d="M378 28q0 -31 -12.5 -56.5t-35.5 -43.5t-54 -27.5t-69 -9.5q-72 0 -120 39q-47 38 -47 99q0 42 23.5 75.5t65.5 48.5q-32 13 -50.5 42t-18.5 65q0 28 11.5 51t31.5 39t47 25t59 9q66 0 107.5 -34.5t41.5 -92.5q0 -35 -19 -63t-51 -41q42 -13 66 -48t24 -77zM121 253
q0 -32 25.5 -52t62.5 -20q38 0 63 20t25 51q0 32 -25 50t-63 18t-63 -18t-25 -49zM210 117q-45 0 -73.5 -22t-27.5 -59q0 -36 29 -58t72 -22q45 0 72 23t27 60q0 36 -28.5 57t-70.5 21z" />
    <glyph glyph-name="uni2089" unicode="&#x2089;" horiz-adv-x="446" 
d="M209 -109q-51 0 -91 20t-66 60l58 35q19 -24 43 -34.5t57 -10.5q60 0 91 39t35 111q-19 -33 -53 -50.5t-73 -17.5q-32 1 -62.5 12.5t-54.5 33t-38.5 52.5t-14.5 71q0 38 13.5 70t37.5 55t57 36t72 13q94 0 139 -69q45 -67 47 -175q0 -112 -50 -182q-49 -69 -147 -69z
M321 214q0 48 -30 76.5t-75 28.5t-76 -28.5t-31 -76.5t31 -76.5t76 -28.5t75 28.5t30 76.5z" />
    <glyph glyph-name="Euro" unicode="&#x20ac;" horiz-adv-x="766" 
d="M706 62q-45 -35 -103.5 -54.5t-116.5 -19.5q-57 0 -109.5 18t-97 49.5t-78 76t-52.5 96.5h-89v80h69q-3 24 -3 49q0 10 1 24t3 33h-70v79h90q20 53 53.5 96.5t77 75t96 49t109.5 17.5q97 0 191 -51l-38 -70q-40 22 -76.5 32t-76.5 10q-81 0 -147.5 -43.5t-101.5 -115.5
h307l-20 -79h-313q-2 -16 -3.5 -30t-1.5 -27q0 -8 1 -20.5t3 -28.5h289l-18 -80h-246q35 -73 102.5 -117t148.5 -44q46 0 90.5 15t79.5 42z" />
    <glyph glyph-name="uni2116" unicode="&#x2116;" horiz-adv-x="1330" 
d="M1210 485q1 -50 -18.5 -94t-52.5 -76t-76.5 -50t-91.5 -17q-46 -1 -89.5 17.5t-77.5 51.5t-54 76.5t-19 91.5q-1 49 18.5 92t53.5 75t77.5 50t90.5 17q48 0 91.5 -18t76.5 -49.5t52 -74t19 -92.5zM572 710h74v-710h-74l-378 577v-577h-74v710h74l378 -577v577zM1137 484
q0 36 -13 66t-35.5 51.5t-52.5 34t-65 12.5t-65.5 -12.5t-53 -34t-35.5 -51.5t-13 -66q0 -33 13.5 -63t36 -52.5t53 -36t64.5 -13.5q35 0 65 13t52.5 35t35.5 52.5t13 64.5zM831 173h279v-65h-279v65z" />
    <glyph glyph-name="uni2117" unicode="&#x2117;" horiz-adv-x="531" 
d="M491 498q0 -47 -17.5 -88t-48 -72t-71.5 -48.5t-87 -17.5q-47 0 -88.5 17.5t-72 48.5t-48.5 72t-18 88q0 46 18 86.5t48.5 71t72 48t88.5 17.5q46 0 87 -17.5t71.5 -48t48 -71t17.5 -86.5zM454 496q0 39 -14.5 73.5t-40 60t-60 40t-73.5 14.5q-40 0 -74 -14.5t-59 -40
t-39.5 -60t-14.5 -73.5q0 -40 14 -74t39 -59t59.5 -39t74.5 -14q39 0 73.5 14.5t60 39.5t40 59t14.5 73zM349 536v-3q-1 -29 -19 -44t-49 -16h-6h-29v-77h-39v199h39h29q72 2 74 -57v-2zM306 533q2 24 -30 24h-30v-49h35q14 1 19.5 7t5.5 18z" />
    <glyph glyph-name="trademark" unicode="&#x2122;" horiz-adv-x="627" 
d="M38 720h217v-44h-90v-235h-43v235h-84v44zM567 720v-279h-41v177l-76 -177h-42l-75 174v-174h-42v279h42l96 -229l97 229h41z" />
    <glyph glyph-name="estimated" unicode="&#x212e;" horiz-adv-x="769" 
d="M385 710q73 0 133 -22.5t103.5 -65.5t67.5 -103.5t24 -137.5q1 -5 1 -27v-15.5t-1 -10.5h-558v-180q39 -57 101 -87t141 -30q78 0 142 36.5t96 96.5l38 -14q-37 -75 -110.5 -117t-167.5 -42q-75 0 -137.5 26t-107.5 73t-70 112t-25 144q0 80 24.5 147t68 115t104.5 75
t133 27zM155 364h459v200q-37 51 -96 78.5t-129 27.5q-75 0 -135 -33t-99 -91v-182z" />
    <glyph glyph-name="oneeighth" unicode="&#x215b;" horiz-adv-x="736" 
d="M43 679l67 31v-66l-67 -27v62zM174 710v-368h-63l-1 368h64zM10 0l541 710h81l-542 -710h-80zM428 99q0 27 14 52t37 39q-20 14 -29.5 33t-9.5 40t9 40t25 33.5t38.5 23.5t49.5 9q54 -1 86 -32t32 -73q0 -45 -38 -74q23 -14 36.5 -38.5t13.5 -52.5q0 -22 -8.5 -42
t-25.5 -35.5t-42 -24.5t-58 -9q-63 0 -96 33t-34 78zM619 264q1 18 -15 31t-44 13q-29 -1 -44.5 -14.5t-13.5 -31.5q0 -18 15.5 -30.5t42.5 -12.5q28 1 44 14t15 31zM630 101q1 21 -17.5 37.5t-52.5 16.5q-33 0 -51.5 -16.5t-17.5 -38.5q0 -21 18 -36.5t51 -15.5t51.5 15.5
t18.5 37.5z" />
    <glyph glyph-name="threeeighths" unicode="&#x215c;" horiz-adv-x="822" 
d="M300 460q0 -52 -38 -88q-37 -36 -90 -36t-91 36t-38 88l1 13h63q-1 -3 -1 -14q0 -25 19.5 -43t46.5 -18t46 18t19 44q0 30 -24 51q-17 13 -41 13q-3 0 -7 -0.5t-9 -1.5q-4 -1 -7 -2t-5 -2l-31 49l80 80h-133v63h229v-57l-76 -75q30 -10 54 -34q33 -36 33 -84zM96 0
l541 710h81l-542 -710h-80zM514 99q0 27 14 52t37 39q-20 14 -29.5 33t-9.5 40t9 40t25 33.5t38.5 23.5t49.5 9q54 -1 86 -32t32 -73q0 -45 -38 -74q23 -14 36.5 -38.5t13.5 -52.5q0 -22 -8.5 -42t-25.5 -35.5t-42 -24.5t-58 -9q-63 0 -96 33t-34 78zM705 264q1 18 -15 31
t-44 13q-29 -1 -44.5 -14.5t-13.5 -31.5q0 -18 15.5 -30.5t42.5 -12.5q28 1 44 14t15 31zM716 101q1 21 -17.5 37.5t-52.5 16.5q-33 0 -51.5 -16.5t-17.5 -38.5q0 -21 18 -36.5t51 -15.5t51.5 15.5t18.5 37.5z" />
    <glyph glyph-name="fiveeighths" unicode="&#x215d;" horiz-adv-x="827" 
d="M106 474q-2 -31 16.5 -52t50.5 -21q29 0 49.5 20t20.5 47q0 30 -20.5 50t-50.5 20q-20 0 -36 -9t-24 -23l-59 16l47 188h192v-63h-142l-15 -56q20 7 40 7q54 0 92 -38t38 -94q0 -26 -10.5 -49t-28.5 -40.5t-42 -27.5t-51 -10q-29 0 -53.5 10.5t-41.5 28.5t-26.5 43
t-8.5 53h63zM101 0l541 710h81l-542 -710h-80zM519 99q0 27 14 52t37 39q-20 14 -29.5 33t-9.5 40t9 40t25 33.5t38.5 23.5t49.5 9q54 -1 86 -32t32 -73q0 -45 -38 -74q23 -14 36.5 -38.5t13.5 -52.5q0 -22 -8.5 -42t-25.5 -35.5t-42 -24.5t-58 -9q-63 0 -96 33t-34 78z
M710 264q1 18 -15 31t-44 13q-29 -1 -44.5 -14.5t-13.5 -31.5q0 -18 15.5 -30.5t42.5 -12.5q28 1 44 14t15 31zM721 101q1 21 -17.5 37.5t-52.5 16.5q-33 0 -51.5 -16.5t-17.5 -38.5q0 -21 18 -36.5t51 -15.5t51.5 15.5t18.5 37.5z" />
    <glyph glyph-name="seveneighths" unicode="&#x215e;" horiz-adv-x="771" 
d="M306 710v-66q-142 -106 -142 -300h-67q0 51 20 136q21 82 103 164h-177v66h263zM45 0l541 710h81l-542 -710h-80zM464 99q0 27 14 52t37 39q-20 14 -29.5 33t-9.5 40t9 40t25 33.5t38.5 23.5t49.5 9q54 -1 86 -32t32 -73q0 -45 -38 -74q23 -14 36.5 -38.5t13.5 -52.5
q0 -22 -8.5 -42t-25.5 -35.5t-42 -24.5t-58 -9q-63 0 -96 33t-34 78zM655 264q1 18 -15 31t-44 13q-29 -1 -44.5 -14.5t-13.5 -31.5q0 -18 15.5 -30.5t42.5 -12.5q28 1 44 14t15 31zM666 101q1 21 -17.5 37.5t-52.5 16.5q-33 0 -51.5 -16.5t-17.5 -38.5q0 -21 18 -36.5
t51 -15.5t51.5 15.5t18.5 37.5z" />
    <glyph glyph-name="arrowleft" unicode="&#x2190;" horiz-adv-x="928" 
d="M60 262l321 320l48 -47l-238 -239h677v-68h-677l238 -238l-48 -48z" />
    <glyph glyph-name="arrowup" unicode="&#x2191;" horiz-adv-x="767" 
d="M383 763l324 -318l-49 -48l-241 236v-633h-67v633l-242 -236l-48 48z" />
    <glyph glyph-name="arrowright" unicode="&#x2192;" horiz-adv-x="928" 
d="M868 297l-321 -320l-48 48l238 239h-677v67h677l-238 239l48 47z" />
    <glyph glyph-name="arrowdown" unicode="&#x2193;" horiz-adv-x="760" 
d="M380 -107l-320 320l48 48l238 -238v706h68v-706l239 238l47 -48z" />
    <glyph glyph-name="arrowboth" unicode="&#x2194;" horiz-adv-x="1073" 
d="M782 126l99 101l-459 -1h-231l102 -102v-98l-233 235l231 233v-100l-99 -99h228v1h235l226 -1l-100 100v99l232 -233l-231 -234v99z" />
    <glyph glyph-name="arrowupdn" unicode="&#x2195;" horiz-adv-x="587" 
d="M427 64h100l-235 -232l-232 232h98l100 -100v229h-1l1 117l-1 117h1v226l-100 -99h-98l232 231l235 -231h-100l-100 100v-461v-229z" />
    <glyph glyph-name="uni2196" unicode="&#x2196;" horiz-adv-x="832" 
d="M322 443l249 -241l-20 -134l-411 377h98v236h162l173 -210zM90 491l50 -46h-51z" />
    <glyph glyph-name="uni2197" unicode="&#x2197;" horiz-adv-x="840" 
d="M780 720v-453h-68v337l-604 -604l-48 47l604 605h-337v68h453z" />
    <glyph glyph-name="uni2198" unicode="&#x2198;" horiz-adv-x="838" 
d="M778 1l-452 1v67l337 1l-603 603l47 47l603 -603l1 338l67 -1v-453z" />
    <glyph glyph-name="uni2199" unicode="&#x2199;" horiz-adv-x="841" 
d="M60 -1v453h69v-337l605 606l47 -48l-605 -606h337v-68h-453z" />
    <glyph glyph-name="partialdiff" unicode="&#x2202;" horiz-adv-x="610" 
d="M566 285q0 -75 -21.5 -131t-58 -92.5t-84 -54.5t-98.5 -18q-52 0 -99.5 17.5t-83.5 50.5t-57.5 81t-21.5 109q0 57 20 105t54 82t79.5 53t97.5 19q46 0 89.5 -15.5t72.5 -45.5q-26 73 -84.5 145t-139.5 130h107q105 -82 167 -202q61 -119 61 -233zM487 252q0 39 -14.5 73
t-39.5 59.5t-59 40t-73 14.5q-40 0 -74.5 -15t-59.5 -40.5t-39.5 -59.5t-14.5 -72q0 -39 15 -74t40.5 -60.5t60.5 -40.5t74 -15q38 0 71.5 15t58.5 40.5t39.5 60.5t14.5 74z" />
    <glyph glyph-name="emptyset" unicode="&#x2205;" horiz-adv-x="800" 
d="M691 572q58 -91 58 -207q1 -82 -24.5 -152.5t-72 -121.5t-110.5 -79.5t-140 -27.5q-72 0 -134.5 27t-110.5 78l-73 -66l-44 48l76 69q-61 95 -61 214q-1 78 25.5 146.5t73 119t110.5 79t138 26.5q75 0 137.5 -26.5t110.5 -74.5l66 60l44 -49zM591 570q-36 37 -84 57.5
t-105 20.5q-58 0 -107.5 -22t-84.5 -61t-55 -93t-20 -118q0 -89 41 -160zM215 141q36 -38 84 -58.5t103 -20.5q59 0 108.5 21.5t85 60t55 92.5t19.5 118q0 94 -40 164z" />
    <glyph glyph-name="uni2206" unicode="&#x2206;" horiz-adv-x="679" 
d="M619 70v-70h-559v70l241 640h78zM135 70h409l-204 543z" />
    <glyph glyph-name="product" unicode="&#x220f;" horiz-adv-x="592" 
d="M448 487v-322q0 -45 21 -66.5t58 -21.5q4 0 10 0.5t14 1.5v-78q-19 -3 -37 -3q-66 0 -107 39t-41 117v333h-173v-487h-83v487h-90v82h173h255h103v-82h-103z" />
    <glyph glyph-name="summation" unicode="&#x2211;" horiz-adv-x="483" 
d="M30 89l253 272l-253 271v88h410v-82h-308l255 -277l-256 -276h309v-85h-410v89z" />
    <glyph glyph-name="minus" unicode="&#x2212;" horiz-adv-x="474" 
d="M414 363v-74h-354v74h354z" />
    <glyph glyph-name="radical" unicode="&#x221a;" horiz-adv-x="704" 
d="M670 714v-79h-152l-251 -635h-82l-185 486h80l147 -381l242 609h201z" />
    <glyph glyph-name="infinity" unicode="&#x221e;" horiz-adv-x="869" 
d="M239 467q55 0 106.5 -32.5t89.5 -92.5q37 60 88.5 92.5t106.5 32.5q39 0 73 -14.5t59 -39.5t39.5 -58.5t14.5 -71.5q0 -39 -14.5 -72t-39.5 -58t-59 -39t-73 -14q-55 0 -106.5 32t-88.5 92q-38 -60 -89.5 -92t-106.5 -32q-39 0 -73 14t-59 39t-39.5 58t-14.5 72
q0 38 14.5 71.5t39.5 58.5t59 39.5t73 14.5zM242 178q37 0 74.5 25.5t66.5 79.5q-29 54 -66.5 79.5t-74.5 25.5q-49 0 -79.5 -28.5t-30.5 -76.5q0 -46 30.5 -75.5t79.5 -29.5zM627 178q49 0 79.5 29.5t30.5 75.5q0 48 -30.5 76.5t-79.5 28.5q-37 0 -74.5 -25.5t-66.5 -79.5
q29 -54 66.5 -79.5t74.5 -25.5z" />
    <glyph glyph-name="integral" unicode="&#x222b;" horiz-adv-x="329" 
d="M299 734v-78h-44q-22 0 -35.5 -14t-13.5 -40v-256v-228q0 -58 -35.5 -94.5t-92.5 -36.5h-48v77h44q22 0 35.5 14.5t13.5 39.5v256v228q0 29 9.5 53t27 41.5t41 27.5t50.5 10h48z" />
    <glyph glyph-name="approxequal" unicode="&#x2248;" horiz-adv-x="447" 
d="M407 382q0 -48 -29 -76.5t-72 -28.5q-25 0 -45.5 9.5t-48.5 28.5q-24 17 -40 24.5t-33 7.5q-22 0 -34.5 -13t-13.5 -35h-51q0 46 28.5 74.5t71.5 28.5q25 0 46 -10t51 -29q24 -16 39 -23.5t32 -7.5q21 0 33.5 13t13.5 37h52zM407 234q0 -48 -29 -76.5t-72 -28.5
q-25 0 -45.5 9.5t-48.5 28.5q-24 17 -40 24.5t-33 7.5q-22 0 -34.5 -13t-13.5 -35h-51q0 46 28.5 74.5t71.5 28.5q25 0 46 -10t51 -29q24 -16 39 -23.5t32 -7.5q21 0 33.5 13t13.5 37h52z" />
    <glyph glyph-name="notequal" unicode="&#x2260;" horiz-adv-x="536" 
d="M336 408l-79 -144h232v-73h-272l-71 -130h-78l71 130h-92v73h132l78 144h-210v74h250l75 136h78l-74 -136h113v-74h-153z" />
    <glyph glyph-name="lessequal" unicode="&#x2264;" horiz-adv-x="543" 
d="M35 402l461 159v-88l-333 -114l333 -115v-87l-461 159v86zM35 87h461v-87h-461v87z" />
    <glyph glyph-name="greaterequal" unicode="&#x2265;" horiz-adv-x="560" 
d="M513 387v-77l-455 -158v79l343 118l-343 117v79zM58 79h455v-79h-455v79z" />
    <glyph glyph-name="filledbox" unicode="&#x25a0;" horiz-adv-x="830" 
d="M770 710v-710h-710v710h710z" />
    <glyph glyph-name="uni25A1" unicode="&#x25a1;" horiz-adv-x="830" 
d="M770 710v-710h-710v710h710zM128 68h574v574h-574v-574z" />
    <glyph glyph-name="triagup" unicode="&#x25b2;" horiz-adv-x="966" 
d="M906 0h-846l423 710z" />
    <glyph glyph-name="uni25B3" unicode="&#x25b3;" horiz-adv-x="967" 
d="M60 1l424 712l423 -712h-847zM484 580l-307 -514h613z" />
    <glyph glyph-name="lozenge" unicode="&#x25ca;" horiz-adv-x="613" 
d="M553 355l-205 -355h-83l-205 355l205 355h83zM468 355l-162 282l-160 -282l160 -282z" />
    <glyph glyph-name="circle" unicode="&#x25cb;" horiz-adv-x="899" 
d="M60 333q-1 79 30 150t85 125t125 85.5t150 29.5q78 2 149 -29.5t125 -85.5t85.5 -125.5t29.5 -149.5q2 -79 -29.5 -150t-85.5 -125t-125 -85.5t-149 -29.5q-79 -2 -150 29.5t-125 85.5t-85 125t-30 150zM770 333q2 64 -24 122.5t-70.5 103t-103 70.5t-122.5 24
q-65 2 -124 -23.5t-103 -70t-69.5 -103t-24.5 -123.5q-1 -65 24.5 -123.5t69.5 -103t103 -69.5t124 -24q65 -1 123.5 24t103 69.5t70 103t23.5 123.5z" />
    <glyph glyph-name="uni25CF" unicode="&#x25cf;" horiz-adv-x="899" 
d="M60 333q-1 79 30 150t85 125t125 85.5t150 29.5q78 2 149 -29.5t125 -85.5t85.5 -125.5t29.5 -149.5q2 -79 -29.5 -150t-85.5 -125t-125 -85.5t-149 -29.5q-79 -2 -150 29.5t-125 85.5t-85 125t-30 150z" />
    <glyph glyph-name="uni262E" unicode="&#x262e;" horiz-adv-x="899" 
d="M839 333q2 -79 -29.5 -150t-85.5 -125t-125 -85.5t-149 -29.5q-79 -2 -150 29.5t-125 85.5t-85 125t-30 150q-1 79 30 150t85 125t125 85.5t150 29.5q78 2 149 -29.5t125 -85.5t85.5 -125.5t29.5 -149.5zM129 333q0 -68 29 -131l261 171v279q-60 -5 -113 -32.5t-92.5 -71
t-62.5 -99t-22 -116.5zM482 373l260 -171q28 60 28 131q0 61 -22.5 116t-61.5 98t-91.5 71t-112.5 34v-279zM419 297l-230 -150q42 -57 101 -91.5t129 -41.5v283zM482 297v-283q70 7 129.5 41.5t99.5 91.5z" />
    <glyph glyph-name="smileface" unicode="&#x263a;" horiz-adv-x="898" 
d="M60 335q-1 77 30 147.5t84.5 123.5t125.5 84t151 29q78 2 149 -29t124 -84t84.5 -123.5t29.5 -147.5q2 -80 -29.5 -151.5t-84.5 -125t-124 -84.5t-149 -29q-79 -2 -151 29t-125.5 84.5t-84.5 125t-30 151.5zM773 331q1 67 -24.5 126.5t-69.5 103.5t-103.5 69.5
t-125.5 24.5q-68 1 -127.5 -24.5t-103 -69.5t-68.5 -103.5t-24 -126.5q-1 -68 23.5 -127t68 -102t103 -67.5t128.5 -23.5q66 -1 125.5 23.5t103.5 68t69.5 102.5t24.5 126zM264 420q0 24 17 41.5t42 17.5q24 0 40.5 -17.5t16.5 -41.5t-16.5 -42t-40.5 -18t-41.5 18t-17.5 42
zM519 416q0 24 17 41t42 17q24 0 40.5 -17t16.5 -41t-16.5 -41.5t-40.5 -17.5q-25 0 -42 17.5t-17 41.5zM338 293q-3 -49 30 -84t83 -35q49 0 82 34t31 85h60q2 -36 -11 -68.5t-36.5 -57t-56 -39t-69.5 -14.5t-69.5 14t-55.5 38.5t-35.5 57t-11.5 69.5h59z" />
    <glyph glyph-name="uni2713" unicode="&#x2713;" horiz-adv-x="732" 
d="M85 293l160 -173l329 396l58 -48l-384 -461l-215 233z" />
    <glyph glyph-name="uni2776" unicode="&#x2776;" horiz-adv-x="796" 
d="M50 348q-1 71 26.5 134.5t75.5 111.5t111.5 75.5t134.5 26.5q70 2 133.5 -26.5t111.5 -76.5t76.5 -111.5t26.5 -133.5q2 -70 -26 -134t-76 -112.5t-111.5 -76.5t-134.5 -26q-70 -2 -134 26.5t-112 76.5t-75.5 112t-26.5 134zM438 545h-62l-71 -36v-59l71 34v-320h62v381z
" />
    <glyph glyph-name="uni2777" unicode="&#x2777;" horiz-adv-x="796" 
d="M746 347q2 -70 -26 -134t-76 -112t-111.5 -75.5t-134.5 -26.5q-70 -2 -134 26.5t-112 76.5t-75.5 112t-26.5 134q-1 71 26.5 134.5t75.5 111.5t111.5 75.5t134.5 26.5q70 2 133.5 -26t111.5 -76.5t76.5 -112t26.5 -134.5zM377 236l87 76q33 30 47 54.5t15 56.5
q-1 55 -35.5 89t-88.5 34q-28 0 -52 -10t-41.5 -27.5t-26 -41.5t-7.5 -53h61q-2 33 15 52t49 20q29 -1 46.5 -18t17.5 -48q0 -14 -7 -26.5t-23 -27.5l-154 -139v-54l236 1v63z" />
    <glyph glyph-name="uni2778" unicode="&#x2778;" horiz-adv-x="796" 
d="M50 348q-1 71 26.5 134.5t75.5 111.5t111.5 75.5t134.5 26.5q70 2 133.5 -26.5t111.5 -76.5t76.5 -111.5t26.5 -133.5q2 -70 -26 -134t-76 -112.5t-111.5 -76.5t-134.5 -26q-70 -2 -134 26.5t-112 76.5t-75.5 112t-26.5 134zM404 158q57 0 92.5 34.5t35.5 89.5
q0 46 -26.5 77.5t-68.5 40.5l77 82v56h-222v-63h132l-79 -86l2 -43h54q28 1 48.5 -16t20.5 -48q0 -28 -19 -46.5t-47 -18.5q-31 0 -50.5 20.5t-16.5 51.5h-61q-1 -27 7.5 -51t26 -42t41.5 -28t53 -10z" />
    <glyph glyph-name="uni2779" unicode="&#x2779;" horiz-adv-x="796" 
d="M50 348q-1 71 26.5 134.5t75.5 111.5t111.5 75.5t134.5 26.5q70 2 133.5 -26.5t111.5 -76.5t76.5 -111.5t26.5 -133.5q2 -70 -26 -134t-76 -112.5t-111.5 -76.5t-134.5 -26q-70 -2 -134 26.5t-112 76.5t-75.5 112t-26.5 134zM469 164v71h60v60h-60v250h-63l-176 -244v-66
h176v-71h63zM406 445v-150h-113z" />
    <glyph glyph-name="uni277A" unicode="&#x277a;" horiz-adv-x="796" 
d="M50 348q-1 71 26.5 134.5t75.5 111.5t111.5 75.5t134.5 26.5q70 2 133.5 -26.5t111.5 -76.5t76.5 -111.5t26.5 -133.5q2 -70 -26 -134t-76 -112.5t-111.5 -76.5t-134.5 -26q-70 -2 -134 26.5t-112 76.5t-75.5 112t-26.5 134zM351 478h153v62h-203l-36 -209l54 -10
q12 19 31 29t40 10q33 0 54 -21t21 -54t-20.5 -54t-52.5 -21q-62 0 -74 62l-61 -16q8 -49 43.5 -78.5t89.5 -29.5q61 0 100 39q40 39 40 98q0 30 -9.5 55t-27 43t-41 28.5t-51.5 10.5q-40 0 -63 -17z" />
    <glyph glyph-name="uni277B" unicode="&#x277b;" horiz-adv-x="796" 
d="M50 348q-1 71 26.5 134.5t75.5 111.5t111.5 75.5t134.5 26.5q70 2 133.5 -26t111.5 -76.5t76.5 -112t26.5 -134.5q2 -70 -26 -134t-76 -112t-111.5 -75.5t-134.5 -26.5q-70 -2 -134 26.5t-112 76.5t-75.5 112t-26.5 134zM395 489q25 0 45.5 -10.5t32.5 -29.5l59 20
q-18 38 -53 59.5t-81 21.5q-75 0 -116 -51.5t-41 -145.5q0 -97 38.5 -149.5t107.5 -52.5q29 0 55 10.5t45.5 29.5t30.5 45t11 57q0 56 -39 95q-37 39 -95 39q-24 0 -49 -8.5t-42 -29.5q1 43 25 71.5t66 28.5zM312 288q0 33 21.5 54.5t55.5 21.5q32 0 53 -21.5t21 -54.5
q0 -34 -21 -55t-54 -21t-54.5 21.5t-21.5 54.5z" />
    <glyph glyph-name="uni277C" unicode="&#x277c;" horiz-adv-x="796" 
d="M50 348q-1 71 26.5 134.5t75.5 111.5t111.5 75.5t134.5 26.5q70 2 133.5 -26.5t111.5 -76.5t76.5 -111.5t26.5 -133.5q2 -70 -26 -134t-76 -112.5t-111.5 -76.5t-134.5 -26q-70 -2 -134 26.5t-112 76.5t-75.5 112t-26.5 134zM392 164q18 182 135 307v53h-240v-56h167
q-55 -70 -86 -144.5t-41 -159.5h65z" />
    <glyph glyph-name="uni277D" unicode="&#x277d;" horiz-adv-x="796" 
d="M50 348q-1 71 26.5 134.5t75.5 111.5t111.5 75.5t134.5 26.5q70 2 133.5 -26.5t111.5 -76.5t76.5 -111.5t26.5 -133.5q2 -70 -26 -134t-76 -112.5t-111.5 -76.5t-134.5 -26q-70 -2 -134 26.5t-112 76.5t-75.5 112t-26.5 134zM537 277q0 32 -14.5 59.5t-38.5 37.5
q14 9 23.5 29.5t9.5 42.5q0 48 -33 76t-88 28t-89 -28.5t-34 -76.5q0 -18 9 -39t23 -34q-23 -9 -37.5 -36.5t-14.5 -60.5q0 -57 38.5 -89.5t104.5 -32.5t103.5 33.5t37.5 90.5zM338 442q0 20 16.5 33.5t41.5 13.5t41 -13.5t16 -33.5t-16 -33t-41 -13q-26 0 -42 13t-16 33z
M318 279q0 29 21.5 47.5t56.5 18.5q34 0 56 -18.5t22 -47.5q0 -28 -22 -46.5t-56 -18.5t-56 18.5t-22 46.5z" />
    <glyph glyph-name="uni277E" unicode="&#x277e;" horiz-adv-x="796" 
d="M50 348q-1 71 26.5 134.5t75.5 111.5t111.5 75.5t134.5 26.5q70 2 133.5 -26.5t111.5 -76.5t76.5 -111.5t26.5 -133.5q2 -70 -26 -134t-76 -112.5t-111.5 -76.5t-134.5 -26q-70 -2 -134 26.5t-112 76.5t-75.5 112t-26.5 134zM394 212q-62 2 -81 47l-60 -21q18 -39 54 -62
t84 -23q72 0 111.5 47.5t39.5 141.5q0 99 -38.5 153.5t-110.5 54.5q-59 0 -98 -40q-39 -39 -39 -100q0 -57 38 -95q37 -37 94 -37q26 0 51.5 9.5t42.5 30.5q0 -48 -22.5 -76.5t-65.5 -29.5zM469 413q0 -33 -21.5 -54t-55.5 -21q-31 0 -52 22t-21 54q0 33 21.5 54t55.5 21
q32 0 52.5 -21t20.5 -55z" />
    <glyph glyph-name="uni2780" unicode="&#x2780;" horiz-adv-x="879" 
d="M50 333q-1 79 30 150t85 125t125 85.5t150 29.5q78 2 149 -29.5t125 -85.5t85.5 -125.5t29.5 -149.5q2 -79 -29.5 -150t-85.5 -125t-125 -85.5t-149 -29.5q-79 -2 -150 29.5t-125 85.5t-85 125t-30 150zM760 333q2 64 -24 122.5t-70.5 103t-103 70.5t-122.5 24
q-65 2 -124 -23.5t-103 -70t-69.5 -103t-24.5 -123.5q-1 -65 24.5 -123.5t69.5 -103t103 -69.5t124 -24q65 -1 123.5 24t103 69.5t70 103t23.5 123.5zM348 471l76 39v-63l-76 -39v63zM424 510h63v-368h-63v368z" />
    <glyph glyph-name="uni2781" unicode="&#x2781;" horiz-adv-x="879" 
d="M829 333q2 -79 -29.5 -150t-85.5 -125t-125 -85.5t-149 -29.5q-79 -2 -150 29.5t-125 85.5t-85 125t-30 150q-1 79 30 150t85 125t125 85.5t150 29.5q78 2 149 -29.5t125 -85.5t85.5 -125.5t29.5 -149.5zM760 333q2 64 -24 122.5t-70.5 103t-103 70.5t-122.5 24
q-65 2 -124 -23.5t-103 -70t-69.5 -103t-24.5 -123.5q-1 -65 24.5 -123.5t69.5 -103t103 -69.5t124 -24q65 -1 123.5 24t103 69.5t70 103t23.5 123.5zM424 213h139v-62l-236 -1v54l154 139q16 15 23 27.5t7 26.5q0 31 -17.5 48t-46.5 17q-32 -1 -49 -19.5t-15 -52.5h-61
q-1 29 7.5 53t25.5 42t40.5 28t51.5 10q54 0 89.5 -34t36.5 -89q-1 -33 -15 -57.5t-47 -53.5z" />
    <glyph glyph-name="uni2782" unicode="&#x2782;" horiz-adv-x="879" 
d="M829 333q2 -79 -29.5 -150t-85.5 -125t-125 -85.5t-150 -29.5q-79 -2 -150 29.5t-124.5 85.5t-84.5 125t-30 149q-1 79 30 151t85 126t125 85t150 29q78 2 149 -29.5t125 -85.5t85.5 -125.5t29.5 -149.5zM760 332q1 65 -25 123.5t-70 102.5t-102.5 70t-123.5 25
q-65 2 -123.5 -23.5t-103 -70t-69.5 -103t-24 -123.5q-1 -65 24.5 -123.5t69.5 -103t103 -69.5t124 -24q65 -1 123.5 24.5t103 69.5t70 102.5t23.5 122.5zM566 259q0 -55 -35.5 -89.5t-92.5 -34.5q-29 0 -53 10t-41.5 28t-26 42t-7.5 51h61q-2 -31 17 -51.5t50 -20.5
q29 0 47.5 18.5t18.5 46.5q0 31 -20 48t-49 16h-54l-1 43l79 86h-133v63h222v-56l-77 -82q42 -9 68.5 -39.5t26.5 -78.5z" />
    <glyph glyph-name="uni2783" unicode="&#x2783;" horiz-adv-x="879" 
d="M829 333q2 -79 -29.5 -150t-85.5 -125t-125 -85.5t-149 -29.5q-79 -2 -150 29.5t-125 85.5t-85 125t-30 150q-1 79 30 150t85 125t125 85.5t150 29.5q78 2 149 -29.5t125 -85.5t85.5 -125.5t29.5 -149.5zM760 333q2 64 -24 122.5t-70.5 103t-103 70.5t-122.5 24
q-65 2 -124 -23.5t-103 -70t-69.5 -103t-24.5 -123.5q-1 -65 24.5 -123.5t69.5 -103t103 -69.5t124 -24q65 -1 123.5 24t103 69.5t70 103t23.5 123.5zM521 279h48v-62h-48v-71h-64v71h-173v62l173 235h64v-235zM457 279v131l-95 -131h95z" />
    <glyph glyph-name="uni2784" unicode="&#x2784;" horiz-adv-x="879" 
d="M50 333q-1 79 30 150t85 125t125 85.5t150 29.5q78 2 149 -29.5t125 -85.5t85.5 -125.5t29.5 -149.5q2 -79 -29.5 -150t-85.5 -125t-125 -85.5t-149 -29.5q-79 -2 -150 29.5t-125 85.5t-85 125t-30 150zM760 333q2 64 -24 122.5t-70.5 103t-103 70.5t-122.5 24
q-65 2 -124 -23.5t-103 -70t-69.5 -103t-24.5 -123.5q-1 -65 24.5 -123.5t69.5 -103t103 -69.5t124 -24q65 -1 123.5 24t103 69.5t70 103t23.5 123.5zM371 274q-2 -31 16.5 -52t50.5 -21q29 0 49.5 20t20.5 47q0 30 -20.5 50t-50.5 20q-20 0 -36 -9t-24 -23l-59 16l47 188
h192v-63h-142l-15 -56q20 7 40 7q54 0 92 -38t38 -94q0 -26 -10.5 -49t-28.5 -40.5t-42 -27.5t-51 -10q-29 0 -53.5 10.5t-41.5 28.5t-26.5 43t-8.5 53h63z" />
    <glyph glyph-name="uni2785" unicode="&#x2785;" horiz-adv-x="879" 
d="M50 333q-1 79 30 150t85 125t125 85.5t150 29.5q78 2 149 -29.5t125 -85.5t85.5 -125.5t29.5 -149.5q2 -79 -29.5 -150t-85.5 -125t-125 -85.5t-149 -29.5q-79 -2 -150 29.5t-125 85.5t-85 125t-30 150zM760 333q2 64 -24 122.5t-70.5 103t-103 70.5t-122.5 24
q-65 2 -124 -23.5t-103 -70t-69.5 -103t-24.5 -123.5q-1 -65 24.5 -123.5t69.5 -103t103 -69.5t124 -24q65 -1 123.5 24t103 69.5t70 103t23.5 123.5zM443 515q85 0 125 -73l-48 -33q-25 45 -76 45q-31 0 -55.5 -23t-30.5 -62q14 19 36.5 29.5t46.5 10.5q58 0 92.5 -38.5
t34.5 -95.5l-1 -15q-7 -55 -44 -87.5t-91 -32.5q-68 0 -103 51q-35 53 -35 127q0 61 23 115q17 37 51.5 59.5t74.5 22.5zM430 203q31 0 53 19t22 52q0 34 -20.5 54.5t-49.5 20.5t-50.5 -20t-21.5 -56q0 -32 19.5 -51t47.5 -19z" />
    <glyph glyph-name="uni2786" unicode="&#x2786;" horiz-adv-x="879" 
d="M829 333q2 -79 -29.5 -150t-85.5 -125t-125 -85.5t-149 -29.5q-79 -2 -150 29.5t-125 85.5t-85 125t-30 150q-1 79 30 150t85 125t125 85.5t150 29.5q78 2 149 -29.5t125 -85.5t85.5 -125.5t29.5 -149.5zM760 333q2 64 -24 122.5t-70.5 103t-103 70.5t-122.5 24
q-65 2 -124 -23.5t-103 -70t-69.5 -103t-24.5 -123.5q-1 -65 24.5 -123.5t69.5 -103t103 -69.5t124 -24q65 -1 123.5 24t103 69.5t70 103t23.5 123.5zM317 510h262v-66q-142 -106 -142 -300h-66q0 53 20 136q19 80 103 164h-177v66z" />
    <glyph glyph-name="uni2787" unicode="&#x2787;" horiz-adv-x="879" 
d="M50 333q-1 79 30 150t85 125t125 85.5t150 29.5q78 2 149 -29.5t125 -85.5t85.5 -125.5t29.5 -149.5q2 -79 -29.5 -150t-85.5 -125t-125 -85.5t-149 -29.5q-79 -2 -150 29.5t-125 85.5t-85 125t-30 150zM760 333q2 64 -24 122.5t-70.5 103t-103 70.5t-122.5 24
q-65 2 -124 -23.5t-103 -70t-69.5 -103t-24.5 -123.5q-1 -65 24.5 -123.5t69.5 -103t103 -69.5t124 -24q65 -1 123.5 24t103 69.5t70 103t23.5 123.5zM303 255q0 27 14 51t37 39q-39 31 -39 74q0 20 8.5 39t24.5 33.5t38.5 23.5t49.5 9t49 -8.5t37.5 -23t24 -33.5t8.5 -40
q0 -45 -39 -74q23 -14 36.5 -38t13.5 -51q0 -45 -33.5 -78t-97.5 -34q-64 0 -97.5 33t-34.5 78zM494 420q0 17 -16 30.5t-43 13.5q-28 -1 -43.5 -14t-15.5 -31q1 -17 16.5 -30.5t42.5 -13.5q28 1 43.5 14t15.5 31zM505 259q0 21 -18.5 36t-51.5 15t-51 -15.5t-18 -36.5
q0 -22 18 -38t51 -16t51.5 16t18.5 39z" />
    <glyph glyph-name="uni2788" unicode="&#x2788;" horiz-adv-x="879" 
d="M50 333q-1 79 30 150t85 125t125 85.5t150 29.5q78 2 149 -29.5t125 -85.5t85.5 -125.5t29.5 -149.5q2 -79 -29.5 -150t-85.5 -125t-125 -85.5t-149 -29.5q-79 -2 -150 29.5t-125 85.5t-85 125t-30 150zM760 333q2 64 -24 122.5t-70.5 103t-103 70.5t-122.5 24
q-65 2 -124 -23.5t-103 -70t-69.5 -103t-24.5 -123.5q-1 -65 24.5 -123.5t69.5 -103t103 -69.5t124 -24q65 -1 123.5 24t103 69.5t70 103t23.5 123.5zM430 245q-27 0 -50 10t-39.5 28t-25.5 43.5t-8 55.5q1 27 12 51t29.5 42t42.5 28.5t50 10.5q45 0 77.5 -24t44.5 -64
q17 -53 17 -101q0 -81 -40 -134q-39 -53 -112 -53q-79 0 -120 71l51 31q11 -20 30 -30.5t39 -10.5q33 0 58.5 23.5t29.5 65.5q-11 -21 -35.5 -32t-50.5 -11zM441 453q-29 0 -51.5 -22t-21.5 -53q-1 -33 19 -53.5t49 -20.5q31 0 53 22.5t22 57.5q-1 29 -20 49t-50 20z" />
    <glyph glyph-name="DegarismLogo" horiz-adv-x="1528" 
d="M731 275h229v-267h-82l-10 80h-9q0 -3 -7 -18t-23.5 -30.5t-44.5 -28t-71 -11.5q-95 0 -155 64q-60 65 -60 189q0 65 19.5 113.5t52 80.5t75 48t88.5 16q37 0 73.5 -10.5t67 -32.5t52.5 -55t29 -78h-113q-10 36 -37.5 57.5t-69.5 21.5q-63 0 -94.5 -44.5t-31.5 -112.5
q0 -34 7.5 -63.5t23 -51t39 -33.5t54.5 -12q43 0 73 23t38 60h-113v95zM997 457q0 22 16 38t39 16t38.5 -15.5t15.5 -38.5t-16 -39t-38 -16t-38.5 16.5t-16.5 38.5zM1135 457q0 22 16 38t39 16t38.5 -15.5t15.5 -38.5t-16 -39t-38 -16t-38.5 16.5t-16.5 38.5zM1276 511h84
v-21h-30v-85h-25v85h-29v21zM1488 511v-106h-25v91l-15 -91h-35l-14 91v-91h-25v106h44l12 -88l14 88h44zM464 257q0 -124 -61 -186.5t-169 -62.5h-194v498h194q108 0 169 -62.5t61 -186.5zM354 257q0 96 -42 127q-40 31 -78 31h-66q-25 2 -42.5 12t-19.5 12l-8 -8
q3 -3 11.5 -11t18.5 -19q15 -13 18.5 -29t3.5 -27v-177q0 -25 -10 -39.5t-12 -16.5l-30 -30l8 -7q3 3 22.5 13.5t47.5 10.5h58q39 0 79 30q41 32 41 128zM1210 345q18 0 34 -3v-89q-4 1 -18 1q-49 0 -76.5 -25.5t-27.5 -80.5v-140h-108v257q0 49 -7 77h109q2 -10 2.5 -20
t1.5 -20q22 43 90 43z" />
    <glyph glyph-name="G.ss01" horiz-adv-x="769" 
d="M714 381v-65q0 -72 -23 -132t-65.5 -103.5t-103 -67.5t-134.5 -24q-77 0 -140.5 26t-109.5 74t-71 116t-25 152t25.5 153t71 118.5t109.5 76.5t142 27q109 0 190.5 -51t119.5 -141l-85 -33q-30 69 -88.5 104.5t-136.5 35.5q-58 0 -105.5 -20.5t-81.5 -58t-52.5 -91.5
t-18.5 -120t18 -119t51.5 -89.5t81 -56t105.5 -19.5q103 0 166.5 60t69.5 172h-256v76h346z" />
    <glyph glyph-name="a.ss01" horiz-adv-x="599" 
d="M450 0q-4 35 -6 81q-25 -45 -71 -69t-106 -24q-53 0 -95.5 19t-72.5 53t-46 80.5t-16 101.5q0 56 16 103.5t46 82t73 53.5t97 19q60 0 106 -24.5t71 -69.5l4 81h75v-378q0 -22 2 -51.5t5 -57.5h-82zM437 244q0 41 -11.5 74.5t-32 57.5t-50 37t-65.5 13t-65 -13t-49.5 -37
t-32 -57.5t-11.5 -74.5t11.5 -74.5t32 -57.5t49.5 -37t65 -13t65.5 13.5t50 37.5t32 57.5t11.5 73.5z" />
    <glyph glyph-name="ampersand.ss02" horiz-adv-x="706" 
d="M686 0q-36 0 -57.5 1.5t-36.5 7.5t-28.5 18.5t-33.5 34.5l-6 8q-81 -81 -220 -81q-54 0 -100 14.5t-79.5 41.5t-52 65.5t-18.5 86.5q1 41 13 73.5t34 60.5t54.5 53.5t74.5 53.5l-6 8q-33 42 -49.5 74.5t-16.5 68.5q0 29 11 55.5t31.5 46t48.5 31t62 11.5q67 0 108 -40
q43 -40 43 -102q0 -48 -32.5 -87t-90.5 -79l179 -224q23 61 22 132h73q3 -116 -41 -199l13 -17q23 -30 40 -38q16 -7 34.5 -6.5t26.5 0.5v-73zM237 587q0 -22 12 -43.5t41 -57.5l5 -6q45 29 69 53.5t24 54.5q0 34 -21 54t-55 20q-33 0 -54 -19.5t-21 -55.5zM274 383
q-36 -24 -62.5 -45t-44 -42.5t-26 -44t-8.5 -49.5q0 -35 15 -61t39.5 -43.5t55 -26t60.5 -8.5q54 0 97.5 18t73.5 51z" />
    <glyph glyph-name="at.ss04" horiz-adv-x="928" 
d="M878 371q0 -55 -14.5 -103.5t-40.5 -84.5t-62 -56.5t-79 -20.5q-48 0 -79 24.5t-38 63.5q-16 -35 -55.5 -58t-88.5 -23q-60 0 -99.5 33.5t-39.5 93.5t41.5 96t110.5 36h134q3 18 3 34q0 89 -94 89q-46 -1 -75.5 -21t-46.5 -59l-45 16q23 55 68 83t99 28q70 0 108.5 -37
t38.5 -104q0 -5 -0.5 -12.5t-1.5 -18.5l-15 -130q-1 -4 -1 -16q0 -37 20.5 -57t55.5 -20q33 0 59.5 18.5t45 49t28.5 70.5t10 83q1 67 -24.5 125.5t-70 101.5t-104.5 67.5t-129 23.5q-79 2 -151 -30t-126.5 -87t-86 -127t-30.5 -151q-1 -71 25.5 -134.5t74.5 -111
t112.5 -74.5t138.5 -26q75 0 145 27t127 78l33 -34q-64 -57 -145 -87t-166 -30q-85 -2 -158 29t-127 85t-84 126t-29 152v14.5t1 11.5q4 85 42 161t99 133t140.5 90t166.5 31q81 1 151 -27.5t121 -78t79.5 -115.5t27.5 -140zM459 328q-64 0 -94 -24t-30 -66
q0 -40 25.5 -59.5t67.5 -19.5q61 0 96 43.5t41 125.5h-106z" />
    <glyph glyph-name="bracketleftsuperior" horiz-adv-x="208" 
d="M203 227h-156v642h156v-55h-91v-532h91v-55z" />
    <glyph glyph-name="bracketrightsuperior" horiz-adv-x="203" 
d="M91 282v532h-91v55h156v-642h-156v55h91z" />
    <glyph glyph-name="eight.dnom" horiz-adv-x="351" 
d="M43 99q0 27 14 52t37 39q-20 14 -29.5 33t-9.5 40t9 40t25 33.5t38.5 23.5t49.5 9q54 -1 86 -32t32 -73q0 -45 -38 -74q23 -14 36.5 -38.5t13.5 -52.5q0 -22 -8.5 -42t-25.5 -35.5t-42 -24.5t-58 -9q-63 0 -96 33t-34 78zM234 264q1 18 -15 31t-44 13q-29 -1 -44.5 -14.5
t-13.5 -31.5q0 -18 15.5 -30.5t42.5 -12.5q28 1 44 14t15 31zM245 101q1 21 -17.5 37.5t-52.5 16.5q-33 0 -51.5 -16.5t-17.5 -38.5q0 -21 18 -36.5t51 -15.5t51.5 15.5t18.5 37.5z" />
    <glyph glyph-name="eight.numr" horiz-adv-x="350" 
d="M43 446q0 28 14 52t37 39q-39 30 -39 73q0 21 9 40t24.5 33.5t38 23.5t49.5 9q54 -1 86.5 -32.5t32.5 -73.5q0 -21 -9.5 -40t-29.5 -33q23 -14 36.5 -38.5t13.5 -51.5q0 -45 -34.5 -78t-98.5 -33q-63 0 -96 32.5t-34 77.5zM234 611q0 18 -15.5 31t-43.5 13
q-28 -1 -43.5 -13.5t-15.5 -30.5q1 -18 16 -31t43 -13q27 0 43 13.5t16 30.5zM245 450q0 21 -18.5 36.5t-51.5 15.5t-51 -16t-18 -37q0 -22 18 -38t51 -16t51.5 16.5t18.5 38.5z" />
    <glyph glyph-name="eight.tf" horiz-adv-x="617" 
d="M563 194q0 -46 -19 -84t-53 -65t-80.5 -42t-101.5 -15t-102 15t-81 42t-53 65t-19 84q0 66 37 116.5t100 72.5q-52 22 -80 64t-28 96q0 45 17.5 80t48 59.5t72 37t88.5 12.5t88 -12.5t71 -37t47.5 -59.5t17.5 -80q0 -54 -28.5 -96.5t-79.5 -63.5q66 -20 102 -71.5
t36 -117.5zM161 540q0 -52 39 -86t108 -34q67 0 107 32.5t40 84.5q0 60 -40.5 90.5t-106.5 30.5q-63 0 -105 -30.5t-42 -87.5zM478 205q0 63 -48 98t-122 35q-36 0 -67 -9t-53.5 -26t-35.5 -41.5t-13 -56.5q0 -64 48 -102q49 -37 122 -37q36 0 67 9.5t53.5 27.5t35.5 43.5
t13 58.5z" />
    <glyph glyph-name="five.dnom" horiz-adv-x="355" 
d="M107 125q-2 -32 17 -53.5t52 -21.5q30 0 51 20.5t21 49.5q0 31 -21 51.5t-53 20.5q-20 0 -36.5 -9.5t-24.5 -23.5l-60 15l48 194h197v-64h-146l-15 -58q20 6 41 6q58 0 95 -39q39 -37 39 -95q0 -27 -11 -51t-29.5 -41.5t-43 -28t-52.5 -10.5q-30 0 -55 10.5t-42.5 29
t-27 43.5t-8.5 55h64z" />
    <glyph glyph-name="five.numr" horiz-adv-x="348" 
d="M106 474q-2 -31 16.5 -52t50.5 -21q29 0 49.5 20t20.5 47q0 30 -20.5 50t-50.5 20q-20 0 -36 -9t-24 -23l-59 16l47 188h192v-63h-142l-15 -56q20 7 40 7q54 0 92 -38t38 -94q0 -26 -10.5 -49t-28.5 -40.5t-42 -27.5t-51 -10q-29 0 -53.5 10.5t-41.5 28.5t-26.5 43
t-8.5 53h63z" />
    <glyph glyph-name="five.tf" horiz-adv-x="614" 
d="M565 237q0 -54 -19 -99.5t-53 -79t-81 -52t-103 -18.5q-55 0 -102 18.5t-81 51.5t-53 78t-19 97h85q0 -36 13 -66.5t36 -52.5t54.5 -34.5t68.5 -12.5q35 0 66 13t54 35.5t36 53.5t13 68q0 74 -47 121q-46 48 -124 48q-93 0 -150 -66l-81 14l91 366h352v-83h-286l-51 -196
q56 41 137 41q56 0 101.5 -19t77 -52t48.5 -78t17 -96z" />
    <glyph glyph-name="four.dnom" horiz-adv-x="374" 
d="M331 68h-48v-71h-64v71h-176v63l176 237h64v-238h48v-62zM219 130v132l-96 -131z" />
    <glyph glyph-name="four.numr" horiz-adv-x="372" 
d="M328 413h-47v-71h-64v71h-174v62l174 235h64v-236h47v-61zM217 474v131l-95 -130z" />
    <glyph glyph-name="four.ss03" horiz-adv-x="640" 
d="M615 146h-88v-146h-82v146h-397v83l397 -1v411l-298 -410h-99l357 491h99h23v-492h88v-82z" />
    <glyph glyph-name="four.tf" horiz-adv-x="608" 
d="M571 146h-88v-146h-82v146h-357v79l317 495h99l-317 -495h258v237h82v-237h88v-79z" />
    <glyph glyph-name="g.ss02" horiz-adv-x="595" 
d="M528 486v-472q0 -112 -65 -177t-174 -65q-90 0 -151 42t-86 115l75 30q14 -54 58.5 -83t105.5 -29q73 0 115 42.5t42 120.5v95q-26 -42 -72.5 -66.5t-106.5 -24.5q-52 0 -94.5 18.5t-72 51t-45.5 77t-16 96.5q0 51 16 95.5t46.5 77.5t73.5 51.5t97 18.5q58 0 104.5 -24
t71.5 -70l4 80h74zM441 258q0 35 -11 66t-31.5 54t-50 36.5t-66.5 13.5q-36 0 -65.5 -13t-50 -35.5t-31.5 -54t-11 -67.5q0 -73 43 -122t115 -49q36 0 65.5 13.5t50 37t32 54.5t11.5 66z" />
    <glyph glyph-name="i.loclTRK" horiz-adv-x="197" 
d="M140 487v-487h-83v487h83zM36 609q0 26 18.5 44.5t43.5 18.5t44 -18.5t19 -44.5q0 -25 -18.5 -43.5t-44.5 -18.5t-44 18.5t-18 43.5z" />
    <glyph glyph-name="i.ss04" horiz-adv-x="242" 
d="M187 658l-66 -66l-65 66l65 66zM163 487v-487h-83v487h83z" />
    <glyph glyph-name="nine.dnom" horiz-adv-x="366" 
d="M165 96q-52 4 -87 40.5t-35 93.5q0 30 10.5 55.5t29 44.5t43 30t52.5 11q43 0 77 -24t48 -66q19 -51 19 -111q0 -78 -39 -131q-37 -51 -110 -53q-80 0 -125 73l52 31q12 -21 31.5 -32t40.5 -11q33 0 58.5 24.5t27.5 67.5q-11 -21 -38.5 -33t-54.5 -10zM185 309
q-32 3 -56.5 -19.5t-23.5 -57.5q0 -33 21 -54.5t51 -21.5t51.5 21.5t21.5 56.5q0 30 -17.5 50.5t-47.5 24.5z" />
    <glyph glyph-name="nine.numr" horiz-adv-x="361" 
d="M170 445q-52 0 -90 36q-37 37 -37 95q0 29 10.5 54t28.5 43.5t42 29.5t51 11q45 0 77.5 -24t45.5 -64q19 -51 19 -109q0 -76 -38 -128q-37 -51 -109 -51q-78 0 -122 71l52 31q11 -21 30 -31t39 -10q33 0 58.5 23.5t27.5 65.5q-11 -21 -35 -32t-50 -11zM176 653
q-29 0 -50.5 -21t-21.5 -52q0 -34 20.5 -55t50.5 -21t51 21t21 55q0 30 -20 51.5t-51 21.5z" />
    <glyph glyph-name="nine.tf" horiz-adv-x="639" 
d="M587 371q0 -82 -20 -152t-59.5 -121.5t-98.5 -80.5t-137 -29q-64 0 -119 21t-94 57l51 61q72 -60 166 -60q58 0 101 22t71 60t42 89.5t13 111.5q-26 -60 -83 -92t-124 -32q-54 1 -100 19t-79.5 50.5t-53 78.5t-19.5 101t19.5 102.5t54 82t81.5 54t102 19.5
q72 0 126 -27.5t89.5 -76t53 -114.5t17.5 -144zM478 478q0 41 -13.5 73.5t-37 55.5t-55.5 35.5t-69 12.5t-69 -12.5t-55.5 -35.5t-37 -55.5t-13.5 -73.5q0 -40 14 -73t38 -56t56.5 -36t70.5 -13q36 0 67 13t54.5 36.5t36.5 56.5t13 72z" />
    <glyph glyph-name="one.dnom" horiz-adv-x="216" 
d="M43 336l67 32v-66l-67 -28v62zM173 368v-368h-62l-1 368h63z" />
    <glyph glyph-name="one.numr" horiz-adv-x="217" 
d="M43 679l67 31v-66l-67 -27v62zM174 710v-368h-63l-1 368h64z" />
    <glyph glyph-name="one.tf" horiz-adv-x="532" 
d="M480 76v-76h-227h-148v76h148v558l-125 -67v83l125 70h84v-644h143z" />
    <glyph glyph-name="registered.ss01" horiz-adv-x="531" 
d="M491 498q0 -47 -17.5 -88t-48 -72t-71.5 -48.5t-87 -17.5q-47 0 -88.5 17.5t-72 48.5t-48.5 72t-18 88q0 46 18 86.5t48.5 71t72 48t88.5 17.5q46 0 87 -17.5t71.5 -48t48 -71t17.5 -86.5zM454 496q0 39 -14.5 73.5t-40 60t-60 40t-73.5 14.5q-40 0 -74 -14.5t-59 -40
t-39.5 -60t-14.5 -73.5q0 -40 14 -74t39 -59t59.5 -39t74.5 -14q39 0 73.5 14.5t60 39.5t40 59t14.5 73zM345 397h-45l-34 78h-26v-78h-39v200h39h29q71 2 74 -57v-3v-2q-2 -41 -35 -54zM240 510h35q13 0 18 6t6 19v1v2q-2 20 -30 20h-29v-48z" />
    <glyph glyph-name="seven.dnom" horiz-adv-x="350" 
d="M307 368v-67q-70 -52 -102 -117q-31 -64 -36 -106q-2 -20 -3 -39.5t-1 -38.5h-67q0 54 20 137q19 80 103 164h-178v67h264z" />
    <glyph glyph-name="seven.numr" horiz-adv-x="349" 
d="M306 710v-66q-142 -106 -142 -300h-67q0 51 20 136q21 82 103 164h-177v66h263z" />
    <glyph glyph-name="seven.tf" horiz-adv-x="561" 
d="M516 719v-85q-133 -110 -194 -246t-75 -230q-12 -93 -12 -158h-86q0 60 12 151q6 46 23.5 103t46.5 126q59 140 178 254h-369v85h476z" />
    <glyph glyph-name="six.dnom" horiz-adv-x="369" 
d="M324 127q0 -30 -10 -55t-28.5 -43.5t-44.5 -29t-57 -10.5q-34 0 -60.5 13.5t-44.5 38t-27 58t-9 72.5q0 86 40 142q41 57 116 57q42 0 75 -17t52 -48l-51 -34q-27 37 -75 37q-36 0 -59.5 -23t-30.5 -61q13 18 35.5 27.5t49.5 9.5q59 0 93 -39q36 -39 36 -95zM258 123
q0 34 -21 54.5t-52 20.5t-51 -20t-20 -55t20 -54t50 -19q31 0 52.5 19t21.5 54z" />
    <glyph glyph-name="six.numr" horiz-adv-x="369" 
d="M324 474q0 -29 -10.5 -54t-29 -43t-44.5 -28.5t-56 -10.5q-34 0 -60.5 13.5t-44.5 37.5t-27 57t-9 72q0 85 41 141t115 56q42 0 74.5 -16.5t52.5 -47.5l-51 -34q-25 36 -75 36q-36 0 -59.5 -22.5t-30.5 -59.5q13 18 35.5 27.5t49.5 9.5q59 0 93 -39q36 -39 36 -95z
M258 471q0 34 -21 54t-52 20t-51 -20t-20 -55q0 -34 20 -53t50 -19q31 0 52.5 19t21.5 54z" />
    <glyph glyph-name="six.tf" horiz-adv-x="633" 
d="M591 246q0 -56 -19.5 -103.5t-54 -82t-81.5 -53.5t-102 -19q-72 0 -126 27.5t-89.5 76t-53 114.5t-17.5 143q0 82 20 152.5t59 122t98 80.5t137 29q64 0 119.5 -21t94.5 -58l-52 -61q-36 30 -79 45t-86 15q-58 0 -101 -22t-71 -60t-42 -89.5t-13 -111.5q26 60 81.5 92
t122.5 32q54 0 100.5 -18t81 -51t54 -78.5t19.5 -100.5zM506 242q0 40 -13.5 73t-37.5 56t-56.5 36t-70.5 13q-36 0 -67 -13t-54.5 -36.5t-36.5 -56.5t-13 -72q0 -40 13.5 -72.5t37.5 -55.5t56 -36t68 -13q37 0 68.5 13t55 36t37 55.5t13.5 72.5z" />
    <glyph glyph-name="t.ss03" horiz-adv-x="339" 
d="M296 0q-36 -10 -73 -10q-63 0 -96.5 35.5t-33.5 104.5v287h-76v70h76v153h82v-153h116v-70h-116v-278q-1 -39 16.5 -57.5t47.5 -18.5q22 0 47 9z" />
    <glyph glyph-name="three.dnom" horiz-adv-x="349" 
d="M305 118q0 -54 -37 -89t-94 -35q-56 0 -94 35q-37 36 -37 87q0 12 1 15h64q-1 -5 -1.5 -9t-0.5 -6q0 -25 19 -42.5t49 -17.5t49 17t19 45q0 29 -20 47t-47 18q-15 0 -29 -6l-32 48h1h-1l82 80h-137v63h234v-57l-77 -74q39 -12 64 -43t25 -76z" />
    <glyph glyph-name="three.numr" horiz-adv-x="343" 
d="M300 460q0 -52 -38 -88q-37 -36 -90 -36t-91 36t-38 88l1 13h63q-1 -3 -1 -14q0 -25 19.5 -43t46.5 -18t46 18t19 44q0 30 -24 51q-17 13 -41 13q-3 0 -7 -0.5t-9 -1.5q-4 -1 -7 -2t-5 -2l-31 49l80 80h-133v63h229v-57l-76 -75q30 -10 54 -34q33 -36 33 -84z" />
    <glyph glyph-name="three.tf" horiz-adv-x="589" 
d="M530 221q0 -52 -19.5 -95t-52.5 -73.5t-77.5 -47.5t-95.5 -17t-96 17.5t-78.5 49t-53 74t-19.5 93.5h86q0 -33 12.5 -61t34 -49t51.5 -33t65 -12q33 0 62 11.5t50 31.5t33.5 48.5t12.5 62.5q0 63 -38.5 105.5t-104.5 48.5q-10 1 -25.5 1.5t-38.5 0.5h-44v60l212 204h-333
v79h442v-83l-197 -186q45 -5 83.5 -23.5t67 -48.5t45 -70t16.5 -88z" />
    <glyph glyph-name="two.dnom" horiz-adv-x="340" 
d="M49 63l142 122q24 21 32.5 34t8.5 31q0 29 -17 44.5t-48 15.5q-28 0 -45 -16.5t-17 -44.5q0 -10 1 -13h-63q-2 29 7 54t27 43t43 28.5t54 10.5q54 -1 87.5 -34.5t34.5 -87.5q0 -59 -64 -113l-89 -75h145v-62h-239v63z" />
    <glyph glyph-name="two.numr" horiz-adv-x="340" 
d="M49 403l143 122q23 20 31.5 33.5t8.5 31.5q0 28 -16.5 44t-45.5 16q-30 0 -47.5 -16.5t-17.5 -45.5q0 -10 1 -13h-63q-2 29 7 54t26 43t42 28.5t54 10.5q55 0 89.5 -33.5t34.5 -88.5q0 -60 -64 -112l-89 -75h145v-62l-239 -1v64z" />
    <glyph glyph-name="two.tf" horiz-adv-x="597" 
d="M181 79l341 2v-79l-454 -2v92l301 259q48 43 66 78t18 72q0 69 -43 111.5t-113 42.5q-69 0 -112 -42.5t-43 -114.5h-84q0 54 18 97.5t50 74t76 47t97 16.5q56 0 100.5 -18t75.5 -49t47.5 -73t16.5 -90q0 -66 -29 -115t-86 -98z" />
    <glyph glyph-name="zero.dnom" horiz-adv-x="406" 
d="M202 -14q-72 0 -115.5 51.5t-43.5 138.5q0 42 11 76.5t31.5 59.5t49 39t64.5 14q74 3 119 -50q45 -52 45 -139t-44 -138.5t-117 -51.5zM299 176q0 57 -26.5 91t-69.5 34q-45 0 -71 -34t-26 -91t26 -91.5t71 -35.5q45 1 70.5 35.5t25.5 91.5z" />
    <glyph glyph-name="zero.numr" horiz-adv-x="407" 
d="M203 338q-73 0 -116.5 52t-43.5 140q0 42 11 77t31.5 60t49 39t64.5 14q74 3 119 -50q45 -52 45 -140t-43.5 -140t-116.5 -52zM299 530q0 57 -25 91t-70 35q-45 -1 -71 -35t-26 -91q0 -58 26 -92.5t71 -35.5q43 1 69 35.5t26 92.5z" />
    <glyph glyph-name="zero.tf" horiz-adv-x="716" 
d="M360 733q72 0 130 -27.5t99 -77.5t63 -119t22 -152t-22.5 -151t-63.5 -116.5t-98.5 -75t-128.5 -26.5q-72 0 -129.5 26.5t-98 75.5t-62.5 118t-22 153q0 81 22.5 149.5t63 118t98 77t127.5 27.5zM363 66q50 0 91.5 20t71.5 57.5t46.5 92t16.5 123.5t-17 123.5t-47 93
t-72 58.5t-92 20q-49 -1 -91 -21t-73 -58t-48 -92.5t-17 -123.5t17 -123.5t48 -92t73 -57.5t93 -20z" />
    </font>
</defs>
</svg>
