<?xml version="1.0" standalone="no"?>
<!DOCTYPE svg PUBLIC "-//W3C//DTD SVG 1.1//EN" "http://www.w3.org/Graphics/SVG/1.1/DTD/svg11.dtd" >
<svg xmlns="http://www.w3.org/2000/svg" xmlns:xlink="http://www.w3.org/1999/xlink" version="1.1">
<metadata>
Created by FontForge 20201107 at Thu Jul 10 13:50:11 2025
 By 
Copyright (C)2017 Commercial Type.
</metadata>
<defs>
<font id="DrukWideCy-SuperItalic" horiz-adv-x="1433" >
  <font-face 
    font-family="Druk Wide Cy Super"
    font-weight="1000"
    font-style="italic"
    font-stretch="normal"
    units-per-em="2048"
    panose-1="0 0 0 0 0 0 0 0 0 0"
    ascent="1638"
    descent="-410"
    x-height="1102"
    cap-height="1524"
    bbox="-219 -668 6058 2478"
    underline-thickness="172"
    underline-position="-41"
    slope="-9"
    unicode-range="U+0020-FB04"
  />
<missing-glyph horiz-adv-x="1024" 
 />
    <glyph glyph-name="f_f" unicode="ff" horiz-adv-x="2222" 
d="M1165 0l111 696h-285l-110 -696h-727l110 696h-225l65 406h224l14 90q27 166 139 249t326 83h528l-55 -340h-158q-33 0 -44.5 -13t-16.5 -43l-4 -26h282l15 90q27 166 139 249t326 83h528l-55 -340h-158q-33 0 -44.5 -13t-16.5 -43l-5 -26h211l-65 -406h-211l-111 -696
h-727z" />
    <glyph glyph-name="f_i" unicode="fi" horiz-adv-x="2025" 
d="M1329 1524l-55 -340h-152q-33 0 -44.5 -13t-16.5 -43l-4 -26h207l-66 -406h-207l-110 -696h-727l110 696h-225l65 406h224l14 90q27 166 139 249t326 83h522zM2132 1524l-57 -359h-727l57 359h727zM2064 1102l-174 -1102h-727l174 1102h727z" />
    <glyph glyph-name="f_l" unicode="fl" horiz-adv-x="2025" 
d="M1329 1524l-55 -340h-152q-33 0 -44.5 -13t-16.5 -43l-4 -26h207l-66 -406h-207l-110 -696h-727l110 696h-225l65 406h224l14 90q27 166 139 249t326 83h522zM2132 1524l-242 -1524h-727l242 1524h727z" />
    <glyph glyph-name="emdash.alt" unicode="&#x2014;&#x2014;" horiz-adv-x="6049" 
d="M6044 774l-54 -334h-5963l53 334h5964z" />
    <glyph glyph-name=".notdef" horiz-adv-x="1024" 
 />
    <glyph glyph-name=".null" horiz-adv-x="0" 
 />
    <glyph glyph-name="nonmarkingreturn" horiz-adv-x="682" 
 />
    <glyph glyph-name="space" unicode=" " horiz-adv-x="595" 
 />
    <glyph glyph-name="exclam" unicode="!" horiz-adv-x="983" 
d="M152 1524h989l-424 -979h-453zM836 475l-74 -475h-717l76 475h715z" />
    <glyph glyph-name="quotedbl" unicode="&#x22;" horiz-adv-x="1280" 
d="M762 1524l-94 -596h-566l95 596h565zM1393 1524l-95 -596h-565l94 596h566z" />
    <glyph glyph-name="numbersign" unicode="#" horiz-adv-x="1859" 
d="M766 0l156 371h-269l-155 -371h-414l156 371h-267l127 303h267l104 250h-266l127 303h264l125 297h416l-125 -297h270l125 297h416l-125 -297h266l-129 -303h-266l-105 -250h267l-129 -303h-267l-155 -371h-414zM780 674h269l106 250h-270z" />
    <glyph glyph-name="dollar" unicode="$" horiz-adv-x="2228" 
d="M1159 -31h-43l-18 -123h-213l18 123h-6q-161 0 -293.5 16t-223.5 43t-163 64.5t-111 80t-69 89t-36 92t-12 88.5t3 80h815q0 -62 32 -103t128 -57l37 230l-242 12q-156 8 -272.5 38t-186.5 71.5t-112.5 100t-58 117t-15.5 130.5q0 49 12 102q32 137 139.5 221t313 125
t530.5 41h43l16 109h213l-16 -109q123 0 228.5 -8t186 -23t148 -35.5t114 -46t84 -55t58.5 -61t37 -65t19.5 -67t6.5 -67t-3 -65.5h-783q0 51 -30.5 83t-124.5 44l-29 -189l248 -12q363 -17 520.5 -116.5t157.5 -299.5q0 -63 -6 -110q-10 -72 -34.5 -130.5t-72.5 -115.5
t-126 -99.5t-188 -75.5t-266.5 -50t-353.5 -17zM897 1104q0 -42 35 -64t137 -32l29 182q-111 -3 -156 -23t-45 -63zM1376 463q0 47 -31.5 72.5t-132.5 39.5l-34 -217q108 7 153 33.5t45 71.5z" />
    <glyph glyph-name="percent" unicode="%" horiz-adv-x="3102" 
d="M823 1538q144 0 255.5 -23t179.5 -60t111.5 -90t60 -107.5t16.5 -116.5q0 -27 -1.5 -49.5t-9 -60.5t-20 -70t-37.5 -71.5t-58.5 -70.5t-86.5 -62t-118.5 -51.5t-156.5 -33.5t-198 -13h-43q-144 0 -255.5 23t-179.5 60.5t-111.5 90.5t-60 107.5t-16.5 116.5q0 36 3 66
t17.5 82t40 93.5t77 88.5t121.5 78t180 52t247 21h43zM2281 1524h482l-1880 -1524h-482zM936 1124q0 50 -36 83.5t-112 33.5q-51 0 -88 -15t-56 -40.5t-27.5 -52t-8.5 -56.5q0 -50 33.5 -82t110.5 -32q95 0 139.5 49t44.5 112zM2449 864q144 0 255.5 -23t180 -60.5
t112.5 -90t60.5 -107t16.5 -116.5q0 -36 -3 -66.5t-17.5 -82.5t-40 -93.5t-77.5 -88.5t-122 -78.5t-180.5 -52.5t-247.5 -21h-41q-145 0 -256.5 23t-180 60.5t-112 91t-60 107.5t-16.5 117q0 36 3 66t17.5 82t40 93.5t77.5 88.5t122 78t180.5 52t247.5 21h41zM2380 287
q94 0 139 50t45 114q0 50 -36 83t-113 33q-51 0 -88 -15t-56.5 -40.5t-28 -52t-8.5 -56.5q0 -51 34 -83.5t112 -32.5z" />
    <glyph glyph-name="ampersand" unicode="&#x26;" horiz-adv-x="2482" 
d="M2228 -23q-232 -5 -385.5 16t-271.5 75q-249 -99 -651 -99q-199 0 -356.5 22t-263.5 61t-176 95t-101 122t-31 145q0 344 639 401q-104 91 -148.5 171t-44.5 175q0 37 7.5 71.5t30 75t58.5 74.5t97.5 66.5t142 55.5t198 36.5t259.5 13.5h121q163 0 287 -18.5t198.5 -49
t120.5 -75t63 -90t17 -100.5q0 -278 -596 -377l293 -244q102 140 133 311h586q-46 -266 -300 -485q68 -6 320 -6zM1087 1178q0 -39 31 -75t125 -108q199 65 199 168q0 107 -172 107q-91 0 -137 -24.5t-46 -67.5zM754 514q0 -95 83.5 -149t249.5 -54q81 0 138 8l-402 338
q-69 -64 -69 -143z" />
    <glyph glyph-name="quotesingle" unicode="'" horiz-adv-x="649" 
d="M762 1524l-94 -596h-566l95 596h565z" />
    <glyph glyph-name="parenleft" unicode="(" horiz-adv-x="804" 
d="M31 541q0 133 26.5 259t69 225t102 190.5t118.5 158.5t125 125.5t116 93.5t96 62h326q-74 -93 -126 -166t-118.5 -190t-107.5 -227.5t-70 -259t-29 -304.5q0 -135 13 -255.5t40 -224t44.5 -158.5t48.5 -138h-318q-35 34 -66 68t-89 115.5t-98 165t-71.5 207.5t-31.5 253z
" />
    <glyph glyph-name="parenright" unicode=")" horiz-adv-x="804" 
d="M821 846q0 -133 -26.5 -259t-69 -225t-102 -190.5t-118.5 -158.5t-125 -125.5t-116 -93.5t-96 -62h-326q74 93 126 166t118.5 190t107.5 227.5t70 259t29 304.5q0 135 -13 255.5t-40 224t-44.5 158.5t-48.5 138h318q35 -34 66 -68t89 -115.5t98 -165t71.5 -207.5
t31.5 -253z" />
    <glyph glyph-name="asterisk" unicode="*" horiz-adv-x="1009" 
d="M743 1288l222 176l135 -329l-303 -45l286 -72l-217 -324l-176 172l27 -235h-393l106 235l-233 -155l-115 329l299 50l-287 65l217 326l168 -193l-28 236h393z" />
    <glyph glyph-name="plus" unicode="+" horiz-adv-x="1292" 
d="M1235 455h-391l-58 -361h-426l58 361h-389l57 356h387l57 358h426l-57 -358h393z" />
    <glyph glyph-name="comma" unicode="," horiz-adv-x="800" 
d="M475 -276h-375q44 56 89 137.5t59 138.5h-291l76 475h712l-61 -385q-14 -89 -77.5 -192.5t-131.5 -173.5z" />
    <glyph glyph-name="hyphen" unicode="-" horiz-adv-x="774" 
d="M88 827h688l-69 -438h-689z" />
    <glyph glyph-name="period" unicode="." horiz-adv-x="800" 
d="M745 475l-75 -475h-713l76 475h712z" />
    <glyph glyph-name="slash" unicode="/" horiz-adv-x="1050" 
d="M1251 1655l-927 -1923h-529l926 1923h530z" />
    <glyph glyph-name="zero" unicode="0" horiz-adv-x="2387" 
d="M2408 872q0 -94 -12 -167q-13 -76 -33 -142.5t-61.5 -143.5t-99 -139t-149.5 -122t-207.5 -100t-279 -64.5t-358.5 -24.5h-102q-180 0 -330 22t-257.5 60t-190.5 92t-134.5 114t-84.5 131t-45.5 137.5t-12.5 138.5q0 88 10 157q11 77 32 145t63 144t100.5 138.5
t151 120.5t208.5 98t278 63.5t355 23.5h101q186 0 340 -22.5t261.5 -59.5t190 -91.5t132 -112.5t81 -128.5t42.5 -134t11 -133.5zM1622 813q0 50 -20 94t-61.5 81.5t-115 59t-170.5 21.5q-104 0 -183 -24t-125 -64.5t-71 -84t-34 -93.5q-6 -37 -6 -78q0 -51 20.5 -97
t62.5 -84.5t114.5 -61.5t166.5 -23q103 0 182 24t126 65.5t73 88.5t35 102q6 37 6 74z" />
    <glyph glyph-name="one" unicode="1" horiz-adv-x="1228" 
d="M453 817h-385l59 377q211 12 348 94t211 236h637l-242 -1524h-757z" />
    <glyph glyph-name="two" unicode="2" horiz-adv-x="2158" 
d="M874 977h-763l2 12q8 46 16.5 81t26.5 83.5t42.5 86t65.5 81t92.5 75.5t126.5 63t166 51t212 32t263 12h97q227 0 399.5 -24t279 -63.5t173 -98.5t91.5 -121t25 -139q0 -82 -18.5 -144t-62.5 -112.5t-108 -87t-165 -67.5t-223.5 -54t-292.5 -45l-252 -33
q-158 -21 -252.5 -44t-128.5 -45.5t-35 -49.5h793l24 149h660l-92 -575h-2097l30 193q8 49 15 83t24 86t39.5 91t62 89.5t89.5 90.5t124 85t164 82t211.5 73t264.5 65q112 22 233 43q91 16 135.5 31t54 27t9.5 34q0 24 -15 39.5t-67 26t-144 10.5q-56 0 -102 -8t-75.5 -19
t-52 -29t-33.5 -31.5t-19 -34t-9.5 -28t-3.5 -22.5z" />
    <glyph glyph-name="three" unicode="3" horiz-adv-x="2265" 
d="M2251 551q0 -55 -9 -103.5t-38 -109.5t-77.5 -111t-135 -99.5t-202 -83t-287 -54.5t-382.5 -21h-102q-172 0 -316 16t-245 44.5t-182.5 67t-128.5 83.5t-82.5 93.5t-45.5 97.5t-17 96t3 88l2 18h768q0 -11 0.5 -19t6.5 -26.5t16 -32t32.5 -30.5t53 -28t80.5 -19t112 -8
q108 0 178.5 9t103 26t43.5 34t11 41q0 40 -29.5 58t-95.5 18h-442l61 385h447q135 0 135 74q0 20 -10.5 33t-40.5 25t-91 18t-155 6q-86 0 -150.5 -12t-98 -27.5t-54.5 -36.5t-26 -33t-7 -24h-764l2 12q9 54 21.5 97.5t44.5 102t78 102.5t126.5 90.5t185 76.5t259 49.5
t342.5 19.5h94q186 0 337 -10.5t258.5 -28.5t188.5 -45.5t130.5 -58t80 -69.5t41.5 -77t11 -83q0 -56 -21.5 -102.5t-56 -77.5t-82.5 -54.5t-95.5 -36.5t-101.5 -20q65 -16 119 -41.5t100.5 -65.5t72.5 -99.5t26 -133.5z" />
    <glyph glyph-name="four" unicode="4" horiz-adv-x="2236" 
d="M37 653l1157 881h852l-131 -821h326l-74 -469h-326l-39 -244h-764l39 244h-1104zM1151 713l66 401l-523 -401h457z" />
    <glyph glyph-name="five" unicode="5" horiz-adv-x="2129" 
d="M2101 459q-12 -56 -29.5 -102t-52.5 -98t-84 -92.5t-126.5 -78.5t-176 -63.5t-237 -40.5t-305.5 -15h-101q-159 0 -293 13.5t-229.5 36t-170.5 55.5t-122 67t-80 75.5t-47.5 77t-20.5 75t-5 65.5t6 53l2 13h776q1 -9 4 -18.5t19 -26.5t41 -29.5t75.5 -22.5t118.5 -10
q266 0 266 158q0 137 -233 137q-65 0 -117 -10t-80.5 -23.5t-48 -31t-25.5 -29.5t-8 -21h-758l152 951h1943l-63 -400h-1182l-30 -200q22 15 55 30.5t100 39.5t173 38.5t231 14.5h14q115 0 210 -13.5t163 -37t119.5 -58t83.5 -73t52.5 -86.5t28 -94.5t7.5 -100.5
q0 -48 -15 -125z" />
    <glyph glyph-name="six" unicode="6" horiz-adv-x="2273" 
d="M2265 1047h-760q-48 100 -252 100q-95 0 -167 -25.5t-115.5 -70t-68 -93t-36.5 -106.5q23 17 57 34t106 43.5t189 43t259 16.5h24q169 0 299 -19t216.5 -53.5t141 -86t78 -112t23.5 -136.5q0 -54 -8 -109q-8 -50 -20.5 -91t-45.5 -95t-80.5 -96.5t-130 -85.5
t-189.5 -71.5t-264.5 -46.5t-349.5 -18h-94q-173 0 -317.5 20t-249 54.5t-185 85t-132 108t-84 126.5t-45.5 136.5t-13 143.5q0 71 6 133q7 65 20.5 124.5t49 141t86.5 149t140 137t202.5 117.5t280.5 78.5t368 30.5h94q177 0 321.5 -17.5t243 -46t173 -70t117.5 -84t69 -94
t34.5 -94.5t8.5 -91v-10zM846 494q0 -111 297 -111q85 0 146.5 9t95 22.5t52.5 33.5t24 36.5t5 37.5q0 107 -290 107q-86 0 -149 -9t-97 -22t-53.5 -32.5t-25 -35.5t-5.5 -36z" />
    <glyph glyph-name="seven" unicode="7" horiz-adv-x="2082" 
d="M1737 723q-169 -189 -249.5 -361.5t-94.5 -361.5h-832l27 160q13 83 34.5 144.5t66.5 129.5t120.5 136.5t191.5 148.5q32 22 120 81t134.5 90.5t107 75t89 69t29.5 36.5h-660l-41 -260h-698l113 713h2013l-60 -379q-8 -8 -69 -68t-104.5 -104t-112 -115.5t-125.5 -134.5z
" />
    <glyph glyph-name="eight" unicode="8" horiz-adv-x="2242" 
d="M2288 1145q0 -138 -118 -228t-321 -110q200 -39 285.5 -131t85.5 -232q0 -43 -6.5 -80t-33 -87.5t-70.5 -90.5t-126.5 -82.5t-194 -70.5t-281 -46t-378.5 -18h-81q-250 0 -435.5 22.5t-300.5 61t-184 97t-95 123t-26 147.5q0 72 27 132t71.5 102t106.5 74t127.5 50.5
t140.5 28.5q-157 30 -248.5 112.5t-91.5 204.5q0 34 3 61.5t15.5 63.5t33.5 65t60 61.5t92 57.5t132.5 48.5t179 39t234.5 24.5t295 9h86q181 0 327.5 -11.5t251 -31t183 -49.5t126.5 -63.5t77 -76.5t40 -85t11 -92zM1194 981q94 0 155.5 8t88.5 23.5t36 30t9 34.5
q0 28 -20.5 45.5t-82 29t-166.5 11.5q-79 0 -134.5 -6t-85 -14t-45.5 -22t-19.5 -25.5t-3.5 -28.5q0 -29 21.5 -47t81.5 -28.5t165 -10.5zM1106 389q104 0 174 9.5t102 27.5t44 35.5t12 40.5q0 98 -303 98q-104 0 -172.5 -9t-99.5 -27t-41.5 -35.5t-10.5 -43.5
q0 -96 295 -96z" />
    <glyph glyph-name="nine" unicode="9" horiz-adv-x="2267" 
d="M74 477h760q56 -100 253 -100q94 0 166 25.5t115.5 70t68 93t36.5 106.5q-192 -140 -590 -140h-25q-176 0 -311 22t-222 61t-142.5 96t-78 122t-22.5 144q0 55 6 102q6 48 20.5 90t47.5 91.5t82 90t130.5 79.5t187 65.5t256 42.5t333.5 16h94q173 0 317.5 -19t251.5 -53
t190 -82.5t137 -105t89 -124t49.5 -135t14.5 -142.5q0 -64 -7 -139q-6 -64 -19.5 -124t-48 -142t-85.5 -150.5t-138.5 -139t-199.5 -119t-277.5 -79.5t-363.5 -31h-94q-179 0 -326 17.5t-247 46t-175.5 70t-119 84.5t-70 94.5t-35 94.5t-8.5 91v10zM1493 1030
q0 111 -297 111q-84 0 -145.5 -9.5t-94.5 -22.5t-52.5 -33.5t-24.5 -37t-5 -37.5q0 -106 289 -106q86 0 149 9t97 22t53.5 32.5t25 35.5t5.5 36z" />
    <glyph glyph-name="colon" unicode=":" horiz-adv-x="808" 
d="M842 1055l-76 -475h-713l76 475h713zM750 475l-76 -475h-713l76 475h713z" />
    <glyph glyph-name="semicolon" unicode=";" horiz-adv-x="808" 
d="M844 1055l-76 -475h-713l76 475h713zM479 -276h-375q44 56 89 137.5t59 138.5h-291l76 475h713l-62 -385q-14 -89 -77.5 -192.5t-131.5 -173.5z" />
    <glyph glyph-name="less" unicode="&#x3c;" horiz-adv-x="1095" 
d="M1030 475l-59 -366l-946 313l61 395l1049 316l-60 -373l-637 -152z" />
    <glyph glyph-name="equal" unicode="=" horiz-adv-x="1222" 
d="M123 1001h1124l-53 -333h-1124zM59 598h1125l-54 -334h-1124z" />
    <glyph glyph-name="greater" unicode="&#x3e;" horiz-adv-x="1095" 
d="M1036 424l-1056 -315l61 378l643 152l-598 133l57 361l955 -314z" />
    <glyph glyph-name="question" unicode="?" horiz-adv-x="2045" 
d="M1409 637q-66 -12 -91 -30.5t-34 -63.5h-715l19 104q8 46 15 74t21 64t35.5 59t54.5 47t81.5 40t113.5 27l295 52q96 18 128 32.5t32 42.5q0 16 -7 26.5t-29 21t-71.5 15.5t-126.5 5q-81 0 -140 -10t-90 -23t-50.5 -36t-24.5 -37.5t-10 -38.5h-727l4 32q7 57 19.5 102
t42 100t74.5 96.5t121 83t176 68.5t245 43.5t324 16.5h98q168 0 304 -12.5t231 -34t165.5 -54.5t112.5 -68t67 -81t33.5 -88t8.5 -94q0 -166 -104.5 -282t-328.5 -154zM1276 475l-74 -475h-719l76 475h717z" />
    <glyph glyph-name="at" unicode="@" horiz-adv-x="2678" 
d="M2419 -125q-326 -180 -1147 -180q-214 0 -389.5 21.5t-303 58.5t-224 93.5t-157.5 120.5t-99 145t-53 161.5t-15 175.5q0 74 6.5 142t26.5 151t52.5 155.5t88 149.5t129.5 140t181 120t238 96t305 62t378 24h32q221 0 399.5 -19.5t303.5 -52t218.5 -83t149 -105
t89.5 -126t45.5 -138t11.5 -147.5q0 -107 -21 -207.5t-76.5 -203.5t-141.5 -179t-227.5 -124t-322.5 -48h-38q-96 0 -172 12t-117 27t-73 39.5t-41 36.5t-21 32q-20 -19 -49 -38.5t-82.5 -46t-132.5 -43.5t-169 -17h-32q-116 0 -207 32t-147 88.5t-84.5 129t-28.5 157.5
q0 109 16 181q17 92 60.5 169.5t113.5 139.5t175.5 97.5t236.5 35.5h39q91 0 169 -13.5t130 -35.5t82 -40t53 -38l20 119h672l-137 -725q-7 -28 0 -47t35 -19q64 0 125.5 69t101 193t39.5 267q0 67 -10 118.5t-37 102.5t-73.5 88.5t-120.5 70t-176.5 52.5t-243 31.5
t-318.5 11.5h-33q-167 0 -309.5 -19t-248 -51t-191 -79.5t-143.5 -98.5t-100.5 -115t-66.5 -122t-38.5 -126t-18.5 -120.5t-4 -112.5q0 -70 12 -130t42.5 -120.5t78.5 -109t124 -90.5t175.5 -70.5t236 -45t302.5 -16.5q238 0 426.5 17t313 48t185 52.5t129.5 52.5q10 5 15 7
zM1362 795q-52 0 -89 -25.5t-54.5 -67t-25 -79.5t-7.5 -76q0 -61 27.5 -103.5t89.5 -42.5h8q46 0 81 17t55.5 46t31.5 56.5t16 57.5q6 33 6 69q0 148 -131 148h-8z" />
    <glyph glyph-name="A" unicode="A" horiz-adv-x="2441" 
d="M1542 0l-51 182h-743l-105 -182h-766l928 1524h1067l516 -1524h-846zM1004 633h360l-119 426z" />
    <glyph glyph-name="B" unicode="B" horiz-adv-x="2347" 
d="M2329 506q0 -56 -9 -106.5t-31.5 -102t-57.5 -94.5t-90.5 -81.5t-127.5 -65t-171.5 -41.5t-219.5 -15h-1655l242 1524h1620q144 0 247 -24t161 -70t84 -105t26 -135q0 -72 -33 -132t-87 -98t-111 -61.5t-115 -32.5q60 -14 112.5 -38t104 -65t81.5 -107t30 -150zM883 981
h536q76 0 106.5 20.5t30.5 61.5q0 37 -29 51t-97 14h-525zM793 410h559q174 0 174 106q0 38 -32.5 60t-117.5 22h-555z" />
    <glyph glyph-name="C" unicode="C" horiz-adv-x="2385" 
d="M2378 641q-10 -60 -20.5 -103.5t-43.5 -119t-80 -130t-135.5 -119t-202.5 -105t-287.5 -68t-385.5 -27.5h-70q-190 0 -346.5 20.5t-268.5 55.5t-198 87t-140 110.5t-87.5 130.5t-46.5 141.5t-13 149.5q0 91 13 176q11 71 28.5 131.5t57 136.5t95.5 136t149 120t212 100
t291 65t379 25h70q149 0 279 -12.5t228.5 -35.5t181 -53.5t140 -68t102.5 -77.5t72 -84t45 -84.5t24 -83t6 -75.5t-5 -65l-6 -38h-766q-1 16 -6 34t-27 48t-58 53t-107.5 40t-166.5 17q-385 0 -436 -262q-10 -52 -10 -92q0 -256 366 -256q340 0 408 209h770z" />
    <glyph glyph-name="D" unicode="D" horiz-adv-x="2385" 
d="M-33 0l242 1524h1132q236 0 420 -34t304 -92.5t198 -143.5t110.5 -181t32.5 -211q0 -80 -8 -153q-10 -81 -30 -150.5t-61 -143.5t-99.5 -133.5t-149 -113t-205.5 -90t-274 -57.5t-350 -21h-1262zM893 1051l-92 -580h307q437 0 498 266q8 39 8 76q0 238 -422 238h-299z
" />
    <glyph glyph-name="E" unicode="E" horiz-adv-x="1888" 
d="M209 1524h1786l-68 -426h-1036l-19 -119h1026l-67 -418h-1026l-21 -131h1047l-68 -430h-1796z" />
    <glyph glyph-name="F" unicode="F" horiz-adv-x="1849" 
d="M209 1524h1753l-68 -426h-1005l-21 -123h994l-68 -424h-991l-88 -551h-748z" />
    <glyph glyph-name="G" unicode="G" horiz-adv-x="2453" 
d="M1767 160q-23 -20 -47 -36.5t-85.5 -47.5t-131 -52.5t-181 -38t-237.5 -16.5h-49q-167 0 -306.5 22t-239 59t-177 90.5t-126 113t-79.5 130.5t-43 138t-12 140q0 84 13 167t36 154.5t67 147t105.5 136t154.5 115.5t210 92t276.5 58.5t350.5 21.5h65q216 0 391 -21.5
t291.5 -56.5t202 -86.5t132 -103t73 -115.5t32.5 -114.5t3 -108.5h-773q-58 146 -387 146q-107 0 -189.5 -24.5t-133.5 -68.5t-80.5 -96.5t-40.5 -116.5q-8 -47 -8 -88q0 -127 90.5 -203.5t284.5 -76.5q98 0 174.5 14.5t117.5 37t62.5 43.5t25.5 40h-405l49 311h1206
l-139 -866h-473q-6 34 -27 83t-43 77z" />
    <glyph glyph-name="H" unicode="H" horiz-adv-x="2406" 
d="M1503 0l86 543h-776l-86 -543h-760l242 1524h760l-80 -506h776l80 506h760l-242 -1524h-760z" />
    <glyph glyph-name="I" unicode="I" horiz-adv-x="870" 
d="M969 1524l-242 -1524h-760l242 1524h760z" />
    <glyph glyph-name="J" unicode="J" horiz-adv-x="2080" 
d="M2068 788q-11 -71 -20 -117.5t-29.5 -119.5t-45 -123.5t-66.5 -115t-94 -108.5t-128.5 -90.5t-168.5 -74t-215 -45t-267 -17.5h-147q-180 0 -323 30.5t-233.5 78.5t-155 115.5t-95 133t-44 139t-12.5 126t9 102.5l4 27h719q0 -18 1 -31.5t6 -36t14 -40t27.5 -36.5
t43 -31.5t63 -21t86.5 -8.5h2q67 0 119.5 17t84.5 43t55 64.5t33.5 73.5t17.5 79l114 723h762z" />
    <glyph glyph-name="K" unicode="K" horiz-adv-x="2367" 
d="M1352 0l-529 608l-96 -608h-760l242 1524h760l-86 -539l747 539h924l-973 -707l746 -817h-975z" />
    <glyph glyph-name="L" unicode="L" horiz-adv-x="1882" 
d="M209 1524h760l-156 -981h1028l-84 -543h-1790z" />
    <glyph glyph-name="M" unicode="M" horiz-adv-x="2775" 
d="M-33 0l242 1524h989l256 -678l453 678h966l-241 -1524h-756l119 754l-506 -754h-363l-284 754l-119 -754h-756z" />
    <glyph glyph-name="N" unicode="N" horiz-adv-x="2412" 
d="M209 1524h842l591 -693l109 693h760l-242 -1524h-762l-659 762l-121 -762h-760z" />
    <glyph glyph-name="O" unicode="O" horiz-adv-x="2453" 
d="M1139 -31q-189 0 -345 22t-267 60t-196 92.5t-137 114t-85 130.5t-45.5 137t-12.5 139q0 76 12 159q12 77 32 144t61.5 143.5t100 138t153 120.5t214 98t287.5 63t371 24h100q1092 0 1092 -682q0 -78 -14 -167q-14 -78 -33.5 -143t-61.5 -143t-99 -139.5t-150.5 -121.5
t-212.5 -100t-288.5 -64.5t-373.5 -24.5h-102zM1688 813q0 50 -20.5 94t-65 81.5t-125 59t-189.5 21.5q-394 0 -446 -270q-6 -30 -6 -74q0 -51 21 -96.5t65.5 -84.5t124 -62t186.5 -23q114 0 200 24t136 65.5t76.5 88t35.5 102.5q7 44 7 74z" />
    <glyph glyph-name="P" unicode="P" horiz-adv-x="2295" 
d="M793 416l-66 -416h-760l242 1524h1446q113 0 207.5 -12.5t165.5 -35t125.5 -56t91 -73.5t59.5 -88.5t33 -99.5t10 -110q0 -107 -20 -195t-73.5 -171.5t-138.5 -140.5t-223 -91.5t-319 -34.5h-780zM866 877h537q151 0 151 112q0 88 -122 88h-533z" />
    <glyph glyph-name="Q" unicode="Q" horiz-adv-x="2453" 
d="M2460 705q-12 -69 -29 -127.5t-50.5 -129t-79 -127.5t-118 -115t-163.5 -100.5t-219.5 -75.5t-282.5 -48l239 -299h-952l49 301q-190 21 -335.5 72t-232.5 117t-141.5 152t-74 167t-19.5 172q0 80 12 159q12 78 32 145t62 144t100.5 138t152.5 119.5t213.5 98t287.5 63
t371 23.5h100q1092 0 1092 -682q0 -78 -14 -167zM1688 813q0 50 -20.5 94t-65 81.5t-125 59t-189.5 21.5q-394 0 -446 -270q-6 -30 -6 -74q0 -51 21 -96.5t65.5 -84.5t124 -62t186.5 -23q114 0 200 24t136 65.5t76.5 88t35.5 102.5q7 44 7 74z" />
    <glyph glyph-name="R" unicode="R" horiz-adv-x="2332" 
d="M805 487l-78 -487h-760l242 1524h1640q118 0 212.5 -19.5t167.5 -61t113 -112t40 -166.5q0 -72 -23.5 -134t-62.5 -107t-93 -80t-111 -56t-120 -32q156 -42 235.5 -147t55.5 -251l-33 -204q-17 -90 4 -142l-2 -12h-784q-7 13 0 59l29 172q21 125 -38 190.5t-214 65.5
h-420zM872 915h562q81 0 114 32t33 77q0 84 -127 84h-551z" />
    <glyph glyph-name="S" unicode="S" horiz-adv-x="2281" 
d="M2257 461q-8 -62 -26.5 -113.5t-56 -103t-91.5 -91.5t-137 -75.5t-190 -59t-252 -36.5t-322 -13h-262q-165 0 -302 16t-230 43.5t-167.5 64.5t-115 79.5t-71 88.5t-37 91t-12.5 87.5t3 78.5h891q0 -26 2.5 -43.5t14.5 -42.5t34.5 -40t66 -26.5t105.5 -11.5q235 0 235 109
q0 33 -16.5 53t-79.5 36t-182 23l-252 15q-164 10 -287.5 39.5t-199.5 72t-123.5 101.5t-65.5 121t-18 137q0 46 12 100q31 137 139.5 221t321 126t549.5 42h254q250 0 430.5 -32t275 -79t146 -117.5t61 -129t2.5 -131.5h-874q0 20 -3 34.5t-16 32.5t-35 29t-63.5 19
t-98.5 8q-129 0 -178 -18.5t-49 -61.5q0 -29 21.5 -46.5t83 -29.5t176.5 -18l250 -13q278 -13 441.5 -63t233.5 -138t70 -229q0 -63 -6 -106z" />
    <glyph glyph-name="T" unicode="T" horiz-adv-x="2109" 
d="M104 999l84 525h2042l-84 -525h-641l-157 -999h-760l157 999h-641z" />
    <glyph glyph-name="U" unicode="U" horiz-adv-x="2390" 
d="M92 864l105 660h761l-98 -621q-57 -356 346 -356h4q91 0 162 20.5t116.5 52.5t77.5 80.5t48.5 96t25.5 106.5l99 621h762l-105 -660q-10 -66 -22 -120t-35.5 -127.5t-53 -133.5t-78 -128.5t-108 -121t-144.5 -103.5t-185.5 -84t-233.5 -53t-287 -20h-98q-169 0 -312 20
t-248 54t-189 83t-139 104t-94 121t-58 129t-26.5 133t-5 128.5t12.5 118.5z" />
    <glyph glyph-name="V" unicode="V" horiz-adv-x="2377" 
d="M2564 1524l-870 -1524h-1088l-485 1524h844l274 -940l522 940h803z" />
    <glyph glyph-name="W" unicode="W" horiz-adv-x="3483" 
d="M1927 0l-133 848l-324 -848h-1026l-323 1524h856l121 -895l358 895h905l105 -920l370 920h832l-723 -1524h-1018z" />
    <glyph glyph-name="X" unicode="X" horiz-adv-x="2414" 
d="M1481 0l-273 475l-405 -475h-924l701 805l-424 719h905l233 -453l371 453h875l-619 -719l440 -805h-880z" />
    <glyph glyph-name="Y" unicode="Y" horiz-adv-x="2369" 
d="M1565 530l-82 -530h-760l84 541l-692 983h843l310 -461l461 461h833z" />
    <glyph glyph-name="Z" unicode="Z" horiz-adv-x="2050" 
d="M190 1524h1973l-60 -369l-979 -637h885l-82 -518h-1984l59 369l991 659h-880z" />
    <glyph glyph-name="bracketleft" unicode="[" horiz-adv-x="825" 
d="M-78 -268l303 1923h756l-41 -273h-246l-217 -1378h244l-43 -272h-756z" />
    <glyph glyph-name="backslash" unicode="\" horiz-adv-x="1050" 
d="M514 -268l-375 1923h496l371 -1923h-492z" />
    <glyph glyph-name="bracketright" unicode="]" horiz-adv-x="825" 
d="M152 1382l41 273h753l-303 -1923h-754l43 272h242l217 1378h-239z" />
    <glyph glyph-name="asciicircum" unicode="^" horiz-adv-x="1585" 
d="M37 854l563 670h674l371 -670h-603l-153 301l-242 -301h-610z" />
    <glyph glyph-name="underscore" unicode="_" horiz-adv-x="1775" 
d="M-160 -377l51 334h1805l-54 -334h-1802z" />
    <glyph glyph-name="grave" unicode="`" 
d="M1120 1524l127 -359h-616l-195 359h684z" />
    <glyph glyph-name="a" unicode="a" horiz-adv-x="1849" 
d="M985 139q-183 -159 -522 -159h-12q-127 0 -222.5 25.5t-149.5 71t-80 100t-26 118.5q0 156 86 242q109 109 381 131l561 45q62 6 62 49q0 31 -28.5 49t-112.5 18h-4q-44 0 -76.5 -7.5t-48.5 -15.5t-28 -24.5t-13.5 -22t-6.5 -20.5h-673q7 43 14 71t29.5 73t55 74.5
t93.5 65t141.5 56t202 35t273.5 14.5h116q123 0 227 -8t181 -21t138 -33.5t102 -43t70 -50.5t44 -55t22 -59t6.5 -59t-5.5 -58l-56 -344q-3 -20 2 -27.5t19 -7.5h61l-57 -362h-600q-138 0 -166 139zM692 358q0 -32 27 -54.5t84 -22.5q83 0 137.5 39t65.5 104l14 90l-234 -61
q-94 -24 -94 -95z" />
    <glyph glyph-name="b" unicode="b" horiz-adv-x="1955" 
d="M201 1524h727l-90 -568q19 19 57 41.5t100.5 49.5t154.5 45t193 18h41q126 0 224.5 -25.5t160 -67t101.5 -100t56 -120t16 -131.5q0 -74 -15 -162q-10 -58 -26 -108.5t-43 -103.5t-63.5 -96t-89.5 -82t-118.5 -65t-153.5 -41.5t-192 -15.5h-47q-286 0 -479 135
q-44 -80 -62 -127h-694zM778 578q-6 -35 -6 -66q0 -77 48.5 -128.5t140.5 -51.5h8q63 0 110 26t71 68t35 85.5t11 88.5q0 170 -176 170h-12q-97 0 -157 -57t-73 -135z" />
    <glyph glyph-name="c" unicode="c" horiz-adv-x="1912" 
d="M1888 506q-7 -49 -15 -82t-33.5 -94t-62 -104.5t-106 -95.5t-159.5 -84t-228 -54.5t-307 -22.5h-139q-824 0 -824 496q0 58 13 141q9 59 26 110t50 106t79.5 99t118 84.5t162 68t216 43.5t275.5 16h144q132 0 243 -12.5t191 -33.5t143.5 -51.5t104 -63.5t68.5 -73
t41.5 -76t18.5 -76t3.5 -70t-6.5 -61h-738q0 18 -1.5 33t-10.5 43.5t-25.5 48t-51 35t-81.5 15.5h-12q-53 0 -94.5 -19t-65.5 -48.5t-39 -70.5t-20.5 -79t-5.5 -80q0 -177 168 -177h12q55 0 96.5 21.5t64.5 55t34 60.5t16 52h737z" />
    <glyph glyph-name="d" unicode="d" horiz-adv-x="1939" 
d="M1319 1524h727l-242 -1524h-727l23 145q-180 -153 -514 -153h-35q-113 0 -204 26.5t-152.5 71.5t-102.5 107.5t-59.5 132t-18.5 147.5q0 79 13 152q14 79 45 148t85 131t127 106t175.5 70t224.5 26h43q304 0 504 -137zM1165 532q6 30 6 66q0 71 -44.5 120.5t-141.5 49.5
h-8q-61 0 -105.5 -22.5t-68 -60t-34.5 -78.5t-11 -87q0 -76 40.5 -127t125.5 -51h8q58 0 102.5 17.5t70 48t39.5 60.5t21 64z" />
    <glyph glyph-name="e" unicode="e" horiz-adv-x="1906" 
d="M1868 422q-6 -41 -15 -74t-35 -82.5t-64 -87t-107 -79t-159.5 -68.5t-225.5 -44.5t-301 -17.5h-91q-156 0 -283 18t-214.5 47.5t-153 73t-103.5 88t-61.5 99.5t-31 101.5t-7.5 99.5q0 44 7 102q7 51 18 93.5t39 100t68.5 102t111.5 91.5t163 78t227 50.5t300 19.5h88
q137 0 252 -12.5t199 -34.5t150.5 -54t110 -67.5t74 -80t45 -86t20.5 -90.5t4 -89.5t-9 -86.5l-6 -43h-1155q-3 -32 4 -61t27 -57t64.5 -45t107.5 -17t109.5 13.5t69 35t31.5 36t13 28.5h719zM760 711h428q-3 58 -46 90.5t-153 32.5q-114 0 -164.5 -33.5t-64.5 -89.5z" />
    <glyph glyph-name="f" unicode="f" horiz-adv-x="1210" 
d="M1335 1524l-55 -340h-158q-33 0 -44.5 -13t-16.5 -43l-4 -26h213l-66 -406h-213l-110 -696h-727l110 696h-225l65 406h224l14 90q27 166 139 249t326 83h528z" />
    <glyph glyph-name="g" unicode="g" horiz-adv-x="1966" 
d="M727 0q10 -70 156 -70h6q104 0 162.5 55t74.5 154l11 66q-170 -164 -514 -164h-39q-130 0 -230.5 28.5t-161.5 74.5t-100.5 110t-54 127.5t-14.5 134.5q0 50 6 100q10 79 36 148t78 133.5t125 110t182.5 73t245.5 27.5h45q315 0 519 -135l20 129h727l-152 -955
q-15 -95 -45.5 -169.5t-96 -148t-161.5 -122t-248.5 -78.5t-351.5 -30h-178q-142 0 -259 15t-197 39.5t-141 58.5t-96 70t-55.5 76t-26 74.5t-1.5 67.5h729zM944 377q90 0 152.5 39t85.5 100q12 30 12 66q0 76 -55.5 123t-155.5 47h-10q-104 0 -161.5 -59t-57.5 -148
q0 -73 44 -120.5t134 -47.5h12z" />
    <glyph glyph-name="h" unicode="h" horiz-adv-x="1947" 
d="M-41 0l242 1524h727l-101 -633q19 19 46.5 41.5t86.5 59t124.5 64.5t161 49t194.5 21h12q78 0 144.5 -12t114 -33t86 -50t61.5 -62t40.5 -68.5t22 -71.5t7 -70t-4.5 -63l-111 -696h-727l78 494q15 94 -26 152.5t-148 58.5q-101 0 -155.5 -58.5t-69.5 -154.5l-78 -492
h-727z" />
    <glyph glyph-name="i" unicode="i" horiz-adv-x="821" 
d="M928 1524l-58 -359h-727l58 359h727zM860 1102l-174 -1102h-727l174 1102h727z" />
    <glyph glyph-name="j" unicode="j" horiz-adv-x="823" 
d="M930 1524l-58 -359h-727l58 359h727zM-164 -41h58q39 0 51.5 13.5t17.5 45.5l172 1084h727l-186 -1182q-50 -305 -293 -305h-602z" />
    <glyph glyph-name="k" unicode="k" horiz-adv-x="1804" 
d="M956 0l-192 487l-78 -487h-727l242 1524h727l-127 -799l299 377h762l-379 -492l272 -610h-799z" />
    <glyph glyph-name="l" unicode="l" horiz-adv-x="821" 
d="M928 1524l-242 -1524h-727l242 1524h727z" />
    <glyph glyph-name="m" unicode="m" horiz-adv-x="2969" 
d="M766 502l-80 -502h-727l174 1102h727l-35 -211q19 19 46 41.5t85 59t121 64.5t154.5 49t185.5 21h10q97 0 174 -20.5t127 -56.5t81.5 -78t48.5 -92q39 36 89 71.5t130 78.5t185.5 70t215.5 27h10q76 0 141 -12t111 -33t83.5 -49t59.5 -61t39 -68.5t21.5 -71.5t6.5 -70.5
t-5 -64.5l-111 -696h-727l80 500q14 89 -22 147t-125 58q-85 0 -135.5 -58t-63.5 -145l-80 -502h-727l80 504q13 84 -22.5 142.5t-124.5 58.5q-86 0 -137 -57.5t-64 -145.5z" />
    <glyph glyph-name="n" unicode="n" horiz-adv-x="1947" 
d="M-41 0l174 1102h727l-35 -213q17 18 45.5 41.5t87.5 60t125 65t162 49.5t195 21h12q77 0 142.5 -11.5t113 -32t86 -48.5t62 -60t41.5 -68t23 -72t7.5 -71t-4.5 -67l-111 -696h-727l78 494q15 94 -26 152.5t-148 58.5q-101 0 -155.5 -58.5t-69.5 -154.5l-78 -492h-727z
" />
    <glyph glyph-name="o" unicode="o" horiz-adv-x="1994" 
d="M1018 -31h-162q-152 0 -277 19t-210.5 49.5t-151 74.5t-103 89.5t-61 99.5t-31.5 98.5t-8 92.5q0 34 9 108q7 48 18 88.5t39.5 98t69.5 102t114 92.5t167.5 79.5t234 52t309.5 20.5h168q151 0 275.5 -17.5t209.5 -46.5t150 -70.5t102.5 -85t60.5 -95.5t31 -95.5t8 -91.5
q0 -52 -8 -117q-5 -39 -11.5 -70t-22 -76t-37.5 -81.5t-60 -79t-86.5 -75t-120.5 -64.5t-159 -53t-203.5 -33.5t-253.5 -12.5zM1018 788q-64 0 -112.5 -20t-75.5 -49t-44 -68.5t-22.5 -71.5t-5.5 -65q0 -37 10 -70t33 -63.5t66.5 -48t103.5 -17.5h4q65 0 114.5 22t77.5 54
t45.5 73.5t23 75t5.5 64.5q0 35 -10 65.5t-33.5 58.5t-68.5 44t-107 16h-4z" />
    <glyph glyph-name="p" unicode="p" horiz-adv-x="1957" 
d="M133 1102h727l-22 -146q18 15 39.5 29.5t69 38.5t99 41.5t128.5 31t159 13.5h43q131 0 233 -27t164 -69.5t101.5 -103t54.5 -120.5t15 -128t-13 -154q-9 -54 -23 -103t-40.5 -102t-62 -97t-89.5 -84.5t-120 -68.5t-156.5 -44.5t-196.5 -16.5h-45q-98 0 -189.5 15
t-153 36.5t-98 38.5t-52.5 29l-80 -496h-727zM1012 768q-98 0 -158.5 -55.5t-75.5 -137.5q-6 -30 -6 -61q0 -76 43.5 -130t136.5 -54h13q60 0 106 25t71 65.5t37.5 85.5t12.5 92q0 72 -40 121t-128 49h-12z" />
    <glyph glyph-name="q" unicode="q" horiz-adv-x="1941" 
d="M711 1110q341 0 534 -149q39 105 45 141h692l-235 -1487h-727l84 530q-192 -153 -518 -153h-35q-139 0 -244.5 37.5t-168.5 105t-93.5 153.5t-30.5 189q0 62 15 154q17 99 63 183t122.5 151.5t193.5 106t262 38.5h41zM932 342q57 0 101.5 18t70.5 48.5t40 60.5t21 63
q6 40 6 68q0 69 -44.5 118.5t-139.5 49.5h-8q-58 0 -102.5 -21.5t-69.5 -57.5t-37 -78t-12 -87q0 -81 42.5 -131.5t123.5 -50.5h8z" />
    <glyph glyph-name="r" unicode="r" horiz-adv-x="1777" 
d="M768 518l-82 -518h-727l174 1102h727l-37 -219q28 36 65 70t98.5 77t148.5 69.5t184 26.5h24q91 0 163 -19.5t118 -50.5t78 -75t47.5 -88t21 -93.5t4 -88.5t-7.5 -76l-30 -189h-713l18 115q10 64 -17 108t-95 44t-107.5 -45.5t-54.5 -149.5z" />
    <glyph glyph-name="s" unicode="s" horiz-adv-x="1753" 
d="M-31 377h731q0 -43 27.5 -75t91.5 -32h4q62 0 90.5 21t28.5 53q0 35 -27 53.5t-102 22.5l-276 16q-482 32 -482 344q0 50 15 97q30 90 110 144.5t245.5 83t434.5 28.5h156q156 0 276 -12.5t199 -36.5t131.5 -54t78.5 -71.5t34 -82.5t4 -92h-711q-1 16 -4.5 26.5t-14 25.5
t-36.5 22.5t-66 7.5h-4q-40 0 -66.5 -5.5t-38 -15.5t-15 -19t-3.5 -21q0 -26 26 -41t97 -21l273 -14q204 -12 324 -52.5t167 -103t47 -159.5q0 -56 -8 -103q-8 -45 -21 -80t-40.5 -72t-67.5 -64t-103.5 -52t-147.5 -40.5t-201 -24.5t-263 -9h-162q-195 0 -338 28t-219 69.5
t-119 100t-52 107.5t-3 103z" />
    <glyph glyph-name="t" unicode="t" horiz-adv-x="1173" 
d="M1053 0h-590q-67 0 -120.5 16t-97 52t-61 102.5t-2.5 157.5l60 368h-203l65 406h201l51 321h727l-51 -321h197l-66 -406h-194l-33 -204q-6 -41 8 -59.5t64 -18.5h112z" />
    <glyph glyph-name="u" unicode="u" horiz-adv-x="1931" 
d="M1970 1102l-174 -1102h-727l35 211q-19 -19 -45.5 -41t-85.5 -59t-123.5 -65t-159 -49.5t-192.5 -21.5h-11q-76 0 -141.5 12t-112 33t-84.5 49.5t-61 61.5t-40 69t-22 71.5t-7.5 69t4.5 62.5l110 699h727l-78 -494q-15 -95 21.5 -153t138.5 -58q98 0 153.5 57t69.5 152
l78 496h727z" />
    <glyph glyph-name="v" unicode="v" horiz-adv-x="1853" 
d="M1970 1102l-569 -1102h-1063l-279 1102h775l98 -662l274 662h764z" />
    <glyph glyph-name="w" unicode="w" horiz-adv-x="2715" 
d="M1438 0l-60 522l-188 -522h-899l-230 1102h756l49 -649l230 649h733l43 -649l235 649h723l-520 -1102h-872z" />
    <glyph glyph-name="x" unicode="x" horiz-adv-x="1898" 
d="M1059 0l-146 332l-223 -332h-799l457 588l-289 514h772l140 -293l198 293h805l-426 -518l291 -584h-780z" />
    <glyph glyph-name="y" unicode="y" horiz-adv-x="1806" 
d="M1343 4q-113 -213 -226 -301t-261 -88h-754l58 362h229q57 0 57 46q0 26 -22 88l-365 991h758l123 -623l256 623h727z" />
    <glyph glyph-name="z" unicode="z" horiz-adv-x="1599" 
d="M1544 401l-63 -401h-1538l57 362l737 361h-680l60 379h1538l-58 -363l-706 -338h653z" />
    <glyph glyph-name="braceleft" unicode="{" horiz-adv-x="880" 
d="M772 4l-43 -272h-405q-180 0 -268.5 53t-88.5 166q0 57 40.5 141t89.5 155t89.5 145.5t40.5 113.5q0 33 -16 47t-57 14h-148l43 262h156q88 0 88 82q0 51 -48 217.5t-48 249.5q0 277 383 277h454l-43 -273h-203q-49 0 -72.5 -15.5t-23.5 -51.5q0 -29 35 -177.5t35 -217.5
q0 -38 -10 -69t-34.5 -63t-75.5 -55.5t-124 -36.5q99 -20 139.5 -64t40.5 -110q0 -48 -31.5 -117.5t-69.5 -127.5t-69.5 -117t-31.5 -88q0 -68 102 -68h174z" />
    <glyph glyph-name="bar" unicode="|" horiz-adv-x="751" 
d="M653 1655v-1923h-485v1923h485z" />
    <glyph glyph-name="braceright" unicode="}" horiz-adv-x="880" 
d="M729 8q0 -276 -383 -276h-457l43 272h207q97 0 97 68q0 31 -35 183.5t-35 221.5q0 80 52.5 139.5t191.5 83.5q-179 37 -179 181q0 46 31 112.5t68.5 121.5t68.5 112.5t31 87.5q0 36 -24 51.5t-76 15.5h-178l43 273h409q180 0 267 -53t87 -166q0 -57 -40.5 -140.5
t-88.5 -154t-88.5 -141.5t-40.5 -105q0 -66 74 -66h146l-41 -262h-154q-88 0 -88 -82q0 -51 46 -222.5t46 -254.5z" />
    <glyph glyph-name="asciitilde" unicode="~" horiz-adv-x="1464" 
d="M1081 438q-115 0 -200 34t-191 106q-89 59 -110 66q-13 5 -25 5q-18 0 -27 -13.5t-14 -45.5l-27 -174h-483l62 385q9 54 24.5 101t46.5 97.5t72.5 86t107 58.5t146.5 23q119 0 203 -31t186 -98q92 -60 113 -67q11 -4 20 -4q22 0 30 13t13 46l27 172h483l-68 -434
q-7 -47 -22.5 -90t-46 -87t-72 -76t-105.5 -52.5t-143 -20.5z" />
    <glyph glyph-name="exclamdown" unicode="&#xa1;" horiz-adv-x="983" 
d="M836 -422h-992l424 979h455zM150 627l73 475h719l-76 -475h-716z" />
    <glyph glyph-name="cent" unicode="&#xa2;" horiz-adv-x="1959" 
d="M1001 -31l-20 -127h-209l21 127q-143 4 -259 23t-196 47.5t-140 69.5t-95 83t-56 92.5t-28 94t-7 92.5q0 57 13 137q7 40 14 70t23.5 75t38.5 79t60 75.5t86.5 72t119.5 61t157 49.5t202 31t251 12l20 122h207l-20 -122q126 -3 232 -17.5t182.5 -36t137 -52.5t99 -63
t65.5 -71t40 -74t18 -74t4 -68.5t-6 -60.5h-737q0 120 -91 160l-71 -448q49 17 82.5 53.5t45 66t15.5 58.5h739q-7 -48 -15 -81.5t-34.5 -94.5t-64 -104.5t-109 -95t-164.5 -84t-235 -55t-316 -22.5zM758 494q0 -128 92 -164l72 452q-164 -47 -164 -288z" />
    <glyph glyph-name="sterling" unicode="&#xa3;" horiz-adv-x="2113" 
d="M2075 545l-86 -545h-2052l59 371h143q118 0 162.5 48t44.5 154q0 40 -2 58h-307l41 258h246q-5 82 -5 96q0 56 3 95t21.5 102t51 107.5t97.5 95.5t155.5 82.5t231 53t317.5 21.5h82q128 0 236 -10.5t190 -28.5t147 -45t110 -57.5t76.5 -69t48.5 -77.5t24.5 -83.5t6.5 -86
t-8 -87.5l-4 -26h-731q0 19 1 41t-7 44.5t-22.5 40.5t-46 29t-76.5 11q-98 0 -141.5 -43t-51.5 -125q-4 -50 -4 -80h715l-43 -258h-688q0 -11 -4 -31q-25 -150 -220 -229h480l26 174h783z" />
    <glyph glyph-name="yen" unicode="&#xa5;" horiz-adv-x="2277" 
d="M1974 338h-479l-53 -338h-760l53 338h-479l31 182h477l10 72h-477l29 178h350l-561 754h833l293 -447l440 447h789l-782 -754h358l-29 -178h-483l-10 -72h481z" />
    <glyph glyph-name="brokenbar" unicode="&#xa6;" horiz-adv-x="751" 
d="M653 1655v-881h-485v881h485zM653 682v-950h-485v950h485z" />
    <glyph glyph-name="section" unicode="&#xa7;" horiz-adv-x="2084" 
d="M1827 59q0 -76 -17 -138.5t-72.5 -129.5t-148 -112.5t-255.5 -75t-382 -29.5h-159q-124 0 -227 9t-178 26t-135.5 40t-98.5 52t-67 61.5t-41.5 68t-21 73t-6.5 75t2 74.5h695q-3 -12 -0.5 -28.5t4.5 -34t15 -34.5t32.5 -30.5t55.5 -21.5t85 -8q185 0 185 86
q0 33 -16.5 51t-66 33t-153.5 32l-389 62q-242 38 -348.5 128.5t-106.5 231.5q0 145 100 238.5t298 126.5q-71 43 -111.5 110t-40.5 152q0 70 18.5 124.5t73 109t146 90t247 57.5t365.5 22h168q171 0 298.5 -14.5t210.5 -41t137 -65.5t77 -88t31.5 -108t-0.5 -125h-682
q0 22 -2 36t-12 34t-29 32t-56 20.5t-90 8.5h-10q-104 0 -143 -15.5t-39 -49.5t37.5 -55.5t142.5 -39.5l549 -94q214 -37 302.5 -116t88.5 -212q0 -67 -24.5 -122t-63.5 -91.5t-93.5 -64t-107.5 -42.5t-112 -24q58 -34 99.5 -97.5t41.5 -156.5zM1208 643l-479 90
q-61 -21 -61 -86q0 -40 37 -68t151 -49l481 -84q56 24 56 82q0 42 -38 68.5t-147 46.5z" />
    <glyph glyph-name="dieresis" unicode="&#xa8;" 
d="M1470 1524l-57 -359h-561l57 359h561zM831 1524l-57 -359h-561l57 359h561z" />
    <glyph glyph-name="copyright" unicode="&#xa9;" horiz-adv-x="2519" 
d="M1300 -31h-18q-203 0 -372 22.5t-292.5 61t-219 95.5t-157 122t-100.5 143.5t-55 156.5t-16 165v58q0 86 15.5 163.5t54.5 155.5t100 142.5t156 121t218 95.5t292 61t372 22h27q203 0 372.5 -22.5t292 -61.5t218 -96t156 -122t99.5 -143t54.5 -154.5t15.5 -161.5v-58
q0 -88 -16 -166.5t-55.5 -157t-100.5 -143t-157 -121.5t-219.5 -95.5t-292.5 -60.5t-372 -22zM385 735q0 -105 25.5 -188t88 -154.5t163 -118.5t256 -73.5t360.5 -26.5h27q206 0 361.5 26t256.5 73t163.5 118.5t88 154.5t25.5 189v58q0 104 -25.5 186t-88.5 153.5t-164 119
t-256.5 74t-360.5 26.5h-27q-205 0 -360 -26.5t-255.5 -73t-163.5 -118t-88.5 -154t-25.5 -187.5v-58zM2056 690q0 -34 -7 -67t-27 -73t-52.5 -74t-88 -67t-128 -56.5t-178.5 -37.5t-234 -14h-28q-766 0 -766 434v70q0 45 7.5 84.5t29 83.5t57 80t94.5 69.5t137 56.5
t190 36.5t249 13.5h18q128 0 234 -13.5t179.5 -36t130.5 -54.5t91 -65.5t55.5 -72t29 -71.5t7.5 -66v-25h-579q-18 88 -170 88q-91 0 -131.5 -37.5t-40.5 -95.5v-8q0 -149 172 -149q51 0 87 12t52.5 31.5t22 31.5t8.5 25h579v-33z" />
    <glyph glyph-name="ordfeminine" unicode="&#xaa;" horiz-adv-x="1366" 
d="M809 879q-137 -105 -379 -105h-8q-95 0 -164 18t-106 49t-53.5 66.5t-16.5 77.5q0 38 8.5 68.5t32 61.5t62.5 53.5t103 38.5t150 22l381 26q47 3 47 37q0 49 -94 49h-2q-104 0 -111 -59h-512l5 25q3 21 7.5 36t15.5 37.5t30 39.5t48 36t74.5 32.5t103.5 25.5t140 18
t181 6h73q160 0 274.5 -16.5t173.5 -40.5t90.5 -60t36.5 -65.5t-1 -65.5l-35 -219q-3 -17 2.5 -22t19.5 -5h46l-41 -253h-469q-82 0 -113 88zM696 985q58 0 95 28.5t45 78.5l6 38l-158 -36q-66 -16 -66 -58q0 -24 20 -37.5t58 -13.5z" />
    <glyph glyph-name="guillemotleft" unicode="&#xab;" horiz-adv-x="1245" 
d="M1014 586l174 -367h-473l-166 367l285 358h460zM473 586l176 -367h-471l-164 367l285 358h461z" />
    <glyph glyph-name="registered" unicode="&#xae;" horiz-adv-x="1441" 
d="M772 1554h78q116 0 212 -14t163 -37t118.5 -57t83 -70t51 -80t26.5 -83.5t7 -82.5v-28q0 -66 -15.5 -122.5t-60 -114.5t-116 -98.5t-191.5 -66.5t-278 -26h-78q-159 0 -279.5 25.5t-192.5 66.5t-117 99t-61 114.5t-16 122.5v28q0 43 7.5 82.5t27 83.5t51 80t83.5 70
t120 57t164.5 37t212.5 14zM805 805h14q102 0 182 10.5t132.5 26.5t90.5 42.5t57.5 51t30 59.5t13 60t2.5 61t-2.5 61.5t-14 59.5t-31.5 58.5t-58 50t-90.5 41.5t-132 26t-179.5 10h-14q-101 0 -181.5 -10t-133.5 -25.5t-91.5 -41t-59 -50t-32 -58.5t-14 -60t-2.5 -62
q0 -35 2.5 -59.5t13.5 -59.5t30.5 -59.5t58 -51.5t91.5 -43t134 -27t184 -11zM766 1040v-145h-305v446h516q66 0 111 -9.5t67 -27t30.5 -37t8.5 -44.5v-2q0 -85 -123 -105q123 -20 123 -112v-58q0 -27 8 -43v-8h-311q-4 8 -4 25v51q0 39 -13 54t-61 15h-47zM766 1157h74
q47 0 47 37q0 35 -47 35h-74v-72z" />
    <glyph glyph-name="macron" unicode="&#xaf;" 
d="M311 1182l47 291h1016l-47 -291h-1016z" />
    <glyph glyph-name="degree" unicode="&#xb0;" horiz-adv-x="956" 
d="M567 1546q196 0 326.5 -119.5t130.5 -310.5t-130.5 -310.5t-326.5 -119.5t-326 119.5t-130 310.5t130 310.5t326 119.5zM567 967q69 0 111.5 41.5t42.5 107.5t-42.5 108t-111.5 42q-67 0 -110 -42t-43 -108t42.5 -107.5t110.5 -41.5z" />
    <glyph glyph-name="two.sup" unicode="&#xb2;" horiz-adv-x="1263" 
d="M1311 1018l-39 -248h-1217l19 119q6 39 13 64.5t24 59t42 56.5t68.5 49t103.5 45t147 37t198 31t148.5 26t37.5 35t-19.5 34.5t-78.5 12.5q-121 0 -133 -69h-482q3 28 7.5 47.5t20 51t39.5 53.5t69.5 47t106 40.5t153.5 26t209 10.5h36q145 0 251 -13t168 -34t98.5 -54
t48.5 -66t12 -76q0 -114 -115.5 -167.5t-402.5 -66.5q-332 -15 -373 -51h840z" />
    <glyph glyph-name="three.sup" unicode="&#xb3;" horiz-adv-x="1282" 
d="M1346 1030q0 -28 -3.5 -51t-18.5 -54t-41 -54.5t-74 -48t-114 -40.5t-166 -26.5t-224 -10.5h-68q-149 0 -258 19.5t-168 49t-91.5 71t-39 78t-0.5 77.5h473q0 -5 2.5 -11.5t10.5 -15.5t21.5 -15.5t38 -11.5t56.5 -5q58 0 91 7.5t42.5 18t9.5 25.5q0 19 -15.5 27t-53.5 8
h-189l31 193h178q74 0 74 36q0 20 -23 29.5t-92 9.5q-119 0 -135 -49h-469l2 12q4 23 8 38.5t18.5 44t37 48.5t65.5 43.5t100.5 38.5t145.5 25t197 10h79q148 0 255.5 -10.5t167.5 -27t94.5 -42t44.5 -49.5t10 -57q0 -68 -57.5 -105t-145.5 -45q86 -13 139.5 -56.5
t53.5 -123.5z" />
    <glyph glyph-name="acute" unicode="&#xb4;" 
d="M1036 1165h-616l207 359h682z" />
    <glyph glyph-name="paragraph" unicode="&#xb6;" horiz-adv-x="1730" 
d="M88 1096q12 77 33.5 136.5t64 116.5t104.5 93.5t158 59t222 22.5h1210l-49 -312h-148l-192 -1212h-356l192 1212h-186l-193 -1212h-356l96 598h-86q-265 0 -393.5 102.5t-128.5 276.5q0 67 8 119z" />
    <glyph glyph-name="periodcentered" unicode="&#xb7;" horiz-adv-x="800" 
d="M825 967l-75 -475h-713l76 475h712z" />
    <glyph glyph-name="cedilla" unicode="&#xb8;" 
d="M1026 -287q0 -25 -3 -46t-13.5 -48t-28.5 -47.5t-51.5 -42t-79 -35t-113.5 -22.5t-153 -9h-424l33 199h227q67 0 67 43q0 21 -11.5 31t-45.5 10h-139l41 254h317l-14 -94q114 0 192.5 -13.5t121 -40.5t60 -60t17.5 -79z" />
    <glyph glyph-name="one.sup" unicode="&#xb9;" horiz-adv-x="813" 
d="M340 1159h-221l37 234q80 4 137.5 16t91.5 32.5t51.5 38.5t32.5 44h451l-119 -754h-522z" />
    <glyph glyph-name="ordmasculine" unicode="&#xba;" horiz-adv-x="1411" 
d="M702 772q-147 0 -258 23.5t-172 58.5t-99 84t-49 90.5t-11 87.5q0 38 3.5 69.5t19 76.5t42 80.5t77 73.5t119 63t173.5 41t235 16h119q146 0 256 -22t171.5 -55t98.5 -80t48.5 -87t11.5 -86q0 -30 -1 -49.5t-7 -57t-17.5 -64t-35 -63t-56 -62.5t-84.5 -53.5t-116.5 -45
t-155.5 -28.5t-199 -11h-113zM653 1133q0 -50 30 -85.5t99 -35.5h2q48 0 82.5 19t50.5 49t22.5 56t6.5 50q0 47 -30.5 79.5t-102.5 32.5h-2q-39 0 -68.5 -12t-46 -29.5t-26.5 -41t-13.5 -43t-3.5 -39.5z" />
    <glyph glyph-name="guillemotright" unicode="&#xbb;" horiz-adv-x="1245" 
d="M1239 586l-268 -367h-471l276 367l-168 358h459zM705 586l-277 -367h-469l279 367l-166 358h460z" />
    <glyph glyph-name="onequarter" unicode="&#xbc;" horiz-adv-x="2330" 
d="M340 1159h-221l37 234q80 4 137.5 16t91.5 32.5t51.5 38.5t32.5 44h451l-119 -754h-522zM1815 1524h471l-1895 -1524h-457zM1081 401l576 353h557l-55 -344h135l-39 -248h-135l-25 -162h-508l25 162h-570zM1411 410h240l26 157z" />
    <glyph glyph-name="onehalf" unicode="&#xbd;" horiz-adv-x="2492" 
d="M2382 0h-1217l19 119q6 39 13 64.5t24 59t42 56.5t68.5 49t103.5 45t147 37t198 31t148.5 26t37.5 35t-19.5 34.5t-78.5 12.5q-121 0 -133 -69h-482q3 28 7.5 47.5t20 51t39.5 53.5t69.5 47t106 40.5t153.5 26t209 10.5h36q145 0 251 -13t168 -34.5t98.5 -54.5t48.5 -66
t12 -76q0 -114 -115.5 -167t-402.5 -66q-327 -15 -375 -51h842zM1815 1524h471l-1895 -1524h-457zM340 1159h-221l37 234q80 4 137.5 16t91.5 32.5t51.5 38.5t32.5 44h451l-119 -754h-522z" />
    <glyph glyph-name="threequarters" unicode="&#xbe;" horiz-adv-x="2713" 
d="M1464 401l576 353h557l-55 -344h135l-39 -248h-135l-25 -162h-508l25 162h-570zM1794 410h240l26 157zM2198 1524h471l-1895 -1524h-457zM1343 1036q0 -28 -3.5 -51t-18.5 -53.5t-41 -54t-74 -48t-114 -40.5t-166 -26.5t-224 -10.5h-67q-149 0 -258 19.5t-168 49
t-91.5 71t-39 78t-0.5 77.5h473q0 -10 7.5 -22t39 -25t82.5 -13q58 0 91 7.5t42.5 18t9.5 25.5q0 19 -15.5 27t-53.5 8h-189l31 193h178q74 0 74 37q0 19 -22.5 28.5t-92.5 9.5q-119 0 -135 -49h-469l2 13q4 23 7.5 38.5t18.5 44t37 48t65.5 43.5t100.5 38.5t145 24.5
t197 10h80q148 0 255.5 -10.5t167.5 -27t94.5 -42t44.5 -49.5t10 -57q0 -68 -57.5 -104.5t-145.5 -44.5q85 -13 138.5 -57t53.5 -124z" />
    <glyph glyph-name="questiondown" unicode="&#xbf;" horiz-adv-x="2035" 
d="M635 465q66 12 91 30.5t34 63.5h717l-19 -104q-10 -55 -19 -88t-30.5 -74t-53.5 -66t-87.5 -48t-132.5 -36l-295 -51q-95 -18 -127.5 -32.5t-32.5 -43.5q0 -22 12 -34.5t65.5 -22.5t155.5 -10q81 0 140 10t90 23t51 36t25 37.5t10 38.5h729l-4 -33q-7 -57 -19.5 -102
t-42.5 -100t-74.5 -96.5t-120.5 -83t-176.5 -68.5t-246 -43.5t-324.5 -16.5h-98q-169 0 -305 12.5t-231.5 34t-166 54.5t-112.5 68.5t-67 81.5t-33.5 88t-8.5 94q0 80 24 148.5t74 127t135 100t201 60.5zM768 627l74 475h721l-76 -475h-719z" />
    <glyph glyph-name="Agrave" unicode="&#xc0;" horiz-adv-x="2441" 
d="M1542 0l-51 182h-743l-105 -182h-766l928 1524h1067l516 -1524h-846zM1004 633h360l-119 426zM1677 1589h-635l-151 336h706z" />
    <glyph glyph-name="Aacute" unicode="&#xc1;" horiz-adv-x="2441" 
d="M1542 0l-51 182h-743l-105 -182h-766l928 1524h1067l516 -1524h-846zM1004 633h360l-119 426zM1649 1589h-635l157 336h707z" />
    <glyph glyph-name="Acircumflex" unicode="&#xc2;" horiz-adv-x="2441" 
d="M1542 0l-51 182h-743l-105 -182h-766l928 1524h1067l516 -1524h-846zM1004 633h360l-119 426zM1042 1925h672l297 -338h-538l-109 119l-133 -119h-578z" />
    <glyph glyph-name="Atilde" unicode="&#xc3;" horiz-adv-x="2441" 
d="M1542 0l-51 182h-743l-105 -182h-766l928 1524h1067l516 -1524h-846zM1004 633h360l-119 426zM1647 1587q-19 0 -35 0.5t-34.5 3t-29.5 3.5t-32 6t-28.5 6t-33 8.5t-32.5 9.5t-39.5 12t-41.5 13q-86 26 -116 26q-34 0 -41 -39l-8 -49h-377l28 185q5 30 13 54.5t28 53.5
t49 48.5t78.5 32.5t114.5 13h4q73 0 133 -12.5t187 -50.5q84 -25 106 -25q30 0 35 37l8 51h381l-25 -157q-5 -34 -11.5 -58.5t-26 -59.5t-48 -57t-81 -38.5t-121.5 -16.5h-4z" />
    <glyph glyph-name="Adieresis" unicode="&#xc4;" horiz-adv-x="2441" 
d="M1542 0l-51 182h-743l-105 -182h-766l928 1524h1067l516 -1524h-846zM1004 633h360l-119 426zM2011 1925l-53 -336h-582l54 336h581zM1350 1925l-52 -336h-579l51 336h580z" />
    <glyph glyph-name="Aring" unicode="&#xc5;" horiz-adv-x="2441" 
d="M1542 0l-51 182h-743l-105 -182h-766l928 1524h1067l516 -1524h-846zM1004 633h360l-119 426zM1790 1831q0 -43 -11.5 -78t-42 -68t-78.5 -55t-125.5 -35.5t-178.5 -13.5q-102 0 -179.5 13.5t-125.5 36t-78 55.5t-41.5 68t-11.5 77q0 252 436 252q126 0 214.5 -20
t135 -56t66.5 -79t20 -97zM1202 1833q0 -88 152 -88q151 0 151 88q0 86 -151 86q-152 0 -152 -86z" />
    <glyph glyph-name="AE" unicode="&#xc6;" horiz-adv-x="3176" 
d="M1311 0l28 184h-575l-141 -184h-750l1171 1524h2239l-68 -426h-985l-18 -119h975l-68 -418h-975l-20 -131h995l-67 -430h-1741zM1106 635h305l82 508z" />
    <glyph glyph-name="Ccedilla" unicode="&#xc7;" horiz-adv-x="2385" 
d="M1507 -287q0 -25 -3 -46t-13.5 -48t-28.5 -47.5t-51.5 -42t-79 -35t-113.5 -22.5t-153 -9h-424l33 199h227q68 0 68 43q0 21 -12 31t-46 10h-139l39 244q-150 19 -269.5 55t-201 86.5t-139 109.5t-89 131t-45.5 142t-14 150q0 91 13 176q11 71 28.5 131.5t57 136.5
t95.5 136t149 120t212 100t291 65t379 25h70q149 0 279 -12.5t228.5 -35.5t181 -53.5t140 -68t102.5 -77.5t72 -84t45 -84.5t24 -83t6 -75.5t-5 -65l-6 -38h-766q-1 16 -6 34t-27 48t-58 53t-107.5 40t-166.5 17q-385 0 -436 -262q-10 -52 -10 -92q0 -256 366 -256
q340 0 408 209h770l-4 -27q-10 -60 -20.5 -103.5t-43.5 -119t-80 -130t-135.5 -119t-202.5 -105t-287.5 -68t-385.5 -27.5h-70h-29l-8 -63q114 0 192.5 -13.5t121 -40.5t60 -60t17.5 -79z" />
    <glyph glyph-name="Egrave" unicode="&#xc8;" horiz-adv-x="1888" 
d="M209 1524h1786l-68 -426h-1036l-19 -119h1026l-67 -418h-1026l-21 -131h1047l-68 -430h-1796zM1456 1589h-635l-151 336h706z" />
    <glyph glyph-name="Eacute" unicode="&#xc9;" horiz-adv-x="1888" 
d="M209 1524h1786l-68 -426h-1036l-19 -119h1026l-67 -418h-1026l-21 -131h1047l-68 -430h-1796zM1421 1589h-635l158 336h707z" />
    <glyph glyph-name="Ecircumflex" unicode="&#xca;" horiz-adv-x="1888" 
d="M209 1524h1786l-68 -426h-1036l-19 -119h1026l-67 -418h-1026l-21 -131h1047l-68 -430h-1796zM838 1925h671l297 -338h-538l-109 119l-133 -119h-577z" />
    <glyph glyph-name="Edieresis" unicode="&#xcb;" horiz-adv-x="1888" 
d="M209 1524h1786l-68 -426h-1036l-19 -119h1026l-67 -418h-1026l-21 -131h1047l-68 -430h-1796zM1808 1925l-53 -336h-581l53 336h581zM1147 1925l-51 -336h-580l51 336h580z" />
    <glyph glyph-name="Igrave" unicode="&#xcc;" horiz-adv-x="870" 
d="M969 1524l-242 -1524h-760l242 1524h760zM920 1589h-635l-152 336h707z" />
    <glyph glyph-name="Iacute" unicode="&#xcd;" horiz-adv-x="870" 
d="M969 1524l-242 -1524h-760l242 1524h760zM915 1589h-634l157 336h707z" />
    <glyph glyph-name="Icircumflex" unicode="&#xce;" horiz-adv-x="870" 
d="M969 1524l-242 -1524h-760l242 1524h760zM283 1925h671l297 -338h-538l-109 119l-133 -119h-577z" />
    <glyph glyph-name="Idieresis" unicode="&#xcf;" horiz-adv-x="870" 
d="M969 1524l-242 -1524h-760l242 1524h760zM1262 1925l-54 -336h-581l53 336h582zM600 1925l-51 -336h-580l51 336h580z" />
    <glyph glyph-name="Eth" unicode="&#xd0;" horiz-adv-x="2451" 
d="M35 0l92 588h-119l58 358h118l92 578h1133q236 0 420 -34t304 -92.5t198 -143.5t110.5 -181t32.5 -211q0 -80 -8 -153q-10 -81 -30 -150.5t-61 -143.5t-99.5 -133.5t-149.5 -113t-206 -90t-274 -57.5t-350 -21h-1261zM961 1051l-17 -105h486l-58 -358h-485l-19 -117h308
q436 0 497 266q8 39 8 76q0 238 -421 238h-299z" />
    <glyph glyph-name="Ntilde" unicode="&#xd1;" horiz-adv-x="2412" 
d="M209 1524h842l591 -693l109 693h760l-242 -1524h-762l-659 762l-121 -762h-760zM1671 1587q-19 0 -35 0.5t-34 3t-29.5 3.5t-31.5 5.5t-29 6.5t-33 9t-32.5 9.5t-39 12t-41.5 12.5q-86 26 -117 26q-34 0 -41 -39l-8 -49h-377l29 185q5 30 13 54.5t28 53.5t49 48.5
t78.5 32.5t114.5 13h4q73 0 132 -12.5t187 -50.5q84 -25 107 -25q29 0 34 37l9 51h381l-25 -157q-5 -34 -12 -58.5t-26.5 -59.5t-48 -57t-81 -38.5t-121.5 -16.5h-4z" />
    <glyph glyph-name="Ograve" unicode="&#xd2;" horiz-adv-x="2453" 
d="M1661 1604h-635l-147 321h706zM1139 -31q-189 0 -345 22t-267 60t-196 92.5t-137 114t-85 130.5t-45.5 137t-12.5 139q0 76 12 159q12 77 32 144t61.5 143.5t100 138t153 120.5t214 98t287.5 63t371 24h100q1092 0 1092 -682q0 -78 -14 -167q-14 -78 -33.5 -143
t-61.5 -143t-99 -139.5t-150.5 -121.5t-212.5 -100t-288.5 -64.5t-373.5 -24.5h-102zM1688 813q0 50 -20.5 94t-65 81.5t-125 59t-189.5 21.5q-394 0 -446 -270q-6 -30 -6 -74q0 -51 21 -96.5t65.5 -84.5t124 -62t186.5 -23q114 0 200 24t136 65.5t76.5 88t35.5 102.5
q7 44 7 74z" />
    <glyph glyph-name="Oacute" unicode="&#xd3;" horiz-adv-x="2453" 
d="M1659 1604h-635l152 321h706zM1139 -31q-189 0 -345 22t-267 60t-196 92.5t-137 114t-85 130.5t-45.5 137t-12.5 139q0 76 12 159q12 77 32 144t61.5 143.5t100 138t153 120.5t214 98t287.5 63t371 24h100q1092 0 1092 -682q0 -78 -14 -167q-14 -78 -33.5 -143
t-61.5 -143t-99 -139.5t-150.5 -121.5t-212.5 -100t-288.5 -64.5t-373.5 -24.5h-102zM1688 813q0 50 -20.5 94t-65 81.5t-125 59t-189.5 21.5q-394 0 -446 -270q-6 -30 -6 -74q0 -51 21 -96.5t65.5 -84.5t124 -62t186.5 -23q114 0 200 24t136 65.5t76.5 88t35.5 102.5
q7 44 7 74z" />
    <glyph glyph-name="Ocircumflex" unicode="&#xd4;" horiz-adv-x="2453" 
d="M1032 1925h705l280 -323h-540l-109 118l-133 -118h-580zM1139 -31q-189 0 -345 22t-267 60t-196 92.5t-137 114t-85 130.5t-45.5 137t-12.5 139q0 76 12 159q12 77 32 144t61.5 143.5t100 138t153 120.5t214 98t287.5 63t371 24h100q1092 0 1092 -682q0 -78 -14 -167
q-14 -78 -33.5 -143t-61.5 -143t-99 -139.5t-150.5 -121.5t-212.5 -100t-288.5 -64.5t-373.5 -24.5h-102zM1688 813q0 50 -20.5 94t-65 81.5t-125 59t-189.5 21.5q-394 0 -446 -270q-6 -30 -6 -74q0 -51 21 -96.5t65.5 -84.5t124 -62t186.5 -23q114 0 200 24t136 65.5
t76.5 88t35.5 102.5q7 44 7 74z" />
    <glyph glyph-name="Otilde" unicode="&#xd5;" horiz-adv-x="2453" 
d="M1139 -31q-189 0 -345 22t-267 60t-196 92.5t-137 114t-85 130.5t-45.5 137t-12.5 139q0 76 12 159q12 77 32 144t61.5 143.5t100 138t153 120.5t214 98t287.5 63t371 24h100q1092 0 1092 -682q0 -78 -14 -167q-14 -78 -33.5 -143t-61.5 -143t-99 -139.5t-150.5 -121.5
t-212.5 -100t-288.5 -64.5t-373.5 -24.5h-102zM1688 813q0 50 -20.5 94t-65 81.5t-125 59t-189.5 21.5q-394 0 -446 -270q-6 -30 -6 -74q0 -51 21 -96.5t65.5 -84.5t124 -62t186.5 -23q114 0 200 24t136 65.5t76.5 88t35.5 102.5q7 44 7 74zM1651 1602q-51 0 -97.5 7t-75 15
t-105.5 31q-18 5 -27 8q-89 27 -117 27q-34 0 -41 -39l-8 -49h-377l28 184q5 30 13 54.5t28 53.5t49 48.5t78.5 33t114.5 13.5h4q72 0 131 -12.5t189 -51.5q81 -24 106 -24q30 0 35 36l8 52h381l-24 -158q-4 -23 -8 -40.5t-13.5 -43t-22 -44t-34.5 -39t-50 -33t-69.5 -21
t-91.5 -8.5h-4z" />
    <glyph glyph-name="Odieresis" unicode="&#xd6;" horiz-adv-x="2453" 
d="M2040 1925l-51 -321h-586l51 321h586zM1374 1925l-49 -321h-584l50 321h583zM1139 -31q-189 0 -345 22t-267 60t-196 92.5t-137 114t-85 130.5t-45.5 137t-12.5 139q0 76 12 159q12 77 32 144t61.5 143.5t100 138t153 120.5t214 98t287.5 63t371 24h100q1092 0 1092 -682
q0 -78 -14 -167q-14 -78 -33.5 -143t-61.5 -143t-99 -139.5t-150.5 -121.5t-212.5 -100t-288.5 -64.5t-373.5 -24.5h-102zM1688 813q0 50 -20.5 94t-65 81.5t-125 59t-189.5 21.5q-394 0 -446 -270q-6 -30 -6 -74q0 -51 21 -96.5t65.5 -84.5t124 -62t186.5 -23q114 0 200 24
t136 65.5t76.5 88t35.5 102.5q7 44 7 74z" />
    <glyph glyph-name="multiply" unicode="&#xd7;" horiz-adv-x="1163" 
d="M1118 330l-287 -258l-270 303l-366 -301l-213 282l344 283l-256 289l284 264l271 -305l368 303l215 -283l-348 -286z" />
    <glyph glyph-name="Oslash" unicode="&#xd8;" horiz-adv-x="2453" 
d="M2460 705q-14 -78 -33.5 -143t-61.5 -143t-99 -139.5t-150.5 -121.5t-212.5 -100t-288.5 -64.5t-373.5 -24.5h-102q-353 0 -600 86l-80 -55h-502l295 213q-201 176 -201 451q0 80 12 159q12 78 32 145t62 144t100.5 138t152.5 119.5t213.5 98t287.5 63t371 23.5h100
q353 0 600 -84l74 54h502l-285 -205q201 -171 201 -447q0 -78 -14 -167zM786 725q0 -64 21 -113l647 469q-70 9 -166 9q-108 0 -193 -18.5t-137.5 -47t-89 -69t-52.5 -79t-23 -81.5q-7 -47 -7 -70zM1739 813q0 66 -23 113l-653 -475q80 -13 170 -13q107 0 192 18.5t138 47.5
t90.5 70t54.5 80.5t25 84.5q6 37 6 74z" />
    <glyph glyph-name="Ugrave" unicode="&#xd9;" horiz-adv-x="2390" 
d="M92 864l105 660h761l-98 -621q-57 -356 346 -356h4q91 0 162 20.5t116.5 52.5t77.5 80.5t48.5 96t25.5 106.5l99 621h762l-105 -660q-10 -66 -22 -120t-35.5 -127.5t-53 -133.5t-78 -128.5t-108 -121t-144.5 -103.5t-185.5 -84t-233.5 -53t-287 -20h-98q-169 0 -312 20
t-248 54t-189 83t-139 104t-94 121t-58 129t-26.5 133t-5 128.5t12.5 118.5zM1675 1589h-635l-151 336h706z" />
    <glyph glyph-name="Uacute" unicode="&#xda;" horiz-adv-x="2390" 
d="M92 864l105 660h761l-98 -621q-57 -356 346 -356h4q91 0 162 20.5t116.5 52.5t77.5 80.5t48.5 96t25.5 106.5l99 621h762l-105 -660q-10 -66 -22 -120t-35.5 -127.5t-53 -133.5t-78 -128.5t-108 -121t-144.5 -103.5t-185.5 -84t-233.5 -53t-287 -20h-98q-169 0 -312 20
t-248 54t-189 83t-139 104t-94 121t-58 129t-26.5 133t-5 128.5t12.5 118.5zM1655 1589h-635l158 336h706z" />
    <glyph glyph-name="Ucircumflex" unicode="&#xdb;" horiz-adv-x="2390" 
d="M92 864l105 660h761l-98 -621q-57 -356 346 -356h4q91 0 162 20.5t116.5 52.5t77.5 80.5t48.5 96t25.5 106.5l99 621h762l-105 -660q-10 -66 -22 -120t-35.5 -127.5t-53 -133.5t-78 -128.5t-108 -121t-144.5 -103.5t-185.5 -84t-233.5 -53t-287 -20h-98q-169 0 -312 20
t-248 54t-189 83t-139 104t-94 121t-58 129t-26.5 133t-5 128.5t12.5 118.5zM1042 1925h672l297 -338h-538l-109 119l-133 -119h-578z" />
    <glyph glyph-name="Udieresis" unicode="&#xdc;" horiz-adv-x="2390" 
d="M92 864l105 660h761l-98 -621q-57 -356 346 -356h4q91 0 162 20.5t116.5 52.5t77.5 80.5t48.5 96t25.5 106.5l99 621h762l-105 -660q-10 -66 -22 -120t-35.5 -127.5t-53 -133.5t-78 -128.5t-108 -121t-144.5 -103.5t-185.5 -84t-233.5 -53t-287 -20h-98q-169 0 -312 20
t-248 54t-189 83t-139 104t-94 121t-58 129t-26.5 133t-5 128.5t12.5 118.5zM2023 1925l-53 -336h-581l53 336h581zM1362 1925l-51 -336h-580l51 336h580z" />
    <glyph glyph-name="Yacute" unicode="&#xdd;" horiz-adv-x="2369" 
d="M1565 530l-82 -530h-760l84 541l-692 983h843l310 -461l461 461h833zM1663 1589h-635l158 336h706z" />
    <glyph glyph-name="Thorn" unicode="&#xde;" horiz-adv-x="2265" 
d="M762 217l-35 -217h-760l242 1524h760l-31 -199h655q158 0 278 -23.5t198 -64.5t127.5 -102.5t69.5 -131.5t20 -157q0 -66 -8.5 -126t-31.5 -125t-59.5 -118.5t-97 -102.5t-139.5 -83t-191 -54t-248 -20h-749zM868 881l-32 -203h505q80 0 116 31.5t36 83.5q0 88 -123 88
h-502z" />
    <glyph glyph-name="germandbls" unicode="&#xdf;" horiz-adv-x="1996" 
d="M1626 905q54 -11 100 -28.5t93 -49t80 -72.5t54 -102.5t21 -136.5q0 -77 -17 -146.5t-61.5 -138.5t-112.5 -119t-179 -81t-252 -31h-596l61 391h223q55 0 93.5 12.5t56 34t24.5 41t7 41.5q0 96 -146 96h-221l61 392h222q79 0 113 27.5t34 68.5q0 18 -6.5 32t-23 27.5
t-51.5 21t-87 7.5h-61q-76 0 -119 -15t-58 -38.5t-22 -65.5l-170 -1073h-727l174 1100q9 55 19.5 93t36 86t63 80.5t101.5 66t150 53.5t211 32.5t281 12.5h181q147 0 266 -10.5t201 -27.5t143 -43.5t96.5 -54.5t56.5 -64t28 -68.5t7 -71.5q0 -63 -30.5 -114.5t-81.5 -85
t-111 -53.5t-125 -26z" />
    <glyph glyph-name="agrave" unicode="&#xe0;" horiz-adv-x="1849" 
d="M1155 1524l123 -348h-616l-191 348h684zM985 139q-183 -159 -522 -159h-12q-127 0 -222.5 25.5t-149.5 71t-80 100t-26 118.5q0 156 86 242q109 109 381 131l561 45q62 6 62 49q0 31 -28.5 49t-112.5 18h-4q-44 0 -76.5 -7.5t-48.5 -15.5t-28 -24.5t-13.5 -22t-6.5 -20.5
h-673q7 43 14 71t29.5 73t55 74.5t93.5 65t141.5 56t202 35t273.5 14.5h116q123 0 227 -8t181 -21t138 -33.5t102 -43t70 -50.5t44 -55t22 -59t6.5 -59t-5.5 -58l-56 -344q-3 -20 2 -27.5t19 -7.5h61l-57 -362h-600q-138 0 -166 139zM692 358q0 -32 27 -54.5t84 -22.5
q83 0 137.5 39t65.5 104l14 90l-234 -61q-94 -24 -94 -95z" />
    <glyph glyph-name="aacute" unicode="&#xe1;" horiz-adv-x="1849" 
d="M1266 1176h-617l201 348h682zM985 139q-183 -159 -522 -159h-12q-127 0 -222.5 25.5t-149.5 71t-80 100t-26 118.5q0 156 86 242q109 109 381 131l561 45q62 6 62 49q0 31 -28.5 49t-112.5 18h-4q-44 0 -76.5 -7.5t-48.5 -15.5t-28 -24.5t-13.5 -22t-6.5 -20.5h-673
q7 43 14 71t29.5 73t55 74.5t93.5 65t141.5 56t202 35t273.5 14.5h116q123 0 227 -8t181 -21t138 -33.5t102 -43t70 -50.5t44 -55t22 -59t6.5 -59t-5.5 -58l-56 -344q-3 -20 2 -27.5t19 -7.5h61l-57 -362h-600q-138 0 -166 139zM692 358q0 -32 27 -54.5t84 -22.5
q83 0 137.5 39t65.5 104l14 90l-234 -61q-94 -24 -94 -95z" />
    <glyph glyph-name="acircumflex" unicode="&#xe2;" horiz-adv-x="1849" 
d="M1350 1524l272 -346h-541l-86 133l-116 -133h-578l377 346h672zM985 139q-183 -159 -522 -159h-12q-127 0 -222.5 25.5t-149.5 71t-80 100t-26 118.5q0 156 86 242q109 109 381 131l561 45q62 6 62 49q0 31 -28.5 49t-112.5 18h-4q-44 0 -76.5 -7.5t-48.5 -15.5
t-28 -24.5t-13.5 -22t-6.5 -20.5h-673q7 43 14 71t29.5 73t55 74.5t93.5 65t141.5 56t202 35t273.5 14.5h116q123 0 227 -8t181 -21t138 -33.5t102 -43t70 -50.5t44 -55t22 -59t6.5 -59t-5.5 -58l-56 -344q-3 -20 2 -27.5t19 -7.5h61l-57 -362h-600q-138 0 -166 139z
M692 358q0 -32 27 -54.5t84 -22.5q83 0 137.5 39t65.5 104l14 90l-234 -61q-94 -24 -94 -95z" />
    <glyph glyph-name="atilde" unicode="&#xe3;" horiz-adv-x="1849" 
d="M1247 1171q-55 0 -103 8.5t-78.5 17.5t-117.5 38q-88 29 -106 29q-19 0 -27.5 -10.5t-11.5 -32.5l-8 -50h-377l28 181q30 202 283 202h4q77 0 137 -12.5t174 -50.5q77 -25 97 -25q30 0 35 37l8 51h383l-25 -153q-5 -34 -12 -58.5t-27 -59.5t-49 -57t-81.5 -38.5
t-121.5 -16.5h-4zM985 139q-183 -159 -522 -159h-12q-127 0 -222.5 25.5t-149.5 71t-80 100t-26 118.5q0 156 86 242q109 109 381 131l561 45q62 6 62 49q0 31 -28.5 49t-112.5 18h-4q-44 0 -76.5 -7.5t-48.5 -15.5t-28 -24.5t-13.5 -22t-6.5 -20.5h-673q7 43 14 71t29.5 73
t55 74.5t93.5 65t141.5 56t202 35t273.5 14.5h116q123 0 227 -8t181 -21t138 -33.5t102 -43t70 -50.5t44 -55t22 -59t6.5 -59t-5.5 -58l-56 -344q-3 -20 2 -27.5t19 -7.5h61l-57 -362h-600q-138 0 -166 139zM692 358q0 -32 27 -54.5t84 -22.5q83 0 137.5 39t65.5 104l14 90
l-234 -61q-94 -24 -94 -95z" />
    <glyph glyph-name="adieresis" unicode="&#xe4;" horiz-adv-x="1849" 
d="M1626 1524l-55 -348h-561l55 348h561zM987 1524l-55 -348h-561l55 348h561zM985 139q-183 -159 -522 -159h-12q-127 0 -222.5 25.5t-149.5 71t-80 100t-26 118.5q0 156 86 242q109 109 381 131l561 45q62 6 62 49q0 31 -28.5 49t-112.5 18h-4q-44 0 -76.5 -7.5
t-48.5 -15.5t-28 -24.5t-13.5 -22t-6.5 -20.5h-673q7 43 14 71t29.5 73t55 74.5t93.5 65t141.5 56t202 35t273.5 14.5h116q123 0 227 -8t181 -21t138 -33.5t102 -43t70 -50.5t44 -55t22 -59t6.5 -59t-5.5 -58l-56 -344q-3 -20 2 -27.5t19 -7.5h61l-57 -362h-600
q-138 0 -166 139zM692 358q0 -32 27 -54.5t84 -22.5q83 0 137.5 39t65.5 104l14 90l-234 -61q-94 -24 -94 -95z" />
    <glyph glyph-name="aring" unicode="&#xe5;" horiz-adv-x="1849" 
d="M985 139q-183 -159 -522 -159h-12q-127 0 -222.5 25.5t-149.5 71t-80 100t-26 118.5q0 156 86 242q109 109 381 131l561 45q62 6 62 49q0 31 -28.5 49t-112.5 18h-4q-44 0 -76.5 -7.5t-48.5 -15.5t-28 -24.5t-13.5 -22t-6.5 -20.5h-673q7 43 14 71t29.5 73t55 74.5
t93.5 65t141.5 56t202 35t273.5 14.5h116q123 0 227 -8t181 -21t138 -33.5t102 -43t70 -50.5t44 -55t22 -59t6.5 -59t-5.5 -58l-56 -344q-3 -20 2 -27.5t19 -7.5h61l-57 -362h-600q-138 0 -166 139zM692 358q0 -32 27 -54.5t84 -22.5q83 0 137.5 39t65.5 104l14 90l-234 -61
q-94 -24 -94 -95zM567 1417q0 252 432 252q433 0 433 -252q0 -54 -20 -96.5t-66.5 -78.5t-134.5 -55.5t-212 -19.5q-125 0 -212.5 19.5t-134 56t-66 78.5t-19.5 96zM852 1419q0 -88 147 -88q148 0 148 88q0 86 -148 86q-147 0 -147 -86z" />
    <glyph glyph-name="ae" unicode="&#xe6;" horiz-adv-x="2918" 
d="M2882 422q-6 -41 -15 -73.5t-35 -82t-64.5 -87.5t-107.5 -79t-159.5 -68.5t-226 -45t-300.5 -17.5h-90q-542 0 -758 205q-201 -194 -614 -194h-14q-116 0 -207.5 17t-150 46t-97 70t-54.5 86t-16 96q0 156 86 242q109 109 381 131l561 45q62 6 62 49q0 31 -28.5 49
t-112.5 18h-4q-44 0 -76.5 -7.5t-48.5 -15.5t-28 -24.5t-13.5 -22t-6.5 -20.5h-673q5 33 10 54.5t17.5 56.5t29 59t47.5 55.5t70 52.5t98 44t131 36.5t170 22t213 8.5h117q326 0 481 -98q63 39 192 71t316 32h88q137 0 252 -12.5t199 -34.5t150.5 -54t110 -67.5t74 -80
t45 -86t20.5 -90.5t4 -89.5t-9 -86.5l-6 -43h-1155q-3 -32 4.5 -61t27.5 -57t64.5 -45t108.5 -17q51 0 92 10t63 23t38 30.5t20.5 28.5t7.5 21h719zM692 358q0 -32 27 -54.5t84 -22.5q88 0 141 41.5t64 109.5l12 82l-234 -61q-94 -24 -94 -95zM1774 711h428q-3 58 -46 90.5
t-153 32.5q-114 0 -164.5 -33.5t-64.5 -89.5z" />
    <glyph glyph-name="ccedilla" unicode="&#xe7;" horiz-adv-x="1912" 
d="M1266 -287q0 -37 -6.5 -66t-32.5 -65.5t-71 -60.5t-130.5 -41t-202.5 -17h-424l33 199h227q68 0 68 43q0 21 -11.5 31t-45.5 10h-140l39 240q-555 72 -555 479q0 58 13 141q9 59 26 110t50 106t79.5 99t118 84.5t162 68t216 43.5t275.5 16h144q132 0 243 -12.5t191 -33.5
t143.5 -51.5t104 -63.5t68.5 -73t41.5 -76t18.5 -76t3.5 -70t-6.5 -61h-738q0 18 -1.5 33t-10.5 43.5t-25.5 48t-51 35t-81.5 15.5h-12q-53 0 -94.5 -19t-65.5 -48.5t-39 -70.5t-20.5 -79t-5.5 -80q0 -177 168 -177h12q55 0 96.5 21.5t64.5 55t34 60.5t16 52h737
q-7 -49 -15 -82t-33.5 -94t-62 -104.5t-106 -95.5t-159.5 -84t-228 -54.5t-307 -22.5h-94l-9 -63q114 0 192.5 -13.5t121.5 -40.5t60.5 -60t17.5 -79z" />
    <glyph glyph-name="egrave" unicode="&#xe8;" horiz-adv-x="1906" 
d="M1219 1524l120 -344h-616l-188 344h684zM1868 422q-6 -41 -15 -74t-35 -82.5t-64 -87t-107 -79t-159.5 -68.5t-225.5 -44.5t-301 -17.5h-91q-156 0 -283 18t-214.5 47.5t-153 73t-103.5 88t-61.5 99.5t-31 101.5t-7.5 99.5q0 44 7 102q7 51 18 93.5t39 100t68.5 102
t111.5 91.5t163 78t227 50.5t300 19.5h88q137 0 252 -12.5t199 -34.5t150.5 -54t110 -67.5t74 -80t45 -86t20.5 -90.5t4 -89.5t-9 -86.5l-6 -43h-1155q-3 -32 4 -61t27 -57t64.5 -45t107.5 -17t109.5 13.5t69 35t31.5 36t13 28.5h719zM760 711h428q-3 58 -46 90.5t-153 32.5
q-114 0 -164.5 -33.5t-64.5 -89.5z" />
    <glyph glyph-name="eacute" unicode="&#xe9;" horiz-adv-x="1906" 
d="M1321 1180h-616l198 344h682zM1868 422q-6 -41 -15 -74t-35 -82.5t-64 -87t-107 -79t-159.5 -68.5t-225.5 -44.5t-301 -17.5h-91q-156 0 -283 18t-214.5 47.5t-153 73t-103.5 88t-61.5 99.5t-31 101.5t-7.5 99.5q0 44 7 102q7 51 18 93.5t39 100t68.5 102t111.5 91.5
t163 78t227 50.5t300 19.5h88q137 0 252 -12.5t199 -34.5t150.5 -54t110 -67.5t74 -80t45 -86t20.5 -90.5t4 -89.5t-9 -86.5l-6 -43h-1155q-3 -32 4 -61t27 -57t64.5 -45t107.5 -17t109.5 13.5t69 35t31.5 36t13 28.5h719zM760 711h428q-3 58 -46 90.5t-153 32.5
q-114 0 -164.5 -33.5t-64.5 -89.5z" />
    <glyph glyph-name="ecircumflex" unicode="&#xea;" horiz-adv-x="1906" 
d="M1403 1524l272 -344h-540l-86 131l-117 -131h-578l377 344h672zM1868 422q-6 -41 -15 -74t-35 -82.5t-64 -87t-107 -79t-159.5 -68.5t-225.5 -44.5t-301 -17.5h-91q-156 0 -283 18t-214.5 47.5t-153 73t-103.5 88t-61.5 99.5t-31 101.5t-7.5 99.5q0 44 7 102
q7 51 18 93.5t39 100t68.5 102t111.5 91.5t163 78t227 50.5t300 19.5h88q137 0 252 -12.5t199 -34.5t150.5 -54t110 -67.5t74 -80t45 -86t20.5 -90.5t4 -89.5t-9 -86.5l-6 -43h-1155q-3 -32 4 -61t27 -57t64.5 -45t107.5 -17t109.5 13.5t69 35t31.5 36t13 28.5h719zM760 711
h428q-3 58 -46 90.5t-153 32.5q-114 0 -164.5 -33.5t-64.5 -89.5z" />
    <glyph glyph-name="edieresis" unicode="&#xeb;" horiz-adv-x="1906" 
d="M1038 1133q137 0 252 -12.5t199 -34.5t150.5 -54t110 -67.5t74 -80t45 -86t20.5 -90.5t4 -89.5t-9 -86.5l-6 -43h-1157q-2 -25 1.5 -48.5t17 -48t35.5 -42.5t61 -29.5t90 -11.5q63 0 109.5 13.5t69 35t31.5 36t13 28.5h719q-6 -41 -15 -74t-35 -82.5t-64 -87t-107 -79
t-159.5 -68.5t-225.5 -44.5t-301 -17.5h-91q-156 0 -283 18t-214.5 47.5t-153 73t-103.5 88t-61.5 99.5t-31 101.5t-7.5 99.5q0 44 7 102q7 51 18 93.5t39 100t68.5 102t111.5 91.5t163 78t227 50.5t300 19.5h88zM1047 1524l-56 -344h-565l55 344h566zM1690 1524l-56 -344
h-565l55 344h566zM987 834q-112 -1 -162.5 -34.5t-66.5 -88.5h430q-3 58 -46.5 90.5t-154.5 32.5z" />
    <glyph glyph-name="igrave" unicode="&#xec;" horiz-adv-x="821" 
d="M860 1102l-174 -1102h-727l174 1102h727zM686 1524l127 -359h-616l-195 359h684z" />
    <glyph glyph-name="iacute" unicode="&#xed;" horiz-adv-x="821" 
d="M860 1102l-174 -1102h-727l174 1102h727zM811 1165h-616l206 359h682z" />
    <glyph glyph-name="icircumflex" unicode="&#xee;" horiz-adv-x="821" 
d="M836 1524l186 -359h-440l-66 144l-96 -144h-438l266 359h588zM860 1102l-174 -1102h-727l174 1102h727z" />
    <glyph glyph-name="idieresis" unicode="&#xef;" horiz-adv-x="821" 
d="M1014 1524l-58 -359h-426l58 359h426zM526 1524l-57 -359h-426l57 359h426zM860 1102l-174 -1102h-727l174 1102h727z" />
    <glyph glyph-name="eth" unicode="&#xf0;" horiz-adv-x="1998" 
d="M1980 553q-9 -59 -21 -106t-42.5 -110t-73.5 -111.5t-118 -99t-171 -83t-238 -53.5t-315 -21h-110q-453 0 -665 133.5t-212 393.5q0 52 6 104q6 50 18 95.5t36 96t58 92.5t86 81t118 66t157 43t199 16h17q182 0 294 -28t197 -75l-250 201l-608 -62l31 191l368 37
l-211 170h809l119 -97l453 46l-31 -193l-215 -20q168 -138 247 -270t79 -281q0 -80 -11 -156zM760 514q0 -37 10 -70t33 -63.5t66.5 -48t103.5 -17.5h4q65 0 115 22t78 54t45 74t22.5 75t5.5 64q0 77 -50 130.5t-167 53.5h-6q-64 0 -112.5 -20t-75.5 -49t-44 -68.5
t-22.5 -71.5t-5.5 -65z" />
    <glyph glyph-name="ntilde" unicode="&#xf1;" horiz-adv-x="1947" 
d="M-41 0l174 1102h727l-35 -213q17 18 45.5 41.5t87.5 60t125 65t162 49.5t195 21h12q77 0 142.5 -11.5t113 -32t86 -48.5t62 -60t41.5 -68t23 -72t7.5 -71t-4.5 -67l-111 -696h-727l78 494q15 94 -26 152.5t-148 58.5q-101 0 -155.5 -58.5t-69.5 -154.5l-78 -492h-727z
M1339 1161q-55 0 -103 8.5t-78.5 17.5t-117.5 38q-85 28 -106 28q-19 0 -27.5 -10.5t-11.5 -32.5l-8 -49h-377l29 180q30 203 282 203h4q77 0 137.5 -12.5t174.5 -50.5q77 -25 96 -25q30 0 35 37l8 51h383l-25 -153q-5 -34 -12 -58.5t-27 -59.5t-49 -57t-81.5 -38.5
t-121.5 -16.5h-4z" />
    <glyph glyph-name="ograve" unicode="&#xf2;" horiz-adv-x="1994" 
d="M1251 1524l123 -344h-616l-191 344h684zM1018 -31h-162q-152 0 -277 19t-210.5 49.5t-151 74.5t-103 89.5t-61 99.5t-31.5 98.5t-8 92.5q0 34 9 108q7 48 18 88.5t39.5 98t69.5 102t114 92.5t167.5 79.5t234 52t309.5 20.5h168q151 0 275.5 -17.5t209.5 -46.5t150 -70.5
t102.5 -85t60.5 -95.5t31 -95.5t8 -91.5q0 -52 -8 -117q-5 -39 -11.5 -70t-22 -76t-37.5 -81.5t-60 -79t-86.5 -75t-120.5 -64.5t-159 -53t-203.5 -33.5t-253.5 -12.5zM1018 788q-64 0 -112.5 -20t-75.5 -49t-44 -68.5t-22.5 -71.5t-5.5 -65q0 -37 10 -70t33 -63.5t66.5 -48
t103.5 -17.5h4q65 0 114.5 22t77.5 54t45.5 73.5t23 75t5.5 64.5q0 35 -10 65.5t-33.5 58.5t-68.5 44t-107 16h-4z" />
    <glyph glyph-name="oacute" unicode="&#xf3;" horiz-adv-x="1994" 
d="M1378 1180h-616l199 344h681zM1018 -31h-162q-152 0 -277 19t-210.5 49.5t-151 74.5t-103 89.5t-61 99.5t-31.5 98.5t-8 92.5q0 34 9 108q7 48 18 88.5t39.5 98t69.5 102t114 92.5t167.5 79.5t234 52t309.5 20.5h168q151 0 275.5 -17.5t209.5 -46.5t150 -70.5t102.5 -85
t60.5 -95.5t31 -95.5t8 -91.5q0 -52 -8 -117q-5 -39 -11.5 -70t-22 -76t-37.5 -81.5t-60 -79t-86.5 -75t-120.5 -64.5t-159 -53t-203.5 -33.5t-253.5 -12.5zM1018 788q-64 0 -112.5 -20t-75.5 -49t-44 -68.5t-22.5 -71.5t-5.5 -65q0 -37 10 -70t33 -63.5t66.5 -48
t103.5 -17.5h4q65 0 114.5 22t77.5 54t45.5 73.5t23 75t5.5 64.5q0 35 -10 65.5t-33.5 58.5t-68.5 44t-107 16h-4z" />
    <glyph glyph-name="ocircumflex" unicode="&#xf4;" horiz-adv-x="1994" 
d="M1450 1524l272 -344h-540l-86 131l-117 -131h-578l377 344h672zM1018 -31h-162q-152 0 -277 19t-210.5 49.5t-151 74.5t-103 89.5t-61 99.5t-31.5 98.5t-8 92.5q0 34 9 108q7 48 18 88.5t39.5 98t69.5 102t114 92.5t167.5 79.5t234 52t309.5 20.5h168q151 0 275.5 -17.5
t209.5 -46.5t150 -70.5t102.5 -85t60.5 -95.5t31 -95.5t8 -91.5q0 -52 -8 -117q-5 -39 -11.5 -70t-22 -76t-37.5 -81.5t-60 -79t-86.5 -75t-120.5 -64.5t-159 -53t-203.5 -33.5t-253.5 -12.5zM1018 788q-64 0 -112.5 -20t-75.5 -49t-44 -68.5t-22.5 -71.5t-5.5 -65
q0 -37 10 -70t33 -63.5t66.5 -48t103.5 -17.5h4q65 0 114.5 22t77.5 54t45.5 73.5t23 75t5.5 64.5q0 35 -10 65.5t-33.5 58.5t-68.5 44t-107 16h-4z" />
    <glyph glyph-name="otilde" unicode="&#xf5;" horiz-adv-x="1994" 
d="M1018 -31h-162q-152 0 -277 19t-210.5 49.5t-151 74.5t-103 89.5t-61 99.5t-31.5 98.5t-8 92.5q0 34 9 108q7 48 18 88.5t39.5 98t69.5 102t114 92.5t167.5 79.5t234 52t309.5 20.5h168q151 0 275.5 -17.5t209.5 -46.5t150 -70.5t102.5 -85t60.5 -95.5t31 -95.5t8 -91.5
q0 -52 -8 -117q-5 -39 -11.5 -70t-22 -76t-37.5 -81.5t-60 -79t-86.5 -75t-120.5 -64.5t-159 -53t-203.5 -33.5t-253.5 -12.5zM1018 788q-64 0 -112.5 -20t-75.5 -49t-44 -68.5t-22.5 -71.5t-5.5 -65q0 -37 10 -70t33 -63.5t66.5 -48t103.5 -17.5h4q65 0 114.5 22t77.5 54
t45.5 73.5t23 75t5.5 64.5q0 35 -10 65.5t-33.5 58.5t-68.5 44t-107 16h-4zM1348 1176q-55 0 -102 7.5t-80.5 17.5t-116.5 38q-88 29 -107 29t-27.5 -10.5t-11.5 -32.5l-8 -49h-377l29 180q30 203 282 203h5q76 0 135.5 -12.5t175.5 -51.5q77 -25 96 -25q30 0 35 37l8 52
h383l-25 -154q-4 -28 -9.5 -48.5t-17.5 -49.5t-32.5 -50t-50.5 -40.5t-76 -30t-104 -10.5h-4z" />
    <glyph glyph-name="odieresis" unicode="&#xf6;" horiz-adv-x="1994" 
d="M1749 1524l-55 -344h-566l56 344h565zM1106 1524l-55 -344h-566l56 344h565zM1018 -31h-162q-152 0 -277 19t-210.5 49.5t-151 74.5t-103 89.5t-61 99.5t-31.5 98.5t-8 92.5q0 34 9 108q7 48 18 88.5t39.5 98t69.5 102t114 92.5t167.5 79.5t234 52t309.5 20.5h168
q151 0 275.5 -17.5t209.5 -46.5t150 -70.5t102.5 -85t60.5 -95.5t31 -95.5t8 -91.5q0 -52 -8 -117q-5 -39 -11.5 -70t-22 -76t-37.5 -81.5t-60 -79t-86.5 -75t-120.5 -64.5t-159 -53t-203.5 -33.5t-253.5 -12.5zM1018 788q-64 0 -112.5 -20t-75.5 -49t-44 -68.5t-22.5 -71.5
t-5.5 -65q0 -37 10 -70t33 -63.5t66.5 -48t103.5 -17.5h4q65 0 114.5 22t77.5 54t45.5 73.5t23 75t5.5 64.5q0 35 -10 65.5t-33.5 58.5t-68.5 44t-107 16h-4z" />
    <glyph glyph-name="divide" unicode="&#xf7;" horiz-adv-x="1218" 
d="M934 1241l-57 -358h-428l57 358h428zM86 811h1133l-58 -356h-1132zM797 379l-56 -356h-428l56 356h428z" />
    <glyph glyph-name="oslash" unicode="&#xf8;" horiz-adv-x="1994" 
d="M1972 514q-5 -40 -11.5 -70.5t-22.5 -76.5t-38 -81.5t-60 -78.5t-86.5 -75.5t-120 -64.5t-158.5 -52.5t-203.5 -33t-253.5 -12.5h-162q-289 0 -479 70l-70 -39h-370l237 147q-160 137 -160 345q0 34 9 108q7 48 18 88.5t39.5 98t69.5 102t114 92.5t167.5 79.5t234 52
t309.5 20.5h168q285 0 473 -66l59 35h381l-229 -141q153 -127 153 -330q0 -57 -8 -117zM971 301h4q73 0 128.5 22t86 54t50 76t25 79.5t5.5 71.5v4l-445 -280q62 -27 146 -27zM729 514v-10l440 274q-58 25 -147 25h-4q-72 0 -126.5 -20t-84.5 -49.5t-48.5 -71t-24 -76
t-5.5 -72.5z" />
    <glyph glyph-name="ugrave" unicode="&#xf9;" horiz-adv-x="1931" 
d="M1970 1102l-174 -1102h-727l35 211q-19 -19 -45.5 -41t-85.5 -59t-123.5 -65t-159 -49.5t-192.5 -21.5h-11q-76 0 -141.5 12t-112 33t-84.5 49.5t-61 61.5t-40 69t-22 71.5t-7.5 69t4.5 62.5l110 699h727l-78 -494q-15 -95 21.5 -153t138.5 -58q98 0 153.5 57t69.5 152
l78 496h727zM1247 1524l127 -359h-616l-195 359h684z" />
    <glyph glyph-name="uacute" unicode="&#xfa;" horiz-adv-x="1931" 
d="M1970 1102l-174 -1102h-727l35 211q-19 -19 -45.5 -41t-85.5 -59t-123.5 -65t-159 -49.5t-192.5 -21.5h-11q-76 0 -141.5 12t-112 33t-84.5 49.5t-61 61.5t-40 69t-22 71.5t-7.5 69t4.5 62.5l110 699h727l-78 -494q-15 -95 21.5 -153t138.5 -58q98 0 153.5 57t69.5 152
l78 496h727zM1346 1165h-617l207 359h682z" />
    <glyph glyph-name="ucircumflex" unicode="&#xfb;" horiz-adv-x="1931" 
d="M1970 1102l-174 -1102h-727l35 211q-19 -19 -45.5 -41t-85.5 -59t-123.5 -65t-159 -49.5t-192.5 -21.5h-11q-76 0 -141.5 12t-112 33t-84.5 49.5t-61 61.5t-40 69t-22 71.5t-7.5 69t4.5 62.5l110 699h727l-78 -494q-15 -95 21.5 -153t138.5 -58q98 0 153.5 57t69.5 152
l78 496h727zM1427 1524l273 -359h-541l-86 146l-117 -146h-577l377 359h671z" />
    <glyph glyph-name="udieresis" unicode="&#xfc;" horiz-adv-x="1931" 
d="M1970 1102l-174 -1102h-727l35 211q-19 -19 -45.5 -41t-85.5 -59t-123.5 -65t-159 -49.5t-192.5 -21.5h-11q-76 0 -141.5 12t-112 33t-84.5 49.5t-61 61.5t-40 69t-22 71.5t-7.5 69t4.5 62.5l110 699h727l-78 -494q-15 -95 21.5 -153t138.5 -58q98 0 153.5 57t69.5 152
l78 496h727zM1710 1524l-57 -359h-561l57 359h561zM1071 1524l-57 -359h-561l57 359h561z" />
    <glyph glyph-name="yacute" unicode="&#xfd;" horiz-adv-x="1806" 
d="M1343 4q-113 -213 -226 -301t-261 -88h-754l58 362h229q57 0 57 46q0 26 -22 88l-365 991h758l123 -623l256 623h727zM1307 1165h-617l207 359h682z" />
    <glyph glyph-name="thorn" unicode="&#xfe;" horiz-adv-x="1957" 
d="M201 1524h727l-90 -568q201 154 495 154h43q131 0 233 -27t164 -69.5t101.5 -103t54.5 -120.5t15 -128q0 -65 -13 -154q-11 -78 -36.5 -146.5t-77.5 -138.5t-125.5 -119.5t-189 -80.5t-259.5 -31h-45q-98 0 -189.5 15t-153 36.5t-98 38.5t-52.5 29l-80 -496h-727z
M1012 768q-98 0 -158.5 -55.5t-75.5 -137.5q-6 -30 -6 -61q0 -76 43.5 -130t136.5 -54h13q60 0 106 25t71 65.5t37.5 85.5t12.5 92q0 72 -40 121t-128 49h-12z" />
    <glyph glyph-name="ydieresis" unicode="&#xff;" horiz-adv-x="1806" 
d="M1343 4q-113 -213 -226 -301t-261 -88h-754l58 362h229q57 0 57 46q0 26 -22 88l-365 991h758l123 -623l256 623h727zM1673 1524l-57 -359h-561l57 359h561zM1034 1524l-57 -359h-561l57 359h561z" />
    <glyph glyph-name="Amacron" unicode="&#x100;" horiz-adv-x="2441" 
d="M1542 0l-51 182h-743l-105 -182h-766l928 1524h1067l516 -1524h-846zM1004 633h360l-119 426zM823 1606l47 290h1047l-47 -290h-1047z" />
    <glyph glyph-name="amacron" unicode="&#x101;" horiz-adv-x="1849" 
d="M985 139q-183 -159 -522 -159h-12q-127 0 -222.5 25.5t-149.5 71t-80 100t-26 118.5q0 156 86 242q109 109 381 131l561 45q62 6 62 49q0 31 -28.5 49t-112.5 18h-4q-44 0 -76.5 -7.5t-48.5 -15.5t-28 -24.5t-13.5 -22t-6.5 -20.5h-673q7 43 14 71t29.5 73t55 74.5
t93.5 65t141.5 56t202 35t273.5 14.5h116q123 0 227 -8t181 -21t138 -33.5t102 -43t70 -50.5t44 -55t22 -59t6.5 -59t-5.5 -58l-56 -344q-3 -20 2 -27.5t19 -7.5h61l-57 -362h-600q-138 0 -166 139zM692 358q0 -32 27 -54.5t84 -22.5q83 0 137.5 39t65.5 104l14 90l-234 -61
q-94 -24 -94 -95zM465 1192l47 291h1016l-47 -291h-1016z" />
    <glyph glyph-name="Abreve" unicode="&#x102;" horiz-adv-x="2441" 
d="M1542 0l-51 182h-743l-105 -182h-766l928 1524h1067l516 -1524h-846zM1004 633h360l-119 426zM1227 1964q0 -16 3.5 -31t14.5 -34.5t38 -31.5t67 -12q38 0 67 12t43 30.5t20.5 35.5t6.5 31h403q0 -42 -13.5 -88t-49.5 -99.5t-89.5 -95.5t-144.5 -70t-204 -28h-97
q-88 0 -160.5 14.5t-120.5 38t-84 57t-56 67t-31.5 73t-14.5 69.5t-2 62h404z" />
    <glyph glyph-name="abreve" unicode="&#x103;" horiz-adv-x="1849" 
d="M862 1524q1 -12 6 -24.5t17 -27.5t38.5 -24.5t63.5 -9.5q66 0 98.5 27.5t38.5 58.5h400q-1 -29 -11.5 -63t-32 -75.5t-60.5 -79t-91.5 -69t-131.5 -50t-173 -18.5h-98q-86 0 -157 14t-118 37t-83 55t-56 63.5t-32 68t-15.5 63.5t-3.5 54h401zM985 139
q-183 -159 -522 -159h-12q-127 0 -222.5 25.5t-149.5 71t-80 100t-26 118.5q0 156 86 242q109 109 381 131l561 45q62 6 62 49q0 31 -28.5 49t-112.5 18h-4q-44 0 -76.5 -7.5t-48.5 -15.5t-28 -24.5t-13.5 -22t-6.5 -20.5h-673q7 43 14 71t29.5 73t55 74.5t93.5 65t141.5 56
t202 35t273.5 14.5h116q123 0 227 -8t181 -21t138 -33.5t102 -43t70 -50.5t44 -55t22 -59t6.5 -59t-5.5 -58l-56 -344q-3 -20 2 -27.5t19 -7.5h61l-57 -362h-600q-138 0 -166 139zM692 358q0 -32 27 -54.5t84 -22.5q83 0 137.5 39t65.5 104l14 90l-234 -61q-94 -24 -94 -95z
" />
    <glyph glyph-name="Aogonek" unicode="&#x104;" horiz-adv-x="2441" 
d="M1542 0l-51 182h-743l-105 -182h-766l928 1524h1067l516 -1524q-42 -20 -63.5 -31.5t-47 -28t-36.5 -30.5t-11 -29q0 -33 49 -33h82l-37 -233h-413q-179 0 -256.5 36t-77.5 109q0 89 120 146t408 94h-563zM1004 633h360l-119 426z" />
    <glyph glyph-name="aogonek" unicode="&#x105;" horiz-adv-x="1849" 
d="M1274 -385q-179 0 -256.5 36t-77.5 109q0 89 120 146t408 94h-317q-138 0 -166 139q-183 -159 -522 -159h-12q-127 0 -222.5 25.5t-149.5 71t-80 100t-26 118.5q0 156 86 242q109 109 381 131l561 45q62 6 62 49q0 31 -28.5 49t-112.5 18h-4q-44 0 -76.5 -7.5
t-48.5 -15.5t-28 -24.5t-13.5 -22t-6.5 -20.5h-673q7 43 14 71t29.5 73t55 74.5t93.5 65t141.5 56t202 35t273.5 14.5h116q123 0 227 -8t181 -21t138 -33.5t102 -43t70 -50.5t44 -55t22 -59t6.5 -59t-5.5 -58l-56 -344q-3 -20 2 -27.5t19 -7.5h61l-57 -362
q-42 -20 -63.5 -31.5t-47 -28t-36.5 -30.5t-11 -29q0 -33 49 -33h82l-36 -233h-414zM692 358q0 -32 27 -54.5t84 -22.5q83 0 137.5 39t65.5 104l14 90l-234 -61q-94 -24 -94 -95z" />
    <glyph glyph-name="Cacute" unicode="&#x106;" horiz-adv-x="2385" 
d="M1645 1604h-635l151 321h707zM2378 641q-10 -60 -20.5 -103.5t-43.5 -119t-80 -130t-135.5 -119t-202.5 -105t-287.5 -68t-385.5 -27.5h-70q-190 0 -346.5 20.5t-268.5 55.5t-198 87t-140 110.5t-87.5 130.5t-46.5 141.5t-13 149.5q0 91 13 176q11 71 28.5 131.5
t57 136.5t95.5 136t149 120t212 100t291 65t379 25h70q149 0 279 -12.5t228.5 -35.5t181 -53.5t140 -68t102.5 -77.5t72 -84t45 -84.5t24 -83t6 -75.5t-5 -65l-6 -38h-766q-1 16 -6 34t-27 48t-58 53t-107.5 40t-166.5 17q-385 0 -436 -262q-10 -52 -10 -92q0 -256 366 -256
q340 0 408 209h770z" />
    <glyph glyph-name="cacute" unicode="&#x107;" horiz-adv-x="1912" 
d="M1329 1180h-616l198 344h682zM1888 506q-7 -49 -15 -82t-33.5 -94t-62 -104.5t-106 -95.5t-159.5 -84t-228 -54.5t-307 -22.5h-139q-824 0 -824 496q0 58 13 141q9 59 26 110t50 106t79.5 99t118 84.5t162 68t216 43.5t275.5 16h144q132 0 243 -12.5t191 -33.5
t143.5 -51.5t104 -63.5t68.5 -73t41.5 -76t18.5 -76t3.5 -70t-6.5 -61h-738q0 18 -1.5 33t-10.5 43.5t-25.5 48t-51 35t-81.5 15.5h-12q-53 0 -94.5 -19t-65.5 -48.5t-39 -70.5t-20.5 -79t-5.5 -80q0 -177 168 -177h12q55 0 96.5 21.5t64.5 55t34 60.5t16 52h737z" />
    <glyph glyph-name="Ccircumflex" unicode="&#x108;" horiz-adv-x="2385" 
d="M1001 1925h705l281 -323h-541l-109 118l-133 -118h-579zM2378 641q-10 -60 -20.5 -103.5t-43.5 -119t-80 -130t-135.5 -119t-202.5 -105t-287.5 -68t-385.5 -27.5h-70q-190 0 -346.5 20.5t-268.5 55.5t-198 87t-140 110.5t-87.5 130.5t-46.5 141.5t-13 149.5q0 91 13 176
q11 71 28.5 131.5t57 136.5t95.5 136t149 120t212 100t291 65t379 25h70q149 0 279 -12.5t228.5 -35.5t181 -53.5t140 -68t102.5 -77.5t72 -84t45 -84.5t24 -83t6 -75.5t-5 -65l-6 -38h-766q-1 16 -6 34t-27 48t-58 53t-107.5 40t-166.5 17q-385 0 -436 -262
q-10 -52 -10 -92q0 -256 366 -256q340 0 408 209h770z" />
    <glyph glyph-name="ccircumflex" unicode="&#x109;" horiz-adv-x="1912" 
d="M1417 1524l273 -344h-541l-86 131l-117 -131h-577l376 344h672zM1888 506q-7 -49 -15 -82t-33.5 -94t-62 -104.5t-106 -95.5t-159.5 -84t-228 -54.5t-307 -22.5h-139q-824 0 -824 496q0 58 13 141q9 59 26 110t50 106t79.5 99t118 84.5t162 68t216 43.5t275.5 16h144
q132 0 243 -12.5t191 -33.5t143.5 -51.5t104 -63.5t68.5 -73t41.5 -76t18.5 -76t3.5 -70t-6.5 -61h-738q0 18 -1.5 33t-10.5 43.5t-25.5 48t-51 35t-81.5 15.5h-12q-53 0 -94.5 -19t-65.5 -48.5t-39 -70.5t-20.5 -79t-5.5 -80q0 -177 168 -177h12q55 0 96.5 21.5t64.5 55
t34 60.5t16 52h737z" />
    <glyph glyph-name="Cdotaccent" unicode="&#x10a;" horiz-adv-x="2385" 
d="M1700 1604h-727l55 344h727zM2378 641q-10 -60 -20.5 -103.5t-43.5 -119t-80 -130t-135.5 -119t-202.5 -105t-287.5 -68t-385.5 -27.5h-70q-190 0 -346.5 20.5t-268.5 55.5t-198 87t-140 110.5t-87.5 130.5t-46.5 141.5t-13 149.5q0 91 13 176q11 71 28.5 131.5t57 136.5
t95.5 136t149 120t212 100t291 65t379 25h70q149 0 279 -12.5t228.5 -35.5t181 -53.5t140 -68t102.5 -77.5t72 -84t45 -84.5t24 -83t6 -75.5t-5 -65l-6 -38h-766q-1 16 -6 34t-27 48t-58 53t-107.5 40t-166.5 17q-385 0 -436 -262q-10 -52 -10 -92q0 -256 366 -256
q340 0 408 209h770z" />
    <glyph glyph-name="cdotaccent" unicode="&#x10b;" horiz-adv-x="1912" 
d="M1438 1524l-56 -344h-731l56 344h731zM1888 506q-7 -49 -15 -82t-33.5 -94t-62 -104.5t-106 -95.5t-159.5 -84t-228 -54.5t-307 -22.5h-139q-824 0 -824 496q0 58 13 141q9 59 26 110t50 106t79.5 99t118 84.5t162 68t216 43.5t275.5 16h144q132 0 243 -12.5t191 -33.5
t143.5 -51.5t104 -63.5t68.5 -73t41.5 -76t18.5 -76t3.5 -70t-6.5 -61h-738q0 18 -1.5 33t-10.5 43.5t-25.5 48t-51 35t-81.5 15.5h-12q-53 0 -94.5 -19t-65.5 -48.5t-39 -70.5t-20.5 -79t-5.5 -80q0 -177 168 -177h12q55 0 96.5 21.5t64.5 55t34 60.5t16 52h737z" />
    <glyph glyph-name="Ccaron" unicode="&#x10c;" horiz-adv-x="2385" 
d="M1712 1604h-741l-283 321h561l109 -117l133 117h598zM2378 641q-10 -60 -20.5 -103.5t-43.5 -119t-80 -130t-135.5 -119t-202.5 -105t-287.5 -68t-385.5 -27.5h-70q-190 0 -346.5 20.5t-268.5 55.5t-198 87t-140 110.5t-87.5 130.5t-46.5 141.5t-13 149.5q0 91 13 176
q11 71 28.5 131.5t57 136.5t95.5 136t149 120t212 100t291 65t379 25h70q149 0 279 -12.5t228.5 -35.5t181 -53.5t140 -68t102.5 -77.5t72 -84t45 -84.5t24 -83t6 -75.5t-5 -65l-6 -38h-766q-1 16 -6 34t-27 48t-58 53t-107.5 40t-166.5 17q-385 0 -436 -262
q-10 -52 -10 -92q0 -256 366 -256q340 0 408 209h770z" />
    <glyph glyph-name="ccaron" unicode="&#x10d;" horiz-adv-x="1912" 
d="M657 1180l-262 344h549l86 -146l117 146h588l-361 -344h-717zM1888 506q-7 -49 -15 -82t-33.5 -94t-62 -104.5t-106 -95.5t-159.5 -84t-228 -54.5t-307 -22.5h-139q-824 0 -824 496q0 58 13 141q9 59 26 110t50 106t79.5 99t118 84.5t162 68t216 43.5t275.5 16h144
q132 0 243 -12.5t191 -33.5t143.5 -51.5t104 -63.5t68.5 -73t41.5 -76t18.5 -76t3.5 -70t-6.5 -61h-738q0 18 -1.5 33t-10.5 43.5t-25.5 48t-51 35t-81.5 15.5h-12q-53 0 -94.5 -19t-65.5 -48.5t-39 -70.5t-20.5 -79t-5.5 -80q0 -177 168 -177h12q55 0 96.5 21.5t64.5 55
t34 60.5t16 52h737z" />
    <glyph glyph-name="Dcaron" unicode="&#x10e;" horiz-adv-x="2385" 
d="M-33 0l242 1524h1132q236 0 420 -34t304 -92.5t198 -143.5t110.5 -181t32.5 -211q0 -80 -8 -153q-10 -81 -30 -150.5t-61 -143.5t-99.5 -133.5t-149 -113t-205.5 -90t-274 -57.5t-350 -21h-1262zM893 1051l-92 -580h307q437 0 498 266q8 39 8 76q0 238 -422 238h-299z
M1489 1589h-672l-297 336h539l108 -117l133 117h578z" />
    <glyph glyph-name="dcaron" unicode="&#x10f;" horiz-adv-x="1939" 
d="M2038 1163l76 361h514l-109 -361h-481zM1319 1524h727l-242 -1524h-727l23 145q-180 -153 -514 -153h-35q-113 0 -204 26.5t-152.5 71.5t-102.5 107.5t-59.5 132t-18.5 147.5q0 79 13 152q14 79 45 148t85 131t127 106t175.5 70t224.5 26h43q304 0 504 -137zM1165 532
q6 30 6 66q0 71 -44.5 120.5t-141.5 49.5h-8q-61 0 -105.5 -22.5t-68 -60t-34.5 -78.5t-11 -87q0 -76 40.5 -127t125.5 -51h8q58 0 102.5 17.5t70 48t39.5 60.5t21 64z" />
    <glyph glyph-name="Dcroat" unicode="&#x110;" horiz-adv-x="2451" 
d="M35 0l92 588h-119l58 358h118l92 578h1133q236 0 420 -34t304 -92.5t198 -143.5t110.5 -181t32.5 -211q0 -80 -8 -153q-10 -81 -30 -150.5t-61 -143.5t-99.5 -133.5t-149.5 -113t-206 -90t-274 -57.5t-350 -21h-1261zM961 1051l-17 -105h486l-58 -358h-485l-19 -117h308
q436 0 497 266q8 39 8 76q0 238 -421 238h-299z" />
    <glyph glyph-name="dcroat" unicode="&#x111;" horiz-adv-x="1937" 
d="M1319 1524h727l-16 -94h98l-39 -254h-98l-187 -1176h-727l23 145q-180 -153 -514 -153h-35q-113 0 -204 26.5t-152.5 71.5t-102.5 107.5t-59.5 132t-18.5 147.5q0 79 13 152q14 79 45 148t85 131t127 106t175.5 70t224.5 26h43q304 0 504 -137l33 203h-510l41 254h508z
M1165 532q6 30 6 66q0 71 -44.5 120.5t-141.5 49.5h-8q-61 0 -105.5 -22.5t-68 -60t-34.5 -78.5t-11 -87q0 -76 40.5 -127t125.5 -51h8q58 0 102.5 17.5t70 48t39.5 60.5t21 64z" />
    <glyph glyph-name="Emacron" unicode="&#x112;" horiz-adv-x="1888" 
d="M209 1524h1786l-68 -426h-1036l-19 -119h1026l-67 -418h-1026l-21 -131h1047l-68 -430h-1796zM610 1606l47 290h1047l-47 -290h-1047z" />
    <glyph glyph-name="emacron" unicode="&#x113;" horiz-adv-x="1906" 
d="M1868 422q-6 -41 -15 -74t-35 -82.5t-64 -87t-107 -79t-159.5 -68.5t-225.5 -44.5t-301 -17.5h-91q-156 0 -283 18t-214.5 47.5t-153 73t-103.5 88t-61.5 99.5t-31 101.5t-7.5 99.5q0 44 7 102q7 51 18 93.5t39 100t68.5 102t111.5 91.5t163 78t227 50.5t300 19.5h88
q137 0 252 -12.5t199 -34.5t150.5 -54t110 -67.5t74 -80t45 -86t20.5 -90.5t4 -89.5t-9 -86.5l-6 -43h-1155q-3 -32 4 -61t27 -57t64.5 -45t107.5 -17t109.5 13.5t69 35t31.5 36t13 28.5h719zM760 711h428q-3 58 -46 90.5t-153 32.5q-114 0 -164.5 -33.5t-64.5 -89.5z
M528 1196l47 291h1016l-47 -291h-1016z" />
    <glyph glyph-name="Ebreve" unicode="&#x114;" horiz-adv-x="1888" 
d="M209 1524h1786l-68 -426h-1036l-19 -119h1026l-67 -418h-1026l-21 -131h1047l-68 -430h-1796zM1030 1964q0 -16 3.5 -31t14.5 -34.5t38 -31.5t67 -12q38 0 67 12t43 30.5t20.5 35.5t6.5 31h404q0 -41 -13.5 -87.5t-49.5 -100t-90 -95.5t-145 -70t-204 -28h-96
q-88 0 -160.5 14.5t-120.5 38t-84 57t-56 67t-31.5 73t-14.5 69.5t-2 62h403z" />
    <glyph glyph-name="ebreve" unicode="&#x115;" horiz-adv-x="1906" 
d="M930 1524q1 -10 6 -21.5t17 -26.5t38.5 -24.5t63.5 -9.5q66 0 98 26.5t39 55.5h399q-1 -28 -11.5 -61t-32 -74t-60.5 -78t-91.5 -68.5t-131 -50t-172.5 -18.5h-99q-86 0 -156.5 14t-117.5 37t-83 54.5t-56 63t-32.5 67t-16 62t-3.5 52.5h402zM1868 422q-6 -41 -15 -74
t-35 -82.5t-64 -87t-107 -79t-159.5 -68.5t-225.5 -44.5t-301 -17.5h-91q-156 0 -283 18t-214.5 47.5t-153 73t-103.5 88t-61.5 99.5t-31 101.5t-7.5 99.5q0 44 7 102q7 51 18 93.5t39 100t68.5 102t111.5 91.5t163 78t227 50.5t300 19.5h88q137 0 252 -12.5t199 -34.5
t150.5 -54t110 -67.5t74 -80t45 -86t20.5 -90.5t4 -89.5t-9 -86.5l-6 -43h-1155q-3 -32 4 -61t27 -57t64.5 -45t107.5 -17t109.5 13.5t69 35t31.5 36t13 28.5h719zM760 711h428q-3 58 -46 90.5t-153 32.5q-114 0 -164.5 -33.5t-64.5 -89.5z" />
    <glyph glyph-name="Edotaccent" unicode="&#x116;" horiz-adv-x="1888" 
d="M209 1524h1786l-68 -426h-1036l-19 -119h1026l-67 -418h-1026l-21 -131h1047l-68 -430h-1796zM1497 1589h-727l57 359h727z" />
    <glyph glyph-name="edotaccent" unicode="&#x117;" horiz-adv-x="1906" 
d="M1452 1524l-55 -344h-731l55 344h731zM1868 422q-6 -41 -15 -74t-35 -82.5t-64 -87t-107 -79t-159.5 -68.5t-225.5 -44.5t-301 -17.5h-91q-156 0 -283 18t-214.5 47.5t-153 73t-103.5 88t-61.5 99.5t-31 101.5t-7.5 99.5q0 44 7 102q7 51 18 93.5t39 100t68.5 102
t111.5 91.5t163 78t227 50.5t300 19.5h88q137 0 252 -12.5t199 -34.5t150.5 -54t110 -67.5t74 -80t45 -86t20.5 -90.5t4 -89.5t-9 -86.5l-6 -43h-1155q-3 -32 4 -61t27 -57t64.5 -45t107.5 -17t109.5 13.5t69 35t31.5 36t13 28.5h719zM760 711h428q-3 58 -46 90.5t-153 32.5
q-114 0 -164.5 -33.5t-64.5 -89.5z" />
    <glyph glyph-name="Eogonek" unicode="&#x118;" horiz-adv-x="1888" 
d="M209 1524h1786l-68 -426h-1036l-19 -119h1026l-67 -418h-1026l-21 -131h1047l-68 -430h-207q-55 -27 -82.5 -42t-51 -36.5t-23.5 -40.5q0 -33 49 -33h90l-37 -233h-422q-179 0 -256.5 36t-77.5 109q0 89 120 146t409 94h-1307z" />
    <glyph glyph-name="eogonek" unicode="&#x119;" horiz-adv-x="1906" 
d="M1538 -152l-37 -233h-422q-179 0 -256.5 36t-77.5 109q0 87 104.5 135.5t348.5 84.5q-139 -11 -237 -11h-91q-156 0 -283 18t-214.5 47.5t-153 73t-103.5 88t-61.5 99.5t-31 101.5t-7.5 99.5q0 44 7 102q7 51 18 93.5t39 100t68.5 102t111.5 91.5t163 78t227 50.5
t300 19.5h88q137 0 252 -12.5t199 -34.5t150.5 -54t110 -67.5t74 -80t45 -86t20.5 -90.5t4 -89.5t-9 -86.5l-6 -43h-1155q-3 -32 4 -61t27 -57t64.5 -45t107.5 -17t109.5 13.5t69 35t31.5 36t13 28.5h719q-31 -249 -312 -412q-108 -62 -129 -80q-28 -24 -28 -45
q0 -37 49 -37h90zM760 711h428q-3 58 -46 90.5t-153 32.5q-114 0 -164.5 -33.5t-64.5 -89.5z" />
    <glyph glyph-name="Ecaron" unicode="&#x11a;" horiz-adv-x="1888" 
d="M209 1524h1786l-68 -426h-1036l-19 -119h1026l-67 -418h-1026l-21 -131h1047l-68 -430h-1796zM1454 1589h-672l-297 336h539l109 -117l133 117h577z" />
    <glyph glyph-name="ecaron" unicode="&#x11b;" horiz-adv-x="1906" 
d="M653 1180l-262 344h549l86 -146l117 146h588l-361 -344h-717zM1868 422q-6 -41 -15 -74t-35 -82.5t-64 -87t-107 -79t-159.5 -68.5t-225.5 -44.5t-301 -17.5h-91q-156 0 -283 18t-214.5 47.5t-153 73t-103.5 88t-61.5 99.5t-31 101.5t-7.5 99.5q0 44 7 102q7 51 18 93.5
t39 100t68.5 102t111.5 91.5t163 78t227 50.5t300 19.5h88q137 0 252 -12.5t199 -34.5t150.5 -54t110 -67.5t74 -80t45 -86t20.5 -90.5t4 -89.5t-9 -86.5l-6 -43h-1155q-3 -32 4 -61t27 -57t64.5 -45t107.5 -17t109.5 13.5t69 35t31.5 36t13 28.5h719zM760 711h428
q-3 58 -46 90.5t-153 32.5q-114 0 -164.5 -33.5t-64.5 -89.5z" />
    <glyph glyph-name="Gcircumflex" unicode="&#x11c;" horiz-adv-x="2453" 
d="M1042 1925h705l281 -323h-541l-109 118l-133 -118h-579zM1767 160q-23 -20 -47 -36.5t-85.5 -47.5t-131 -52.5t-181 -38t-237.5 -16.5h-49q-167 0 -306.5 22t-239 59t-177 90.5t-126 113t-79.5 130.5t-43 138t-12 140q0 84 13 167t36 154.5t67 147t105.5 136t154.5 115.5
t210 92t276.5 58.5t350.5 21.5h65q216 0 391 -21.5t291.5 -56.5t202 -86.5t132 -103t73 -115.5t32.5 -114.5t3 -108.5h-773q-58 146 -387 146q-107 0 -189.5 -24.5t-133.5 -68.5t-80.5 -96.5t-40.5 -116.5q-8 -47 -8 -88q0 -127 90.5 -203.5t284.5 -76.5q98 0 174.5 14.5
t117.5 37t62.5 43.5t25.5 40h-405l49 311h1206l-139 -866h-473q-6 34 -27 83t-43 77z" />
    <glyph glyph-name="gcircumflex" unicode="&#x11d;" horiz-adv-x="1966" 
d="M727 0q10 -70 156 -70h6q104 0 162.5 55t74.5 154l11 66q-170 -164 -514 -164h-39q-130 0 -230.5 28.5t-161.5 74.5t-100.5 110t-54 127.5t-14.5 134.5q0 50 6 100q10 79 36 148t78 133.5t125 110t182.5 73t245.5 27.5h45q315 0 519 -135l20 129h727l-152 -955
q-15 -95 -45.5 -169.5t-96 -148t-161.5 -122t-248.5 -78.5t-351.5 -30h-178q-142 0 -259 15t-197 39.5t-141 58.5t-96 70t-55.5 76t-26 74.5t-1.5 67.5h729zM944 377q90 0 152.5 39t85.5 100q12 30 12 66q0 76 -55.5 123t-155.5 47h-10q-104 0 -161.5 -59t-57.5 -148
q0 -73 44 -120.5t134 -47.5h12zM1452 1524l272 -359h-540l-86 146l-117 -146h-578l377 359h672z" />
    <glyph glyph-name="Gbreve" unicode="&#x11e;" horiz-adv-x="2453" 
d="M1767 160q-23 -20 -47 -36.5t-85.5 -47.5t-131 -52.5t-181 -38t-237.5 -16.5h-49q-167 0 -306.5 22t-239 59t-177 90.5t-126 113t-79.5 130.5t-43 138t-12 140q0 84 13 167t36 154.5t67 147t105.5 136t154.5 115.5t210 92t276.5 58.5t350.5 21.5h65q216 0 391 -21.5
t291.5 -56.5t202 -86.5t132 -103t73 -115.5t32.5 -114.5t3 -108.5h-773q-58 146 -387 146q-107 0 -189.5 -24.5t-133.5 -68.5t-80.5 -96.5t-40.5 -116.5q-8 -47 -8 -88q0 -127 90.5 -203.5t284.5 -76.5q98 0 174.5 14.5t117.5 37t62.5 43.5t25.5 40h-405l49 311h1206
l-139 -866h-473q-6 34 -27 83t-43 77zM1268 1978q0 -16 3.5 -30.5t14.5 -34t38 -31.5t67 -12q38 0 67 12t43 30t20.5 35t6.5 31h403q0 -42 -13.5 -88t-49.5 -99.5t-89.5 -95.5t-144.5 -70t-204 -28h-97q-88 0 -160.5 14.5t-120.5 38t-84 57t-56 67t-31.5 73t-14.5 69.5
t-2 62h404z" />
    <glyph glyph-name="gbreve" unicode="&#x11f;" horiz-adv-x="1966" 
d="M727 0q10 -70 156 -70h6q104 0 162.5 55t74.5 154l11 66q-170 -164 -514 -164h-39q-130 0 -230.5 28.5t-161.5 74.5t-100.5 110t-54 127.5t-14.5 134.5q0 50 6 100q10 79 36 148t78 133.5t125 110t182.5 73t245.5 27.5h45q315 0 519 -135l20 129h727l-152 -955
q-15 -95 -45.5 -169.5t-96 -148t-161.5 -122t-248.5 -78.5t-351.5 -30h-178q-142 0 -259 15t-197 39.5t-141 58.5t-96 70t-55.5 76t-26 74.5t-1.5 67.5h729zM944 377q90 0 152.5 39t85.5 100q12 30 12 66q0 76 -55.5 123t-155.5 47h-10q-104 0 -161.5 -59t-57.5 -148
q0 -73 44 -120.5t134 -47.5h12zM944 1524q0 -14 4.5 -28t16 -31t38.5 -27.5t66 -10.5q68 0 102.5 32t34.5 65h400q0 -37 -13 -80.5t-49 -95t-89.5 -92.5t-144.5 -69t-204 -28h-98q-87 0 -158 14.5t-118.5 37.5t-83.5 55.5t-55.5 64.5t-31.5 69.5t-15 66t-3 57.5h401z" />
    <glyph glyph-name="Gdotaccent" unicode="&#x120;" horiz-adv-x="2453" 
d="M1688 1604h-727l55 344h727zM1767 160q-23 -20 -47 -36.5t-85.5 -47.5t-131 -52.5t-181 -38t-237.5 -16.5h-49q-167 0 -306.5 22t-239 59t-177 90.5t-126 113t-79.5 130.5t-43 138t-12 140q0 84 13 167t36 154.5t67 147t105.5 136t154.5 115.5t210 92t276.5 58.5
t350.5 21.5h65q216 0 391 -21.5t291.5 -56.5t202 -86.5t132 -103t73 -115.5t32.5 -114.5t3 -108.5h-773q-58 146 -387 146q-107 0 -189.5 -24.5t-133.5 -68.5t-80.5 -96.5t-40.5 -116.5q-8 -47 -8 -88q0 -127 90.5 -203.5t284.5 -76.5q98 0 174.5 14.5t117.5 37t62.5 43.5
t25.5 40h-405l49 311h1206l-139 -866h-473q-6 34 -27 83t-43 77z" />
    <glyph glyph-name="gdotaccent" unicode="&#x121;" horiz-adv-x="1966" 
d="M727 0q10 -70 156 -70h6q104 0 162.5 55t74.5 154l11 66q-170 -164 -514 -164h-39q-130 0 -230.5 28.5t-161.5 74.5t-100.5 110t-54 127.5t-14.5 134.5q0 50 6 100q10 79 36 148t78 133.5t125 110t182.5 73t245.5 27.5h45q315 0 519 -135l20 129h727l-152 -955
q-15 -95 -45.5 -169.5t-96 -148t-161.5 -122t-248.5 -78.5t-351.5 -30h-178q-142 0 -259 15t-197 39.5t-141 58.5t-96 70t-55.5 76t-26 74.5t-1.5 67.5h729zM944 377q90 0 152.5 39t85.5 100q12 30 12 66q0 76 -55.5 123t-155.5 47h-10q-104 0 -161.5 -59t-57.5 -148
q0 -73 44 -120.5t134 -47.5h12zM1489 1524l-57 -359h-727l57 359h727z" />
    <glyph glyph-name="uni0122" unicode="&#x122;" horiz-adv-x="2453" 
d="M1767 160q-23 -20 -47 -36.5t-85.5 -47.5t-131 -52.5t-181 -38t-237.5 -16.5h-49q-167 0 -306.5 22t-239 59t-177 90.5t-126 113t-79.5 130.5t-43 138t-12 140q0 84 13 167t36 154.5t67 147t105.5 136t154.5 115.5t210 92t276.5 58.5t350.5 21.5h65q216 0 391 -21.5
t291.5 -56.5t202 -86.5t132 -103t73 -115.5t32.5 -114.5t3 -108.5h-773q-58 146 -387 146q-107 0 -189.5 -24.5t-133.5 -68.5t-80.5 -96.5t-40.5 -116.5q-8 -47 -8 -88q0 -127 90.5 -203.5t284.5 -76.5q98 0 174.5 14.5t117.5 37t62.5 43.5t25.5 40h-405l49 311h1206
l-139 -866h-473q-6 34 -27 83t-43 77zM1141 -668h-326q36 43 78 118.5t53 113.5h-274l57 360h645l-43 -270q-11 -73 -70.5 -167.5t-119.5 -154.5z" />
    <glyph glyph-name="uni0123" unicode="&#x123;" horiz-adv-x="1966" 
d="M727 0q10 -70 156 -70h6q104 0 162.5 55t74.5 154l11 66q-170 -164 -514 -164h-39q-130 0 -230.5 28.5t-161.5 74.5t-100.5 110t-54 127.5t-14.5 134.5q0 50 6 100q10 79 36 148t78 133.5t125 110t182.5 73t245.5 27.5h45q315 0 519 -135l20 129h727l-152 -955
q-15 -95 -45.5 -169.5t-96 -148t-161.5 -122t-248.5 -78.5t-351.5 -30h-178q-142 0 -259 15t-197 39.5t-141 58.5t-96 70t-55.5 76t-26 74.5t-1.5 67.5h729zM944 377q90 0 152.5 39t85.5 100q12 30 12 66q0 76 -55.5 123t-155.5 47h-10q-104 0 -161.5 -59t-57.5 -148
q0 -73 44 -120.5t134 -47.5h12zM1251 1757q-36 -43 -78 -118t-53 -113h275l-58 -361h-645l43 271q11 73 71 167t120 154h325z" />
    <glyph glyph-name="Hcircumflex" unicode="&#x124;" horiz-adv-x="2406" 
d="M1503 0l86 543h-776l-86 -543h-760l242 1524h760l-80 -506h776l80 506h760l-242 -1524h-760zM1049 1925h671l297 -338h-538l-109 119l-133 -119h-578z" />
    <glyph glyph-name="hcircumflex" unicode="&#x125;" horiz-adv-x="1947" 
d="M-41 0l242 1524h727l-101 -633q19 19 46.5 41.5t86.5 59t124.5 64.5t161 49t194.5 21h12q78 0 144.5 -12t114 -33t86 -50t61.5 -62t40.5 -68.5t22 -71.5t7 -70t-4.5 -63l-111 -696h-727l78 494q15 94 -26 152.5t-148 58.5q-101 0 -155.5 -58.5t-69.5 -154.5l-78 -492
h-727zM725 1923h672l297 -338h-539l-108 119l-134 -119h-577z" />
    <glyph glyph-name="Hbar" unicode="&#x126;" horiz-adv-x="2492" 
d="M88 1141l43 270h102l19 113h760l-19 -113h776l19 113h760l-19 -113h105l-43 -270h-105l-180 -1141h-760l86 543h-776l-86 -543h-760l180 1141h-102zM932 1018h776l18 123h-776z" />
    <glyph glyph-name="hbar" unicode="&#x127;" horiz-adv-x="1947" 
d="M764 492l-78 -492h-727l186 1176h-98l41 254h98l15 94h727l-15 -94h492l-39 -254h-494l-45 -285q19 19 46.5 41.5t86.5 59t124.5 64.5t161 49t194.5 21h12q78 0 144.5 -12t114 -33t86 -50t61.5 -62t40.5 -68.5t22 -71.5t7 -70t-4.5 -63l-111 -696h-727l78 494
q15 94 -26 152.5t-148 58.5q-101 0 -155.5 -58.5t-69.5 -154.5z" />
    <glyph glyph-name="Itilde" unicode="&#x128;" horiz-adv-x="870" 
d="M969 1524l-242 -1524h-760l242 1524h760zM893 1587q-19 0 -35 0.5t-34 3t-29.5 3.5t-31.5 5.5t-29 6.5t-33 9t-32.5 9.5t-39 12t-41.5 12.5q-86 26 -117 26q-34 0 -41 -39l-8 -49h-377l29 185q6 39 19 69t42 63t85 51.5t136 18.5h4q73 0 133 -12.5t187 -50.5
q84 -25 106 -25q30 0 35 37l8 51h381l-24 -157q-5 -34 -12 -58.5t-26.5 -59.5t-48 -57t-81 -38.5t-121.5 -16.5h-4z" />
    <glyph glyph-name="itilde" unicode="&#x129;" horiz-adv-x="821" 
d="M737 1161q-56 0 -103.5 13.5t-137.5 50.5q-69 28 -86 28q-25 0 -31 -43l-6 -49h-305l24 180q20 203 227 203h3q59 0 111.5 -13t139.5 -50q61 -25 78 -25q24 0 29 37l6 51h309l-20 -153q-5 -34 -10.5 -58.5t-21.5 -59.5t-39 -57t-65 -38.5t-98 -16.5h-4zM860 1102
l-174 -1102h-727l174 1102h727z" />
    <glyph glyph-name="Imacron" unicode="&#x12a;" horiz-adv-x="870" 
d="M82 1606l47 290h1014l-47 -290h-1014zM969 1524l-242 -1524h-760l242 1524h760z" />
    <glyph glyph-name="imacron" unicode="&#x12b;" horiz-adv-x="821" 
d="M66 1182l45 291h880l-45 -291h-880zM860 1102l-174 -1102h-727l174 1102h727z" />
    <glyph glyph-name="Ibreve" unicode="&#x12c;" horiz-adv-x="870" 
d="M969 1524l-242 -1524h-760l242 1524h760zM498 1964q0 -16 3.5 -31t14.5 -34.5t38 -31.5t67 -12q38 0 67 12t43 30.5t20.5 35.5t6.5 31h403q0 -41 -13.5 -87.5t-49.5 -100t-90 -95.5t-145 -70t-204 -28h-96q-88 0 -160.5 14.5t-120.5 38t-84 57t-56 67t-31.5 73
t-14.5 69.5t-2 62h404z" />
    <glyph glyph-name="ibreve" unicode="&#x12d;" horiz-adv-x="821" 
d="M459 1524q0 -12 2 -23t9 -29t26 -29t47 -11q52 0 74 30.5t22 61.5h356q0 -39 -12 -84t-44 -97t-79.5 -93t-126 -68t-176.5 -27h-35q-424 0 -424 369h361zM860 1102l-174 -1102h-727l174 1102h727z" />
    <glyph glyph-name="Iogonek" unicode="&#x12e;" horiz-adv-x="870" 
d="M250 -385q-179 0 -256.5 36t-77.5 109q0 89 120 146t408 94h-477l242 1524h760l-242 -1524q-42 -20 -63.5 -31.5t-47 -28t-36.5 -30.5t-11 -29q0 -33 49 -33h82l-36 -233h-414z" />
    <glyph glyph-name="iogonek" unicode="&#x12f;" horiz-adv-x="821" 
d="M209 -385q-179 0 -256.5 36t-77.5 109q0 89 120 146t408 94h-444l174 1102h727l-174 -1102q-42 -20 -63.5 -31.5t-47 -28t-36.5 -30.5t-11 -29q0 -33 50 -33h81l-36 -233h-414zM928 1524l-58 -359h-727l58 359h727z" />
    <glyph glyph-name="Idotaccent" unicode="&#x130;" horiz-adv-x="870" 
d="M969 1524l-242 -1524h-760l242 1524h760zM963 1589h-727l57 359h727z" />
    <glyph glyph-name="dotlessi" unicode="&#x131;" horiz-adv-x="821" 
d="M860 1102l-174 -1102h-727l174 1102h727z" />
    <glyph glyph-name="IJ" unicode="&#x132;" horiz-adv-x="2951" 
d="M969 1524l-242 -1524h-760l242 1524h760zM2939 788q-11 -71 -20 -117.5t-29.5 -119.5t-45 -123.5t-66.5 -115t-94 -108.5t-128.5 -90.5t-168.5 -74t-215 -45t-267 -17.5h-148q-180 0 -323 30.5t-233.5 78.5t-155 115.5t-95 133t-44 139t-12.5 126t9 102.5l4 27h719
q0 -26 2.5 -46.5t16 -52.5t37.5 -53t72 -37t114 -16h2q67 0 119.5 17t84.5 43t54.5 64.5t33 73.5t17.5 79l115 723h762z" />
    <glyph glyph-name="ij" unicode="&#x133;" horiz-adv-x="1644" 
d="M928 1524l-58 -359h-727l58 359h727zM860 1102l-174 -1102h-727l174 1102h727zM1751 1524l-57 -359h-727l57 359h727zM657 -41h58q39 0 51.5 13.5t17.5 45.5l172 1084h727l-186 -1182q-50 -305 -293 -305h-602z" />
    <glyph glyph-name="Jcircumflex" unicode="&#x134;" horiz-adv-x="2080" 
d="M2068 788q-11 -71 -20 -117.5t-29.5 -119.5t-45 -123.5t-66.5 -115t-94 -108.5t-128.5 -90.5t-168.5 -74t-215 -45t-267 -17.5h-147q-180 0 -323 30.5t-233.5 78.5t-155 115.5t-95 133t-44 139t-12.5 126t9 102.5l4 27h719q0 -18 1 -31.5t6 -36t14 -40t27.5 -36.5
t43 -31.5t63 -21t86.5 -8.5h2q67 0 119.5 17t84.5 43t55 64.5t33.5 73.5t17.5 79l114 723h762zM1491 1925h672l297 -338h-539l-109 119l-133 -119h-577z" />
    <glyph glyph-name="jcircumflex" unicode="&#x135;" horiz-adv-x="821" 
d="M840 1524l186 -359h-440l-66 144l-96 -144h-438l266 359h588zM-164 -41h58q39 0 51.5 13.5t17.5 45.5l172 1084h727l-186 -1182q-50 -305 -293 -305h-602z" />
    <glyph glyph-name="uni0136" unicode="&#x136;" horiz-adv-x="2367" 
d="M1352 0l-529 608l-96 -608h-760l242 1524h760l-86 -539l747 539h924l-973 -707l746 -817h-975zM1118 -655h-325q36 43 78 118t53 113h-275l58 361h645l-43 -271q-11 -73 -71 -167t-120 -154z" />
    <glyph glyph-name="uni0137" unicode="&#x137;" horiz-adv-x="1804" 
d="M956 0l-192 487l-78 -487h-727l242 1524h727l-127 -799l299 377h762l-379 -492l272 -610h-799zM909 -655h-325q36 43 78 118t53 113h-275l58 361h645l-43 -271q-11 -73 -71 -167t-120 -154z" />
    <glyph glyph-name="Lacute" unicode="&#x139;" horiz-adv-x="1882" 
d="M209 1524h760l-156 -981h1028l-84 -543h-1790zM918 1589h-635l157 336h707z" />
    <glyph glyph-name="lacute" unicode="&#x13a;" horiz-adv-x="821" 
d="M872 1587h-616l195 338h682zM928 1524l-242 -1524h-727l242 1524h727z" />
    <glyph glyph-name="uni013B" unicode="&#x13b;" horiz-adv-x="1882" 
d="M209 1524h760l-156 -981h1028l-84 -543h-1790zM989 -655h-325q36 43 78 118t53 113h-275l58 361h645l-43 -271q-11 -73 -71 -167t-120 -154z" />
    <glyph glyph-name="uni013C" unicode="&#x13c;" horiz-adv-x="821" 
d="M928 1524l-242 -1524h-727l242 1524h727zM399 -655h-325q36 43 78 118t53 113h-275l58 361h645l-43 -271q-11 -73 -71 -167t-120 -154z" />
    <glyph glyph-name="Lcaron" unicode="&#x13d;" horiz-adv-x="1882" 
d="M961 1163l75 361h514l-108 -361h-481zM209 1524h760l-156 -981h1028l-84 -543h-1790z" />
    <glyph glyph-name="lcaron" unicode="&#x13e;" horiz-adv-x="821" 
d="M920 1163l75 361h514l-108 -361h-481zM928 1524l-242 -1524h-727l242 1524h727z" />
    <glyph glyph-name="Ldot" unicode="&#x13f;" horiz-adv-x="1882" 
d="M1845 1155l-76 -475h-714l73 475h717zM209 1524h760l-156 -981h1028l-84 -543h-1790z" />
    <glyph glyph-name="ldot" unicode="&#x140;" horiz-adv-x="1546" 
d="M1616 1024l-76 -475h-713l74 475h715zM928 1524l-242 -1524h-727l242 1524h727z" />
    <glyph glyph-name="Lslash" unicode="&#x141;" horiz-adv-x="1951" 
d="M279 1524h759l-82 -506l607 201l-56 -351l-604 -194l-20 -131h1028l-84 -543h-1790l65 418l-139 -45l55 334l138 45z" />
    <glyph glyph-name="lslash" unicode="&#x142;" horiz-adv-x="944" 
d="M989 1524l-69 -443l104 37l-59 -366l-105 -37l-112 -715h-728l72 451l-108 -37l57 366l109 37l112 707h727z" />
    <glyph glyph-name="Nacute" unicode="&#x143;" horiz-adv-x="2412" 
d="M209 1524h842l591 -693l109 693h760l-242 -1524h-762l-659 762l-121 -762h-760zM1681 1589h-634l157 336h707z" />
    <glyph glyph-name="nacute" unicode="&#x144;" horiz-adv-x="1947" 
d="M-41 0l174 1102h727l-35 -213q17 18 45.5 41.5t87.5 60t125 65t162 49.5t195 21h12q77 0 142.5 -11.5t113 -32t86 -48.5t62 -60t41.5 -68t23 -72t7.5 -71t-4.5 -67l-111 -696h-727l78 494q15 94 -26 152.5t-148 58.5q-101 0 -155.5 -58.5t-69.5 -154.5l-78 -492h-727z
M1360 1165h-617l207 359h682z" />
    <glyph glyph-name="uni0145" unicode="&#x145;" horiz-adv-x="2412" 
d="M209 1524h842l591 -693l109 693h760l-242 -1524h-762l-659 762l-121 -762h-760zM1200 -655h-326q36 43 78.5 118.5t53.5 112.5h-275l57 361h646l-43 -271q-11 -73 -71 -167t-120 -154z" />
    <glyph glyph-name="uni0146" unicode="&#x146;" horiz-adv-x="1947" 
d="M-41 0l174 1102h727l-35 -213q17 18 45.5 41.5t87.5 60t125 65t162 49.5t195 21h12q77 0 142.5 -11.5t113 -32t86 -48.5t62 -60t41.5 -68t23 -72t7.5 -71t-4.5 -67l-111 -696h-727l78 494q15 94 -26 152.5t-148 58.5q-101 0 -155.5 -58.5t-69.5 -154.5l-78 -492h-727z
M977 -655h-326q36 43 78 118t53 113h-274l57 361h645l-43 -271q-11 -73 -70.5 -167t-119.5 -154z" />
    <glyph glyph-name="Ncaron" unicode="&#x147;" horiz-adv-x="2412" 
d="M209 1524h842l591 -693l109 693h760l-242 -1524h-762l-659 762l-121 -762h-760zM1696 1589h-672l-297 336h539l108 -117l133 117h578z" />
    <glyph glyph-name="ncaron" unicode="&#x148;" horiz-adv-x="1947" 
d="M-41 0l174 1102h727l-35 -213q17 18 45.5 41.5t87.5 60t125 65t162 49.5t195 21h12q77 0 142.5 -11.5t113 -32t86 -48.5t62 -60t41.5 -68t23 -72t7.5 -71t-4.5 -67l-111 -696h-727l78 494q15 94 -26 152.5t-148 58.5q-101 0 -155.5 -58.5t-69.5 -154.5l-78 -492h-727z
M684 1165l-272 359h538l86 -146l117 146h578l-375 -359h-672z" />
    <glyph glyph-name="napostrophe" unicode="&#x149;" horiz-adv-x="2586" 
d="M598 0l174 1102h727l-35 -213q17 18 45.5 41.5t87.5 60t125 65t162 49.5t195 21h12q77 0 142.5 -11.5t113 -32t86 -48.5t62 -60t41.5 -68t23 -72t7.5 -71t-4.5 -67l-111 -696h-727l78 494q15 94 -26 152.5t-148 58.5q-101 0 -155.5 -58.5t-69.5 -154.5l-78 -492h-727z
M571 883h-346q40 56 79.5 129t53.5 121h-266l62 391h665l-49 -310q-12 -79 -75 -174.5t-124 -156.5z" />
    <glyph glyph-name="Eng" unicode="&#x14a;" horiz-adv-x="2412" 
d="M1245 -385l49 367h160q35 0 35 24q0 11 -8 23t-37 43l-596 690l-121 -762h-760l242 1524h842l589 -697l111 697h760l-236 -1487q-36 -224 -130.5 -323t-248.5 -99h-651z" />
    <glyph glyph-name="eng" unicode="&#x14b;" horiz-adv-x="1947" 
d="M1923 696l-125 -790q-23 -145 -100 -218t-193 -73h-643l60 375h104q37 0 49.5 11.5t18.5 49.5l69 443q15 94 -26 152.5t-148 58.5q-101 0 -155.5 -58.5t-69.5 -154.5l-78 -492h-727l174 1102h727l-35 -213q27 27 69.5 58.5t120.5 76t190.5 73.5t234.5 29h12q78 0 144 -12
t113.5 -32.5t86 -49t61.5 -61t40.5 -68.5t22.5 -71.5t7.5 -70.5t-4.5 -65z" />
    <glyph glyph-name="Omacron" unicode="&#x14c;" horiz-adv-x="2453" 
d="M1139 -31q-189 0 -345 22t-267 60t-196 92.5t-137 114t-85 130.5t-45.5 137t-12.5 139q0 76 12 159q12 77 32 144t61.5 143.5t100 138t153 120.5t214 98t287.5 63t371 24h100q1092 0 1092 -682q0 -78 -14 -167q-14 -78 -33.5 -143t-61.5 -143t-99 -139.5t-150.5 -121.5
t-212.5 -100t-288.5 -64.5t-373.5 -24.5h-102zM1688 813q0 50 -20.5 94t-65 81.5t-125 59t-189.5 21.5q-394 0 -446 -270q-6 -30 -6 -74q0 -51 21 -96.5t65.5 -84.5t124 -62t186.5 -23q114 0 200 24t136 65.5t76.5 88t35.5 102.5q7 44 7 74zM844 1620l47 291h1046l-47 -291
h-1046z" />
    <glyph glyph-name="omacron" unicode="&#x14d;" horiz-adv-x="1994" 
d="M1018 -31h-162q-152 0 -277 19t-210.5 49.5t-151 74.5t-103 89.5t-61 99.5t-31.5 98.5t-8 92.5q0 34 9 108q7 48 18 88.5t39.5 98t69.5 102t114 92.5t167.5 79.5t234 52t309.5 20.5h168q151 0 275.5 -17.5t209.5 -46.5t150 -70.5t102.5 -85t60.5 -95.5t31 -95.5t8 -91.5
q0 -52 -8 -117q-5 -39 -11.5 -70t-22 -76t-37.5 -81.5t-60 -79t-86.5 -75t-120.5 -64.5t-159 -53t-203.5 -33.5t-253.5 -12.5zM1018 788q-64 0 -112.5 -20t-75.5 -49t-44 -68.5t-22.5 -71.5t-5.5 -65q0 -37 10 -70t33 -63.5t66.5 -48t103.5 -17.5h4q65 0 114.5 22t77.5 54
t45.5 73.5t23 75t5.5 64.5q0 35 -10 65.5t-33.5 58.5t-68.5 44t-107 16h-4zM575 1196l48 291h1015l-47 -291h-1016z" />
    <glyph glyph-name="Obreve" unicode="&#x14e;" horiz-adv-x="2453" 
d="M1139 -31q-189 0 -345 22t-267 60t-196 92.5t-137 114t-85 130.5t-45.5 137t-12.5 139q0 76 12 159q12 77 32 144t61.5 143.5t100 138t153 120.5t214 98t287.5 63t371 24h100q1092 0 1092 -682q0 -78 -14 -167q-14 -78 -33.5 -143t-61.5 -143t-99 -139.5t-150.5 -121.5
t-212.5 -100t-288.5 -64.5t-373.5 -24.5h-102zM1688 813q0 50 -20.5 94t-65 81.5t-125 59t-189.5 21.5q-394 0 -446 -270q-6 -30 -6 -74q0 -51 21 -96.5t65.5 -84.5t124 -62t186.5 -23q114 0 200 24t136 65.5t76.5 88t35.5 102.5q7 44 7 74zM1212 1978q0 -16 3.5 -30.5
t14.5 -34t38 -31.5t67 -12q50 0 83.5 21t44 44t10.5 43h403q0 -41 -13.5 -87.5t-49.5 -100t-90 -95.5t-145 -70t-204 -28h-96q-88 0 -160.5 14.5t-120.5 38t-84 57t-56 67t-31.5 73t-14.5 69.5t-2 62h403z" />
    <glyph glyph-name="obreve" unicode="&#x14f;" horiz-adv-x="1994" 
d="M954 1524q1 -10 6 -21.5t17 -26.5t38.5 -24.5t63.5 -9.5q66 0 98.5 27t39.5 55h399q-1 -34 -15 -75t-50 -91t-89.5 -90t-143.5 -67t-202 -27h-98q-86 0 -156.5 14t-117.5 37t-83 54.5t-56 63t-32.5 67t-16 62t-3.5 52.5h401zM1018 -31h-162q-152 0 -277 19t-210.5 49.5
t-151 74.5t-103 89.5t-61 99.5t-31.5 98.5t-8 92.5q0 34 9 108q7 48 18 88.5t39.5 98t69.5 102t114 92.5t167.5 79.5t234 52t309.5 20.5h168q151 0 275.5 -17.5t209.5 -46.5t150 -70.5t102.5 -85t60.5 -95.5t31 -95.5t8 -91.5q0 -52 -8 -117q-5 -39 -11.5 -70t-22 -76
t-37.5 -81.5t-60 -79t-86.5 -75t-120.5 -64.5t-159 -53t-203.5 -33.5t-253.5 -12.5zM1018 788q-64 0 -112.5 -20t-75.5 -49t-44 -68.5t-22.5 -71.5t-5.5 -65q0 -37 10 -70t33 -63.5t66.5 -48t103.5 -17.5h4q65 0 114.5 22t77.5 54t45.5 73.5t23 75t5.5 64.5q0 35 -10 65.5
t-33.5 58.5t-68.5 44t-107 16h-4z" />
    <glyph glyph-name="Ohungarumlaut" unicode="&#x150;" horiz-adv-x="2453" 
d="M741 1604l148 321h588l-158 -321h-578zM1974 1604h-579l161 321h588zM1139 -31q-189 0 -345 22t-267 60t-196 92.5t-137 114t-85 130.5t-45.5 137t-12.5 139q0 76 12 159q12 77 32 144t61.5 143.5t100 138t153 120.5t214 98t287.5 63t371 24h100q1092 0 1092 -682
q0 -78 -14 -167q-14 -78 -33.5 -143t-61.5 -143t-99 -139.5t-150.5 -121.5t-212.5 -100t-288.5 -64.5t-373.5 -24.5h-102zM1688 813q0 50 -20.5 94t-65 81.5t-125 59t-189.5 21.5q-394 0 -446 -270q-6 -30 -6 -74q0 -51 21 -96.5t65.5 -84.5t124 -62t186.5 -23q114 0 200 24
t136 65.5t76.5 88t35.5 102.5q7 44 7 74z" />
    <glyph glyph-name="ohungarumlaut" unicode="&#x151;" horiz-adv-x="1994" 
d="M504 1180l160 344h569l-172 -344h-557zM1135 1180l174 344h569l-180 -344h-563zM1018 -31h-162q-152 0 -277 19t-210.5 49.5t-151 74.5t-103 89.5t-61 99.5t-31.5 98.5t-8 92.5q0 34 9 108q7 48 18 88.5t39.5 98t69.5 102t114 92.5t167.5 79.5t234 52t309.5 20.5h168
q151 0 275.5 -17.5t209.5 -46.5t150 -70.5t102.5 -85t60.5 -95.5t31 -95.5t8 -91.5q0 -52 -8 -117q-5 -39 -11.5 -70t-22 -76t-37.5 -81.5t-60 -79t-86.5 -75t-120.5 -64.5t-159 -53t-203.5 -33.5t-253.5 -12.5zM1018 788q-64 0 -112.5 -20t-75.5 -49t-44 -68.5t-22.5 -71.5
t-5.5 -65q0 -37 10 -70t33 -63.5t66.5 -48t103.5 -17.5h4q65 0 114.5 22t77.5 54t45.5 73.5t23 75t5.5 64.5q0 35 -10 65.5t-33.5 58.5t-68.5 44t-107 16h-4z" />
    <glyph glyph-name="OE" unicode="&#x152;" horiz-adv-x="3430" 
d="M1696 0l16 96q-228 -123 -625 -123h-63q-166 0 -304.5 22t-237.5 59t-175.5 91t-124 113t-78 130t-42 137t-11.5 139q0 80 12 159q12 77 32.5 144.5t60 142.5t95 136t141 118t193.5 95.5t257 61.5t327 23h64q492 0 682 -160l22 140h1600l-68 -426h-985l-18 -119h975
l-68 -418h-975l-20 -131h995l-68 -430h-1609zM1677 813q0 50 -20.5 94t-64.5 81.5t-123.5 59t-186.5 21.5q-92 0 -165.5 -16t-121 -41.5t-81 -62t-50 -72.5t-24.5 -78q-6 -30 -6 -74q0 -51 21 -96.5t65 -84.5t123 -62t184 -23q113 0 198 24t134.5 65.5t76 88t35.5 102.5
q6 37 6 74z" />
    <glyph glyph-name="oe" unicode="&#x153;" horiz-adv-x="3131" 
d="M1565 104q-71 -51 -211.5 -93t-323.5 -42h-141q-158 0 -288.5 18.5t-219.5 48.5t-156.5 73.5t-107 88.5t-63.5 99t-32 99.5t-8 95.5q0 34 9 108q7 48 18 89t39.5 97.5t69 102t111.5 93t162 79t225.5 52t297.5 20.5h148q206 0 339.5 -40.5t204.5 -91.5q27 18 69.5 37
t112 42t169 38t209.5 15h88q170 0 305 -21t223.5 -54.5t150.5 -83.5t94 -101t46 -114t13.5 -115t-9.5 -112l-6 -43h-1155q-3 -32 4 -61t27 -57t64 -45t107 -17q51 0 92 10t64 23t39 30.5t21 28.5t8 21h718q-6 -41 -15 -73.5t-35 -82t-63.5 -87.5t-106 -79t-157.5 -68
t-223 -45t-297 -18h-90q-168 0 -313 37.5t-227 97.5zM1985 711h428q-3 58 -46 90.5t-151 32.5q-115 0 -166 -33.5t-65 -89.5zM758 514q0 -37 10 -70t33 -63.5t66.5 -48t103.5 -17.5h4q65 0 114.5 22t77.5 54t45.5 73.5t23 75t5.5 64.5q0 35 -10 65.5t-33.5 58.5t-68.5 44
t-107 16h-4q-64 0 -112.5 -20t-75.5 -49t-44 -68.5t-22.5 -71.5t-5.5 -65z" />
    <glyph glyph-name="Racute" unicode="&#x154;" horiz-adv-x="2332" 
d="M805 487l-78 -487h-760l242 1524h1640q118 0 212.5 -19.5t167.5 -61t113 -112t40 -166.5q0 -72 -23.5 -134t-62.5 -107t-93 -80t-111 -56t-120 -32q156 -42 235.5 -147t55.5 -251l-33 -204q-17 -90 4 -142l-2 -12h-784q-7 13 0 59l29 172q21 125 -38 190.5t-214 65.5
h-420zM872 915h562q81 0 114 32t33 77q0 84 -127 84h-551zM1581 1589h-635l158 336h706z" />
    <glyph glyph-name="racute" unicode="&#x155;" horiz-adv-x="1777" 
d="M768 518l-82 -518h-727l174 1102h727l-37 -219q28 36 65 70t98.5 77t148.5 69.5t184 26.5h24q91 0 163 -19.5t118 -50.5t78 -75t47.5 -88t21 -93.5t4 -88.5t-7.5 -76l-30 -189h-713l18 115q10 64 -17 108t-95 44t-107.5 -45.5t-54.5 -149.5zM1266 1165h-617l207 359h682z
" />
    <glyph glyph-name="uni0156" unicode="&#x156;" horiz-adv-x="2332" 
d="M805 487l-78 -487h-760l242 1524h1640q118 0 212.5 -19.5t167.5 -61t113 -112t40 -166.5q0 -72 -23.5 -134t-62.5 -107t-93 -80t-111 -56t-120 -32q156 -42 235.5 -147t55.5 -251l-33 -204q-17 -90 4 -142l-2 -12h-784q-7 13 0 59l29 172q21 125 -38 190.5t-214 65.5
h-420zM872 915h562q81 0 114 32t33 77q0 84 -127 84h-551zM1167 -655h-325q36 43 78 118t53 113h-275l58 361h645l-43 -271q-11 -73 -71 -167t-120 -154z" />
    <glyph glyph-name="uni0157" unicode="&#x157;" horiz-adv-x="1777" 
d="M768 518l-82 -518h-727l174 1102h727l-37 -219q28 36 65 70t98.5 77t148.5 69.5t184 26.5h24q91 0 163 -19.5t118 -50.5t78 -75t47.5 -88t21 -93.5t4 -88.5t-7.5 -76l-30 -189h-713l18 115q10 64 -17 108t-95 44t-107.5 -45.5t-54.5 -149.5zM403 -655h-325q36 43 78 118
t53 113h-275l58 361h645l-43 -271q-11 -73 -71 -167t-120 -154z" />
    <glyph glyph-name="Rcaron" unicode="&#x158;" horiz-adv-x="2332" 
d="M805 487l-78 -487h-760l242 1524h1640q118 0 212.5 -19.5t167.5 -61t113 -112t40 -166.5q0 -72 -23.5 -134t-62.5 -107t-93 -80t-111 -56t-120 -32q156 -42 235.5 -147t55.5 -251l-33 -204q-17 -90 4 -142l-2 -12h-784q-7 13 0 59l29 172q21 125 -38 190.5t-214 65.5
h-420zM872 915h562q81 0 114 32t33 77q0 84 -127 84h-551zM1595 1589h-671l-297 336h538l109 -117l133 117h578z" />
    <glyph glyph-name="rcaron" unicode="&#x159;" horiz-adv-x="1777" 
d="M768 518l-82 -518h-727l174 1102h727l-37 -219q28 36 65 70t98.5 77t148.5 69.5t184 26.5h24q91 0 163 -19.5t118 -50.5t78 -75t47.5 -88t21 -93.5t4 -88.5t-7.5 -76l-30 -189h-713l18 115q10 64 -17 108t-95 44t-107.5 -45.5t-54.5 -149.5zM625 1165l-273 359h539
l86 -146l117 146h577l-375 -359h-671z" />
    <glyph glyph-name="Sacute" unicode="&#x15a;" horiz-adv-x="2281" 
d="M1581 1604h-635l152 321h706zM2257 461q-8 -62 -26.5 -113.5t-56 -103t-91.5 -91.5t-137 -75.5t-190 -59t-252 -36.5t-322 -13h-262q-165 0 -302 16t-230 43.5t-167.5 64.5t-115 79.5t-71 88.5t-37 91t-12.5 87.5t3 78.5h891q0 -26 2.5 -43.5t14.5 -42.5t34.5 -40
t66 -26.5t105.5 -11.5q235 0 235 109q0 33 -16.5 53t-79.5 36t-182 23l-252 15q-164 10 -287.5 39.5t-199.5 72t-123.5 101.5t-65.5 121t-18 137q0 46 12 100q31 137 139.5 221t321 126t549.5 42h254q250 0 430.5 -32t275 -79t146 -117.5t61 -129t2.5 -131.5h-874
q0 20 -3 34.5t-16 32.5t-35 29t-63.5 19t-98.5 8q-129 0 -178 -18.5t-49 -61.5q0 -29 21.5 -46.5t83 -29.5t176.5 -18l250 -13q278 -13 441.5 -63t233.5 -138t70 -229q0 -63 -6 -106z" />
    <glyph glyph-name="sacute" unicode="&#x15b;" horiz-adv-x="1753" 
d="M1253 1180h-616l199 344h682zM-31 377h731q0 -43 27.5 -75t91.5 -32h4q62 0 90.5 21t28.5 53q0 35 -27 53.5t-102 22.5l-276 16q-482 32 -482 344q0 50 15 97q30 90 110 144.5t245.5 83t434.5 28.5h156q156 0 276 -12.5t199 -36.5t131.5 -54t78.5 -71.5t34 -82.5t4 -92
h-711q-1 16 -4.5 26.5t-14 25.5t-36.5 22.5t-66 7.5h-4q-40 0 -66.5 -5.5t-38 -15.5t-15 -19t-3.5 -21q0 -26 26 -41t97 -21l273 -14q204 -12 324 -52.5t167 -103t47 -159.5q0 -56 -8 -103q-8 -45 -21 -80t-40.5 -72t-67.5 -64t-103.5 -52t-147.5 -40.5t-201 -24.5t-263 -9
h-162q-195 0 -338 28t-219 69.5t-119 100t-52 107.5t-3 103z" />
    <glyph glyph-name="Scircumflex" unicode="&#x15c;" horiz-adv-x="2281" 
d="M924 1925h704l281 -323h-541l-108 118l-134 -118h-579zM2257 461q-8 -62 -26.5 -113.5t-56 -103t-91.5 -91.5t-137 -75.5t-190 -59t-252 -36.5t-322 -13h-262q-165 0 -302 16t-230 43.5t-167.5 64.5t-115 79.5t-71 88.5t-37 91t-12.5 87.5t3 78.5h891q0 -26 2.5 -43.5
t14.5 -42.5t34.5 -40t66 -26.5t105.5 -11.5q235 0 235 109q0 33 -16.5 53t-79.5 36t-182 23l-252 15q-164 10 -287.5 39.5t-199.5 72t-123.5 101.5t-65.5 121t-18 137q0 46 12 100q31 137 139.5 221t321 126t549.5 42h254q250 0 430.5 -32t275 -79t146 -117.5t61 -129
t2.5 -131.5h-874q0 20 -3 34.5t-16 32.5t-35 29t-63.5 19t-98.5 8q-129 0 -178 -18.5t-49 -61.5q0 -29 21.5 -46.5t83 -29.5t176.5 -18l250 -13q278 -13 441.5 -63t233.5 -138t70 -229q0 -63 -6 -106z" />
    <glyph glyph-name="scircumflex" unicode="&#x15d;" horiz-adv-x="1753" 
d="M1339 1524l273 -344h-541l-86 131l-117 -131h-577l377 344h671zM-31 377h731q0 -43 27.5 -75t91.5 -32h4q62 0 90.5 21t28.5 53q0 35 -27 53.5t-102 22.5l-276 16q-482 32 -482 344q0 50 15 97q30 90 110 144.5t245.5 83t434.5 28.5h156q156 0 276 -12.5t199 -36.5
t131.5 -54t78.5 -71.5t34 -82.5t4 -92h-711q-1 16 -4.5 26.5t-14 25.5t-36.5 22.5t-66 7.5h-4q-40 0 -66.5 -5.5t-38 -15.5t-15 -19t-3.5 -21q0 -26 26 -41t97 -21l273 -14q204 -12 324 -52.5t167 -103t47 -159.5q0 -56 -8 -103q-8 -45 -21 -80t-40.5 -72t-67.5 -64
t-103.5 -52t-147.5 -40.5t-201 -24.5t-263 -9h-162q-195 0 -338 28t-219 69.5t-119 100t-52 107.5t-3 103z" />
    <glyph glyph-name="uni015E" unicode="&#x15e;" horiz-adv-x="2281" 
d="M1444 -287q0 -37 -6.5 -66t-32.5 -65.5t-71 -60.5t-130.5 -41t-202.5 -17h-423l32 199h228q67 0 67 43q0 21 -11.5 31t-45.5 10h-139l36 229q-212 12 -364 56.5t-229 100t-117.5 131.5t-47 132.5t0.5 122.5h891q0 -26 2.5 -43.5t14.5 -42.5t34.5 -40t66 -26.5
t105.5 -11.5q235 0 235 109q0 33 -16.5 53t-79.5 36t-182 23l-252 15q-164 10 -287.5 39.5t-199.5 72t-123.5 101.5t-65.5 121t-18 137q0 46 12 100q31 137 139.5 221t321 126t549.5 42h254q250 0 430.5 -32t275 -79t146 -117.5t61 -129t2.5 -131.5h-874q0 20 -3 34.5
t-16 32.5t-35 29t-63.5 19t-98.5 8q-129 0 -178 -18.5t-49 -61.5q0 -29 21.5 -46.5t83 -29.5t176.5 -18l250 -13q278 -13 441.5 -63t233.5 -138t70 -229q0 -63 -6 -106q-8 -62 -26.5 -113.5t-56 -103t-91.5 -91.5t-137 -75.5t-190 -59t-252 -36.5t-322 -13h-121l-8 -63
q114 0 192.5 -13.5t121 -40.5t60 -60t17.5 -79z" />
    <glyph glyph-name="uni015F" unicode="&#x15f;" horiz-adv-x="1753" 
d="M1188 -287q0 -37 -6.5 -66t-32.5 -65.5t-71 -60.5t-130.5 -41t-202.5 -17h-423l32 199h228q67 0 67 43q0 21 -11.5 31t-45.5 10h-139l36 234q-138 13 -240 46t-157 73t-85.5 92t-36.5 95.5t-1 90.5h731q0 -43 27.5 -75t91.5 -32h4q62 0 90.5 21t28.5 53q0 35 -27 53.5
t-102 22.5l-276 16q-482 32 -482 344q0 50 15 97q30 90 110 144.5t245.5 83t434.5 28.5h156q156 0 276 -12.5t199 -36.5t131.5 -54t78.5 -71.5t34 -82.5t4 -92h-711q-1 16 -4.5 26.5t-14 25.5t-36.5 22.5t-66 7.5h-4q-40 0 -66.5 -5.5t-38 -15.5t-15 -19t-3.5 -21
q0 -26 26 -41t97 -21l273 -14q204 -12 324 -52.5t167 -103t47 -159.5q0 -56 -8 -103q-8 -45 -21 -80t-40.5 -72t-67.5 -64t-103.5 -52t-147.5 -40.5t-201 -24.5t-263 -9h-57l-8 -63q114 0 192.5 -13.5t121 -40.5t60 -60t17.5 -79z" />
    <glyph glyph-name="Scaron" unicode="&#x160;" horiz-adv-x="2281" 
d="M1614 1604h-742l-282 321h561l109 -117l133 117h598zM2257 461q-8 -62 -26.5 -113.5t-56 -103t-91.5 -91.5t-137 -75.5t-190 -59t-252 -36.5t-322 -13h-262q-165 0 -302 16t-230 43.5t-167.5 64.5t-115 79.5t-71 88.5t-37 91t-12.5 87.5t3 78.5h891q0 -26 2.5 -43.5
t14.5 -42.5t34.5 -40t66 -26.5t105.5 -11.5q235 0 235 109q0 33 -16.5 53t-79.5 36t-182 23l-252 15q-164 10 -287.5 39.5t-199.5 72t-123.5 101.5t-65.5 121t-18 137q0 46 12 100q31 137 139.5 221t321 126t549.5 42h254q250 0 430.5 -32t275 -79t146 -117.5t61 -129
t2.5 -131.5h-874q0 20 -3 34.5t-16 32.5t-35 29t-63.5 19t-98.5 8q-129 0 -178 -18.5t-49 -61.5q0 -29 21.5 -46.5t83 -29.5t176.5 -18l250 -13q278 -13 441.5 -63t233.5 -138t70 -229q0 -63 -6 -106z" />
    <glyph glyph-name="scaron" unicode="&#x161;" horiz-adv-x="1753" 
d="M573 1180l-262 344h549l86 -146l117 146h588l-361 -344h-717zM-31 377h731q0 -43 27.5 -75t91.5 -32h4q62 0 90.5 21t28.5 53q0 35 -27 53.5t-102 22.5l-276 16q-482 32 -482 344q0 50 15 97q30 90 110 144.5t245.5 83t434.5 28.5h156q156 0 276 -12.5t199 -36.5
t131.5 -54t78.5 -71.5t34 -82.5t4 -92h-711q-1 16 -4.5 26.5t-14 25.5t-36.5 22.5t-66 7.5h-4q-40 0 -66.5 -5.5t-38 -15.5t-15 -19t-3.5 -21q0 -26 26 -41t97 -21l273 -14q204 -12 324 -52.5t167 -103t47 -159.5q0 -56 -8 -103q-8 -45 -21 -80t-40.5 -72t-67.5 -64
t-103.5 -52t-147.5 -40.5t-201 -24.5t-263 -9h-162q-195 0 -338 28t-219 69.5t-119 100t-52 107.5t-3 103z" />
    <glyph glyph-name="Tcommaaccent" unicode="&#x162;" horiz-adv-x="2109" 
d="M104 999l84 525h2042l-84 -525h-641l-157 -999h-760l157 999h-641zM1053 -655h-326q36 43 78 118t53 113h-274l57 361h645l-43 -271q-11 -73 -70.5 -167t-119.5 -154z" />
    <glyph glyph-name="tcommaaccent" unicode="&#x163;" horiz-adv-x="1173" 
d="M1053 0h-590q-67 0 -120.5 16t-97 52t-61 102.5t-2.5 157.5l60 368h-203l65 406h201l51 321h727l-51 -321h197l-66 -406h-194l-33 -204q-6 -41 8 -59.5t64 -18.5h112zM733 -655h-325q36 43 78 118t53 113h-275l58 361h645l-43 -271q-11 -73 -71 -167t-120 -154z" />
    <glyph glyph-name="Tcaron" unicode="&#x164;" horiz-adv-x="2109" 
d="M104 999l84 525h2042l-84 -525h-641l-157 -999h-760l157 999h-641zM1548 1589h-671l-297 336h538l109 -117l133 117h577z" />
    <glyph glyph-name="tcaron" unicode="&#x165;" horiz-adv-x="1173" 
d="M1092 1163l75 361h514l-108 -361h-481zM1053 0h-590q-67 0 -120.5 16t-97 52t-61 102.5t-2.5 157.5l60 368h-203l65 406h201l51 321h727l-51 -321h197l-66 -406h-194l-33 -204q-6 -41 8 -59.5t64 -18.5h112z" />
    <glyph glyph-name="Tbar" unicode="&#x166;" horiz-adv-x="2107" 
d="M102 999l84 525h2042l-84 -525h-641l-26 -172h432l-51 -321h-433l-79 -506h-760l80 506h-433l52 321h432l26 172h-641z" />
    <glyph glyph-name="tbar" unicode="&#x167;" horiz-adv-x="1173" 
d="M1114 379l-61 -379h-590q-67 0 -120.5 16t-97 52t-61 102.5t-2.5 157.5l23 137h-203l35 213h201l12 74h-201l55 350h201l51 321h727l-51 -321h197l-55 -350h-197l-12 -74h196l-33 -213h-196l-2 -8q-6 -41 7.5 -59.5t63.5 -18.5h113z" />
    <glyph glyph-name="Utilde" unicode="&#x168;" horiz-adv-x="2390" 
d="M92 864l105 660h761l-98 -621q-57 -356 346 -356h4q91 0 162 20.5t116.5 52.5t77.5 80.5t48.5 96t25.5 106.5l99 621h762l-105 -660q-10 -66 -22 -120t-35.5 -127.5t-53 -133.5t-78 -128.5t-108 -121t-144.5 -103.5t-185.5 -84t-233.5 -53t-287 -20h-98q-169 0 -312 20
t-248 54t-189 83t-139 104t-94 121t-58 129t-26.5 133t-5 128.5t12.5 118.5zM1649 1587q-19 0 -35 0.5t-34.5 3t-29.5 3.5t-32 6t-28.5 6t-33 8.5t-32.5 9.5t-39.5 12t-41.5 13q-86 26 -116 26q-34 0 -41 -39l-8 -49h-377l28 185q5 30 13 54.5t28 53.5t49 48.5t78.5 32.5
t114.5 13h4q73 0 133 -12.5t187 -50.5q84 -25 106 -25q30 0 35 37l8 51h381l-24 -157q-5 -34 -12 -58.5t-26.5 -59.5t-48 -57t-81 -38.5t-121.5 -16.5h-4z" />
    <glyph glyph-name="utilde" unicode="&#x169;" horiz-adv-x="1931" 
d="M1970 1102l-174 -1102h-727l35 211q-19 -19 -45.5 -41t-85.5 -59t-123.5 -65t-159 -49.5t-192.5 -21.5h-11q-76 0 -141.5 12t-112 33t-84.5 49.5t-61 61.5t-40 69t-22 71.5t-7.5 69t4.5 62.5l110 699h727l-78 -494q-15 -95 21.5 -153t138.5 -58q98 0 153.5 57t69.5 152
l78 496h727zM1333 1161q-55 0 -103 8.5t-78.5 17.5t-117.5 38q-85 28 -106 28q-19 0 -27.5 -10.5t-11.5 -32.5l-8 -49h-377l28 180q30 203 283 203h4q77 0 137 -12.5t174 -50.5q77 -25 97 -25q30 0 35 37l8 51h383l-25 -153q-5 -34 -12 -58.5t-27 -59.5t-49 -57t-81.5 -38.5
t-121.5 -16.5h-4z" />
    <glyph glyph-name="Umacron" unicode="&#x16a;" horiz-adv-x="2390" 
d="M92 864l105 660h761l-98 -621q-57 -356 346 -356h4q91 0 162 20.5t116.5 52.5t77.5 80.5t48.5 96t25.5 106.5l99 621h762l-105 -660q-10 -66 -22 -120t-35.5 -127.5t-53 -133.5t-78 -128.5t-108 -121t-144.5 -103.5t-185.5 -84t-233.5 -53t-287 -20h-98q-169 0 -312 20
t-248 54t-189 83t-139 104t-94 121t-58 129t-26.5 133t-5 128.5t12.5 118.5zM827 1606l47 290h1047l-47 -290h-1047z" />
    <glyph glyph-name="umacron" unicode="&#x16b;" horiz-adv-x="1931" 
d="M1970 1102l-174 -1102h-727l35 211q-19 -19 -45.5 -41t-85.5 -59t-123.5 -65t-159 -49.5t-192.5 -21.5h-11q-76 0 -141.5 12t-112 33t-84.5 49.5t-61 61.5t-40 69t-22 71.5t-7.5 69t4.5 62.5l110 699h727l-78 -494q-15 -95 21.5 -153t138.5 -58q98 0 153.5 57t69.5 152
l78 496h727zM551 1182l47 291h1016l-47 -291h-1016z" />
    <glyph glyph-name="Ubreve" unicode="&#x16c;" horiz-adv-x="2390" 
d="M92 864l105 660h761l-98 -621q-57 -356 346 -356h4q91 0 162 20.5t116.5 52.5t77.5 80.5t48.5 96t25.5 106.5l99 621h762l-105 -660q-10 -66 -22 -120t-35.5 -127.5t-53 -133.5t-78 -128.5t-108 -121t-144.5 -103.5t-185.5 -84t-233.5 -53t-287 -20h-98q-169 0 -312 20
t-248 54t-189 83t-139 104t-94 121t-58 129t-26.5 133t-5 128.5t12.5 118.5zM1245 1964q0 -16 3.5 -31t14.5 -34.5t38 -31.5t67 -12q38 0 67 12t43 30.5t20.5 35.5t6.5 31h404q0 -41 -13.5 -87.5t-49.5 -100t-90 -95.5t-145 -70t-204 -28h-96q-88 0 -160.5 14.5t-120.5 38
t-84 57t-56 67t-31.5 73t-14.5 69.5t-2 62h403z" />
    <glyph glyph-name="ubreve" unicode="&#x16d;" horiz-adv-x="1931" 
d="M1796 0l174 1102h-727l-78 -496q-14 -95 -69.5 -152t-153.5 -57q-102 0 -138.5 58t-21.5 153l78 494h-727l-110 -699q-7 -29 -4.5 -62.5t7.5 -69t22 -71.5t40 -69t61 -61.5t84.5 -49.5t112 -33t141.5 -12h11q98 0 192.5 21.5t159 49.5t123.5 65t85.5 59t45.5 41l-35 -211
h727zM954 1524q0 -14 4.5 -28t16 -31t38.5 -27.5t66 -10.5q68 0 103 32.5t35 64.5h399q0 -37 -13 -80.5t-49 -95t-89.5 -92.5t-144.5 -69t-204 -28h-98q-87 0 -158 14.5t-118.5 37.5t-83.5 55.5t-55.5 64.5t-31.5 69.5t-15 66t-3 57.5h401z" />
    <glyph glyph-name="Uring" unicode="&#x16e;" horiz-adv-x="2390" 
d="M92 864l105 660h761l-98 -621q-57 -356 346 -356h4q91 0 162 20.5t116.5 52.5t77.5 80.5t48.5 96t25.5 106.5l99 621h762l-105 -660q-10 -66 -22 -120t-35.5 -127.5t-53 -133.5t-78 -128.5t-108 -121t-144.5 -103.5t-185.5 -84t-233.5 -53t-287 -20h-98q-169 0 -312 20
t-248 54t-189 83t-139 104t-94 121t-58 129t-26.5 133t-5 128.5t12.5 118.5zM1802 1810q0 -54 -20 -96.5t-67 -78t-135 -55t-214 -19.5t-215 19.5t-135.5 55.5t-66 78t-19.5 96q0 252 436 252q126 0 214.5 -20t135 -56t66.5 -79t20 -97zM1214 1812q0 -88 152 -88t152 88
q0 86 -152 86t-152 -86z" />
    <glyph glyph-name="uring" unicode="&#x16f;" horiz-adv-x="1931" 
d="M1970 1102l-174 -1102h-727l35 211q-19 -19 -45.5 -41t-85.5 -59t-123.5 -65t-159 -49.5t-192.5 -21.5h-11q-76 0 -141.5 12t-112 33t-84.5 49.5t-61 61.5t-40 69t-22 71.5t-7.5 69t4.5 62.5l110 699h727l-78 -494q-15 -95 21.5 -153t138.5 -58q98 0 153.5 57t69.5 152
l78 496h727zM655 1407q0 252 432 252q433 0 433 -252q0 -54 -20 -96.5t-66.5 -78.5t-134.5 -55.5t-212 -19.5q-125 0 -212.5 19.5t-134 56t-66 78.5t-19.5 96zM940 1409q0 -88 147 -88q148 0 148 88q0 86 -148 86q-147 0 -147 -86z" />
    <glyph glyph-name="Uhungarumlaut" unicode="&#x170;" horiz-adv-x="2390" 
d="M92 864l105 660h761l-98 -621q-57 -356 346 -356h4q91 0 162 20.5t116.5 52.5t77.5 80.5t48.5 96t25.5 106.5l99 621h762l-105 -660q-10 -66 -22 -120t-35.5 -127.5t-53 -133.5t-78 -128.5t-108 -121t-144.5 -103.5t-185.5 -84t-233.5 -53t-287 -20h-98q-169 0 -312 20
t-248 54t-189 83t-139 104t-94 121t-58 129t-26.5 133t-5 128.5t12.5 118.5zM717 1589l153 336h588l-164 -336h-577zM1950 1589h-580l168 336h588z" />
    <glyph glyph-name="uhungarumlaut" unicode="&#x171;" horiz-adv-x="1931" 
d="M1970 1102l-174 -1102h-727l35 211q-19 -19 -45.5 -41t-85.5 -59t-123.5 -65t-159 -49.5t-192.5 -21.5h-11q-76 0 -141.5 12t-112 33t-84.5 49.5t-61 61.5t-40 69t-22 71.5t-7.5 69t4.5 62.5l110 699h727l-78 -494q-15 -95 21.5 -153t138.5 -58q98 0 153.5 57t69.5 152
l78 496h727zM461 1165l166 359h569l-178 -359h-557zM1092 1165l180 359h569l-186 -359h-563z" />
    <glyph glyph-name="Uogonek" unicode="&#x172;" horiz-adv-x="2390" 
d="M1741 -152l-37 -233h-422q-179 0 -256.5 36t-77.5 109q0 83 97.5 132t347.5 85q-90 -4 -144 -4h-98q-169 0 -312 20t-248 54t-189 83t-139 104t-94 121t-58 129t-26.5 133t-5 128.5t12.5 118.5l105 660h761l-98 -621q-57 -356 346 -356h4q91 0 162 20.5t116.5 52.5
t77.5 80.5t48.5 96t25.5 106.5l99 621h762l-105 -660q-28 -175 -79 -306.5t-134.5 -233t-188.5 -176.5t-255 -148q-70 -34 -103.5 -62t-33.5 -59t49 -31h90z" />
    <glyph glyph-name="uogonek" unicode="&#x173;" horiz-adv-x="1931" 
d="M1319 -385q-179 0 -256.5 36t-77.5 109q0 89 120 146t408 94h-444l35 211q-19 -19 -45.5 -41t-85.5 -59t-123.5 -65t-159 -49.5t-192.5 -21.5h-11q-76 0 -141.5 12t-112 33t-84.5 49.5t-61 61.5t-40 69t-22 71.5t-7.5 69t4.5 62.5l110 699h727l-78 -494
q-15 -95 21.5 -153t138.5 -58q98 0 153.5 57t69.5 152l78 496h727l-174 -1102q-42 -20 -63.5 -31.5t-47 -28t-36.5 -30.5t-11 -29q0 -33 50 -33h81l-36 -233h-414z" />
    <glyph glyph-name="Wcircumflex" unicode="&#x174;" horiz-adv-x="3483" 
d="M1927 0l-133 848l-324 -848h-1026l-323 1524h856l121 -895l358 895h905l105 -920l370 920h832l-723 -1524h-1018zM1595 1925h672l297 -338h-539l-108 119l-133 -119h-578z" />
    <glyph glyph-name="wcircumflex" unicode="&#x175;" horiz-adv-x="2715" 
d="M1438 0l-60 522l-188 -522h-899l-230 1102h756l49 -649l230 649h733l43 -649l235 649h723l-520 -1102h-872zM1835 1524l272 -359h-540l-86 146l-117 -146h-578l377 359h672z" />
    <glyph glyph-name="Ycircumflex" unicode="&#x176;" horiz-adv-x="2369" 
d="M1565 530l-82 -530h-760l84 541l-692 983h843l310 -461l461 461h833zM1026 1925h672l297 -338h-539l-108 119l-134 -119h-577z" />
    <glyph glyph-name="ycircumflex" unicode="&#x177;" horiz-adv-x="1806" 
d="M1343 4q-113 -213 -226 -301t-261 -88h-754l58 362h229q57 0 57 46q0 26 -22 88l-365 991h758l123 -623l256 623h727zM1384 1524l273 -359h-541l-86 146l-117 -146h-577l377 359h671z" />
    <glyph glyph-name="Ydieresis" unicode="&#x178;" horiz-adv-x="2369" 
d="M1565 530l-82 -530h-760l84 541l-692 983h843l310 -461l461 461h833zM2021 1925l-53 -336h-582l54 336h581zM1360 1925l-51 -336h-580l51 336h580z" />
    <glyph glyph-name="Zacute" unicode="&#x179;" horiz-adv-x="2050" 
d="M190 1524h1973l-60 -369l-979 -637h885l-82 -518h-1984l59 369l991 659h-880zM1466 1589h-635l158 336h707z" />
    <glyph glyph-name="zacute" unicode="&#x17a;" horiz-adv-x="1599" 
d="M1544 401l-63 -401h-1538l57 362l737 361h-680l60 379h1538l-58 -363l-706 -338h653zM1161 1165h-616l207 359h682z" />
    <glyph glyph-name="Zdotaccent" unicode="&#x17b;" horiz-adv-x="2050" 
d="M190 1524h1973l-60 -369l-979 -637h885l-82 -518h-1984l59 369l991 659h-880zM1532 1589h-727l57 359h727z" />
    <glyph glyph-name="zdotaccent" unicode="&#x17c;" horiz-adv-x="1599" 
d="M1544 401l-63 -401h-1538l57 362l737 361h-680l60 379h1538l-58 -363l-706 -338h653zM1303 1524l-58 -359h-727l57 359h728z" />
    <glyph glyph-name="Zcaron" unicode="&#x17d;" horiz-adv-x="2050" 
d="M190 1524h1973l-60 -369l-979 -637h885l-82 -518h-1984l59 369l991 659h-880zM1495 1589h-672l-297 336h539l109 -117l133 117h577z" />
    <glyph glyph-name="zcaron" unicode="&#x17e;" horiz-adv-x="1599" 
d="M1544 401l-63 -401h-1538l57 362l737 361h-680l60 379h1538l-58 -363l-706 -338h653zM553 1165l-272 359h538l86 -146l117 146h577l-374 -359h-672z" />
    <glyph glyph-name="uni0192" unicode="&#x192;" horiz-adv-x="1206" 
d="M1180 621h-219l-197 -1006h-744l199 1006h-188l65 407h203l27 139q18 90 50 153.5t89 111t145 70t211 22.5h502l-55 -340h-140q-34 0 -48.5 -13.5t-20.5 -46.5l-19 -96h205z" />
    <glyph glyph-name="Aringacute" unicode="&#x1fa;" horiz-adv-x="2441" 
d="M1722 2120h-616l207 358h682zM1542 0l-51 182h-743l-105 -182h-766l928 1524h1067l516 -1524h-846zM1004 633h360l-119 426zM1806 1831q0 -43 -11.5 -78t-42 -68t-78.5 -55t-125.5 -35.5t-178.5 -13.5q-102 0 -179.5 13.5t-125.5 36t-78 55.5t-41.5 68t-11.5 77
q0 252 436 252q126 0 214.5 -20t135 -56t66.5 -79t20 -97zM1219 1833q0 -88 151 -88q152 0 152 88q0 86 -152 86q-151 0 -151 -86z" />
    <glyph glyph-name="aringacute" unicode="&#x1fb;" horiz-adv-x="1849" 
d="M985 139q-183 -159 -522 -159h-12q-127 0 -222.5 25.5t-149.5 71t-80 100t-26 118.5q0 156 86 242q109 109 381 131l561 45q62 6 62 49q0 31 -28.5 49t-112.5 18h-4q-44 0 -76.5 -7.5t-48.5 -15.5t-28 -24.5t-13.5 -22t-6.5 -20.5h-673q7 43 14 71t29.5 73t55 74.5
t93.5 65t141.5 56t202 35t273.5 14.5h116q123 0 227 -8t181 -21t138 -33.5t102 -43t70 -50.5t44 -55t22 -59t6.5 -59t-5.5 -58l-56 -344q-3 -20 2 -27.5t19 -7.5h61l-57 -362h-600q-138 0 -166 139zM692 358q0 -32 27 -54.5t84 -22.5q83 0 137.5 39t65.5 104l14 90l-234 -61
q-94 -24 -94 -95zM569 1417q0 252 432 252q433 0 433 -252q0 -54 -20 -96.5t-66.5 -78.5t-134.5 -55.5t-212 -19.5q-125 0 -212.5 19.5t-134 56t-66 78.5t-19.5 96zM854 1419q0 -88 147 -88q148 0 148 88q0 86 -148 86q-147 0 -147 -86zM1350 1706h-617l207 358h682z" />
    <glyph glyph-name="AEacute" unicode="&#x1fc;" horiz-adv-x="3176" 
d="M1311 0l28 184h-575l-141 -184h-750l1171 1524h2239l-68 -426h-985l-18 -119h975l-68 -418h-975l-20 -131h995l-67 -430h-1741zM1106 635h305l82 508zM2476 1589h-635l158 336h706z" />
    <glyph glyph-name="aeacute" unicode="&#x1fd;" horiz-adv-x="2918" 
d="M2882 422q-6 -41 -15 -73.5t-35 -82t-64.5 -87.5t-107.5 -79t-159.5 -68.5t-226 -45t-300.5 -17.5h-90q-542 0 -758 205q-201 -194 -614 -194h-14q-116 0 -207.5 17t-150 46t-97 70t-54.5 86t-16 96q0 156 86 242q109 109 381 131l561 45q62 6 62 49q0 31 -28.5 49
t-112.5 18h-4q-44 0 -76.5 -7.5t-48.5 -15.5t-28 -24.5t-13.5 -22t-6.5 -20.5h-673q5 33 10 54.5t17.5 56.5t29 59t47.5 55.5t70 52.5t98 44t131 36.5t170 22t213 8.5h117q326 0 481 -98q63 39 192 71t316 32h88q137 0 252 -12.5t199 -34.5t150.5 -54t110 -67.5t74 -80
t45 -86t20.5 -90.5t4 -89.5t-9 -86.5l-6 -43h-1155q-3 -32 4.5 -61t27.5 -57t64.5 -45t108.5 -17q51 0 92 10t63 23t38 30.5t20.5 28.5t7.5 21h719zM1778 1165h-617l207 359h682zM692 358q0 -32 27 -54.5t84 -22.5q88 0 141 41.5t64 109.5l12 82l-234 -61q-94 -24 -94 -95z
M1774 711h428q-3 58 -46 90.5t-153 32.5q-114 0 -164.5 -33.5t-64.5 -89.5z" />
    <glyph glyph-name="Oslashacute" unicode="&#x1fe;" horiz-adv-x="2453" 
d="M1642 1604h-634l151 321h707zM2460 705q-14 -78 -33.5 -143t-61.5 -143t-99 -139.5t-150.5 -121.5t-212.5 -100t-288.5 -64.5t-373.5 -24.5h-102q-353 0 -600 86l-80 -55h-502l295 213q-201 176 -201 451q0 80 12 159q12 78 32 145t62 144t100.5 138t152.5 119.5
t213.5 98t287.5 63t371 23.5h100q353 0 600 -84l74 54h502l-285 -205q201 -171 201 -447q0 -78 -14 -167zM786 725q0 -64 21 -113l647 469q-70 9 -166 9q-108 0 -193 -18.5t-137.5 -47t-89 -69t-52.5 -79t-23 -81.5q-7 -47 -7 -70zM1739 813q0 66 -23 113l-653 -475
q80 -13 170 -13q107 0 192 18.5t138 47.5t90.5 70t54.5 80.5t25 84.5q6 37 6 74z" />
    <glyph glyph-name="oslashacute" unicode="&#x1ff;" horiz-adv-x="1994" 
d="M1972 514q-5 -40 -11.5 -70.5t-22.5 -76.5t-38 -81.5t-60 -78.5t-86.5 -75.5t-120 -64.5t-158.5 -52.5t-203.5 -33t-253.5 -12.5h-162q-289 0 -479 70l-70 -39h-370l237 147q-160 137 -160 345q0 34 9 108q7 48 18 88.5t39.5 98t69.5 102t114 92.5t167.5 79.5t234 52
t309.5 20.5h168q285 0 473 -66l59 35h381l-229 -141q153 -127 153 -330q0 -57 -8 -117zM1374 1180h-616l198 344h682zM971 301h4q73 0 128.5 22t86 54t50 76t25 79.5t5.5 71.5v4l-445 -280q62 -27 146 -27zM729 514v-10l440 274q-58 25 -147 25h-4q-72 0 -126.5 -20
t-84.5 -49.5t-48.5 -71t-24 -76t-5.5 -72.5z" />
    <glyph glyph-name="uni0218" unicode="&#x218;" horiz-adv-x="2281" 
d="M2257 461q-8 -62 -26.5 -113.5t-56 -103t-91.5 -91.5t-137 -75.5t-190 -59t-252 -36.5t-322 -13h-262q-165 0 -302 16t-230 43.5t-167.5 64.5t-115 79.5t-71 88.5t-37 91t-12.5 87.5t3 78.5h891q0 -26 2.5 -43.5t14.5 -42.5t34.5 -40t66 -26.5t105.5 -11.5q235 0 235 109
q0 33 -16.5 53t-79.5 36t-182 23l-252 15q-164 10 -287.5 39.5t-199.5 72t-123.5 101.5t-65.5 121t-18 137q0 46 12 100q31 137 139.5 221t321 126t549.5 42h254q250 0 430.5 -32t275 -79t146 -117.5t61 -129t2.5 -131.5h-874q0 20 -3 34.5t-16 32.5t-35 29t-63.5 19
t-98.5 8q-129 0 -178 -18.5t-49 -61.5q0 -29 21.5 -46.5t83 -29.5t176.5 -18l250 -13q278 -13 441.5 -63t233.5 -138t70 -229q0 -63 -6 -106zM1171 -668h-325q36 43 78 118.5t53 113.5h-275l58 360h645l-43 -270q-11 -73 -71 -167.5t-120 -154.5z" />
    <glyph glyph-name="uni0219" unicode="&#x219;" horiz-adv-x="1753" 
d="M-31 377h731q0 -43 27.5 -75t91.5 -32h4q62 0 90.5 21t28.5 53q0 35 -27 53.5t-102 22.5l-276 16q-482 32 -482 344q0 50 15 97q30 90 110 144.5t245.5 83t434.5 28.5h156q156 0 276 -12.5t199 -36.5t131.5 -54t78.5 -71.5t34 -82.5t4 -92h-711q-1 16 -4.5 26.5t-14 25.5
t-36.5 22.5t-66 7.5h-4q-40 0 -66.5 -5.5t-38 -15.5t-15 -19t-3.5 -21q0 -26 26 -41t97 -21l273 -14q204 -12 324 -52.5t167 -103t47 -159.5q0 -56 -8 -103q-8 -45 -21 -80t-40.5 -72t-67.5 -64t-103.5 -52t-147.5 -40.5t-201 -24.5t-263 -9h-162q-195 0 -338 28t-219 69.5
t-119 100t-52 107.5t-3 103zM881 -662h-326q36 43 78 118.5t53 113.5h-274l57 360h645l-43 -270q-11 -73 -70.5 -167.5t-119.5 -154.5z" />
    <glyph glyph-name="uni021A" unicode="&#x21a;" horiz-adv-x="2109" 
d="M104 999l84 525h2042l-84 -525h-641l-157 -999h-760l157 999h-641zM1053 -655h-326q36 43 78 118t53 113h-274l57 361h645l-43 -271q-11 -73 -70.5 -167t-119.5 -154z" />
    <glyph glyph-name="uni021B" unicode="&#x21b;" horiz-adv-x="1173" 
d="M1053 0h-590q-67 0 -120.5 16t-97 52t-61 102.5t-2.5 157.5l60 368h-203l65 406h201l51 321h727l-51 -321h197l-66 -406h-194l-33 -204q-6 -41 8 -59.5t64 -18.5h112zM733 -655h-325q36 43 78 118t53 113h-275l58 361h645l-43 -271q-11 -73 -71 -167t-120 -154z" />
    <glyph glyph-name="uni0237" unicode="&#x237;" horiz-adv-x="823" 
d="M-164 -41h58q39 0 51.5 13.5t17.5 45.5l172 1084h727l-186 -1182q-50 -305 -293 -305h-602z" />
    <glyph glyph-name="uni02BC" unicode="&#x2bc;" horiz-adv-x="751" 
d="M614 883h-346q40 56 79.5 129t53.5 121h-266l62 391h665l-49 -310q-12 -79 -75 -174.5t-124 -156.5z" />
    <glyph glyph-name="circumflex" unicode="&#x2c6;" 
d="M1208 1524l273 -359h-541l-86 146l-117 -146h-577l377 359h671z" />
    <glyph glyph-name="caron" unicode="&#x2c7;" 
d="M477 1165l-272 359h538l86 -146l117 146h578l-375 -359h-672z" />
    <glyph glyph-name="breve" unicode="&#x2d8;" 
d="M741 1524q0 -14 4.5 -28t16 -31t38.5 -27.5t66 -10.5q68 0 103 32.5t35 64.5h399q0 -37 -13 -80.5t-49 -95t-89.5 -92.5t-144.5 -69t-204 -28h-98q-87 0 -158 14.5t-118.5 37.5t-83.5 55.5t-55.5 64.5t-31.5 69.5t-15 66t-3 57.5h401z" />
    <glyph glyph-name="dotaccent" unicode="&#x2d9;" 
d="M1237 1524l-57 -359h-727l57 359h727z" />
    <glyph glyph-name="ring" unicode="&#x2da;" 
d="M424 1407q0 252 432 252t432 -252q0 -43 -11.5 -78t-41.5 -68t-78 -55t-124.5 -35.5t-176.5 -13.5q-125 0 -212.5 19.5t-134 56t-66 78.5t-19.5 96zM709 1409q0 -88 147 -88q148 0 148 88q0 86 -148 86q-147 0 -147 -86z" />
    <glyph glyph-name="ogonek" unicode="&#x2db;" 
d="M522 -385q-179 0 -256.5 36t-77.5 109q0 89 120 146t409 94h282q-55 -27 -82.5 -42t-51 -36.5t-23.5 -40.5q0 -33 49 -33h82l-37 -233h-414z" />
    <glyph glyph-name="tilde" unicode="&#x2dc;" 
d="M1102 1161q-55 0 -103 8.5t-78.5 17.5t-117.5 38q-85 28 -107 28q-19 0 -27.5 -10.5t-11.5 -32.5l-8 -49h-377l29 180q30 203 283 203h4q77 0 137 -12.5t174 -50.5q77 -25 96 -25q30 0 35 37l8 51h383l-24 -153q-5 -34 -12 -58.5t-27 -59.5t-49 -57t-81.5 -38.5
t-121.5 -16.5h-4z" />
    <glyph glyph-name="hungarumlaut" unicode="&#x2dd;" 
d="M160 1165l166 359h569l-178 -359h-557zM791 1165l180 359h569l-186 -359h-563z" />
    <glyph glyph-name="uni0401" unicode="&#x401;" horiz-adv-x="1888" 
d="M209 1524h1786l-68 -426h-1036l-19 -119h1026l-67 -418h-1026l-21 -131h1047l-68 -430h-1796zM1808 1925l-53 -336h-581l53 336h581zM1147 1925l-51 -336h-580l51 336h580z" />
    <glyph glyph-name="uni0402" unicode="&#x402;" horiz-adv-x="2564" 
d="M104 999l82 525h2093l-81 -525h-865l-24 -157q185 37 456 37h29q374 0 562 -139t188 -382q0 -164 -55.5 -279t-183 -194t-336 -116t-511.5 -37h-168l66 418h24q210 0 302 35t92 112q0 63 -58 95t-188 32h-31q-64 0 -127.5 -5t-92.5 -9.5t-38 -6.5l-63 -403h-779l158 999
h-451z" />
    <glyph glyph-name="uni0403" unicode="&#x403;" horiz-adv-x="1839" 
d="M-33 0l242 1524h1761l-76 -475h-995l-166 -1049h-766zM1430 1589h-635l157 336h707z" />
    <glyph glyph-name="uni0404" unicode="&#x404;" horiz-adv-x="2385" 
d="M2378 641q-10 -60 -20.5 -103.5t-43.5 -119t-80 -130t-135.5 -119t-202.5 -105t-287.5 -68t-385.5 -27.5h-70q-190 0 -346.5 20.5t-268.5 55.5t-198 87t-140 110.5t-87.5 130.5t-46.5 141.5t-13 149.5q0 91 13 176q11 71 28.5 131.5t57 136.5t95.5 136t149 120t212 100
t291 65t379 25h70q149 0 279 -12.5t228.5 -35.5t181 -53.5t140 -68t102.5 -77.5t72 -84t45 -84.5t24 -83t6 -75.5t-5 -65l-6 -38h-766q-1 18 -6 38.5t-27.5 57.5t-58 64.5t-107 49t-166.5 21.5q-280 0 -379 -147h619l-62 -383h-598q75 -160 340 -160q331 0 406 245q2 4 2 5
h770z" />
    <glyph glyph-name="uni0405" unicode="&#x405;" horiz-adv-x="2281" 
d="M2257 461q-8 -62 -26.5 -113.5t-56 -103t-91.5 -91.5t-137 -75.5t-190 -59t-252 -36.5t-322 -13h-262q-165 0 -302 16t-230 43.5t-167.5 64.5t-115 79.5t-71 88.5t-37 91t-12.5 87.5t3 78.5h891q0 -26 2.5 -43.5t14.5 -42.5t34.5 -40t66 -26.5t105.5 -11.5q235 0 235 109
q0 33 -16.5 53t-79.5 36t-182 23l-252 15q-164 10 -287.5 39.5t-199.5 72t-123.5 101.5t-65.5 121t-18 137q0 46 12 100q31 137 139.5 221t321 126t549.5 42h254q250 0 430.5 -32t275 -79t146 -117.5t61 -129t2.5 -131.5h-874q0 20 -3 34.5t-16 32.5t-35 29t-63.5 19
t-98.5 8q-129 0 -178 -18.5t-49 -61.5q0 -29 21.5 -46.5t83 -29.5t176.5 -18l250 -13q278 -13 441.5 -63t233.5 -138t70 -229q0 -63 -6 -106z" />
    <glyph glyph-name="uni0406" unicode="&#x406;" horiz-adv-x="890" 
d="M969 1524l-242 -1524h-760l242 1524h760z" />
    <glyph glyph-name="uni0407" unicode="&#x407;" horiz-adv-x="870" 
d="M1214 1925l-53 -336h-534l53 336h534zM600 1925l-51 -336h-533l52 336h532zM969 1524l-242 -1524h-760l242 1524h760z" />
    <glyph glyph-name="uni0408" unicode="&#x408;" horiz-adv-x="2080" 
d="M2068 788q-11 -71 -20 -117.5t-29.5 -119.5t-45 -123.5t-66.5 -115t-94 -108.5t-128.5 -90.5t-168.5 -74t-215 -45t-267 -17.5h-147q-180 0 -323 30.5t-233.5 78.5t-155 115.5t-95 133t-44 139t-12.5 126t9 102.5l4 27h719q0 -18 1 -31.5t6 -36t14 -40t27.5 -36.5
t43 -31.5t63 -21t86.5 -8.5h2q67 0 119.5 17t84.5 43t55 64.5t33.5 73.5t17.5 79l114 723h762z" />
    <glyph glyph-name="uni0409" unicode="&#x409;" horiz-adv-x="3641" 
d="M311 0h-372l86 541h24q146 0 201 59q34 35 57 99.5t60 253t98 571.5h1886l-65 -416h671q149 0 266.5 -28.5t192.5 -75t124.5 -111.5t70 -133.5t20.5 -145.5v-6q0 -46 -4.5 -88t-17 -91t-32.5 -91.5t-54 -87t-78.5 -80.5t-109.5 -68.5t-143.5 -54.5t-183.5 -34.5
t-227 -12.5h-1450l166 1049h-387q-34 -206 -59 -331t-73 -265t-110 -224q-39 -54 -84.5 -92.5t-110.5 -71t-156 -49t-206 -16.5zM2181 446h483q85 0 127.5 30t44.5 77v4q0 49 -32 77t-115 28h-475z" />
    <glyph glyph-name="uni040A" unicode="&#x40a;" horiz-adv-x="3690" 
d="M834 551l-89 -551h-778l242 1524h778l-80 -498h670l80 498h778l-80 -498h561q180 0 316 -26t220 -69t136.5 -107.5t72 -133t19.5 -153.5q0 -89 -23.5 -164.5t-83 -145.5t-151.5 -119t-239 -78.5t-336 -29.5h-1432l88 551h-669zM2261 420h485q76 0 108 32t32 70
q0 37 -28 68t-95 31h-471z" />
    <glyph glyph-name="uni040B" unicode="&#x40b;" horiz-adv-x="2592" 
d="M104 999l84 525h2093l-83 -525h-863l-24 -161q205 41 422 41h49q385 0 571.5 -137t188.5 -414q0 -82 -15 -174l-24 -154h-779l25 154q6 40 6 75q0 97 -57 146t-185 49h-22q-59 0 -119 -5.5t-90 -11t-41 -8.5l-63 -399h-779l158 999h-453z" />
    <glyph glyph-name="uni040C" unicode="&#x40c;" horiz-adv-x="2367" 
d="M1352 0l-529 608l-96 -608h-760l242 1524h760l-86 -539l747 539h924l-973 -707l746 -817h-975zM1634 1589h-635l158 336h707z" />
    <glyph glyph-name="uni040E" unicode="&#x40e;" horiz-adv-x="2400" 
d="M1475 334q-71 -74 -119.5 -118.5t-106 -86.5t-107.5 -63.5t-119.5 -38t-147 -22t-185.5 -5.5h-317l76 479h229q45 0 69.5 16t24.5 44q0 21 -7.5 39t-35.5 57l-616 889h854l329 -537l451 537h836zM1335 1964q0 -16 3.5 -31t14.5 -34.5t38 -31.5t67 -12q38 0 67 12t43 30.5
t20.5 35.5t6.5 31h404q0 -41 -13.5 -87.5t-49.5 -100t-90 -95.5t-145 -70t-204 -28h-96q-88 0 -160.5 14.5t-120.5 38t-84 57t-56 67t-31.5 73t-14.5 69.5t-2 62h403z" />
    <glyph glyph-name="uni040F" unicode="&#x40f;" horiz-adv-x="2441" 
d="M2540 1524l-242 -1524h-807l-45 -287h-717l45 287h-807l242 1524h778l-166 -1049h774l166 1049h779z" />
    <glyph glyph-name="uni0410" unicode="&#x410;" horiz-adv-x="2441" 
d="M1542 0l-51 182h-743l-105 -182h-766l928 1524h1067l516 -1524h-846zM1004 633h360l-119 426z" />
    <glyph glyph-name="uni0411" unicode="&#x411;" horiz-adv-x="2328" 
d="M141 1098l68 426h2050l-68 -426h-1273l-15 -94h664q180 0 314 -25t215 -67t130 -105.5t66.5 -129.5t17.5 -151q0 -88 -26 -163.5t-87.5 -143.5t-155.5 -115.5t-237 -75.5t-325 -28h-1512zM813 440h563q74 0 107 27t33 70q0 84 -111 84h-563z" />
    <glyph glyph-name="uni0412" unicode="&#x412;" horiz-adv-x="2347" 
d="M2329 506q0 -56 -9 -106.5t-31.5 -102t-57.5 -94.5t-90.5 -81.5t-127.5 -65t-171.5 -41.5t-219.5 -15h-1655l242 1524h1620q144 0 247 -24t161 -70t84 -105t26 -135q0 -72 -33 -132t-87 -98t-111 -61.5t-115 -32.5q60 -14 112.5 -38t104 -65t81.5 -107t30 -150zM883 981
h536q76 0 106.5 20.5t30.5 61.5q0 37 -29 51t-97 14h-525zM793 410h559q174 0 174 106q0 38 -32.5 60t-117.5 22h-555z" />
    <glyph glyph-name="uni0413" unicode="&#x413;" horiz-adv-x="1839" 
d="M-33 0l242 1524h1761l-76 -475h-995l-166 -1049h-766z" />
    <glyph glyph-name="uni0414" unicode="&#x414;" horiz-adv-x="2625" 
d="M193 475q55 85 88 151.5t70.5 182t71.5 284t75 431.5h2017l-166 -1049h246l-121 -762h-717l45 287h-1173l-45 -287h-717l121 762h205zM954 475h617l90 574h-526q-53 -345 -181 -574z" />
    <glyph glyph-name="uni0415" unicode="&#x415;" horiz-adv-x="1888" 
d="M209 1524h1786l-68 -426h-1036l-19 -119h1026l-67 -418h-1026l-21 -131h1047l-68 -430h-1796z" />
    <glyph glyph-name="uni0416" unicode="&#x416;" horiz-adv-x="3835" 
d="M1446 0l94 592l-639 -592h-1028l993 846l-733 678h944l527 -529l84 529h778l-84 -529l694 529h946l-956 -684l719 -840h-1016l-451 592l-94 -592h-778z" />
    <glyph glyph-name="uni0417" unicode="&#x417;" horiz-adv-x="2408" 
d="M2365 504q-1 -132 -61 -228t-192.5 -166t-354 -104.5t-534.5 -34.5h-70q-259 0 -463.5 33t-334.5 88t-212 130.5t-111 158t-16 172.5l7 43h788q-20 -76 73.5 -127t305.5 -51q350 0 350 96q0 43 -53 63.5t-174 20.5h-439l62 383h442q232 0 232 74q0 82 -295 82
q-213 0 -312.5 -36.5t-128.5 -111.5h-788l2 21q4 45 21 91t56.5 101t98 103.5t154.5 95t217 79.5t293 53.5t375 20.5h71q230 0 410.5 -21t296 -56t190.5 -84t106 -100.5t31 -110.5q0 -81 -52 -148.5t-131.5 -109t-174.5 -58.5q57 -18 105.5 -43t99 -67t80 -106.5
t30.5 -145.5z" />
    <glyph glyph-name="uni0418" unicode="&#x418;" horiz-adv-x="2502" 
d="M-33 0l242 1524h778l-137 -862l973 862h778l-242 -1524h-778l137 860l-973 -860h-778z" />
    <glyph glyph-name="uni0419" unicode="&#x419;" horiz-adv-x="2502" 
d="M-33 0l242 1524h778l-137 -862l973 862h778l-242 -1524h-778l137 860l-973 -860h-778zM1343 1964q0 -16 3.5 -31t14.5 -34.5t38 -31.5t67 -12q38 0 67 12t43.5 30.5t21 35.5t6.5 31h403q0 -41 -13.5 -87.5t-49.5 -100t-90 -95.5t-145 -70t-204 -28h-96q-88 0 -160.5 14.5
t-120.5 38t-84 57t-56 67t-31.5 73t-14.5 69.5t-2 62h403z" />
    <glyph glyph-name="uni041A" unicode="&#x41a;" horiz-adv-x="2367" 
d="M1352 0l-529 608l-96 -608h-760l242 1524h760l-86 -539l747 539h924l-973 -707l746 -817h-975z" />
    <glyph glyph-name="uni041B" unicode="&#x41b;" horiz-adv-x="2322" 
d="M1401 0l166 1049h-457q-34 -206 -59 -331t-73 -265t-110 -224q-39 -54 -84.5 -92.5t-110.5 -71t-156 -49t-206 -16.5h-372l86 541h24q146 0 201 59q34 35 57 99.5t60 253t98 571.5h1956l-242 -1524h-778z" />
    <glyph glyph-name="uni041C" unicode="&#x41c;" horiz-adv-x="2775" 
d="M-33 0l242 1524h989l256 -678l453 678h966l-241 -1524h-756l119 754l-506 -754h-363l-284 754l-119 -754h-756z" />
    <glyph glyph-name="uni041D" unicode="&#x41d;" horiz-adv-x="2406" 
d="M1503 0l86 543h-776l-86 -543h-760l242 1524h760l-80 -506h776l80 506h760l-242 -1524h-760z" />
    <glyph glyph-name="uni041E" unicode="&#x41e;" horiz-adv-x="2453" 
d="M1139 -31q-189 0 -345 22t-267 60t-196 92.5t-137 114t-85 130.5t-45.5 137t-12.5 139q0 76 12 159q12 77 32 144t61.5 143.5t100 138t153 120.5t214 98t287.5 63t371 24h100q1092 0 1092 -682q0 -78 -14 -167q-14 -78 -33.5 -143t-61.5 -143t-99 -139.5t-150.5 -121.5
t-212.5 -100t-288.5 -64.5t-373.5 -24.5h-102zM1688 813q0 50 -20.5 94t-65 81.5t-125 59t-189.5 21.5q-394 0 -446 -270q-6 -30 -6 -74q0 -51 21 -96.5t65.5 -84.5t124 -62t186.5 -23q114 0 200 24t136 65.5t76.5 88t35.5 102.5q7 44 7 74z" />
    <glyph glyph-name="uni041F" unicode="&#x41f;" horiz-adv-x="2441" 
d="M-33 0l242 1524h2331l-242 -1524h-778l166 1049h-775l-166 -1049h-778z" />
    <glyph glyph-name="uni0420" unicode="&#x420;" horiz-adv-x="2295" 
d="M793 416l-66 -416h-760l242 1524h1446q113 0 207.5 -12.5t165.5 -35t125.5 -56t91 -73.5t59.5 -88.5t33 -99.5t10 -110q0 -107 -20 -195t-73.5 -171.5t-138.5 -140.5t-223 -91.5t-319 -34.5h-780zM866 877h537q151 0 151 112q0 88 -122 88h-533z" />
    <glyph glyph-name="uni0421" unicode="&#x421;" horiz-adv-x="2385" 
d="M2378 641q-10 -60 -20.5 -103.5t-43.5 -119t-80 -130t-135.5 -119t-202.5 -105t-287.5 -68t-385.5 -27.5h-70q-190 0 -346.5 20.5t-268.5 55.5t-198 87t-140 110.5t-87.5 130.5t-46.5 141.5t-13 149.5q0 91 13 176q11 71 28.5 131.5t57 136.5t95.5 136t149 120t212 100
t291 65t379 25h70q149 0 279 -12.5t228.5 -35.5t181 -53.5t140 -68t102.5 -77.5t72 -84t45 -84.5t24 -83t6 -75.5t-5 -65l-6 -38h-766q-1 16 -6 34t-27 48t-58 53t-107.5 40t-166.5 17q-385 0 -436 -262q-10 -52 -10 -92q0 -256 366 -256q340 0 408 209h770z" />
    <glyph glyph-name="uni0422" unicode="&#x422;" horiz-adv-x="2109" 
d="M104 999l84 525h2042l-84 -525h-641l-157 -999h-760l157 999h-641z" />
    <glyph glyph-name="uni0423" unicode="&#x423;" horiz-adv-x="2400" 
d="M1475 334q-71 -74 -119.5 -118.5t-106 -86.5t-107.5 -63.5t-119.5 -38t-147 -22t-185.5 -5.5h-317l76 479h229q45 0 69.5 16t24.5 44q0 21 -7.5 39t-35.5 57l-616 889h854l329 -537l451 537h836z" />
    <glyph glyph-name="uni0424" unicode="&#x424;" horiz-adv-x="3325" 
d="M1946 -20h-779l33 190h-366q-187 0 -332 34t-233 87.5t-144 128t-76.5 147.5t-19.5 154q0 59 12 135q15 96 54.5 175.5t112 149.5t175.5 117.5t251.5 75t332.5 27.5h428l24 143h779l-23 -143h426q169 0 301.5 -32.5t214.5 -84.5t135 -124t73.5 -144.5t20.5 -151.5
q0 -58 -12 -137q-16 -99 -48.5 -176.5t-100 -151.5t-167 -122.5t-254.5 -77.5t-356 -29h-430zM2103 954l-51 -323h234q56 0 98.5 9.5t67.5 23t42.5 35t25 39.5t13.5 42q4 24 4 39q0 56 -44 95.5t-158 39.5h-232zM1049 631h225l51 323h-223q-131 0 -191.5 -43.5t-68.5 -101.5
q-2 -12 -2 -39q0 -54 49.5 -96.5t159.5 -42.5z" />
    <glyph glyph-name="uni0425" unicode="&#x425;" horiz-adv-x="2414" 
d="M1481 0l-273 475l-405 -475h-924l701 805l-424 719h905l233 -453l371 453h875l-619 -719l440 -805h-880z" />
    <glyph glyph-name="uni0426" unicode="&#x426;" horiz-adv-x="2652" 
d="M1786 -287l45 287h-1864l242 1524h778l-166 -1049h774l166 1049h779l-166 -1049h247l-118 -762h-717z" />
    <glyph glyph-name="uni0427" unicode="&#x427;" horiz-adv-x="2353" 
d="M1432 0l84 535q-214 -33 -486 -33q-188 0 -329.5 17.5t-254 57t-183 103.5t-107.5 157t-37 218q0 75 16 176l47 293h779l-48 -297q-4 -20 -4 -58q0 -47 16 -81t44 -55.5t73.5 -34t96.5 -17t121 -4.5q213 0 329 22l84 525h778l-241 -1524h-778z" />
    <glyph glyph-name="uni0428" unicode="&#x428;" horiz-adv-x="3420" 
d="M-33 0l242 1524h778l-166 -1049h488l166 1049h778l-166 -1049h487l166 1049h778l-241 -1524h-3310z" />
    <glyph glyph-name="uni0429" unicode="&#x429;" horiz-adv-x="3633" 
d="M-33 0l242 1524h778l-166 -1049h488l166 1049h778l-166 -1049h487l166 1049h778l-165 -1049h249l-118 -762h-717l45 287h-2845z" />
    <glyph glyph-name="uni042A" unicode="&#x42a;" horiz-adv-x="2840" 
d="M76 999l82 525h1337l-65 -416h690q158 0 281 -27.5t203 -74t131.5 -113.5t73 -142t21.5 -163q0 -91 -23 -172.5t-80 -159t-143 -133t-221.5 -89.5t-306.5 -34h-1579l158 999h-559zM1325 446h547q164 0 164 115q0 101 -142 101h-536z" />
    <glyph glyph-name="uni042B" unicode="&#x42b;" horiz-adv-x="3207" 
d="M2320 588q0 -91 -23 -172.5t-80 -159t-143 -133t-221.5 -89.5t-306.5 -34h-1579l242 1524h776l-65 -416h690q158 0 281 -27.5t203 -74t131.5 -113.5t73 -142t21.5 -163zM815 446h547q164 0 164 115q0 101 -142 101h-536zM3305 1524l-241 -1524h-760l242 1524h759z" />
    <glyph glyph-name="uni042C" unicode="&#x42c;" horiz-adv-x="2330" 
d="M2320 588q0 -91 -23 -172.5t-80 -159t-143 -133t-221.5 -89.5t-306.5 -34h-1579l242 1524h776l-65 -416h690q158 0 281 -27.5t203 -74t131.5 -113.5t73 -142t21.5 -163zM815 446h547q164 0 164 115q0 101 -142 101h-536z" />
    <glyph glyph-name="uni042D" unicode="&#x42d;" horiz-adv-x="2441" 
d="M2447 727q-14 -85 -35 -155.5t-65 -151t-105.5 -143t-160.5 -122.5t-226 -99t-306 -63t-396 -24h-72q-184 0 -338 17t-260.5 46.5t-192 69.5t-134 85.5t-85.5 95t-45.5 97t-16 92t4.5 81.5l6 43h789q0 -73 96 -125.5t303 -52.5q182 0 279 40t141 120h-682l60 383h667
q-28 72 -116 110.5t-259 38.5q-190 0 -298.5 -45t-135.5 -117h-788l4 21q6 38 17.5 74.5t35 82t56.5 86.5t85.5 85t118 80.5t158 70t201.5 56.5t252 36.5t307 13.5h71q186 0 340.5 -22t264.5 -58.5t194.5 -89.5t137 -110.5t85.5 -125.5t45.5 -130.5t12.5 -130.5
q0 -65 -15 -160z" />
    <glyph glyph-name="uni042E" unicode="&#x42e;" horiz-adv-x="3454" 
d="M3459 719q-13 -75 -34 -140.5t-66 -144.5t-107.5 -142.5t-164 -125.5t-229.5 -104t-310 -67.5t-400 -25.5h-61q-163 0 -302 17.5t-242.5 48t-186.5 74t-138.5 92.5t-94.5 107.5t-59 115.5t-28 119h-205l-86 -543h-778l242 1524h778l-80 -506h207q39 86 98.5 160t160 145
t230.5 120.5t318.5 80t415.5 30.5h61q177 0 326.5 -20t258.5 -55t194.5 -84t140.5 -104.5t91 -120.5t51 -127.5t15 -129.5q0 -95 -16 -194zM2658 737q6 29 6 72q-1 39 -11.5 74t-37.5 69.5t-68 60t-107 41t-150 15.5q-111 0 -197.5 -23t-140 -63.5t-84 -89t-39.5 -105.5
q-6 -41 -6 -57q0 -39 11.5 -76t39 -73.5t68.5 -63t105.5 -43t145.5 -16.5q150 0 249 34.5t148.5 94t67.5 149.5z" />
    <glyph glyph-name="uni042F" unicode="&#x42f;" horiz-adv-x="2314" 
d="M1454 393h-147l-508 -393h-901l598 461q-199 58 -298.5 179t-99.5 296v33q3 52 15.5 102t40.5 106.5t70 105t108 94t150 77.5t201.5 51t256.5 19h1473l-242 -1524h-778zM1522 809l41 268h-482q-89 0 -134 -41.5t-48 -101.5v-8q0 -117 156 -117h467z" />
    <glyph glyph-name="uni0430" unicode="&#x430;" horiz-adv-x="1849" 
d="M985 139q-183 -159 -522 -159h-12q-127 0 -222.5 25.5t-149.5 71t-80 100t-26 118.5q0 156 86 242q109 109 381 131l561 45q62 6 62 49q0 31 -28.5 49t-112.5 18h-4q-44 0 -76.5 -7.5t-48.5 -15.5t-28 -24.5t-13.5 -22t-6.5 -20.5h-673q7 43 14 71t29.5 73t55 74.5
t93.5 65t141.5 56t202 35t273.5 14.5h116q123 0 227 -8t181 -21t138 -33.5t102 -43t70 -50.5t44 -55t22 -59t6.5 -59t-5.5 -58l-56 -344q-3 -20 2 -27.5t19 -7.5h61l-57 -362h-600q-138 0 -166 139zM692 358q0 -32 27 -54.5t84 -22.5q83 0 137.5 39t65.5 104l14 90l-234 -61
q-94 -24 -94 -95z" />
    <glyph glyph-name="uni0431" unicode="&#x431;" horiz-adv-x="2015" 
d="M1991 483q-6 -41 -19.5 -81t-46 -93t-78.5 -98.5t-123.5 -91t-175 -78t-238.5 -52.5t-309 -20h-143q-844 0 -844 602q3 63 15 142q128 790 1079 790h154q139 0 147 41h705q-12 -74 -27.5 -128t-43.5 -106.5t-69 -88t-102 -66.5t-145 -48.5t-195.5 -27.5t-255.5 -10h-135
q-228 0 -350 -48.5t-154 -170.5q0 -1 -1 -4.5t-1 -5.5q87 69 246.5 114t367.5 45h37q165 0 293 -25t206 -64.5t128 -94.5t69 -109t19 -114q0 -45 -10 -109zM758 498q0 -36 7.5 -64.5t28.5 -57.5t66.5 -45t112.5 -16q139 0 209.5 65t70.5 157q0 31 -8.5 58t-30 55t-67.5 44.5
t-113 16.5q-73 0 -129 -21t-86.5 -54t-45.5 -68t-15 -70z" />
    <glyph glyph-name="uni0432" unicode="&#x432;" horiz-adv-x="1941" 
d="M1909 354q0 -69 -38.5 -131.5t-113 -113t-197 -80t-276.5 -29.5h-1323l176 1102h1323q114 0 197.5 -13t131.5 -34t76 -53t37 -63t9 -71q0 -90 -86.5 -156.5t-208.5 -84.5q135 -20 214 -86.5t79 -186.5zM797 709h237q72 0 99.5 14t27.5 43q0 25 -25 37t-85 12h-238z
M731 297h262q152 0 152 72q0 63 -129 63h-262z" />
    <glyph glyph-name="uni0433" unicode="&#x433;" horiz-adv-x="1388" 
d="M-41 0l176 1102h1319l-63 -400h-574l-112 -702h-746z" />
    <glyph glyph-name="uni0434" unicode="&#x434;" horiz-adv-x="2209" 
d="M-129 -287l109 686h143q129 140 215 703h1749l-113 -703h205l-108 -686h-656l45 287h-889l-45 -287h-655zM817 399h432l51 314h-378q-40 -196 -105 -314z" />
    <glyph glyph-name="uni0435" unicode="&#x435;" horiz-adv-x="1906" 
d="M1868 422q-6 -41 -15 -74t-35 -82.5t-64 -87t-107 -79t-159.5 -68.5t-225.5 -44.5t-301 -17.5h-91q-156 0 -283 18t-214.5 47.5t-153 73t-103.5 88t-61.5 99.5t-31 101.5t-7.5 99.5q0 44 7 102q7 51 18 93.5t39 100t68.5 102t111.5 91.5t163 78t227 50.5t300 19.5h88
q137 0 252 -12.5t199 -34.5t150.5 -54t110 -67.5t74 -80t45 -86t20.5 -90.5t4 -89.5t-9 -86.5l-6 -43h-1155q-3 -32 4 -61t27 -57t64.5 -45t107.5 -17t109.5 13.5t69 35t31.5 36t13 28.5h719zM760 711h428q-3 58 -46 90.5t-153 32.5q-114 0 -164.5 -33.5t-64.5 -89.5z" />
    <glyph glyph-name="uni0436" unicode="&#x436;" horiz-adv-x="2777" 
d="M918 0l73 465l-329 -465h-809l446 633l-190 469h761l160 -395l64 395h745l-63 -393l286 393h756l-344 -473l244 -629h-799l-182 465l-74 -465h-745z" />
    <glyph glyph-name="uni0437" unicode="&#x437;" horiz-adv-x="1894" 
d="M1860 348q4 -379 -859 -379h-135q-123 0 -229.5 9.5t-186.5 27t-147 40.5t-113 52t-82 59.5t-57 65t-34 65.5t-17.5 64.5t-4 60t4.5 52.5h715q-5 -23 -5.5 -45t9 -50.5t30 -49.5t64 -35.5t105.5 -14.5q198 0 198 86q0 40 -34 61t-117 21h-197l37 234h168q77 0 112 23.5
t35 60.5q0 33 -31 55.5t-102 22.5q-207 0 -242 -177h-714q10 74 39 137.5t95.5 127.5t164 109t255 73.5t359.5 28.5h137q391 0 587 -65t196 -210q0 -92 -90 -152.5t-226 -78.5q134 -21 223 -91t89 -188z" />
    <glyph glyph-name="uni0438" unicode="&#x438;" horiz-adv-x="2009" 
d="M-41 0l176 1102h746l-82 -516l504 516h745l-176 -1102h-746l82 516l-503 -516h-746z" />
    <glyph glyph-name="uni0439" unicode="&#x439;" horiz-adv-x="2009" 
d="M-41 0l176 1102h746l-82 -516l504 516h745l-176 -1102h-746l82 516l-503 -516h-746zM1034 1524q0 -14 4.5 -28t16 -31t38.5 -27.5t66 -10.5q68 0 102.5 32t34.5 65h400q0 -37 -13 -80.5t-49 -95t-89.5 -92.5t-144.5 -69t-204 -28h-98q-87 0 -158 14.5t-118.5 37.5
t-83.5 55.5t-55.5 64.5t-31.5 69.5t-15 66t-3 57.5h401z" />
    <glyph glyph-name="uni043A" unicode="&#x43a;" horiz-adv-x="1851" 
d="M983 0l-201 469l-75 -469h-746l176 1102h746l-64 -397l307 397h783l-383 -459l276 -643h-819z" />
    <glyph glyph-name="uni043B" unicode="&#x43b;" horiz-adv-x="1949" 
d="M1067 0l113 702h-277q-51 -267 -89.5 -378t-108.5 -181q-77 -79 -180 -111t-259 -32h-344l70 438h24q103 0 154 70q31 44 60 163t81 431h1678l-177 -1102h-745z" />
    <glyph glyph-name="uni043C" unicode="&#x43c;" horiz-adv-x="2564" 
d="M1001 0l-229 530l-84 -530h-727l176 1102h973l190 -477l357 477h946l-176 -1102h-752l84 532l-399 -532h-359z" />
    <glyph glyph-name="uni043D" unicode="&#x43d;" horiz-adv-x="1988" 
d="M705 0h-746l176 1102h746l-58 -357h402l57 357h746l-177 -1102h-745l55 346h-401z" />
    <glyph glyph-name="uni043E" unicode="&#x43e;" horiz-adv-x="1994" 
d="M1018 -31h-162q-152 0 -277 19t-210.5 49.5t-151 74.5t-103 89.5t-61 99.5t-31.5 98.5t-8 92.5q0 34 9 108q7 48 18 88.5t39.5 98t69.5 102t114 92.5t167.5 79.5t234 52t309.5 20.5h168q151 0 275.5 -17.5t209.5 -46.5t150 -70.5t102.5 -85t60.5 -95.5t31 -95.5t8 -91.5
q0 -52 -8 -117q-5 -39 -11.5 -70t-22 -76t-37.5 -81.5t-60 -79t-86.5 -75t-120.5 -64.5t-159 -53t-203.5 -33.5t-253.5 -12.5zM1018 788q-64 0 -112.5 -20t-75.5 -49t-44 -68.5t-22.5 -71.5t-5.5 -65q0 -37 10 -70t33 -63.5t66.5 -48t103.5 -17.5h4q65 0 114.5 22t77.5 54
t45.5 73.5t23 75t5.5 64.5q0 35 -10 65.5t-33.5 58.5t-68.5 44t-107 16h-4z" />
    <glyph glyph-name="uni043F" unicode="&#x43f;" horiz-adv-x="1968" 
d="M-41 0l176 1102h1872l-176 -1102h-746l113 702h-381l-112 -702h-746z" />
    <glyph glyph-name="uni0440" unicode="&#x440;" horiz-adv-x="1957" 
d="M133 1102h727l-22 -146q18 15 39.5 29.5t69 38.5t99 41.5t128.5 31t159 13.5h43q131 0 233 -27t164 -69.5t101.5 -103t54.5 -120.5t15 -128t-13 -154q-9 -54 -23 -103t-40.5 -102t-62 -97t-89.5 -84.5t-120 -68.5t-156.5 -44.5t-196.5 -16.5h-45q-98 0 -189.5 15
t-153 36.5t-98 38.5t-52.5 29l-80 -496h-727zM1012 768q-98 0 -158.5 -55.5t-75.5 -137.5q-6 -30 -6 -61q0 -76 43.5 -130t136.5 -54h13q60 0 106 25t71 65.5t37.5 85.5t12.5 92q0 72 -40 121t-128 49h-12z" />
    <glyph glyph-name="uni0441" unicode="&#x441;" horiz-adv-x="1912" 
d="M1888 506q-7 -49 -15 -82t-33.5 -94t-62 -104.5t-106 -95.5t-159.5 -84t-228 -54.5t-307 -22.5h-139q-824 0 -824 496q0 58 13 141q9 59 26 110t50 106t79.5 99t118 84.5t162 68t216 43.5t275.5 16h144q132 0 243 -12.5t191 -33.5t143.5 -51.5t104 -63.5t68.5 -73
t41.5 -76t18.5 -76t3.5 -70t-6.5 -61h-738q0 18 -1.5 33t-10.5 43.5t-25.5 48t-51 35t-81.5 15.5h-12q-53 0 -94.5 -19t-65.5 -48.5t-39 -70.5t-20.5 -79t-5.5 -80q0 -177 168 -177h12q55 0 96.5 21.5t64.5 55t34 60.5t16 52h737z" />
    <glyph glyph-name="uni0442" unicode="&#x442;" horiz-adv-x="1646" 
d="M365 0l112 702h-430l64 400h1605l-63 -400h-430l-113 -702h-745z" />
    <glyph glyph-name="uni0443" unicode="&#x443;" horiz-adv-x="1806" 
d="M1343 4q-113 -213 -226 -301t-261 -88h-754l58 362h229q57 0 57 46q0 26 -22 88l-365 991h758l123 -623l256 623h727z" />
    <glyph glyph-name="uni0444" unicode="&#x444;" horiz-adv-x="2770" 
d="M1761 -31h-98l-55 -354h-746l56 354h-91q-145 0 -264 18t-202 48t-146 73t-100.5 89t-61 101t-31.5 104t-8 102q0 39 2 59q36 570 994 570h94l61 391h746l-62 -391h95q145 0 264 -18t202 -47.5t146 -72.5t100.5 -88.5t61 -101t31.5 -104t8 -101.5q0 -39 -2 -59
q-37 -572 -994 -572zM940 315h33l76 473h-33q-63 0 -112.5 -20.5t-79 -55.5t-46 -73t-22.5 -80q-4 -27 -4 -63q0 -75 51 -128t137 -53zM1831 788h-37l-76 -473h37q63 0 112.5 21t79 55.5t46 73t22.5 80.5q4 27 4 63q0 79 -45 129.5t-143 50.5z" />
    <glyph glyph-name="uni0445" unicode="&#x445;" horiz-adv-x="1898" 
d="M1059 0l-146 332l-223 -332h-799l457 588l-289 514h772l140 -293l198 293h805l-426 -518l291 -584h-780z" />
    <glyph glyph-name="uni0446" unicode="&#x446;" horiz-adv-x="2131" 
d="M2101 399l-108 -686h-656l45 287h-1421l176 1102h746l-113 -703h381l113 703h745l-113 -703h205z" />
    <glyph glyph-name="uni0447" unicode="&#x447;" horiz-adv-x="1961" 
d="M1255 1102h746l-176 -1102h-746l54 332q-168 -33 -328 -33q-433 0 -607 140t-126 438l37 225h745l-37 -228q-16 -102 34.5 -137t174.5 -35q104 0 168 23z" />
    <glyph glyph-name="uni0448" unicode="&#x448;" horiz-adv-x="2768" 
d="M-39 0l176 1102h746l-113 -703h217l113 703h745l-112 -703h217l112 703h746l-176 -1102h-2671z" />
    <glyph glyph-name="uni0449" unicode="&#x449;" horiz-adv-x="2928" 
d="M-39 0l176 1102h746l-113 -703h217l113 703h745l-112 -703h217l112 703h746l-113 -703h203l-111 -686h-655l47 287h-2218z" />
    <glyph glyph-name="uni044A" unicode="&#x44a;" horiz-adv-x="2295" 
d="M31 702l61 400h1151l-41 -254h424q150 0 264 -20.5t185 -55t115.5 -86t61.5 -107t17 -124.5t-22 -131t-77.5 -122.5t-141 -104t-223.5 -70.5t-314 -27h-1169l112 702h-403zM1118 322h254q81 0 117.5 31.5t36.5 76.5q0 96 -123 96h-252z" />
    <glyph glyph-name="uni044B" unicode="&#x44b;" horiz-adv-x="2740" 
d="M2779 1102l-174 -1102h-727l174 1102h727zM1909 455q0 -69 -22 -131t-78 -122.5t-141.5 -104t-223.5 -70.5t-314 -27h-1169l176 1102h746l-41 -254h424q150 0 264 -20.5t185 -55t115.5 -86t61.5 -107t17 -124.5zM758 322h254q80 0 116.5 31.5t36.5 76.5q0 96 -123 96
h-251z" />
    <glyph glyph-name="uni044C" unicode="&#x44c;" horiz-adv-x="1935" 
d="M1909 455q0 -69 -22 -131t-78 -122.5t-141.5 -104t-223.5 -70.5t-314 -27h-1169l176 1102h746l-41 -254h424q150 0 264 -20.5t185 -55t115.5 -86t61.5 -107t17 -124.5zM758 322h254q80 0 116.5 31.5t36.5 76.5q0 96 -123 96h-251z" />
    <glyph glyph-name="uni044D" unicode="&#x44d;" horiz-adv-x="1953" 
d="M1929 526q-9 -51 -22 -95t-44.5 -103t-75 -106.5t-117.5 -96t-167.5 -81.5t-229.5 -54t-300 -21h-127q-221 0 -386.5 36.5t-254 90t-140 124.5t-63 130t-2.5 115h756q-7 -46 7 -89t57.5 -74.5t109.5 -31.5h10q167 0 231 166h-362l37 236h360q-5 71 -46 116.5t-130 45.5
h-10q-98 0 -155.5 -52.5t-78.5 -124.5h-755q9 68 43 132.5t106.5 128t175.5 110.5t261.5 76t353.5 29h112q150 0 274.5 -17t211.5 -45t154 -68.5t107 -83.5t65.5 -93.5t34.5 -95t9 -91.5q0 -54 -10 -113z" />
    <glyph glyph-name="uni044E" unicode="&#x44e;" horiz-adv-x="2832" 
d="M2806 528q-8 -49 -22 -94t-46 -103t-78 -107t-121.5 -97.5t-171 -82t-233 -54.5t-301.5 -21h-125q-161 0 -290 22t-212.5 57.5t-143.5 86.5t-89.5 101.5t-44.5 109.5h-166l-55 -346h-746l176 1102h746l-58 -357h164q202 388 901 388h131q141 0 257.5 -16.5t197.5 -43.5
t143 -66.5t99 -81t60 -91t31.5 -93t8.5 -90.5q0 -52 -12 -123zM1896 788q-107 0 -172 -82t-65 -200q0 -82 44 -136.5t126 -54.5h6q117 0 178.5 85t61.5 208q0 74 -39.5 127t-132.5 53h-7z" />
    <glyph glyph-name="uni044F" unicode="&#x44f;" horiz-adv-x="1961" 
d="M1126 295h-120l-338 -295h-777l424 369q-131 46 -195.5 126t-64.5 185v2q4 420 717 420h1229l-176 -1102h-746zM913 596h261l26 164h-260q-141 0 -141 -88q0 -76 114 -76z" />
    <glyph glyph-name="uni0451" unicode="&#x451;" horiz-adv-x="1906" 
d="M1038 1133q137 0 252 -12.5t199 -34.5t150.5 -54t110 -67.5t74 -80t45 -86t20.5 -90.5t4 -89.5t-9 -86.5l-6 -43h-1157q-2 -25 1.5 -48.5t17 -48t35.5 -42.5t61 -29.5t90 -11.5q63 0 109.5 13.5t69 35t31.5 36t13 28.5h719q-6 -41 -15 -74t-35 -82.5t-64 -87t-107 -79
t-159.5 -68.5t-225.5 -44.5t-301 -17.5h-91q-156 0 -283 18t-214.5 47.5t-153 73t-103.5 88t-61.5 99.5t-31 101.5t-7.5 99.5q0 44 7 102q7 51 18 93.5t39 100t68.5 102t111.5 91.5t163 78t227 50.5t300 19.5h88zM1047 1524l-56 -344h-565l55 344h566zM1690 1524l-56 -344
h-565l55 344h566zM987 834q-112 -1 -162.5 -34.5t-66.5 -88.5h430q-3 58 -46.5 90.5t-154.5 32.5z" />
    <glyph glyph-name="uni0452" unicode="&#x452;" horiz-adv-x="2011" 
d="M1862 -68q-12 -73 -36.5 -129.5t-55 -91.5t-69.5 -57t-77.5 -30.5t-81.5 -8.5h-600l55 344h56q43 0 58 13.5t22 60.5l71 461q32 211 -178 211q-109 0 -169 -59.5t-75 -149.5l-77 -496h-746l186 1176h-108l41 254h108l15 94h745l-14 -94h489l-41 -254h-489l-45 -281
q27 23 53.5 43t91 57.5t131 63.5t166.5 46.5t205 20.5h10q97 0 174.5 -15.5t129.5 -41t88.5 -62.5t55.5 -77t27.5 -87t7.5 -89t-8 -88z" />
    <glyph glyph-name="uni0453" unicode="&#x453;" horiz-adv-x="1388" 
d="M-41 0l176 1102h1319l-63 -400h-574l-112 -702h-746zM1118 1165h-616l207 359h682z" />
    <glyph glyph-name="uni0454" unicode="&#x454;" horiz-adv-x="1961" 
d="M1923 465q-7 -42 -20 -80.5t-43.5 -90.5t-73.5 -95t-117 -87t-168 -74.5t-231 -49.5t-301 -19h-144q-136 0 -250.5 16.5t-196 44t-146 66.5t-104 81.5t-65.5 91t-36.5 93t-10.5 89.5q-3 67 7 118q11 61 28 113t51.5 111t82.5 106.5t124 92.5t172 75t230.5 48t296.5 18h82
q137 0 253.5 -12t201 -32t152 -48.5t111.5 -59.5t75.5 -67.5t47 -70t22.5 -69.5t6.5 -63.5t-5.5 -53.5h-756q3 26 -3 54.5t-22 57t-52 47t-87 18.5h-10q-178 0 -244 -162h363l-37 -236h-361q14 -166 189 -166h10q97 0 154 57.5t69 137.5h756z" />
    <glyph glyph-name="uni0455" unicode="&#x455;" horiz-adv-x="1753" 
d="M-31 377h731q0 -43 27.5 -75t91.5 -32h4q62 0 90.5 21t28.5 53q0 35 -27 53.5t-102 22.5l-276 16q-482 32 -482 344q0 50 15 97q30 90 110 144.5t245.5 83t434.5 28.5h156q156 0 276 -12.5t199 -36.5t131.5 -54t78.5 -71.5t34 -82.5t4 -92h-711q-1 16 -4.5 26.5t-14 25.5
t-36.5 22.5t-66 7.5h-4q-40 0 -66.5 -5.5t-38 -15.5t-15 -19t-3.5 -21q0 -26 26 -41t97 -21l273 -14q204 -12 324 -52.5t167 -103t47 -159.5q0 -56 -8 -103q-8 -45 -21 -80t-40.5 -72t-67.5 -64t-103.5 -52t-147.5 -40.5t-201 -24.5t-263 -9h-162q-195 0 -338 28t-219 69.5
t-119 100t-52 107.5t-3 103z" />
    <glyph glyph-name="uni0456" unicode="&#x456;" horiz-adv-x="821" 
d="M928 1524l-58 -359h-727l58 359h727zM860 1102l-174 -1102h-727l174 1102h727z" />
    <glyph glyph-name="uni0457" unicode="&#x457;" horiz-adv-x="821" 
d="M539 1524l-58 -359h-368l57 359h369zM967 1524l-58 -359h-370l57 359h371zM860 1102l-174 -1102h-727l174 1102h727z" />
    <glyph glyph-name="uni0458" unicode="&#x458;" horiz-adv-x="823" 
d="M930 1524l-58 -359h-727l58 359h727zM-164 -41h58q39 0 51.5 13.5t17.5 45.5l172 1084h727l-186 -1182q-50 -305 -293 -305h-602z" />
    <glyph glyph-name="uni0459" unicode="&#x459;" horiz-adv-x="2979" 
d="M721 152q-41 -51 -88 -82.5t-107 -46t-116 -19t-144 -4.5h-344l70 438h24q108 0 160 74q26 36 54.5 157t80.5 433h1657l-41 -254h383q149 0 263 -21t185 -56t115.5 -87t62 -108t17.5 -125q0 -71 -21.5 -133t-77 -121.5t-141.5 -102t-223.5 -68.5t-314.5 -26h-1128
l112 702h-248q-53 -254 -93 -368t-97 -182zM1843 322h195q91 0 131.5 30t40.5 74q0 100 -148 100h-186z" />
    <glyph glyph-name="uni045A" unicode="&#x45a;" horiz-adv-x="2998" 
d="M778 449l-71 -449h-746l176 1102h746l-45 -275h360l45 275h746l-45 -275h383q153 0 268 -20.5t186 -54.5t114.5 -85t60 -105.5t16.5 -121.5t-24 -128.5t-81.5 -119t-144.5 -99.5t-222 -67.5t-305 -25.5h-1128l72 449h-361zM1864 322h219q74 0 109.5 27.5t35.5 68.5
q0 88 -114 88h-220z" />
    <glyph glyph-name="uni045B" unicode="&#x45b;" horiz-adv-x="1947" 
d="M764 492l-78 -492h-727l186 1176h-98l41 254h98l15 94h727l-15 -94h492l-39 -254h-494l-45 -285q19 19 46.5 41.5t86.5 59t124.5 64.5t161 49t194.5 21h12q78 0 144.5 -12t114 -33t86 -50t61.5 -62t40.5 -68.5t22 -71.5t7 -70t-4.5 -63l-111 -696h-727l78 494
q15 94 -26 152.5t-148 58.5q-101 0 -155.5 -58.5t-69.5 -154.5z" />
    <glyph glyph-name="uni045C" unicode="&#x45c;" horiz-adv-x="1851" 
d="M1323 1165h-616l206 359h682zM983 0l-201 469l-75 -469h-746l176 1102h746l-64 -397l307 397h783l-383 -459l276 -643h-819z" />
    <glyph glyph-name="uni045E" unicode="&#x45e;" horiz-adv-x="1806" 
d="M1343 4q-113 -213 -226 -301t-261 -88h-754l58 362h229q57 0 57 46q0 26 -22 88l-365 991h758l123 -623l256 623h727zM924 1524q0 -14 4.5 -28t16 -31t38.5 -27.5t66 -10.5q68 0 102.5 32t34.5 65h399q0 -37 -13 -80.5t-49 -95t-89.5 -92.5t-144.5 -69t-204 -28h-98
q-87 0 -158 14.5t-118.5 37.5t-83.5 55.5t-55.5 64.5t-31.5 69.5t-15 66t-3 57.5h402z" />
    <glyph glyph-name="uni045F" unicode="&#x45f;" horiz-adv-x="1968" 
d="M1831 0h-608l-45 -287h-656l45 287h-608l176 1102h746l-113 -703h381l113 703h745z" />
    <glyph glyph-name="uni0490" unicode="&#x490;" horiz-adv-x="1839" 
d="M-33 0l242 1524h1044l47 286h717l-123 -761h-995l-166 -1049h-766z" />
    <glyph glyph-name="uni0491" unicode="&#x491;" horiz-adv-x="1388" 
d="M-41 0l176 1102h664l47 287h655l-110 -687h-574l-112 -702h-746z" />
    <glyph glyph-name="uni0492" unicode="&#x492;" horiz-adv-x="1927" 
d="M55 0l86 547h-149l57 358h150l98 619h1761l-76 -475h-995l-22 -144h483l-57 -358h-484l-86 -547h-766z" />
    <glyph glyph-name="uni0493" unicode="&#x493;" horiz-adv-x="1464" 
d="M35 0l53 340h-115l43 258h113l82 504h1319l-64 -400h-573l-16 -104h323l-43 -258h-323l-54 -340h-745z" />
    <glyph glyph-name="uni0496" unicode="&#x496;" horiz-adv-x="3903" 
d="M1446 0l94 592l-639 -592h-1028l993 846l-733 678h944l527 -529l84 529h778l-84 -529l694 529h946l-956 -684l311 -365h483l-118 -762h-717l45 287h-301l-451 592l-94 -592h-778z" />
    <glyph glyph-name="uni0497" unicode="&#x497;" horiz-adv-x="2818" 
d="M918 0l73 465l-329 -465h-809l446 633l-190 469h761l160 -395l64 395h745l-63 -393l286 393h756l-344 -473l88 -230h221l-110 -686h-656l47 287h-145l-182 465l-74 -465h-745z" />
    <glyph glyph-name="uni049A" unicode="&#x49a;" horiz-adv-x="2445" 
d="M1352 0l-529 608l-96 -608h-760l242 1524h760l-86 -539l747 539h924l-973 -707l311 -342h510l-118 -762h-717l45 287h-260z" />
    <glyph glyph-name="uni049B" unicode="&#x49b;" horiz-adv-x="1902" 
d="M983 0l-201 469l-75 -469h-746l176 1102h746l-64 -397l307 397h783l-383 -459l104 -244h238l-111 -686h-655l47 287h-166z" />
    <glyph glyph-name="uni04A2" unicode="&#x4a2;" horiz-adv-x="2617" 
d="M1503 0l86 543h-776l-86 -543h-760l242 1524h760l-80 -506h776l80 506h760l-166 -1049h248l-119 -762h-717l45 287h-293z" />
    <glyph glyph-name="uni04A3" unicode="&#x4a3;" horiz-adv-x="2150" 
d="M705 0h-746l176 1102h746l-58 -357h402l57 357h746l-113 -703h205l-111 -686h-655l47 287h-295l55 346h-401z" />
    <glyph glyph-name="uni04AE" unicode="&#x4ae;" horiz-adv-x="2369" 
d="M1565 530l-82 -530h-760l84 541l-692 983h843l310 -461l461 461h833z" />
    <glyph glyph-name="uni04AF" unicode="&#x4af;" horiz-adv-x="1910" 
d="M2023 1102l-772 -1100l-61 -387h-746l60 385l-449 1102h776l127 -524l283 524h782z" />
    <glyph glyph-name="uni04B0" unicode="&#x4b0;" horiz-adv-x="2369" 
d="M1976 219h-460l-33 -219h-760l33 219h-459l49 322h461l-692 983h843l310 -461l461 461h833l-987 -983h450z" />
    <glyph glyph-name="uni04B1" unicode="&#x4b1;" horiz-adv-x="1910" 
d="M2023 1102l-772 -1100v-2h369l-41 -254h-369l-20 -131h-746l21 131h-369l41 254h367l-449 1102h776l127 -524l283 524h782z" />
    <glyph glyph-name="uni04B2" unicode="&#x4b2;" horiz-adv-x="2480" 
d="M1481 0l-273 475l-405 -475h-924l701 805l-424 719h905l233 -453l371 453h875l-619 -719l180 -330h336l-119 -762h-716l45 287h-166z" />
    <glyph glyph-name="uni04B3" unicode="&#x4b3;" horiz-adv-x="1939" 
d="M1059 0l-146 332l-223 -332h-799l457 588l-289 514h772l140 -293l198 293h805l-426 -518l92 -185h265l-111 -686h-655l47 287h-127z" />
    <glyph glyph-name="uni04BA" unicode="&#x4ba;" horiz-adv-x="2357" 
d="M987 1524l-84 -535q214 33 486 33q188 0 329.5 -17.5t254 -57t183 -103.5t107.5 -157t37 -218q0 -75 -16 -176l-48 -293h-778l47 297q4 20 4 57q0 59 -23 97.5t-71 59t-108 28.5t-148 8q-209 0 -330 -23l-84 -524h-778l242 1524h778z" />
    <glyph glyph-name="uni04BB" unicode="&#x4bb;" horiz-adv-x="1947" 
d="M-41 0l242 1524h727l-101 -633q19 19 46.5 41.5t86.5 59t124.5 64.5t161 49t194.5 21h12q78 0 144.5 -12t114 -33t86 -50t61.5 -62t40.5 -68.5t22 -71.5t7 -70t-4.5 -63l-111 -696h-727l78 494q15 94 -26 152.5t-148 58.5q-101 0 -155.5 -58.5t-69.5 -154.5l-78 -492
h-727z" />
    <glyph glyph-name="uni04C0" unicode="&#x4c0;" horiz-adv-x="870" 
d="M969 1524l-242 -1524h-760l242 1524h760z" />
    <glyph glyph-name="uni04CF" unicode="&#x4cf;" horiz-adv-x="821" 
d="M928 1524l-242 -1524h-727l242 1524h727z" />
    <glyph glyph-name="uni04D8" unicode="&#x4d8;" horiz-adv-x="2484" 
d="M2486 692q-15 -89 -41.5 -164.5t-75 -150.5t-115 -135t-165 -112t-222.5 -86.5t-289.5 -54.5t-363.5 -20h-69q-162 0 -300.5 16.5t-244 46t-191.5 72.5t-145.5 93.5t-102.5 111.5t-66.5 124t-34 134t-8.5 138t14 139l10 63h1612q-13 89 -108 148t-277 59q-102 0 -183 -17
t-126 -42.5t-68.5 -46.5t-32.5 -39h-789q10 55 28 103.5t59 109.5t99.5 111t156.5 100.5t222.5 84.5t305 55t397.5 21h68q237 0 421.5 -35.5t304 -96t197.5 -146.5t110 -181.5t32 -207.5q0 -78 -19 -195zM1208 397q166 0 275.5 52t146.5 147h-780q10 -88 101.5 -143.5
t256.5 -55.5z" />
    <glyph glyph-name="uni04D9" unicode="&#x4d9;" horiz-adv-x="1908" 
d="M41 680q6 41 15 74t35 82.5t64 87t107 79t159.5 68.5t225.5 44.5t301 17.5h90q156 0 283 -18t214.5 -47.5t153 -73t103.5 -88t61.5 -99.5t31 -101.5t7.5 -99.5q0 -52 -6 -102q-7 -51 -18 -93.5t-39 -100t-69 -102t-112 -91.5t-163 -78t-227 -50.5t-300 -19.5h-88
q-137 0 -252 12.5t-199 34t-150.5 54t-110 68t-73.5 79.5t-45 86t-20.5 91t-3.5 89t9 86l6 43h1155q3 32 -4 61t-27 57.5t-64.5 45.5t-107.5 17t-109.5 -13.5t-69 -35t-31.5 -36t-13 -28.5h-719zM1149 391h-428q3 -58 46 -90.5t153 -32.5q114 0 164.5 33.5t64.5 89.5z" />
    <glyph glyph-name="uni04E8" unicode="&#x4e8;" horiz-adv-x="2453" 
d="M1139 -31q-189 0 -345 22t-267 60t-196 92.5t-137 114t-85 130.5t-45.5 137t-12.5 139q0 76 12 159q12 77 32 144t61.5 143.5t100 138t153 120.5t214 98t287.5 63t371 24h100q1092 0 1092 -682q0 -78 -14 -167q-14 -78 -33.5 -143t-61.5 -143t-99 -139.5t-150.5 -121.5
t-212.5 -100t-288.5 -64.5t-373.5 -24.5h-102zM1288 1094q-312 0 -430 -158h840q-90 158 -410 158zM1233 434q307 0 428 160h-832q43 -73 143 -116.5t261 -43.5z" />
    <glyph glyph-name="uni04E9" unicode="&#x4e9;" horiz-adv-x="1994" 
d="M1018 -31h-162q-152 0 -277 19t-210.5 49.5t-151 74.5t-103 89.5t-61 99.5t-31.5 98.5t-8 92.5q0 34 9 108q7 48 18 88.5t39.5 98t69.5 102t114 92.5t167.5 79.5t234 52t309.5 20.5h168q151 0 275.5 -17.5t209.5 -46.5t150 -70.5t102.5 -85t60.5 -95.5t31 -95.5t8 -91.5
q0 -52 -8 -117q-5 -39 -11.5 -70t-22 -76t-37.5 -81.5t-60 -79t-86.5 -75t-120.5 -64.5t-159 -53t-203.5 -33.5t-253.5 -12.5zM975 315q157 0 225 125h-432q37 -125 203 -125h4zM1018 788q-153 0 -221 -112h432q-42 112 -207 112h-4z" />
    <glyph glyph-name="Wgrave" unicode="&#x1e80;" horiz-adv-x="3483" 
d="M1927 0l-133 848l-324 -848h-1026l-323 1524h856l121 -895l358 895h905l105 -920l370 920h832l-723 -1524h-1018zM2230 1589h-635l-151 336h706z" />
    <glyph glyph-name="wgrave" unicode="&#x1e81;" horiz-adv-x="2715" 
d="M1438 0l-60 522l-188 -522h-899l-230 1102h756l49 -649l230 649h733l43 -649l235 649h723l-520 -1102h-872zM1647 1524l127 -359h-617l-194 359h684z" />
    <glyph glyph-name="Wacute" unicode="&#x1e82;" horiz-adv-x="3483" 
d="M1927 0l-133 848l-324 -848h-1026l-323 1524h856l121 -895l358 895h905l105 -920l370 920h832l-723 -1524h-1018zM2226 1589h-635l158 336h707z" />
    <glyph glyph-name="wacute" unicode="&#x1e83;" horiz-adv-x="2715" 
d="M1438 0l-60 522l-188 -522h-899l-230 1102h756l49 -649l230 649h733l43 -649l235 649h723l-520 -1102h-872zM1772 1165h-617l207 359h682z" />
    <glyph glyph-name="Wdieresis" unicode="&#x1e84;" horiz-adv-x="3483" 
d="M1927 0l-133 848l-324 -848h-1026l-323 1524h856l121 -895l358 895h905l105 -920l370 920h832l-723 -1524h-1018zM2583 1925l-54 -336h-581l53 336h582zM1921 1925l-51 -336h-580l51 336h580z" />
    <glyph glyph-name="wdieresis" unicode="&#x1e85;" horiz-adv-x="2715" 
d="M1438 0l-60 522l-188 -522h-899l-230 1102h756l49 -649l230 649h733l43 -649l235 649h723l-520 -1102h-872zM2122 1524l-58 -359h-561l58 359h561zM1483 1524l-58 -359h-561l58 359h561z" />
    <glyph glyph-name="Ygrave" unicode="&#x1ef2;" horiz-adv-x="2369" 
d="M1565 530l-82 -530h-760l84 541l-692 983h843l310 -461l461 461h833zM1663 1589h-635l-151 336h706z" />
    <glyph glyph-name="ygrave" unicode="&#x1ef3;" horiz-adv-x="1806" 
d="M1343 4q-113 -213 -226 -301t-261 -88h-754l58 362h229q57 0 57 46q0 26 -22 88l-365 991h758l123 -623l256 623h727zM1198 1524l127 -359h-616l-195 359h684z" />
    <glyph glyph-name="uni2009" unicode="&#x2009;" horiz-adv-x="10" 
 />
    <glyph glyph-name="endash" unicode="&#x2013;" horiz-adv-x="1933" 
d="M80 774h1847l-53 -334h-1847z" />
    <glyph glyph-name="emdash" unicode="&#x2014;" horiz-adv-x="3067" 
d="M80 774h2982l-53 -334h-2982z" />
    <glyph glyph-name="quoteleft" unicode="&#x2018;" horiz-adv-x="751" 
d="M344 1524h346q-40 -56 -79.5 -129t-53.5 -121h266l-61 -391h-666l49 309q12 79 75.5 175.5t123.5 156.5z" />
    <glyph glyph-name="quoteright" unicode="&#x2019;" horiz-adv-x="751" 
d="M614 883h-346q40 56 79.5 129t53.5 121h-266l62 391h665l-49 -310q-12 -79 -75 -174.5t-124 -156.5z" />
    <glyph glyph-name="quotesinglbase" unicode="&#x201a;" horiz-adv-x="751" 
d="M436 -250h-346q40 56 79.5 129t53.5 121h-266l61 391h666l-49 -309q-12 -79 -75.5 -175.5t-123.5 -156.5z" />
    <glyph glyph-name="quotedblleft" unicode="&#x201c;" horiz-adv-x="1476" 
d="M1069 1524h346q-40 -56 -79.5 -129t-53.5 -121h266l-61 -391h-666l49 309q12 79 75.5 175.5t123.5 156.5zM344 1524h346q-40 -56 -79.5 -129t-53.5 -121h266l-61 -391h-666l49 309q12 79 75.5 175.5t123.5 156.5z" />
    <glyph glyph-name="quotedblright" unicode="&#x201d;" horiz-adv-x="1476" 
d="M1339 883h-346q40 56 79.5 129t53.5 121h-266l62 391h665l-49 -310q-12 -79 -75 -174.5t-124 -156.5zM614 883h-346q40 56 79.5 129t53.5 121h-266l62 391h665l-49 -310q-12 -79 -75 -174.5t-124 -156.5z" />
    <glyph glyph-name="quotedblbase" unicode="&#x201e;" horiz-adv-x="1476" 
d="M1161 -250h-346q40 56 79.5 129t53.5 121h-266l61 391h666l-49 -309q-12 -79 -75.5 -175.5t-123.5 -156.5zM436 -250h-346q40 56 79.5 129t53.5 121h-266l61 391h666l-49 -309q-12 -79 -75.5 -175.5t-123.5 -156.5z" />
    <glyph glyph-name="dagger" unicode="&#x2020;" horiz-adv-x="1189" 
d="M174 0l125 791h-240l76 479h240l41 254h669l-41 -254h240l-76 -479h-239l-125 -791h-670z" />
    <glyph glyph-name="daggerdbl" unicode="&#x2021;" horiz-adv-x="1181" 
d="M213 252h-240l68 426h240l28 178h-239l67 426h240l39 242h659l-39 -242h240l-68 -426h-239l-29 -178h240l-68 -426h-238l-40 -252h-660z" />
    <glyph glyph-name="bullet" unicode="&#x2022;" horiz-adv-x="1081" 
d="M559 162q-227 0 -377.5 144t-150.5 368q0 225 150 368.5t378 143.5q148 0 268.5 -64t190 -181.5t69.5 -266.5q0 -224 -151 -368t-377 -144z" />
    <glyph glyph-name="ellipsis" unicode="&#x2026;" horiz-adv-x="2402" 
d="M1634 475h713l-74 -475h-714zM758 0l73 475h717l-75 -475h-715zM672 0h-715l74 475h714z" />
    <glyph glyph-name="perthousand" unicode="&#x2030;" horiz-adv-x="4487" 
d="M823 1538q144 0 255.5 -23t179.5 -60t111.5 -90t60 -107.5t16.5 -116.5q0 -27 -1.5 -49.5t-9 -60.5t-20 -70t-37.5 -71.5t-58.5 -70.5t-86.5 -62t-118.5 -51.5t-156.5 -33.5t-198 -13h-43q-144 0 -255.5 23t-179.5 60.5t-111.5 90.5t-60 107.5t-16.5 116.5q0 36 3 66
t17.5 82t40 93.5t77 88.5t121.5 78t180 52t247 21h43zM2281 1524h482l-1880 -1524h-482zM936 1124q0 50 -36 83.5t-112 33.5q-51 0 -88 -15t-56 -40.5t-27.5 -52t-8.5 -56.5q0 -50 33.5 -82t110.5 -32q95 0 139.5 49t44.5 112zM3834 864q145 0 256.5 -23t179.5 -60
t111.5 -90t60 -107t16.5 -117q0 -36 -3 -66.5t-17.5 -82.5t-40 -93.5t-77.5 -88.5t-122 -78.5t-180.5 -52.5t-247.5 -21h-41q-144 0 -255.5 23t-179.5 60.5t-111 91t-59.5 107.5t-16.5 117q0 36 2.5 66t17 82.5t40 93.5t77 88t121.5 78t180.5 52t247.5 21h41zM2449 864
q144 0 255.5 -23t180 -60.5t112.5 -90t60.5 -107t16.5 -116.5q0 -36 -3 -66.5t-17.5 -82.5t-40 -93.5t-77.5 -88.5t-122 -78.5t-180.5 -52.5t-247.5 -21h-41q-145 0 -256.5 23t-180 60.5t-112 91t-60 107.5t-16.5 117q0 36 3 66t17.5 82t40 93.5t77.5 88.5t122 78t180.5 52
t247.5 21h41zM3764 287q95 0 140 50t45 114q0 50 -36.5 83t-113.5 33q-50 0 -87 -15t-56.5 -40.5t-28 -52.5t-8.5 -56q0 -50 34 -83t111 -33zM2380 287q94 0 139 50t45 114q0 50 -36 83t-113 33q-51 0 -88 -15t-56.5 -40.5t-28 -52t-8.5 -56.5q0 -51 34 -83.5t112 -32.5z
" />
    <glyph glyph-name="uni2032" unicode="&#x2032;" horiz-adv-x="679" 
d="M838 1524l-232 -596h-553l232 596h553z" />
    <glyph glyph-name="uni2033" unicode="&#x2033;" horiz-adv-x="1300" 
d="M1229 928h-551l229 596h551zM834 1524l-230 -596h-551l230 596h551z" />
    <glyph glyph-name="guilsinglleft" unicode="&#x2039;" horiz-adv-x="745" 
d="M514 586l168 -367h-506l-162 367l285 358h498z" />
    <glyph glyph-name="guilsinglright" unicode="&#x203a;" horiz-adv-x="745" 
d="M739 586l-274 -367h-506l283 367l-168 358h497z" />
    <glyph glyph-name="fraction" unicode="&#x2044;" horiz-adv-x="2238" 
d="M1855 1524h472l-1895 -1524h-457z" />
    <glyph glyph-name="zero.sup" unicode="&#x2070;" horiz-adv-x="1378" 
d="M1458 1202q0 -42 -5 -78.5t-22 -85t-45 -87.5t-80 -78.5t-122 -66.5t-174.5 -44t-233.5 -17h-51q-614 0 -614 345q0 42 4.5 78.5t21.5 85t45 87t80 78.5t121.5 66.5t174 43.5t233.5 17h53q614 0 614 -344zM922 1188q0 48 -26.5 80t-92.5 32q-43 0 -75 -15.5t-48 -36.5
t-25.5 -49.5t-11.5 -47t-2 -37.5q0 -50 27 -83.5t92 -33.5q43 0 74.5 15.5t47.5 37t26 50.5t12 48.5t2 39.5z" />
    <glyph glyph-name="four.sup" unicode="&#x2074;" horiz-adv-x="1245" 
d="M117 1171l575 353h557l-55 -344h135l-39 -248h-135l-25 -162h-507l24 162h-569zM446 1180h240l27 157z" />
    <glyph glyph-name="five.sup" unicode="&#x2075;" horiz-adv-x="1251" 
d="M1311 1042q0 -297 -629 -297h-31q-81 0 -150 5t-121 14.5t-94.5 22t-71.5 28.5t-51.5 31.5t-35 34.5t-20.5 35t-10.5 34t-2.5 31t2 27h467q2 -7 8.5 -14t34.5 -16t72 -9q77 0 104 17t27 46q0 27 -24.5 40t-88.5 13q-105 0 -125 -34h-454l76 473h1128l-33 -209h-674
l-18 -115q115 70 354 70q90 0 156.5 -12.5t105 -33t61.5 -51.5t30.5 -61.5t7.5 -69.5z" />
    <glyph glyph-name="six.sup" unicode="&#x2076;" horiz-adv-x="1353" 
d="M621 1161q113 72 366 72h12q123 0 206.5 -14t128 -42.5t62 -63t17.5 -83.5q0 -30 -4.5 -54.5t-20.5 -55t-42.5 -54t-74.5 -47t-113 -39.5t-161 -25.5t-215 -9.5h-57q-143 0 -252 19t-177 50.5t-110.5 78.5t-58.5 97.5t-16 111.5q0 73 18 134.5t65.5 120t121.5 99.5
t194 65.5t276 24.5h43q156 0 270 -18t174.5 -45t95 -65.5t42 -70.5t4.5 -71h-481q-30 45 -125 45q-44 0 -78.5 -12t-54 -29t-32.5 -40t-17.5 -41.5t-5.5 -37.5zM907 1020q0 55 -135 55q-154 0 -154 -67q0 -56 136 -56q153 0 153 68z" />
    <glyph glyph-name="seven.sup" unicode="&#x2077;" horiz-adv-x="1243" 
d="M182 1524h1192l-33 -209q-5 -4 -33 -28t-50.5 -44t-57 -52.5t-63.5 -62.5q-70 -73 -98 -142t-48 -200l-2 -16h-598l17 121q10 70 62.5 117t193.5 122q196 104 227 129q19 15 20 25h-293l-22 -137h-473z" />
    <glyph glyph-name="eight.sup" unicode="&#x2078;" horiz-adv-x="1312" 
d="M819 1546q176 0 293.5 -13t181 -39.5t88.5 -60.5t25 -83q0 -77 -69.5 -121.5t-178.5 -57.5q91 -14 152 -56.5t61 -117.5q0 -31 -8.5 -56.5t-31 -55.5t-68.5 -52.5t-114.5 -42t-176.5 -30t-246 -10.5h-47q-147 0 -256.5 11.5t-176.5 31t-107.5 49t-55 61t-14.5 72.5
q0 84 76.5 132.5t201.5 63.5q-190 32 -190 162q0 36 11 63.5t48.5 57t102 48.5t179.5 31.5t273 12.5h47zM891 1307q0 49 -111 49q-125 0 -125 -56q0 -51 109 -51q127 0 127 58zM600 1026q0 -63 119 -63q139 0 139 65q0 62 -121 62q-137 0 -137 -64z" />
    <glyph glyph-name="nine.sup" unicode="&#x2079;" horiz-adv-x="1353" 
d="M920 1130q-102 -71 -351 -71h-12q-126 0 -212 16t-132.5 47t-66 70t-19.5 92q0 28 5 51.5t20.5 51.5t42 49.5t73.5 43t110 35.5t155.5 22.5t207.5 8.5h58q633 0 633 -368q0 -72 -17 -132t-63 -117.5t-119.5 -96.5t-192.5 -63t-276 -24h-45q-112 0 -203 9.5t-152 25
t-106.5 38t-71 45.5t-40 51.5t-18.5 52t-3 49.5h483q22 -45 123 -45q55 0 94 16.5t58 44t27 50.5t10 48zM635 1274q0 -16 7.5 -27t38.5 -20.5t87 -9.5q154 0 154 67q0 55 -134 55q-153 0 -153 -65z" />
    <glyph glyph-name="zero.sub" unicode="&#x2080;" horiz-adv-x="1378" 
d="M1305 225q0 -42 -5 -78.5t-22 -85t-45 -87t-80 -78.5t-122 -66.5t-174.5 -43.5t-233.5 -17h-52q-614 0 -614 344q0 42 4.5 78.5t21.5 85t45 87t80 78.5t121.5 66.5t174 43.5t233.5 17h53q615 0 615 -344zM768 211q0 48 -27 80.5t-92 32.5q-43 0 -75 -15.5t-48 -36.5
t-25.5 -50t-11.5 -47.5t-2 -37.5q0 -50 27 -83.5t92 -33.5q43 0 74.5 15.5t47.5 37t26 50.5t12 48.5t2 39.5z" />
    <glyph glyph-name="one.sub" unicode="&#x2081;" horiz-adv-x="813" 
d="M186 182h-221l37 234q80 4 137.5 16t91.5 32.5t51.5 38.5t32.5 44h451l-119 -754h-522z" />
    <glyph glyph-name="two.sub" unicode="&#x2082;" horiz-adv-x="1263" 
d="M1157 41l-39 -248h-1216l18 119q6 39 13 64.5t24 59t42 56.5t68.5 49t103.5 45t147 37t198 31t148.5 26t37.5 35t-19.5 34.5t-78.5 12.5q-121 0 -133 -69h-481q3 29 7.5 48t20 50.5t39 53.5t69 47t106 40.5t153.5 26t209 10.5h37q145 0 251 -13t167.5 -34t98 -54
t48.5 -66t12 -76q0 -114 -115.5 -167.5t-402.5 -66.5q-332 -15 -373 -51h840z" />
    <glyph glyph-name="three.sub" unicode="&#x2083;" horiz-adv-x="1282" 
d="M1192 53q0 -28 -3.5 -51t-18.5 -53.5t-41 -54t-74 -48t-114 -40.5t-166 -26.5t-224 -10.5h-68q-149 0 -258 19.5t-168 48.5t-91.5 70.5t-39 78t-0.5 77.5h473q0 -5 2.5 -11.5t10.5 -15.5t21.5 -15.5t38 -11.5t56.5 -5q58 0 91.5 7.5t43 18t9.5 25.5q0 19 -16 27t-54 8
h-188l30 193h179q73 0 73 36q0 20 -22.5 29.5t-91.5 9.5q-120 0 -136 -49h-469l3 13q4 23 7.5 38.5t18.5 44t37 48t65.5 43.5t100.5 38.5t145 24.5t197 10h80q148 0 255.5 -10.5t167.5 -27t94 -42t44 -49.5t10 -57q0 -68 -57.5 -105t-145.5 -45q86 -13 139.5 -56.5
t53.5 -123.5z" />
    <glyph glyph-name="four.sub" unicode="&#x2084;" horiz-adv-x="1245" 
d="M-35 195l576 352h557l-56 -344h136l-39 -248h-135l-25 -162h-508l25 162h-570zM295 203h240l26 157z" />
    <glyph glyph-name="five.sub" unicode="&#x2085;" horiz-adv-x="1251" 
d="M1157 66q0 -297 -629 -297h-30q-81 0 -150 5t-121 14.5t-94.5 21.5t-71.5 28t-51.5 32t-35 34.5t-20.5 34.5t-10.5 34t-2.5 31t2 27h467q10 -39 114 -39q77 0 104 17t27 46q0 27 -24 40.5t-88 13.5q-104 0 -125 -35h-455l76 473h1128l-32 -209h-674l-19 -115
q115 70 355 70q90 0 156.5 -12.5t105 -32.5t61 -51t30 -61.5t7.5 -69.5z" />
    <glyph glyph-name="six.sub" unicode="&#x2086;" horiz-adv-x="1353" 
d="M467 184q113 72 367 72h12q123 0 206.5 -14t128 -42.5t62 -63t17.5 -83.5q0 -30 -4.5 -54.5t-20.5 -54.5t-42.5 -53.5t-74.5 -47.5t-113 -39.5t-161 -25t-215 -9.5h-58q-143 0 -252 19t-177 50.5t-110.5 78t-58.5 97t-16 111.5q0 60 13 112.5t42.5 104t81.5 91.5
t124.5 71.5t178 48t236.5 16.5h43q156 0 270 -18t174.5 -45t95 -65.5t42 -70.5t4.5 -71h-482q-30 45 -125 45q-44 0 -78.5 -12t-54 -29t-32.5 -40t-17.5 -41.5t-5.5 -37.5zM754 43q0 55 -136 55q-153 0 -153 -67q0 -56 135 -56q154 0 154 68z" />
    <glyph glyph-name="seven.sub" unicode="&#x2087;" horiz-adv-x="1243" 
d="M29 547h1192l-33 -209q-1 -1 -44 -37t-83 -73t-78 -76q-69 -72 -97 -141t-48 -201l-2 -17h-598l16 121q10 70 62.5 118t193.5 122q195 103 224 125q23 17 24 28h-293l-23 -137h-473z" />
    <glyph glyph-name="eight.sub" unicode="&#x2088;" horiz-adv-x="1312" 
d="M670 569q176 0 293 -13t180.5 -39.5t88.5 -60.5t25 -83q0 -77 -69 -121t-178 -57q91 -14 152 -57t61 -118q0 -31 -8.5 -56.5t-31 -55.5t-68.5 -52.5t-114.5 -42t-176.5 -30t-246 -10.5h-48q-147 0 -256.5 11.5t-176.5 31t-107.5 49t-55 61t-14.5 72.5q0 84 77 133t202 64
q-191 33 -191 161q0 36 11 63.5t48.5 57t102 48.5t180 31.5t273.5 12.5h47zM741 330q0 24 -24 36.5t-86 12.5q-71 0 -98 -14.5t-27 -40.5q0 -52 108 -52q127 0 127 58zM451 49q0 -63 118 -63q140 0 140 65q0 62 -121 62q-137 0 -137 -64z" />
    <glyph glyph-name="nine.sub" unicode="&#x2089;" horiz-adv-x="1353" 
d="M766 154q-104 -72 -350 -72h-13q-126 0 -212 16t-132.5 47t-66 70t-19.5 92q0 33 8 60.5t29 59t64.5 55.5t108.5 44.5t168.5 31.5t236.5 11h57q633 0 633 -368q0 -72 -17 -132t-63 -117t-119.5 -96t-192.5 -63t-276 -24h-45q-112 0 -203 9.5t-152 25t-106.5 38t-71 45.5
t-40 51t-18.5 51.5t-3 49.5h484q23 -45 123 -45q44 0 78.5 12t54 29t32.5 40t17.5 41.5t5.5 37.5zM481 297q0 -16 7.5 -27t38.5 -20.5t87 -9.5q154 0 154 67q0 15 -7.5 26t-39 20t-86.5 9q-154 0 -154 -65z" />
    <glyph glyph-name="Euro" unicode="&#x20ac;" horiz-adv-x="2435" 
d="M2429 645q-8 -64 -22.5 -120t-49.5 -127t-85.5 -129t-136.5 -115.5t-196 -96.5t-269.5 -63.5t-352.5 -24.5h-70q-969 0 -1046 586h-185l27 182h154l8 74h-150l29 176h158q20 62 47.5 116t74 113t106.5 107t148 92t194.5 74t249.5 47.5t310 17.5h70q173 0 319 -18
t248.5 -50t185.5 -75.5t131.5 -93.5t85 -105t46.5 -109.5t16.5 -107t-6.5 -98.5h-770q-1 14 -5 29.5t-15 41t-35 47t-59.5 41.5t-94.5 32t-133 12q-238 0 -336 -113h532l-28 -176h-578v-6q-4 -18 -8 -68h575l-28 -182h-512q73 -127 305 -127q89 0 159 20t108 45t65 60.5
t34.5 54t12.5 37.5h772z" />
    <glyph glyph-name="uni20B4" unicode="&#x20b4;" horiz-adv-x="2619" 
d="M2664 1006l-28 -181h-2579l29 181h1481q55 36 55 98q0 100 -207 100q-222 0 -252 -123h-893l2 11q12 59 33 107.5t60.5 96.5t95.5 85.5t139 70t189.5 53.5t248.5 33t314 12h260q200 0 352 -17.5t255.5 -50t169 -82.5t94 -111.5t28.5 -139.5q0 -63 -37 -143h190zM2433 479
q-8 -39 -18 -69.5t-30.5 -73t-47 -76.5t-71.5 -73.5t-100.5 -69.5t-136.5 -59t-178 -47.5t-226 -30t-279 -11.5h-269q-225 0 -395 23t-276.5 61.5t-173 97.5t-92 123.5t-25.5 145.5q0 83 43 153h-140l29 181h2579l-29 -181h-1491q-31 -20 -46.5 -51t-15.5 -61
q0 -127 213 -127q239 0 269 164h911z" />
    <glyph glyph-name="uni20B8" unicode="&#x20b8;" horiz-adv-x="2162" 
d="M158 1346l28 178h2093l-28 -178h-2093zM63 750l84 524h2094l-84 -524h-658l-119 -750h-778l119 750h-658z" />
    <glyph glyph-name="uni20BD" unicode="&#x20bd;" horiz-adv-x="2447" 
d="M2499 1049q0 -75 -10 -140.5t-35 -131t-64 -118.5t-100 -99t-140 -77t-187 -49t-239 -18h-780l-12 -72h860l-29 -182h-860l-24 -162h-760l26 162h-176l29 182h176l10 72h-174l29 178h174l147 930h1446q158 0 279 -24.5t198.5 -66.5t126.5 -103.5t69 -129.5t20 -151z
M1010 827h528q82 0 124 38.5t42 101.5q0 53 -35 81.5t-102 28.5h-516z" />
    <glyph glyph-name="uni2116" unicode="&#x2116;" horiz-adv-x="3870" 
d="M3226 1538h43q144 0 255.5 -23t179.5 -60t111 -90t59.5 -107t16.5 -117q0 -27 -1.5 -49.5t-9 -60.5t-20 -70t-37.5 -71.5t-58.5 -70.5t-86.5 -62t-118.5 -51.5t-156.5 -33.5t-198 -13h-43q-144 0 -255.5 23t-179.5 60.5t-111 90.5t-59.5 107t-16.5 117q0 36 3 66t17.5 82
t40 93.5t77 88.5t121.5 78t180 52t247 21zM3381 1124q0 50 -35.5 83.5t-111.5 33.5q-51 0 -88 -15t-56 -40.5t-27.5 -52t-8.5 -56.5q0 -114 143 -114q95 0 139.5 49t44.5 112zM2419 233l55 359h1327l-55 -359h-1327zM209 1524h842l591 -693l109 693h760l-242 -1524h-762
l-659 762l-121 -762h-760z" />
    <glyph glyph-name="trademark" unicode="&#x2122;" horiz-adv-x="2246" 
d="M131 1247l43 277h881l-43 -277h-213l-74 -456h-455l74 456h-213zM989 791l117 733h557l25 -310l114 310h553l-117 -733h-389l60 376l-170 -376h-248l-55 376l-60 -376h-387z" />
    <glyph glyph-name="onethird" unicode="&#x2153;" horiz-adv-x="2535" 
d="M340 1159h-221l37 234q80 4 137.5 16t91.5 32.5t51.5 38.5t32.5 44h451l-119 -754h-522zM1815 1524h471l-1895 -1524h-457zM2478 260q0 -28 -3.5 -51t-18.5 -54t-41 -54.5t-74 -48t-114 -40.5t-166 -26.5t-224 -10.5h-68q-149 0 -258 19.5t-168 49t-91.5 71t-39 78
t-0.5 77.5h474q0 -5 2.5 -11.5t10.5 -15.5t21.5 -15.5t38 -11.5t56.5 -5q58 0 91 7.5t42.5 18t9.5 25.5q0 19 -16 27t-54 8h-188l31 192h178q73 0 73 37q0 20 -22.5 29.5t-91.5 9.5q-119 0 -135 -49h-469l2 12q4 23 7.5 38.5t18.5 44t37 48.5t65.5 43.5t100.5 38.5t145 25
t197 10h80q148 0 255.5 -10.5t167.5 -27t94 -42t44 -49.5t10 -57q0 -68 -57 -105t-145 -45q86 -13 139 -56.5t53 -123.5z" />
    <glyph glyph-name="twothirds" unicode="&#x2154;" horiz-adv-x="2971" 
d="M2253 1524h471l-1895 -1524h-456zM2914 260q0 -28 -3.5 -51t-18.5 -54t-41 -54.5t-74 -48t-114 -40.5t-166 -26.5t-224 -10.5h-67q-149 0 -258 19.5t-168 49t-91.5 71t-39 78t-0.5 77.5h473q0 -5 2.5 -11.5t10.5 -15.5t21.5 -15.5t38 -11.5t56.5 -5q58 0 91 7.5t42.5 18
t9.5 25.5q0 19 -16 27t-54 8h-188l31 192h178q74 0 74 37q0 20 -23 29.5t-92 9.5q-119 0 -135 -49h-469l2 12q4 23 7.5 38.5t18.5 44t37 48.5t65.5 43.5t100.5 38.5t145 25t197 10h80q148 0 255.5 -10.5t167.5 -27t94.5 -42t44.5 -49.5t10 -57q0 -68 -57.5 -105t-145.5 -45
q86 -13 139 -56.5t53 -123.5zM1311 1018l-39 -248h-1217l19 119q6 39 13 64.5t24 59t42 56.5t68.5 49t103.5 45t147 37t198 31t148.5 26t37.5 35t-19.5 34.5t-78.5 12.5q-121 0 -133 -69h-482q3 28 7.5 47.5t20 51t39.5 53.5t69.5 47t106 40.5t153.5 26t209 10.5h36
q145 0 251 -13t168 -34t98.5 -54t48.5 -66t12 -76q0 -114 -115.5 -167.5t-402.5 -66.5q-332 -15 -373 -51h840z" />
    <glyph glyph-name="oneeighth" unicode="&#x215b;" horiz-adv-x="2574" 
d="M340 1159h-221l37 234q80 4 137.5 16t91.5 32.5t51.5 38.5t32.5 44h451l-119 -754h-522zM1815 1524h471l-1895 -1524h-457zM1862 193q-119 0 -119 63t137 63q121 0 121 -61q0 -65 -139 -65zM1923 586q111 0 111 -49q0 -58 -127 -58q-109 0 -109 51q0 56 125 56zM2550 580
q0 49 -25 83t-88.5 60.5t-181 39.5t-293.5 13h-47q-158 0 -273.5 -12.5t-180 -31.5t-102 -48.5t-48.5 -57t-11 -63.5q0 -129 191 -162q-125 -15 -202 -63.5t-77 -132.5q0 -41 15 -72.5t55.5 -61t107.5 -49t176.5 -31t256.5 -11.5h47q138 0 246 10.5t176.5 30t114.5 42
t68.5 52.5t31 55.5t8.5 56.5q0 75 -61 117.5t-152 56.5q109 13 178.5 57.5t69.5 121.5z" />
    <glyph glyph-name="threeeighths" unicode="&#x215c;" horiz-adv-x="2963" 
d="M2206 1524h471l-1895 -1524h-456zM2251 193q-119 0 -119 63t137 63q121 0 121 -61q0 -65 -139 -65zM2312 586q111 0 111 -49q0 -58 -127 -58q-109 0 -109 51q0 56 125 56zM2939 580q0 49 -25 83t-88.5 60.5t-181 39.5t-293.5 13h-47q-158 0 -273 -12.5t-179.5 -31.5
t-102 -48.5t-48.5 -57t-11 -63.5q0 -130 190 -162q-125 -15 -201.5 -63.5t-76.5 -132.5q0 -41 14.5 -72.5t55 -61t107.5 -49t176.5 -31t256.5 -11.5h47q138 0 246 10.5t176.5 30t114.5 42t68.5 52.5t31 55.5t8.5 56.5q0 75 -61 117.5t-152 56.5q109 13 178.5 57.5
t69.5 121.5zM1346 1032q0 -28 -3.5 -51t-18.5 -53.5t-41 -54t-74 -48t-114 -40.5t-166 -26.5t-224 -10.5h-68q-149 0 -258 19.5t-168 48.5t-91.5 70.5t-39 78t-0.5 77.5h473q0 -5 2.5 -11.5t10.5 -15.5t21.5 -15.5t38 -11.5t56.5 -5q58 0 91 7.5t42.5 18t9.5 25.5
q0 19 -15.5 27t-53.5 8h-189l31 193h178q74 0 74 36q0 20 -23 29.5t-92 9.5q-119 0 -135 -49h-469l2 12q4 23 8 38.5t18.5 44t37 48.5t65.5 43.5t100.5 38.5t145.5 25t197 10h79q148 0 255.5 -10.5t167.5 -27t94.5 -42t44.5 -49.5t10 -57q0 -68 -57.5 -105t-145.5 -45
q86 -13 139.5 -56.5t53.5 -123.5z" />
    <glyph glyph-name="fiveeighths" unicode="&#x215d;" horiz-adv-x="2906" 
d="M2193 193q-118 0 -118 63t137 63q121 0 121 -61q0 -65 -140 -65zM2255 586q62 0 86 -12.5t24 -36.5q0 -58 -127 -58q-61 0 -84.5 13.5t-23.5 37.5q0 56 125 56zM2882 580q0 49 -25 83t-88.5 60.5t-181 39.5t-293.5 13h-47q-158 0 -273.5 -12.5t-180 -31.5t-102 -48.5
t-48.5 -57t-11 -63.5q0 -129 191 -162q-125 -15 -202 -63.5t-77 -132.5q0 -41 14.5 -72.5t55 -61t107.5 -49t176.5 -31t256.5 -11.5h48q138 0 246 10.5t176.5 30t114.5 42t68.5 52.5t31 55.5t8.5 56.5q0 75 -61 117.5t-152 56.5q109 13 178.5 57.5t69.5 121.5zM2148 1524
h471l-1894 -1524h-457zM1311 1042q0 -297 -629 -297h-31q-81 0 -150 5t-121 14.5t-94.5 22t-71.5 28.5t-51.5 31.5t-35 34.5t-20.5 35t-10.5 34t-2.5 31t2 27h467q2 -7 8.5 -14t34.5 -16t72 -9q77 0 104 17t27 46q0 27 -24.5 40t-88.5 13q-105 0 -125 -34h-454l76 473h1128
l-33 -209h-674l-18 -115q115 70 354 70q90 0 156.5 -12.5t105 -33t61.5 -51.5t30.5 -61.5t7.5 -69.5z" />
    <glyph glyph-name="seveneighths" unicode="&#x215e;" horiz-adv-x="2762" 
d="M2005 1524h471l-1894 -1524h-457zM2050 193q-119 0 -119 63t137 63q121 0 121 -61q0 -65 -139 -65zM2111 586q111 0 111 -49q0 -58 -127 -58q-61 0 -84.5 13.5t-23.5 37.5q0 26 26.5 41t97.5 15zM2738 580q0 49 -25 83t-88.5 60.5t-181 39.5t-293.5 13h-47
q-158 0 -273 -12.5t-179.5 -31.5t-102 -48.5t-48.5 -57t-11 -63.5q0 -130 190 -162q-125 -15 -201.5 -63.5t-76.5 -132.5q0 -41 14.5 -72.5t55 -61t107.5 -49t176.5 -31t256.5 -11.5h47q138 0 246 10.5t176.5 30t114.5 42t68.5 52.5t31 55.5t8.5 56.5q0 75 -61 117.5
t-152 56.5q109 13 178.5 57.5t69.5 121.5zM182 1524h1192l-33 -209q-5 -4 -33 -28t-50.5 -44t-57 -52.5t-63.5 -62.5q-70 -73 -98 -142t-48 -200l-2 -16h-598l17 121q10 70 62.5 117t193.5 122q196 104 227 129q19 15 20 25h-293l-22 -137h-473z" />
    <glyph glyph-name="minus" unicode="&#x2212;" horiz-adv-x="1210" 
d="M86 813h1124l-57 -360h-1124z" />
    <glyph glyph-name="uni24C5" unicode="&#x24c5;" horiz-adv-x="2519" 
d="M2513 735q0 -88 -16 -166.5t-55.5 -157t-101 -143t-157 -121.5t-219.5 -95.5t-293.5 -60.5t-372.5 -22h-16q-203 0 -372 22.5t-292.5 61t-219 95.5t-157 122t-100.5 143.5t-55 156.5t-16 165v58q0 86 15.5 163.5t54.5 155.5t100 142.5t156 121t218 95.5t291.5 61
t370.5 22h27q203 0 372.5 -22.5t292.5 -61.5t218.5 -96t156.5 -122t100 -143t54.5 -154.5t15.5 -161.5v-58zM1276 174h27q206 0 361.5 26.5t257 73.5t164.5 118.5t88.5 154.5t25.5 188v58q0 104 -26 186t-89 153.5t-164 119t-257 74t-361 26.5h-27q-204 0 -359 -26.5
t-255.5 -74t-163.5 -119t-89 -153.5t-26 -186v-58q0 -104 25.5 -186.5t88 -154t163 -119t256 -74.5t360.5 -27zM1522 565h-295v-241h-553v882h848q151 0 254.5 -20.5t161.5 -61t82 -93.5t24 -126v-31q0 -74 -25.5 -128.5t-84 -96t-161.5 -63t-251 -21.5zM1227 963v-146h172
q86 0 86 72v4q0 70 -86 70h-172z" />
    <glyph glyph-name="zero.den" unicode="&#xe402;" horiz-adv-x="1380" 
d="M1337 432q0 -42 -5 -78.5t-22 -85t-45 -87.5t-80 -78.5t-122 -66.5t-174.5 -44t-233.5 -17h-51q-614 0 -614 344q0 42 4.5 78.5t21.5 85t45 87.5t80 78.5t121.5 66.5t174 44t233.5 17h53q614 0 614 -344zM801 418q0 48 -26.5 80t-92.5 32q-43 0 -75 -15.5t-48 -36.5
t-25.5 -49.5t-11.5 -47t-2 -37.5q0 -50 27 -83.5t92 -33.5q43 0 74.5 15.5t47.5 37t26 50.5t12 48.5t2 39.5z" />
    <glyph glyph-name="one.den" unicode="&#xe403;" horiz-adv-x="813" 
d="M219 389h-221l37 234q80 4 137.5 16t91.5 32.5t51.5 38.5t32.5 44h451l-119 -754h-522z" />
    <glyph glyph-name="two.den" unicode="&#xe404;" horiz-adv-x="1261" 
d="M1151 0h-1217l19 119q6 39 13 64.5t24 59t42 56.5t68.5 49t103.5 45t147 37t198 31t148.5 26t37.5 35t-19.5 34.5t-78.5 12.5q-121 0 -133 -69h-481q3 29 7.5 48t20 50.5t39 53.5t69 47t106 40.5t153.5 26t209 10.5h37q121 0 215 -8.5t156 -26t104 -38.5t63.5 -50t30 -57
t8.5 -64q0 -114 -115.5 -167t-402.5 -66q-327 -15 -375 -51h842z" />
    <glyph glyph-name="three.den" unicode="&#xe405;" horiz-adv-x="1282" 
d="M1225 260q0 -28 -3.5 -51t-18.5 -54t-41 -54.5t-74 -48t-114 -40.5t-166 -26.5t-224 -10.5h-68q-149 0 -258 19.5t-168 49t-91.5 71t-39 78t-0.5 77.5h473q0 -5 2.5 -11.5t10.5 -15.5t21.5 -15.5t38 -11.5t56.5 -5q58 0 91.5 7.5t43 18t9.5 25.5q0 19 -16 27t-54 8h-189
l31 192h178q74 0 74 37q0 20 -23 29.5t-92 9.5q-119 0 -135 -49h-469l2 12q4 23 8 38.5t18.5 44t37 48.5t65.5 43.5t100.5 38.5t145.5 25t197 10h80q148 0 255.5 -10.5t167.5 -27t94 -42t44 -49.5t10 -57q0 -68 -57.5 -105t-145.5 -45q86 -13 139.5 -56.5t53.5 -123.5z" />
    <glyph glyph-name="four.den" unicode="&#xe406;" horiz-adv-x="1245" 
d="M-4 401l575 353h557l-55 -344h135l-39 -248h-135l-24 -162h-508l24 162h-569zM326 410h239l27 157z" />
    <glyph glyph-name="five.den" unicode="&#xe407;" horiz-adv-x="1251" 
d="M1190 272q0 -297 -629 -297h-31q-81 0 -150 5t-121 14.5t-94.5 22t-71.5 28.5t-51.5 31.5t-35 34.5t-20.5 35t-10.5 34t-2.5 31t2 27h467q2 -7 8.5 -14t34.5 -16t72 -9q77 0 104 17t27 46q0 27 -24.5 40t-88.5 13q-104 0 -124 -34h-455l76 473h1128l-33 -209h-673
l-19 -115q115 70 354 70q90 0 156.5 -12.5t105 -33t61.5 -51.5t30.5 -61.5t7.5 -69.5z" />
    <glyph glyph-name="six.den" unicode="&#xe408;" horiz-adv-x="1353" 
d="M500 391q112 72 366 72h13q123 0 206.5 -14t127.5 -42.5t61.5 -63t17.5 -83.5q0 -30 -4.5 -54.5t-20.5 -55t-42.5 -54t-74.5 -47t-112.5 -39.5t-160.5 -25.5t-215 -9.5h-58q-143 0 -252 19t-177 50.5t-110.5 78.5t-58.5 97.5t-16 111.5q0 60 13 112.5t42.5 104t81.5 91.5
t124.5 71.5t178 48t236.5 16.5h43q156 0 270 -18t174.5 -45t94.5 -65.5t41.5 -70.5t4.5 -71h-481q-30 45 -125 45q-44 0 -78.5 -12t-54 -29t-32.5 -40t-17.5 -41.5t-5.5 -37.5zM786 250q0 55 -135 55q-153 0 -153 -67q0 -56 135 -56q153 0 153 68z" />
    <glyph glyph-name="seven.den" unicode="&#xe409;" horiz-adv-x="1243" 
d="M61 754h1192l-32 -209q-6 -5 -33.5 -28.5t-50.5 -43.5t-57.5 -52.5t-63.5 -62.5q-70 -73 -98 -142t-48 -200l-2 -16h-598l17 121q10 70 62.5 117t193.5 122q196 104 227 128q20 15 21 26h-293l-23 -137h-473z" />
    <glyph glyph-name="eight.den" unicode="&#xe40a;" horiz-adv-x="1312" 
d="M600 193q139 0 139 65q0 61 -121 61q-137 0 -137 -63t119 -63zM662 586q-125 0 -125 -56q0 -24 23.5 -37.5t84.5 -13.5q127 0 127 58q0 24 -24 36.5t-86 12.5zM1288 580q0 -77 -69.5 -121.5t-178.5 -57.5q91 -14 152 -56.5t61 -117.5q0 -31 -8.5 -56.5t-31 -55.5
t-68.5 -52.5t-114.5 -42t-176.5 -30t-246 -10.5h-47q-147 0 -256.5 11.5t-176.5 31t-107.5 49t-55 61t-14.5 72.5q0 84 76.5 132.5t201.5 63.5q-190 32 -190 162q0 36 11 63.5t48.5 57t102 48.5t179.5 31.5t273 12.5h47q176 0 293.5 -13t181 -39.5t88.5 -60.5t25 -83z" />
    <glyph glyph-name="nine.den" unicode="&#xe40b;" horiz-adv-x="1353" 
d="M799 360q-102 -71 -350 -71h-13q-126 0 -212 16t-132.5 47t-66 70t-19.5 92q0 33 8 60.5t29 59t64.5 55.5t108.5 44.5t168.5 31.5t236.5 11h57q633 0 633 -368q0 -72 -17 -132t-63 -117.5t-119.5 -96.5t-192.5 -63t-276 -24h-45q-112 0 -203 9.5t-152 25t-106.5 38
t-71 45.5t-40 51.5t-18.5 52t-3 49.5h483q23 -45 123 -45q55 0 94 16.5t58 44t27 50.5t10 48zM514 504q0 -16 7.5 -27.5t38.5 -21t87 -9.5q154 0 154 68q0 15 -7.5 26t-39 20t-86.5 9q-154 0 -154 -65z" />
    <glyph glyph-name="zero.num" unicode="&#xe416;" horiz-adv-x="1378" 
d="M1458 1202q0 -42 -5 -78.5t-22 -85t-45 -87.5t-80 -78.5t-122 -66.5t-174.5 -44t-233.5 -17h-51q-614 0 -614 345q0 42 4.5 78.5t21.5 85t45 87t80 78.5t121.5 66.5t174 43.5t233.5 17h53q614 0 614 -344zM922 1188q0 48 -26.5 80t-92.5 32q-43 0 -75 -15.5t-48 -36.5
t-25.5 -49.5t-11.5 -47t-2 -37.5q0 -50 27 -83.5t92 -33.5q43 0 74.5 15.5t47.5 37t26 50.5t12 48.5t2 39.5z" />
    <glyph glyph-name="one.num" unicode="&#xe417;" horiz-adv-x="813" 
d="M340 1159h-221l37 234q80 4 137.5 16t91.5 32.5t51.5 38.5t32.5 44h451l-119 -754h-522z" />
    <glyph glyph-name="two.num" unicode="&#xe418;" horiz-adv-x="1263" 
d="M1311 1018l-39 -248h-1217l19 119q6 39 13 64.5t24 59t42 56.5t68.5 49t103.5 45t147 37t198 31t148.5 26t37.5 35t-19.5 34.5t-78.5 12.5q-121 0 -133 -69h-482q3 28 7.5 47.5t20 51t39.5 53.5t69.5 47t106 40.5t153.5 26t209 10.5h36q145 0 251 -13t168 -34t98.5 -54
t48.5 -66t12 -76q0 -114 -115.5 -167.5t-402.5 -66.5q-332 -15 -373 -51h840z" />
    <glyph glyph-name="three.num" unicode="&#xe419;" horiz-adv-x="1282" 
d="M1346 1030q0 -28 -3.5 -51t-18.5 -54t-41 -54.5t-74 -48t-114 -40.5t-166 -26.5t-224 -10.5h-68q-149 0 -258 19.5t-168 49t-91.5 71t-39 78t-0.5 77.5h473q0 -5 2.5 -11.5t10.5 -15.5t21.5 -15.5t38 -11.5t56.5 -5q58 0 91 7.5t42.5 18t9.5 25.5q0 19 -15.5 27t-53.5 8
h-189l31 193h178q74 0 74 36q0 20 -23 29.5t-92 9.5q-119 0 -135 -49h-469l2 12q4 23 8 38.5t18.5 44t37 48.5t65.5 43.5t100.5 38.5t145.5 25t197 10h79q148 0 255.5 -10.5t167.5 -27t94.5 -42t44.5 -49.5t10 -57q0 -68 -57.5 -105t-145.5 -45q86 -13 139.5 -56.5
t53.5 -123.5z" />
    <glyph glyph-name="four.num" unicode="&#xe41a;" horiz-adv-x="1245" 
d="M117 1171l575 353h557l-55 -344h135l-39 -248h-135l-25 -162h-507l24 162h-569zM446 1180h240l27 157z" />
    <glyph glyph-name="five.num" unicode="&#xe41b;" horiz-adv-x="1251" 
d="M1311 1042q0 -297 -629 -297h-31q-81 0 -150 5t-121 14.5t-94.5 22t-71.5 28.5t-51.5 31.5t-35 34.5t-20.5 35t-10.5 34t-2.5 31t2 27h467q2 -7 8.5 -14t34.5 -16t72 -9q77 0 104 17t27 46q0 27 -24.5 40t-88.5 13q-105 0 -125 -34h-454l76 473h1128l-33 -209h-674
l-18 -115q115 70 354 70q90 0 156.5 -12.5t105 -33t61.5 -51.5t30.5 -61.5t7.5 -69.5z" />
    <glyph glyph-name="six.num" unicode="&#xe41c;" horiz-adv-x="1353" 
d="M621 1161q113 72 366 72h12q123 0 206.5 -14t128 -42.5t62 -63t17.5 -83.5q0 -30 -4.5 -54.5t-20.5 -55t-42.5 -54t-74.5 -47t-113 -39.5t-161 -25.5t-215 -9.5h-57q-143 0 -252 19t-177 50.5t-110.5 78.5t-58.5 97.5t-16 111.5q0 73 18 134.5t65.5 120t121.5 99.5
t194 65.5t276 24.5h43q156 0 270 -18t174.5 -45t95 -65.5t42 -70.5t4.5 -71h-481q-30 45 -125 45q-44 0 -78.5 -12t-54 -29t-32.5 -40t-17.5 -41.5t-5.5 -37.5zM907 1020q0 55 -135 55q-154 0 -154 -67q0 -56 136 -56q153 0 153 68z" />
    <glyph glyph-name="seven.num" unicode="&#xe41d;" horiz-adv-x="1243" 
d="M182 1524h1192l-33 -209q-5 -4 -33 -28t-50.5 -44t-57 -52.5t-63.5 -62.5q-70 -73 -98 -142t-48 -200l-2 -16h-598l17 121q10 70 62.5 117t193.5 122q196 104 227 129q19 15 20 25h-293l-22 -137h-473z" />
    <glyph glyph-name="eight.num" unicode="&#xe41e;" horiz-adv-x="1312" 
d="M819 1546q176 0 293.5 -13t181 -39.5t88.5 -60.5t25 -83q0 -77 -69.5 -121.5t-178.5 -57.5q91 -14 152 -56.5t61 -117.5q0 -31 -8.5 -56.5t-31 -55.5t-68.5 -52.5t-114.5 -42t-176.5 -30t-246 -10.5h-47q-147 0 -256.5 11.5t-176.5 31t-107.5 49t-55 61t-14.5 72.5
q0 84 76.5 132.5t201.5 63.5q-190 32 -190 162q0 36 11 63.5t48.5 57t102 48.5t179.5 31.5t273 12.5h47zM891 1307q0 49 -111 49q-125 0 -125 -56q0 -51 109 -51q127 0 127 58zM600 1026q0 -63 119 -63q139 0 139 65q0 62 -121 62q-137 0 -137 -64z" />
    <glyph glyph-name="nine.num" unicode="&#xe41f;" horiz-adv-x="1353" 
d="M920 1130q-102 -71 -351 -71h-12q-126 0 -212 16t-132.5 47t-66 70t-19.5 92q0 28 5 51.5t20.5 51.5t42 49.5t73.5 43t110 35.5t155.5 22.5t207.5 8.5h58q633 0 633 -368q0 -72 -17 -132t-63 -117.5t-119.5 -96.5t-192.5 -63t-276 -24h-45q-112 0 -203 9.5t-152 25
t-106.5 38t-71 45.5t-40 51.5t-18.5 52t-3 49.5h483q22 -45 123 -45q55 0 94 16.5t58 44t27 50.5t10 48zM635 1274q0 -16 7.5 -27t38.5 -20.5t87 -9.5q154 0 154 67q0 55 -134 55q-153 0 -153 -65z" />
    <glyph glyph-name="f_f_i" unicode="&#xfb03;" horiz-adv-x="3037" 
d="M1165 0l111 696h-285l-110 -696h-727l110 696h-225l65 406h224l14 90q27 166 139 249t326 83h528l-55 -340h-158q-33 0 -44.5 -13t-16.5 -43l-4 -26h282l15 90q27 166 139 249t326 83h522l-55 -340h-152q-33 0 -44.5 -13t-16.5 -43l-5 -26h207l-65 -406h-207l-111 -696
h-727zM3144 1524l-58 -359h-727l58 359h727zM3076 1102l-174 -1102h-727l174 1102h727z" />
    </font>
</defs>
</svg>
