<?xml version="1.0" standalone="no"?>
<!DOCTYPE svg PUBLIC "-//W3C//DTD SVG 1.1//EN" "http://www.w3.org/Graphics/SVG/1.1/DTD/svg11.dtd" >
<svg xmlns="http://www.w3.org/2000/svg" xmlns:xlink="http://www.w3.org/1999/xlink" version="1.1">
<metadata>
Created by FontForge 20201107 at Wed Jan 22 23:47:43 2025
 By 
Copyright (c) 2006-2022 Hoefler &#38; Co. All rights reserved.
</metadata>
<defs>
<font id="GothamRounded-Light" horiz-adv-x="1351" >
  <font-face 
    font-family="Gotham Rounded Light"
    font-weight="300"
    font-stretch="normal"
    units-per-em="2048"
    panose-1="0 0 0 0 0 0 0 0 0 0"
    ascent="1638"
    descent="-410"
    x-height="1044"
    cap-height="1442"
    bbox="-109 -459 2345 2093"
    underline-thickness="102"
    underline-position="-204"
    unicode-range="U+0020-FB04"
  />
<missing-glyph horiz-adv-x="1024" 
d="M0 -410v2048h1024v-2048h-1024zM145 1536l367 -799l367 799h-734zM102 -156l353 770l-353 770v-1540zM922 1384l-353 -770l353 -770v1540zM512 492l-367 -799h734z" />
    <glyph glyph-name="f_f" unicode="ff" horiz-adv-x="1482" 
d="M252 43v909h-113q-20 0 -33.5 13.5t-13.5 33.5q0 19 14 32t33 13h113v103q0 180 92 272q82 82 219 82q64 0 125 -14q17 -3 28 -16.5t11 -30.5q0 -22 -17 -34.5t-40 -8.5q-66 12 -107 12q-107 0 -159 -65t-52 -199v-101h326q20 0 33.5 -13.5t13.5 -33.5q0 -19 -14 -32
t-33 -13h-326v-909q0 -22 -13.5 -36.5t-35.5 -14.5t-36.5 14.5t-14.5 36.5zM993 43v909h-112q-20 0 -33.5 13.5t-13.5 33.5q0 19 14 32t33 13h112v103q0 180 92 272q82 82 220 82q64 0 125 -14q17 -3 27.5 -16t10.5 -31q0 -22 -17 -34.5t-40 -8.5q-66 12 -106 12
q-107 0 -159 -65t-52 -199v-101h325q20 0 33.5 -13.5t13.5 -33.5q0 -19 -14 -32t-33 -13h-325v-909q0 -22 -14 -36.5t-36 -14.5t-36.5 14.5t-14.5 36.5z" />
    <glyph glyph-name="fi" unicode="fi" horiz-adv-x="1251" 
d="M252 43v909h-113q-20 0 -33.5 13.5t-13.5 33.5q0 19 14 32t33 13h113v103q0 180 92 272q82 82 219 82q64 0 125 -14q17 -3 28 -16.5t11 -30.5q0 -22 -17 -34.5t-40 -8.5q-66 12 -107 12q-107 0 -159 -65t-52 -199v-101h326q20 0 33.5 -13.5t13.5 -33.5q0 -19 -14 -32
t-33 -13h-326v-909q0 -22 -13.5 -36.5t-35.5 -14.5t-36.5 14.5t-14.5 36.5zM934 1368v35q0 26 17.5 43.5t43.5 17.5q27 0 45.5 -17.5t18.5 -43.5v-35q0 -26 -18.5 -43.5t-45.5 -17.5q-26 0 -43.5 17.5t-17.5 43.5zM946 43v958q0 22 14 37t35 15q22 0 37 -14.5t15 -37.5v-958
q0 -23 -14 -37t-36 -14t-36.5 14t-14.5 37z" />
    <glyph glyph-name="fl" unicode="fl" horiz-adv-x="1251" 
d="M252 43v909h-113q-20 0 -33.5 13.5t-13.5 33.5q0 19 14 32t33 13h113v103q0 180 92 272q82 82 219 82q64 0 125 -14q17 -3 28 -16.5t11 -30.5q0 -22 -17 -34.5t-40 -8.5q-66 12 -107 12q-107 0 -159 -65t-52 -199v-101h326q20 0 33.5 -13.5t13.5 -33.5q0 -19 -14 -32
t-33 -13h-326v-909q0 -22 -13.5 -36.5t-35.5 -14.5t-36.5 14.5t-14.5 36.5zM946 43v1409q0 22 13.5 36.5t35.5 14.5t37 -14.5t15 -36.5v-1409q0 -23 -14 -37t-36 -14t-36.5 14t-14.5 37z" />
    <glyph glyph-name="f_f_i" unicode="ffi" horiz-adv-x="1992" 
d="M252 43v909h-113q-20 0 -33.5 13.5t-13.5 33.5q0 19 14 32t33 13h113v103q0 180 92 272q82 82 219 82q64 0 125 -14q17 -3 28 -16.5t11 -30.5q0 -22 -17 -34.5t-40 -8.5q-66 12 -107 12q-107 0 -159 -65t-52 -199v-101h326q20 0 33.5 -13.5t13.5 -33.5q0 -19 -14 -32
t-33 -13h-326v-909q0 -22 -13.5 -36.5t-35.5 -14.5t-36.5 14.5t-14.5 36.5zM993 43v909h-112q-20 0 -33.5 13.5t-13.5 33.5q0 19 14 32t33 13h112v103q0 180 92 272q82 82 220 82q64 0 125 -14q17 -3 27.5 -16t10.5 -31q0 -22 -17 -34.5t-40 -8.5q-66 12 -106 12
q-107 0 -159 -65t-52 -199v-101h325q20 0 33.5 -13.5t13.5 -33.5q0 -19 -14 -32t-33 -13h-325v-909q0 -22 -14 -36.5t-36 -14.5t-36.5 14.5t-14.5 36.5zM1675 1368v35q0 26 18 43.5t44 17.5t44.5 -17.5t18.5 -43.5v-35q0 -26 -18.5 -43.5t-44.5 -17.5t-44 17.5t-18 43.5z
M1688 43v958q0 22 14 37t35 15q22 0 36.5 -14.5t14.5 -37.5v-958q0 -23 -13.5 -37t-35.5 -14t-36.5 14t-14.5 37z" />
    <glyph glyph-name="f_f_l" unicode="ffl" horiz-adv-x="1992" 
d="M252 43v909h-113q-20 0 -33.5 13.5t-13.5 33.5q0 19 14 32t33 13h113v103q0 180 92 272q82 82 219 82q64 0 125 -14q17 -3 28 -16.5t11 -30.5q0 -22 -17 -34.5t-40 -8.5q-66 12 -107 12q-107 0 -159 -65t-52 -199v-101h326q20 0 33.5 -13.5t13.5 -33.5q0 -19 -14 -32
t-33 -13h-326v-909q0 -22 -13.5 -36.5t-35.5 -14.5t-36.5 14.5t-14.5 36.5zM993 43v909h-112q-20 0 -33.5 13.5t-13.5 33.5q0 19 14 32t33 13h112v103q0 180 92 272q82 82 220 82q64 0 125 -14q17 -3 27.5 -16t10.5 -31q0 -22 -17 -34.5t-40 -8.5q-66 12 -106 12
q-107 0 -159 -65t-52 -199v-101h325q20 0 33.5 -13.5t13.5 -33.5q0 -19 -14 -32t-33 -13h-325v-909q0 -22 -14 -36.5t-36 -14.5t-36.5 14.5t-14.5 36.5zM1688 43v1409q0 22 13.5 36.5t35.5 14.5t36.5 -14.5t14.5 -36.5v-1409q0 -23 -13.5 -37t-35.5 -14t-36.5 14t-14.5 37z
" />
    <glyph glyph-name=".notdef" horiz-adv-x="1024" 
d="M0 -410v2048h1024v-2048h-1024zM145 1536l367 -799l367 799h-734zM102 -156l353 770l-353 770v-1540zM922 1384l-353 -770l353 -770v1540zM512 492l-367 -799h734z" />
    <glyph glyph-name=".null" horiz-adv-x="0" 
 />
    <glyph glyph-name="nonmarkingreturn" horiz-adv-x="682" 
 />
    <glyph glyph-name="space" unicode=" " horiz-adv-x="614" 
 />
    <glyph glyph-name="exclam" unicode="!" horiz-adv-x="516" 
d="M227 399l-32 990q0 22 14.5 36.5t36.5 14.5h24q22 0 37 -14.5t15 -36.5l-33 -990q0 -12 -9.5 -21t-21.5 -9t-21.5 9t-9.5 21zM190 115q0 29 19.5 48t48.5 19t48.5 -19t19.5 -48v-56q0 -29 -19.5 -48t-48.5 -19t-48.5 19t-19.5 48v56z" />
    <glyph glyph-name="quotedbl" unicode="&#x22;" horiz-adv-x="839" 
d="M512 944l61 440q9 54 58 54h39q32 0 32 -35q0 -4 -10 -49l-117 -412q-6 -21 -13.5 -29t-20.5 -8q-34 0 -29 39zM143 944l62 440q9 54 57 54h39q33 0 33 -35q0 -4 -10 -49l-117 -412q-6 -20 -14 -28.5t-21 -8.5q-34 0 -29 39z" />
    <glyph glyph-name="numbersign" unicode="#" horiz-adv-x="1433" 
d="M291 51l57 332h-207q-20 0 -34.5 13.5t-14.5 33.5t14.5 34.5t34.5 14.5h224l84 484h-226q-20 0 -34.5 13.5t-14.5 33.5t14.5 34.5t34.5 14.5h242l57 338q3 20 17 32.5t34 12.5q25 0 36.5 -18t8.5 -42l-55 -323h424l57 338q3 20 17.5 32.5t34.5 12.5q25 0 36.5 -18
t8.5 -42l-56 -323h205q20 0 34.5 -13.5t14.5 -33.5t-14.5 -34.5t-34.5 -14.5h-221l-84 -484h223q20 0 34.5 -13.5t14.5 -33.5t-14.5 -34.5t-34.5 -14.5h-239l-60 -346q-3 -20 -17 -32.5t-34 -12.5q-25 0 -36.5 17.5t-8.5 41.5l57 332h-424l-59 -346q-3 -20 -17 -32.5
t-34 -12.5q-25 0 -36.5 17.5t-8.5 41.5zM463 479h424l84 484h-424z" />
    <glyph glyph-name="dollar" unicode="$" horiz-adv-x="1294" 
d="M608 1511q0 20 14.5 35t34.5 15t35 -15t15 -35v-81q106 -9 191 -44t173 -100q29 -23 29 -47q0 -22 -15.5 -36.5t-37.5 -14.5q-21 0 -37 14q-144 115 -308 133v-573q233 -49 338 -140.5t105 -242.5q0 -162 -122.5 -267.5t-315.5 -111.5v-160q0 -20 -15 -34.5t-35 -14.5
t-34.5 14.5t-14.5 34.5v162q-255 20 -461 199q-22 19 -22 43q0 20 15.5 35.5t35.5 15.5q23 0 37 -14q179 -165 399 -187v584q-230 51 -332 141t-102 244q0 156 121.5 261.5t308.5 109.5v77zM1040 371q0 111 -73 177t-265 109v-565q152 3 245 81.5t93 197.5zM283 1071
q0 -55 14.5 -95.5t51 -77t101 -65t162.5 -51.5v559q-147 -3 -238 -80.5t-91 -189.5z" />
    <glyph glyph-name="percent" unicode="%" horiz-adv-x="1687" 
d="M426 717q-137 0 -225 107.5t-88 254.5v4q0 97 39 180.5t112.5 135t165.5 51.5q91 0 163.5 -51.5t111 -134t38.5 -177.5v-4q0 -149 -89 -257.5t-228 -108.5zM299 35q0 15 8 26l998 1358q16 23 38 23q19 0 32.5 -12.5t13.5 -30.5q0 -15 -9 -27l-997 -1358q-16 -22 -39 -22
q-19 0 -32 12t-13 31zM1257 -16q-137 0 -225 107.5t-88 254.5v4q0 149 89.5 258t228.5 109q91 0 163.5 -51.5t111 -134t38.5 -177.5v-4q0 -149 -89.5 -257.5t-228.5 -108.5zM430 805q90 0 148.5 78.5t58.5 195.5v4q0 119 -62 199t-149 80q-89 0 -148 -80.5t-59 -194.5v-4
q0 -120 61.5 -199t149.5 -79zM1262 72q90 0 148 78.5t58 195.5v4q0 119 -62 199t-149 80q-89 0 -147.5 -80t-58.5 -195v-4q0 -120 61.5 -199t149.5 -79z" />
    <glyph glyph-name="ampersand" unicode="&#x26;" horiz-adv-x="1425" 
d="M1288 -18q-25 0 -49 24l-213 221q-211 -247 -485 -247q-190 0 -315.5 111.5t-125.5 285.5v4q0 142 96 248t275 172q-86 95 -123 168t-37 159v5q0 139 101.5 232t257.5 93q139 0 234 -90.5t95 -220.5v-4q0 -249 -352 -371l377 -387q95 136 172 315q12 31 47 31
q22 0 36.5 -14.5t14.5 -36.5q0 -15 -6 -27q-95 -208 -194 -340l223 -229q24 -24 24 -49q0 -23 -15 -38t-38 -15zM584 838q309 99 309 301v4q0 95 -65 160t-162 65q-108 0 -178 -66.5t-70 -164.5v-4q0 -68 35.5 -131t130.5 -164zM543 72q222 0 415 225l-423 438
q-164 -56 -246 -148.5t-82 -201.5v-4q0 -132 95 -220.5t241 -88.5z" />
    <glyph glyph-name="quotesingle" unicode="'" horiz-adv-x="471" 
d="M143 944l62 440q9 54 57 54h39q33 0 33 -35q0 -4 -10 -49l-117 -412q-6 -20 -14 -28.5t-21 -8.5q-34 0 -29 39z" />
    <glyph glyph-name="parenleft" unicode="(" horiz-adv-x="880" 
d="M719 -285q-13 0 -25 6q-264 155 -406.5 375.5t-142.5 491.5t142.5 491t406.5 375q12 6 25 6q17 0 28 -11t11 -28q0 -24 -23 -37q-483 -308 -483 -796q0 -489 483 -797q23 -13 23 -37q0 -17 -11 -28t-28 -11z" />
    <glyph glyph-name="parenright" unicode=")" horiz-adv-x="880" 
d="M162 -285q-17 0 -28 11t-11 28q0 24 22 37q484 309 484 797q0 487 -484 796q-22 13 -22 37q0 17 11 28t28 11q12 0 24 -6q264 -155 406.5 -375t142.5 -491t-142.5 -491.5t-406.5 -375.5q-12 -6 -24 -6z" />
    <glyph glyph-name="asterisk" unicode="*" horiz-adv-x="880" 
d="M399 868l17 224l-187 -127q-20 -13 -32 -13q-17 0 -29 13t-12 30q0 27 28 39l211 101l-211 100q-28 14 -28 39q0 17 12 29t29 14q14 0 32 -12l187 -127l-17 223q-2 19 10 32t31 13t31 -13t10 -32l-16 -223l186 127q18 12 33 12q17 0 29 -13t12 -30q0 -27 -29 -39
l-211 -100l211 -101q29 -12 29 -39q0 -17 -12 -30t-29 -13q-14 0 -33 13l-186 127l16 -224q2 -19 -10 -32t-31 -13t-31 13t-10 32z" />
    <glyph glyph-name="plus" unicode="+" horiz-adv-x="1269" 
d="M584 274v398h-404q-20 0 -34.5 14.5t-14.5 34.5t14.5 34.5t34.5 14.5h404v397q0 22 14.5 37t36.5 15t36.5 -15t14.5 -37v-397h404q20 0 34.5 -14.5t14.5 -34.5t-14.5 -34.5t-34.5 -14.5h-404v-398q0 -22 -14.5 -36.5t-36.5 -14.5t-36.5 14.5t-14.5 36.5z" />
    <glyph glyph-name="comma" unicode="," horiz-adv-x="471" 
d="M111 -184q0 16 16 26q56 31 78 67.5t18 90.5q-55 14 -55 72v43q0 29 19.5 48t48.5 19t48 -19t19 -48v-52q0 -158 -55 -213q-26 -26 -59 -45.5t-48 -19.5q-11 0 -20.5 8.5t-9.5 22.5z" />
    <glyph glyph-name="hyphen" unicode="-" horiz-adv-x="835" 
d="M193 551q-23 0 -40.5 17t-17.5 40t17.5 40.5t40.5 17.5h450q23 0 40 -17.5t17 -40.5t-17 -40t-40 -17h-450z" />
    <glyph glyph-name="period" unicode="." horiz-adv-x="471" 
d="M168 115q0 29 19.5 48t48.5 19t48 -19t19 -48v-56q0 -29 -19 -48t-48 -19t-48.5 19t-19.5 48v56z" />
    <glyph glyph-name="slash" unicode="/" horiz-adv-x="1024" 
d="M-12 -227q0 14 6 26l926 1815q14 28 43 28q19 0 31 -12t12 -31q0 -12 -7 -26l-925 -1815q-14 -28 -43 -28q-19 0 -31 12t-12 31z" />
    <glyph glyph-name="zero" unicode="0" horiz-adv-x="1454" 
d="M725 -25q-133 0 -246 60t-187.5 161t-116.5 235t-42 282v4q0 148 42.5 282.5t118 236t189 162t246.5 60.5t245.5 -59.5t187.5 -161t117 -235t42 -281.5v-4q0 -148 -42.5 -282.5t-118 -236.5t-189 -162.5t-246.5 -60.5zM729 72q108 0 200 53.5t152.5 142.5t94.5 204.5
t34 240.5v4q0 125 -34.5 241.5t-96 206t-154 143.5t-200.5 54q-87 0 -164 -34.5t-134 -95t-99 -141.5t-63 -175.5t-21 -194.5v-4q0 -125 34.5 -241t96 -206t154 -144t200.5 -54z" />
    <glyph glyph-name="one" unicode="1" horiz-adv-x="686" 
d="M367 45v1292l-234 -80q-15 -6 -27 -6q-19 0 -32 13t-13 32q0 31 39 45l250 93q40 14 66 14h4q24 0 37.5 -15t13.5 -36v-1352q0 -22 -14.5 -37.5t-36.5 -15.5t-37.5 15.5t-15.5 37.5z" />
    <glyph glyph-name="two" unicode="2" horiz-adv-x="1208" 
d="M90 49q0 23 25 45l518 469q178 161 247.5 268.5t69.5 221.5q0 136 -95 221.5t-228 85.5q-126 0 -220.5 -59.5t-181.5 -180.5q-16 -22 -41 -22q-20 0 -34.5 13.5t-14.5 33.5q0 15 8 26q65 94 129 153t156 94.5t209 35.5q183 0 304.5 -112.5t121.5 -280.5v-4
q0 -74 -19.5 -137t-66.5 -130.5t-109 -132.5t-163 -157l-439 -398h768q22 0 36.5 -14.5t14.5 -36.5t-14.5 -36.5t-36.5 -14.5h-893q-22 0 -36.5 13.5t-14.5 35.5z" />
    <glyph glyph-name="three" unicode="3" horiz-adv-x="1249" 
d="M637 -25q-160 0 -289.5 64t-220.5 174q-14 19 -14 37q0 22 15.5 37.5t37.5 15.5q27 0 43 -20q177 -211 430 -211q148 0 251 89.5t103 227.5v4q0 147 -123.5 229.5t-322.5 82.5h-51q-21 0 -35.5 13.5t-14.5 33.5q0 17 19 39l471 542h-709q-22 0 -36.5 13.5t-14.5 35.5
t14.5 37t36.5 15h815q21 0 34.5 -12.5t13.5 -32.5t-19 -43l-475 -543q105 -6 194.5 -34t161 -76.5t112 -124.5t40.5 -171v-4q0 -121 -65 -218t-171.5 -148.5t-230.5 -51.5z" />
    <glyph glyph-name="four" unicode="4" horiz-adv-x="1359" 
d="M911 43v307h-759q-25 0 -40.5 15.5t-15.5 40.5q0 20 17 43l790 976q20 27 51 27q26 0 43 -16.5t17 -42.5v-951h194q19 0 33 -14t14 -33t-14 -32t-33 -13h-194v-307q0 -22 -14.5 -36.5t-36.5 -14.5t-37 14.5t-15 36.5zM227 442h684v848z" />
    <glyph glyph-name="five" unicode="5" horiz-adv-x="1239" 
d="M618 -25q-130 0 -254.5 57t-218.5 148q-22 22 -22 47q0 19 15 34t36 15q27 0 45 -18q196 -186 404 -186q169 0 277 102t108 258v4q0 152 -110 246t-284 94q-64 0 -123 -12.5t-93 -27.5t-62.5 -27.5t-38.5 -12.5q-29 0 -59 19q-30 21 -27 71l35 590q1 28 16.5 43t38.5 15
h711q22 0 36.5 -15t14.5 -37t-14.5 -36.5t-36.5 -14.5h-668l-35 -536q157 77 318 77q137 0 249 -54t177 -153.5t65 -224.5v-4q0 -198 -142 -329.5t-358 -131.5z" />
    <glyph glyph-name="six" unicode="6" horiz-adv-x="1314" 
d="M678 -25q-108 0 -203.5 39t-161.5 105q-94 94 -138 220t-44 339v4q0 216 71 392t205 280t308 104q110 0 201.5 -35t181.5 -106q22 -19 22 -43q0 -22 -15.5 -37.5t-37.5 -15.5q-18 0 -33 12q-157 129 -327 129q-144 0 -252.5 -94.5t-165 -263.5t-51.5 -386
q158 267 448 267q130 0 242.5 -54t182 -155t69.5 -225v-5q0 -133 -66 -241t-181 -169t-255 -61zM686 72q170 0 276.5 107t106.5 263v4q0 149 -110 247t-279 98q-86 0 -161.5 -30.5t-127 -80.5t-81 -114t-29.5 -130v-4q0 -154 116 -257t289 -103z" />
    <glyph glyph-name="seven" unicode="7" horiz-adv-x="1202" 
d="M346 41q0 15 8 31l617 1259h-789q-22 0 -36.5 14.5t-14.5 36.5t14.5 37t36.5 15h865q22 0 36.5 -13.5t14.5 -34.5q0 -14 -13 -40l-634 -1317q-7 -15 -21 -26t-31 -11q-22 0 -37.5 14t-15.5 35z" />
    <glyph glyph-name="eight" unicode="8" horiz-adv-x="1290" 
d="M645 -20q-149 0 -270.5 50.5t-191.5 143t-70 209.5v4q0 121 88 214.5t229 139.5q-118 48 -193 131.5t-75 202.5v4q0 108 69 195t179 133.5t235 46.5t235 -46.5t179 -133.5t69 -195v-4q0 -119 -75 -202.5t-193 -131.5q141 -46 229.5 -139.5t88.5 -214.5v-4
q0 -117 -70.5 -209.5t-192 -143t-270.5 -50.5zM645 780q156 0 264.5 83t108.5 212v4q0 121 -107.5 200t-265.5 79t-265.5 -79t-107.5 -200v-4q0 -129 108.5 -212t264.5 -83zM645 76q191 0 306.5 88t115.5 215v4q0 132 -122.5 219.5t-299.5 87.5t-299.5 -87.5t-122.5 -219.5
v-4q0 -127 115.5 -215t306.5 -88z" />
    <glyph glyph-name="nine" unicode="9" horiz-adv-x="1314" 
d="M600 -25q-211 0 -407 158q-23 20 -23 43q0 22 14.5 37.5t36.5 15.5t39 -14q169 -143 342 -143q143 0 254 94.5t170 263.5t51 381q-154 -276 -446 -276q-215 0 -355.5 126t-140.5 312v4q0 202 142 341.5t362 139.5t365 -145q88 -88 134 -220.5t46 -338.5v-4
q0 -222 -76 -399.5t-209.5 -276.5t-298.5 -99zM635 629q88 0 164.5 31.5t127 83t79 116.5t28.5 133v4q0 154 -115.5 259.5t-291.5 105.5q-114 0 -202.5 -54t-133.5 -140t-45 -187v-4q0 -151 109.5 -249.5t279.5 -98.5z" />
    <glyph glyph-name="colon" unicode=":" horiz-adv-x="491" 
d="M178 985q0 29 19.5 48.5t48.5 19.5t48 -19.5t19 -48.5v-55q0 -29 -19 -48.5t-48 -19.5t-48.5 19.5t-19.5 48.5v55zM178 115q0 29 19.5 48t48.5 19t48 -19t19 -48v-56q0 -29 -19 -48t-48 -19t-48.5 19t-19.5 48v56z" />
    <glyph glyph-name="semicolon" unicode=";" horiz-adv-x="491" 
d="M178 985q0 29 19.5 48.5t48.5 19.5t48 -19.5t19 -48.5v-55q0 -29 -19 -48.5t-48 -19.5t-48.5 19.5t-19.5 48.5v55zM121 -184q0 16 16 26q56 31 78 67.5t18 90.5q-55 14 -55 72v43q0 29 19.5 48t48.5 19t48 -19t19 -48v-52q0 -158 -55 -213q-26 -26 -59 -45.5t-47 -19.5
q-12 0 -21.5 8.5t-9.5 22.5z" />
    <glyph glyph-name="less" unicode="&#x3c;" horiz-adv-x="1269" 
d="M1042 213q-14 0 -30 8l-852 443q-37 19 -37 55v4q0 36 37 55l852 443q16 8 30 8q20 0 32.5 -14t12.5 -35q0 -29 -32 -47l-801 -410l801 -414q32 -18 32 -47q0 -21 -12.5 -35t-32.5 -14z" />
    <glyph glyph-name="equal" unicode="=" horiz-adv-x="1269" 
d="M215 899q-22 0 -37.5 14.5t-15.5 36.5t15.5 38t37.5 16h840q22 0 37.5 -16t15.5 -38t-15.5 -36.5t-37.5 -14.5h-840zM215 438q-22 0 -37.5 14.5t-15.5 36.5t15.5 38t37.5 16h840q22 0 37.5 -16t15.5 -38t-15.5 -36.5t-37.5 -14.5h-840z" />
    <glyph glyph-name="greater" unicode="&#x3e;" horiz-adv-x="1269" 
d="M227 1229q15 0 31 -8l852 -443q37 -19 37 -55v-4q0 -36 -37 -55l-852 -443q-16 -8 -31 -8q-20 0 -32.5 14t-12.5 35q0 29 33 47l801 410l-801 414q-33 18 -33 47q0 21 12.5 35t32.5 14z" />
    <glyph glyph-name="question" unicode="?" horiz-adv-x="1093" 
d="M504 367h-4q-30 0 -33 36l-23 265q-2 21 11.5 35.5t36.5 15.5q177 11 282 95t105 230v5q0 130 -93.5 219.5t-246.5 89.5q-212 0 -375 -187q-17 -20 -41 -20q-20 0 -33.5 12.5t-13.5 32.5t12 35q187 221 455 221q198 0 321 -115.5t123 -283.5v-4q0 -92 -34 -167.5
t-94 -126t-137.5 -82t-168.5 -42.5l-16 -228q-3 -36 -33 -36zM434 115q0 29 19.5 48t48.5 19t48 -19t19 -48v-56q0 -29 -19 -48t-48 -19t-48.5 19t-19.5 48v56z" />
    <glyph glyph-name="at" unicode="@" horiz-adv-x="2007" 
d="M1022 -332q-129 0 -249.5 32.5t-220.5 90.5t-183 140.5t-140 180.5t-88.5 213t-31.5 236q0 181 70 346t189.5 286t286 193t351.5 72q184 0 350.5 -66.5t284.5 -177t187.5 -259t69.5 -308.5q0 -126 -33 -224.5t-88 -156t-119 -87t-132 -29.5q-106 0 -179 50.5t-100 139.5
q-72 -89 -155 -139.5t-195 -50.5q-152 0 -257 102t-105 262q0 106 42.5 202.5t110 163t153 105.5t171.5 39q114 0 189 -51.5t116 -130.5l22 121q9 49 52 49q24 0 38 -19.5t9 -44.5l-70 -397q-18 -108 -18 -148q0 -87 48 -133.5t136 -46.5q56 0 107 25t94 74.5t68.5 133.5
t25.5 191q0 140 -63 275t-171 239t-263 168t-326 64q-174 0 -328.5 -66t-263.5 -178t-172.5 -265.5t-63.5 -322.5q0 -170 63 -322.5t173 -263.5t268 -176t340 -65q146 0 262.5 32t235.5 99q8 4 20 4q10 0 18.5 -9t8.5 -20q0 -16 -15 -26q-247 -146 -530 -146zM913 246
q94 0 180 56.5t137.5 148t51.5 190.5q0 122 -76.5 203.5t-193.5 81.5q-144 0 -257.5 -118.5t-113.5 -285.5q0 -128 75 -202t197 -74z" />
    <glyph glyph-name="A" unicode="A" horiz-adv-x="1617" 
d="M115 37q0 17 8 33l612 1327q23 51 72 51h4q49 0 72 -51l610 -1323q8 -16 8 -33q0 -20 -14.5 -34.5t-36.5 -14.5q-35 0 -53 41l-168 368h-846l-168 -370q-16 -39 -51 -39q-20 0 -34.5 13t-14.5 32zM428 498h756l-377 829z" />
    <glyph glyph-name="B" unicode="B" horiz-adv-x="1478" 
d="M213 53v1327q0 22 15.5 38t37.5 16h539q246 0 373 -127q92 -92 92 -226v-4q0 -70 -21 -128t-58 -98.5t-77 -67.5t-88 -46q68 -18 123.5 -45t102 -67.5t72.5 -99t26 -130.5v-4q0 -179 -140.5 -285t-373.5 -106h-570q-22 0 -37.5 15.5t-15.5 37.5zM319 772h474
q165 0 266.5 78t101.5 217v4q0 120 -94.5 192t-263.5 72h-484v-563zM319 98h521q185 0 293 79t108 214v4q0 133 -112.5 206t-323.5 73h-486v-576z" />
    <glyph glyph-name="C" unicode="C" horiz-adv-x="1511" 
d="M862 -25q-151 0 -284 57.5t-226.5 156.5t-147.5 235t-54 289v4q0 201 91.5 370.5t257 270t367.5 100.5q167 0 289.5 -51t237.5 -150q20 -20 20 -43q0 -22 -16.5 -37.5t-38.5 -15.5t-37 15q-98 90 -206.5 138t-250.5 48q-127 0 -239 -50t-192 -135.5t-126.5 -204
t-46.5 -251.5v-4q0 -134 47 -253.5t127.5 -205.5t193 -136t238.5 -50q141 0 251.5 48.5t215.5 149.5q17 17 37 17t35.5 -15.5t15.5 -35.5q0 -21 -16 -37q-118 -110 -245.5 -167t-297.5 -57z" />
    <glyph glyph-name="D" unicode="D" horiz-adv-x="1601" 
d="M213 53v1327q0 22 15.5 38t37.5 16h424q166 0 309 -55t242 -150t155 -226.5t56 -281.5v-4q0 -150 -56 -282t-155 -228t-242 -151.5t-309 -55.5h-424q-22 0 -37.5 15.5t-15.5 37.5zM319 98h371q146 0 269.5 48t206.5 131t129 195.5t46 240.5v4q0 127 -46 240t-129 196.5
t-206.5 132.5t-269.5 49h-371v-1237z" />
    <glyph glyph-name="E" unicode="E" horiz-adv-x="1372" 
d="M266 0q-22 0 -37.5 15.5t-15.5 37.5v1327q0 22 15.5 38t37.5 16h926q20 0 34.5 -15t14.5 -35t-14.5 -34.5t-34.5 -14.5h-873v-563h781q20 0 34.5 -14.5t14.5 -34.5t-14.5 -34.5t-34.5 -14.5h-781v-576h883q20 0 34.5 -14.5t14.5 -34.5t-14.5 -34.5t-34.5 -14.5h-936z" />
    <glyph glyph-name="F" unicode="F" horiz-adv-x="1343" 
d="M213 45v1335q0 22 15.5 38t37.5 16h916q20 0 34.5 -15t14.5 -35t-14.5 -34.5t-34.5 -14.5h-863v-587h771q20 0 34.5 -15t14.5 -35t-14.5 -34.5t-34.5 -14.5h-771v-604q0 -22 -15.5 -37.5t-37.5 -15.5t-37.5 15.5t-15.5 37.5z" />
    <glyph glyph-name="G" unicode="G" horiz-adv-x="1605" 
d="M870 -25q-166 0 -303 58.5t-227.5 159.5t-140 235t-49.5 285v4q0 145 51 279t141.5 236.5t225 164t290.5 61.5q154 0 269 -40t221 -120q20 -17 20 -43q0 -22 -15.5 -37.5t-37.5 -15.5q-15 0 -33 15q-92 71 -191.5 108t-238.5 37q-170 0 -306.5 -88t-211 -234.5
t-74.5 -318.5v-4q0 -139 42.5 -257.5t120.5 -205t194 -135.5t257 -49q130 0 252 46t205 117v412h-446q-20 0 -34.5 14.5t-14.5 34.5t14.5 34.5t34.5 14.5h495q22 0 38 -15.5t16 -37.5v-469q0 -32 -37 -61q-240 -185 -527 -185z" />
    <glyph glyph-name="H" unicode="H" horiz-adv-x="1556" 
d="M213 45v1344q0 22 15.5 37.5t37.5 15.5t37.5 -15.5t15.5 -37.5v-619h918v619q0 22 15.5 37.5t37.5 15.5t37.5 -15.5t15.5 -37.5v-1344q0 -22 -15.5 -37.5t-37.5 -15.5t-37.5 15.5t-15.5 37.5v627h-918v-627q0 -22 -15.5 -37.5t-37.5 -15.5t-37.5 15.5t-15.5 37.5z" />
    <glyph glyph-name="I" unicode="I" horiz-adv-x="561" 
d="M227 45v1344q0 22 16 37.5t38 15.5t37.5 -15.5t15.5 -37.5v-1344q0 -22 -15.5 -37.5t-37.5 -15.5t-38 15.5t-16 37.5z" />
    <glyph glyph-name="J" unicode="J" horiz-adv-x="1124" 
d="M510 -20q-268 0 -416 235q-8 12 -8 29q0 22 15.5 37.5t37.5 15.5q28 0 43 -25q66 -101 143.5 -148.5t190.5 -47.5q137 0 224 100.5t87 282.5v930q0 22 16 37.5t38 15.5t37.5 -15.5t15.5 -37.5v-922q0 -242 -131 -373q-114 -114 -293 -114z" />
    <glyph glyph-name="K" unicode="K" horiz-adv-x="1464" 
d="M213 45v1344q0 22 15.5 37.5t37.5 15.5t37.5 -15.5t15.5 -37.5v-897l906 933q17 17 37 17t36.5 -16.5t16.5 -36.5t-17 -37l-546 -551l583 -715q17 -20 17 -39q0 -22 -17 -38.5t-39 -16.5q-25 0 -41 20l-579 713l-357 -360v-320q0 -22 -15.5 -37.5t-37.5 -15.5t-37.5 15.5
t-15.5 37.5z" />
    <glyph glyph-name="L" unicode="L" horiz-adv-x="1267" 
d="M213 53v1336q0 22 15.5 37.5t37.5 15.5t37.5 -15.5t15.5 -37.5v-1291h801q20 0 34.5 -14.5t14.5 -34.5t-14.5 -34.5t-34.5 -14.5h-854q-22 0 -37.5 15.5t-15.5 37.5z" />
    <glyph glyph-name="M" unicode="M" horiz-adv-x="1777" 
d="M213 43v1343q0 22 15.5 38t37.5 16h10q30 0 54 -31l559 -823l559 823q21 31 53 31h10q22 0 38 -16t16 -38v-1341q0 -22 -16 -37.5t-38 -15.5t-37.5 15.5t-15.5 37.5v1200l-526 -766q-17 -26 -45 -26t-45 26l-527 766v-1202q0 -22 -14.5 -36.5t-36.5 -14.5t-36.5 14.5
t-14.5 36.5z" />
    <glyph glyph-name="N" unicode="N" horiz-adv-x="1617" 
d="M213 43v1343q0 22 15.5 38t37.5 16h17q29 0 53 -31l967 -1227v1209q0 22 14.5 36.5t36.5 14.5t36.5 -14.5t14.5 -36.5v-1352q0 -19 -12 -32t-31 -13h-8q-26 0 -54 35l-985 1249v-1235q0 -22 -14.5 -36.5t-36.5 -14.5t-36.5 14.5t-14.5 36.5z" />
    <glyph glyph-name="O" unicode="O" horiz-adv-x="1740" 
d="M868 -25q-158 0 -294.5 60.5t-228 162t-143.5 235.5t-52 280v4q0 146 52.5 280.5t145 236.5t229.5 163t295 61q127 0 241 -39t200 -108t149.5 -161.5t96 -202t32.5 -226.5v-4q0 -146 -52.5 -280.5t-145.5 -237t-230 -163.5t-295 -61zM872 72q130 0 244 50.5t193.5 137
t125.5 204.5t46 249v4q0 131 -46.5 250t-127 205.5t-195 138t-244.5 51.5q-173 0 -313 -86t-217.5 -232.5t-77.5 -322.5v-4q0 -176 78.5 -323.5t219.5 -234.5t314 -87z" />
    <glyph glyph-name="P" unicode="P" horiz-adv-x="1368" 
d="M213 45v1335q0 22 15.5 38t37.5 16h467q240 0 386.5 -117.5t146.5 -321.5v-4q0 -110 -45 -198t-122.5 -143.5t-177.5 -85t-214 -29.5h-388v-490q0 -22 -15.5 -37.5t-37.5 -15.5t-37.5 15.5t-15.5 37.5zM319 633h394q200 0 323 96.5t123 255.5v4q0 166 -118 256t-316 90
h-406v-702z" />
    <glyph glyph-name="Q" unicode="Q" horiz-adv-x="1740" 
d="M868 -25q-158 0 -294.5 60.5t-228 162t-143.5 235.5t-52 280v4q0 146 52.5 280.5t145 236.5t229.5 163t295 61q127 0 241 -39t200 -108t149.5 -161.5t96 -202t32.5 -226.5v-4q0 -142 -49 -273t-139 -233l164 -137q24 -21 24 -47q0 -23 -16 -39.5t-39 -16.5q-20 0 -45 21
l-162 147q-195 -164 -461 -164zM1014 412q-25 22 -25 47q0 23 16 39t39 16t46 -20l235 -215q156 180 156 434v4q0 131 -46.5 250t-127 205.5t-195 138t-244.5 51.5q-173 0 -313 -86t-217.5 -232.5t-77.5 -322.5v-4q0 -176 78.5 -323.5t219.5 -234.5t314 -87q221 0 381 135z
" />
    <glyph glyph-name="R" unicode="R" horiz-adv-x="1480" 
d="M213 45v1335q0 22 15.5 38t37.5 16h549q129 0 233.5 -38t170.5 -104q108 -108 108 -266v-4q0 -174 -115 -279t-305 -131l408 -528q16 -19 16 -37q0 -22 -16.5 -38.5t-38.5 -16.5q-26 0 -47 28l-441 574h-469v-549q0 -22 -15.5 -37.5t-37.5 -15.5t-37.5 15.5t-15.5 37.5z
M319 690h484q184 0 301 88t117 240v4q0 146 -109 229.5t-303 83.5h-490v-645z" />
    <glyph glyph-name="S" unicode="S" horiz-adv-x="1310" 
d="M698 -20q-158 0 -289 49t-255 151q-21 17 -21 41q0 22 15.5 37.5t37.5 15.5q19 0 35 -12q108 -97 222.5 -141.5t261.5 -44.5q160 0 261 80t101 204v5q0 80 -32.5 133t-122 96t-250.5 76q-258 53 -371 146.5t-113 256.5v4q0 161 131 269t330 108q141 0 248.5 -35.5
t208.5 -111.5q22 -18 22 -43q0 -22 -15.5 -38t-37.5 -16q-19 0 -35 13q-176 135 -395 135q-155 0 -252.5 -78t-97.5 -193v-4q0 -81 32.5 -134.5t125 -99t259.5 -79.5q249 -51 360.5 -144.5t111.5 -250.5v-4q0 -172 -134 -281.5t-342 -109.5z" />
    <glyph glyph-name="T" unicode="T" horiz-adv-x="1327" 
d="M610 45v1290h-458q-20 0 -35 14.5t-15 34.5t15 35t35 15h1024q20 0 34.5 -15t14.5 -35t-14.5 -34.5t-34.5 -14.5h-459v-1290q0 -22 -15.5 -37.5t-37.5 -15.5t-38 15.5t-16 37.5z" />
    <glyph glyph-name="U" unicode="U" horiz-adv-x="1556" 
d="M778 -23q-129 0 -237 41t-186 118t-121.5 194.5t-43.5 265.5v793q0 22 16 37.5t38 15.5t37.5 -15.5t15.5 -37.5v-783q0 -252 128.5 -392t356.5 -140q223 0 350.5 134t127.5 388v793q0 22 15.5 37.5t37.5 15.5t37.5 -15.5t15.5 -37.5v-781q0 -302 -160 -466.5t-428 -164.5
z" />
    <glyph glyph-name="V" unicode="V" horiz-adv-x="1536" 
d="M766 -14q-45 0 -64 47l-583 1335q-4 8 -4 23q0 20 15.5 35.5t37.5 15.5q38 0 55 -43l547 -1284l549 1286q18 41 53 41q21 0 36 -15t15 -34q0 -13 -4 -21l-585 -1339q-19 -47 -64 -47h-4z" />
    <glyph glyph-name="W" unicode="W" horiz-adv-x="2256" 
d="M608 31l-479 1329q-6 15 -6 26q0 22 16.5 39t38.5 17q21 0 36 -14.5t22 -34.5l436 -1235l407 1243q14 41 51 41h5q37 0 51 -41l407 -1243l439 1241q16 43 51 43q20 0 36.5 -16.5t16.5 -36.5q0 -9 -8 -29l-479 -1329q-17 -47 -56 -47h-4q-41 0 -55 47l-406 1204
l-405 -1204q-14 -47 -55 -47h-4q-40 0 -56 47z" />
    <glyph glyph-name="X" unicode="X" horiz-adv-x="1478" 
d="M150 41q0 17 14 35l512 655l-488 621q-18 25 -18 41q0 19 15.5 34t35.5 15q25 0 45 -27l475 -612l469 606q26 33 52 33q20 0 33.5 -14.5t13.5 -34.5q0 -16 -15 -35l-489 -625l506 -651q18 -21 18 -41q0 -19 -15.5 -34t-35.5 -15q-26 0 -45 26l-496 644l-489 -637
q-26 -33 -51 -33q-20 0 -33.5 14.5t-13.5 34.5z" />
    <glyph glyph-name="Y" unicode="Y" horiz-adv-x="1466" 
d="M680 45v522l-559 789q-10 17 -10 33q0 22 16.5 37.5t38.5 15.5q28 0 49 -31l520 -747l522 747q23 31 48 31q20 0 36.5 -15.5t16.5 -35.5q0 -15 -17 -41l-555 -781v-524q0 -22 -15.5 -37.5t-37.5 -15.5t-37.5 15.5t-15.5 37.5z" />
    <glyph glyph-name="Z" unicode="Z" horiz-adv-x="1409" 
d="M197 0q-20 0 -36 14t-16 31v2q0 20 19 45l956 1245h-905q-20 0 -34.5 13.5t-14.5 33.5t14.5 35t34.5 15h999q20 0 36 -14t16 -31v-3q0 -20 -19 -45l-956 -1245h940q20 0 34.5 -13.5t14.5 -33.5t-14.5 -34.5t-34.5 -14.5h-1034z" />
    <glyph glyph-name="bracketleft" unicode="[" horiz-adv-x="880" 
d="M201 -213v1593q0 22 15.5 38t37.5 16h475q15 0 27 -12t12 -27t-12 -27t-27 -12h-434v-1544h434q15 0 27 -12t12 -27t-12 -27t-27 -12h-475q-22 0 -37.5 15.5t-15.5 37.5z" />
    <glyph glyph-name="backslash" unicode="\" horiz-adv-x="1024" 
d="M1036 -227q0 -19 -12 -31t-31 -12q-29 0 -43 28l-925 1815q-7 14 -7 26q0 19 12 31t31 12q29 0 43 -28l926 -1815q6 -12 6 -26z" />
    <glyph glyph-name="bracketright" unicode="]" horiz-adv-x="880" 
d="M680 1380v-1593q0 -22 -15.5 -37.5t-37.5 -15.5h-475q-15 0 -27 12t-12 27t12 27t27 12h434v1544h-434q-15 0 -27 12t-12 27t12 27t27 12h475q22 0 37.5 -16t15.5 -38z" />
    <glyph glyph-name="asciicircum" unicode="^" horiz-adv-x="1024" 
d="M510 1352l-246 -322q-20 -29 -71 -29q-13 0 -21 7.5t-8 15.5q0 12 10 27l272 360q29 37 58 37h16q29 0 58 -37l272 -360q10 -15 10 -27q0 -8 -8.5 -15.5t-22.5 -7.5q-53 0 -73 29z" />
    <glyph glyph-name="underscore" unicode="_" horiz-adv-x="1228" 
d="M-4 -328q-19 0 -32 13t-13 32t13 32t32 13h1237q19 0 32 -13t13 -32t-13 -32t-32 -13h-1237z" />
    <glyph glyph-name="grave" unicode="`" horiz-adv-x="1024" 
d="M586 1212q-37 0 -66 27l-164 158q-22 22 -22 37t28.5 31t57.5 16q33 0 57 -37l127 -191q8 -12 8 -22q0 -8 -8 -13.5t-18 -5.5z" />
    <glyph glyph-name="a" unicode="a" horiz-adv-x="1175" 
d="M508 -25q-75 0 -146 21.5t-129 61t-93.5 103.5t-35.5 142v4q0 160 125.5 250t331.5 90q179 0 346 -45v45q0 156 -90.5 238t-253.5 82q-150 0 -297 -70q-12 -6 -22 -6q-19 0 -33 14t-14 33q0 17 9 29t19 16q176 78 344 78q215 0 330 -115q107 -107 107 -295v-608
q0 -23 -14 -37t-36 -14t-35.5 14t-13.5 37v131q-62 -86 -162 -142.5t-237 -56.5zM514 70q163 0 279 90.5t116 230.5v119q-180 47 -354 47q-163 0 -253.5 -66.5t-90.5 -177.5v-4q0 -110 88.5 -174.5t214.5 -64.5z" />
    <glyph glyph-name="b" unicode="b" 
d="M190 43v1409q0 23 14 37t36 14t36.5 -14t14.5 -37v-641q169 258 430 258q95 0 185.5 -38t162.5 -105.5t116 -172t44 -227.5v-4q0 -123 -44 -228t-116 -173.5t-162.5 -107t-185.5 -38.5q-266 0 -430 250v-182q0 -22 -13.5 -36.5t-35.5 -14.5t-37 14.5t-15 36.5zM711 72
q176 0 292.5 120.5t116.5 325.5v4q0 100 -33 185.5t-89 143t-130.5 90t-156.5 32.5q-81 0 -158 -33t-136.5 -91t-95.5 -143t-36 -182v-4q0 -129 61.5 -233.5t158.5 -159.5t206 -55z" />
    <glyph glyph-name="c" unicode="c" horiz-adv-x="1169" 
d="M651 -25q-147 0 -270 74.5t-192.5 199t-69.5 269.5v4q0 145 70 270.5t193 201t269 75.5q124 0 217.5 -44.5t175.5 -121.5q15 -15 15 -37t-14.5 -36.5t-36.5 -14.5q-23 0 -35 12q-73 69 -150 108.5t-174 39.5q-178 0 -300 -130.5t-122 -318.5v-4q0 -189 125 -320.5
t305 -131.5q179 0 328 149q17 17 33 17q19 0 34 -15.5t15 -34.5q0 -18 -12 -30q-85 -87 -182 -134t-222 -47z" />
    <glyph glyph-name="d" unicode="d" 
d="M1161 1452v-1409q0 -23 -13.5 -37t-35.5 -14t-36.5 14t-14.5 37v190q-169 -258 -430 -258q-95 0 -185.5 38t-162.5 105.5t-116 172t-44 227.5v4q0 123 44 228t116 173.5t162.5 107t185.5 38.5q266 0 430 -250v633q0 23 13.5 37t35.5 14t36.5 -14t14.5 -37zM641 973
q-176 0 -293 -121t-117 -326v-4q0 -100 33.5 -185.5t89.5 -143t130.5 -89.5t156.5 -32q109 0 206 55.5t158.5 160t61.5 232.5v4q0 129 -61.5 233.5t-158.5 160t-206 55.5z" />
    <glyph glyph-name="e" unicode="e" horiz-adv-x="1196" 
d="M225 571h760q-5 81 -31 152.5t-71 129t-115.5 91t-157.5 33.5q-154 0 -262.5 -116t-122.5 -290zM1038 145q-83 -83 -178.5 -126.5t-228.5 -43.5q-102 0 -195.5 40t-163.5 110t-111.5 173t-41.5 222v4q0 112 38 212.5t103 173.5t157.5 116t196.5 43q143 0 253.5 -73
t168.5 -195.5t58 -272.5q0 -19 -15.5 -33t-34.5 -14h-819q13 -188 131.5 -299.5t278.5 -111.5q192 0 338 143q14 14 33 14q20 0 34.5 -13.5t14.5 -33.5q0 -18 -17 -35z" />
    <glyph glyph-name="f" unicode="f" horiz-adv-x="741" 
d="M252 43v909h-113q-20 0 -33.5 13.5t-13.5 33.5q0 19 14 32t33 13h113v103q0 180 92 272q82 82 219 82q64 0 125 -14q17 -3 28 -16.5t11 -30.5q0 -22 -17 -34.5t-40 -8.5q-66 12 -107 12q-107 0 -159 -65t-52 -199v-101h326q20 0 33.5 -13.5t13.5 -33.5q0 -19 -14 -32
t-33 -13h-326v-909q0 -22 -13.5 -36.5t-35.5 -14.5t-36.5 14.5t-14.5 36.5z" />
    <glyph glyph-name="g" unicode="g" 
d="M649 -332q-249 0 -456 144q-23 16 -23 45q0 18 15.5 32.5t35.5 14.5q13 0 29 -8q181 -134 401 -134q186 0 298 105t112 301v151q-168 -241 -436 -241q-95 0 -185 35.5t-160.5 97.5t-113.5 155.5t-43 202.5v4q0 109 43 203.5t113.5 157.5t160.5 99t185 36q146 0 255 -65
t181 -168v165q0 22 14 37t35 15q22 0 36.5 -15t14.5 -37v-839q0 -222 -133 -355q-139 -139 -379 -139zM635 174q81 0 159 29t138.5 80t97.5 126.5t37 161.5v4q0 116 -63 209t-161 141t-208 48q-170 0 -287 -108.5t-117 -286.5v-5q0 -115 56 -207t148.5 -142t199.5 -50z" />
    <glyph glyph-name="h" unicode="h" horiz-adv-x="1255" 
d="M190 43v1409q0 22 14 36.5t36 14.5t36.5 -14.5t14.5 -36.5v-602q125 219 377 219q194 0 305.5 -119t111.5 -311v-596q0 -23 -13.5 -37t-35.5 -14t-36.5 14t-14.5 37v578q0 163 -88 259.5t-244 96.5q-155 0 -258.5 -105.5t-103.5 -267.5v-561q0 -23 -13.5 -37t-35.5 -14
t-37 14t-15 37z" />
    <glyph glyph-name="i" unicode="i" horiz-adv-x="509" 
d="M193 1368v35q0 26 17.5 43.5t43.5 17.5t44.5 -17.5t18.5 -43.5v-35q0 -26 -18.5 -43.5t-44.5 -17.5t-43.5 17.5t-17.5 43.5zM205 43v958q0 22 14 37t35 15q22 0 36.5 -14.5t14.5 -37.5v-958q0 -23 -13.5 -37t-35.5 -14t-36.5 14t-14.5 37z" />
    <glyph glyph-name="j" unicode="j" horiz-adv-x="509" 
d="M193 1368v35q0 26 17.5 43.5t43.5 17.5t44.5 -17.5t18.5 -43.5v-35q0 -26 -18.5 -43.5t-44.5 -17.5t-43.5 17.5t-17.5 43.5zM82 -334q-35 0 -49 2q-43 7 -43 45q0 19 13 32t32 13q9 0 24 -1t21 -1q57 0 91 37.5t34 108.5v1099q0 22 14 37t35 15q22 0 36.5 -14.5
t14.5 -37.5v-1093q0 -120 -59.5 -181t-163.5 -61z" />
    <glyph glyph-name="k" unicode="k" horiz-adv-x="1146" 
d="M190 43v1409q0 22 14 36.5t36 14.5t36.5 -14.5t14.5 -36.5v-1077l641 663q15 15 35 15t33.5 -13.5t13.5 -33.5q0 -18 -17 -35l-383 -389l410 -506q14 -17 14 -37q0 -22 -13.5 -34.5t-35.5 -12.5q-24 0 -43 22l-401 496l-254 -256v-211q0 -23 -13.5 -37t-35.5 -14t-37 14
t-15 37z" />
    <glyph glyph-name="l" unicode="l" horiz-adv-x="509" 
d="M205 43v1409q0 22 13.5 36.5t35.5 14.5t36.5 -14.5t14.5 -36.5v-1409q0 -23 -13.5 -37t-35.5 -14t-36.5 14t-14.5 37z" />
    <glyph glyph-name="m" unicode="m" horiz-adv-x="1947" 
d="M190 43v958q0 22 14 37t36 15t36.5 -14.5t14.5 -37.5v-143q29 46 58 80t70.5 65.5t97 48.5t122.5 17q128 0 216.5 -62.5t135.5 -162.5q131 225 377 225q185 0 293 -119t108 -317v-590q0 -23 -13.5 -37t-35.5 -14t-36.5 14t-14.5 37v578q0 168 -82 262t-227 94
q-138 0 -234 -100t-96 -269v-565q0 -23 -13.5 -37t-35.5 -14t-36.5 14t-14.5 37v584q0 162 -82.5 256t-222.5 94t-237 -108.5t-97 -266.5v-559q0 -23 -13.5 -37t-35.5 -14t-37 14t-15 37z" />
    <glyph glyph-name="n" unicode="n" horiz-adv-x="1255" 
d="M190 43v958q0 22 14 37t36 15t36.5 -14.5t14.5 -37.5v-151q125 219 377 219q194 0 305.5 -119t111.5 -311v-596q0 -23 -13.5 -37t-35.5 -14t-36.5 14t-14.5 37v578q0 163 -88 259.5t-244 96.5q-155 0 -258.5 -105.5t-103.5 -267.5v-561q0 -23 -13.5 -37t-35.5 -14t-37 14
t-15 37z" />
    <glyph glyph-name="o" unicode="o" horiz-adv-x="1310" 
d="M653 -25q-113 0 -213 44t-170 117.5t-110.5 173t-40.5 208.5v4q0 109 41 209t111 174.5t171 119t215 44.5q151 0 274.5 -74.5t192 -198.5t68.5 -270v-4q0 -146 -69 -271t-193.5 -200.5t-276.5 -75.5zM657 70q121 0 219.5 60.5t152.5 163t54 224.5v4q0 190 -124.5 321.5
t-305.5 131.5q-183 0 -304.5 -131t-121.5 -318v-4q0 -189 124.5 -320.5t305.5 -131.5z" />
    <glyph glyph-name="p" unicode="p" 
d="M190 -285v1286q0 23 14 37.5t36 14.5t36.5 -14.5t14.5 -37.5v-190q169 258 430 258q95 0 185.5 -38t162.5 -105.5t116 -172t44 -227.5v-4q0 -123 -44 -228t-116 -173.5t-162.5 -107t-185.5 -38.5q-266 0 -430 250v-510q0 -23 -13.5 -37t-35.5 -14t-37 14t-15 37zM711 72
q176 0 292.5 120.5t116.5 325.5v4q0 100 -33 185.5t-89 143t-130.5 90t-156.5 32.5q-81 0 -158 -33t-136.5 -91t-95.5 -143t-36 -182v-4q0 -129 61.5 -233.5t158.5 -159.5t206 -55z" />
    <glyph glyph-name="q" unicode="q" 
d="M1161 1001v-1286q0 -23 -13.5 -37t-35.5 -14t-36.5 14t-14.5 37v518q-169 -258 -430 -258q-95 0 -185.5 38t-162.5 105.5t-116 172t-44 227.5v4q0 123 44 228t116 173.5t162.5 107t185.5 38.5q266 0 430 -250v182q0 22 14 37t35 15q22 0 36.5 -15t14.5 -37zM641 973
q-176 0 -293 -121t-117 -326v-4q0 -100 33.5 -185.5t89.5 -143t130.5 -89.5t156.5 -32q109 0 206 55.5t158.5 160t61.5 232.5v4q0 129 -61.5 233.5t-158.5 160t-206 55.5z" />
    <glyph glyph-name="r" unicode="r" horiz-adv-x="819" 
d="M190 43v958q0 22 14 37t36 15t36.5 -14.5t14.5 -37.5v-253q65 146 184 229.5t236 83.5q23 0 38 -16t15 -39q0 -22 -14.5 -38.5t-38.5 -17.5q-85 -8 -159 -43.5t-133.5 -98t-93.5 -160.5t-34 -220v-385q0 -22 -13.5 -36.5t-35.5 -14.5t-37 14t-15 37z" />
    <glyph glyph-name="s" unicode="s" horiz-adv-x="1017" 
d="M528 -20q-105 0 -214.5 37t-190.5 98q-19 14 -19 39q0 20 15 34.5t35 14.5q19 0 32 -10q166 -119 349 -119q108 0 179.5 54.5t71.5 143.5v4q0 36 -16 65.5t-38.5 49.5t-62.5 38.5t-73.5 29.5t-85.5 26q-160 46 -224 81q-134 74 -134 206v4q0 126 96 207.5t248 81.5
q173 0 338 -94q26 -17 26 -45q0 -20 -14.5 -34.5t-34.5 -14.5q-17 0 -29 8q-146 86 -290 86q-106 0 -172 -52t-66 -131v-4q0 -28 10 -52t33 -43t45 -33t62 -28.5t66.5 -23t74.5 -22.5q49 -14 84.5 -25.5t79 -30t72.5 -40t55.5 -50t39.5 -65.5t13 -82v-4q0 -137 -103.5 -221
t-257.5 -84z" />
    <glyph glyph-name="t" unicode="t" horiz-adv-x="819" 
d="M539 -18q-130 0 -211.5 72t-81.5 214v684h-113q-19 0 -33 14t-14 33t14 32t33 13h113v291q0 22 13.5 36.5t35.5 14.5t36.5 -14.5t14.5 -36.5v-291h328q19 0 33 -14t14 -33t-14 -32t-33 -13h-328v-673q0 -203 209 -203q32 0 58 5t41.5 10t19.5 5q18 0 31.5 -13.5
t13.5 -31.5q0 -30 -33 -43q-76 -26 -147 -26z" />
    <glyph glyph-name="u" unicode="u" horiz-adv-x="1255" 
d="M1065 1001v-958q0 -22 -13.5 -36.5t-35.5 -14.5t-36.5 14t-14.5 37v152q-125 -220 -377 -220q-194 0 -306 119.5t-112 311.5v595q0 23 13.5 37.5t35.5 14.5t36.5 -14.5t14.5 -37.5v-577q0 -163 88 -259.5t244 -96.5q155 0 259 105t104 267v561q0 23 13.5 37.5t35.5 14.5
t36.5 -14.5t14.5 -37.5z" />
    <glyph glyph-name="v" unicode="v" horiz-adv-x="1191" 
d="M655 29q-19 -43 -57 -43h-4q-38 0 -57 43l-420 942q-8 20 -8 30q0 22 15 37t38 15q35 0 53 -41l381 -899l387 903q15 37 49 37q22 0 36.5 -15t14.5 -37q0 -11 -6 -26z" />
    <glyph glyph-name="w" unicode="w" horiz-adv-x="1763" 
d="M524 -14q-39 0 -55 45l-342 940q-8 20 -8 33q0 20 15.5 34.5t37.5 14.5q39 0 53 -43l303 -883l303 887q14 39 50 39h4q37 0 51 -39l303 -887l305 887q12 39 49 39q22 0 37 -14t15 -33q0 -12 -9 -35l-342 -940q-16 -45 -55 -45h-4q-40 0 -55 47l-297 854l-299 -854
q-15 -47 -56 -47h-4z" />
    <glyph glyph-name="x" unicode="x" horiz-adv-x="1167" 
d="M137 39q0 17 13 33l370 460l-352 439q-14 17 -14 35q0 20 14.5 33.5t34.5 13.5q24 0 41 -21l342 -430l340 426q21 25 43 25q19 0 32 -14t13 -33q0 -17 -13 -33l-354 -438l369 -461q14 -17 14 -35q0 -20 -14.5 -33.5t-34.5 -13.5q-24 0 -41 20l-358 453l-357 -449
q-21 -24 -43 -24q-19 0 -32 14t-13 33z" />
    <glyph glyph-name="y" unicode="y" horiz-adv-x="1204" 
d="M317 -334q-87 0 -178 33q-28 11 -28 43q0 20 13.5 33.5t33.5 13.5q8 0 32 -8q58 -21 134 -21q84 0 141 55.5t110 176.5l7 14l-467 965q-9 23 -9 30q0 22 15.5 37t38.5 15q35 0 53 -41l418 -901l364 905q15 37 49 37q22 0 37 -15t15 -37q0 -11 -6 -26l-424 -1012
q-67 -160 -150 -228.5t-199 -68.5z" />
    <glyph glyph-name="z" unicode="z" horiz-adv-x="1134" 
d="M172 0q-18 0 -32.5 13t-14.5 28v2q0 22 18 43l729 868h-688q-19 0 -32 13t-13 32t13 32t32 13h785q19 0 33 -12.5t14 -27.5v-3q0 -21 -19 -43l-729 -868h717q19 0 32 -13t13 -32t-13 -32t-32 -13h-813z" />
    <glyph glyph-name="braceleft" unicode="{" horiz-adv-x="983" 
d="M831 -285q-127 26 -209.5 63t-126 91t-59.5 113.5t-16 144.5v162q0 64 -11 109t-38.5 80.5t-79.5 53t-129 17.5q-49 0 -49 39t49 39q77 0 129 17.5t79.5 53t38.5 80.5t11 109v162q0 85 16 144.5t59.5 113t126 90.5t209.5 63q18 3 30.5 -6t12.5 -27q0 -24 -24 -32
q-90 -24 -148.5 -49t-95.5 -52t-55.5 -67.5t-24.5 -82t-6 -108.5v-153q0 -129 -54 -196t-159 -99q110 -36 161.5 -100.5t51.5 -194.5v-154q0 -56 3.5 -92.5t16 -73t34 -61t59 -49t90 -43.5t127.5 -39q24 -8 24 -33q0 -18 -12.5 -27t-30.5 -6z" />
    <glyph glyph-name="bar" unicode="|" horiz-adv-x="585" 
d="M248 -225v1822q0 19 13 32t32 13t32 -13t13 -32v-1822q0 -19 -13 -32t-32 -13t-32 13t-13 32z" />
    <glyph glyph-name="braceright" unicode="}" horiz-adv-x="983" 
d="M152 1460q127 -26 209.5 -63t126 -90.5t59.5 -113t16 -144.5v-162q0 -64 11 -109t38.5 -80.5t79.5 -53t129 -17.5q49 0 49 -39t-49 -39q-77 0 -129 -17.5t-79.5 -53t-38.5 -80.5t-11 -109v-162q0 -85 -16 -144.5t-59.5 -113.5t-126 -91t-209.5 -63q-18 -3 -30.5 6
t-12.5 27q0 25 24 33q75 20 127.5 39t90 43.5t59 49t34 61t16 73t3.5 92.5v154q0 129 54 196t159 99q-110 36 -161.5 100.5t-51.5 194.5v153q0 67 -6 108.5t-24.5 82t-55.5 67.5t-95.5 52t-148.5 49q-24 8 -24 32q0 18 12.5 27t30.5 6z" />
    <glyph glyph-name="asciitilde" unicode="~" horiz-adv-x="942" 
d="M248 520q-14 -28 -37 -28q-15 0 -26 9.5t-11 24.5q0 13 4 25q28 86 66 120t96 34q40 0 134 -42t128 -42q33 0 53 17.5t39 59.5q14 29 37 29q15 0 26 -10t11 -25q0 -12 -4 -24q-28 -86 -66 -120t-96 -34q-40 0 -134 42t-128 42q-33 0 -53 -17.5t-39 -60.5z" />
    <glyph glyph-name="uni00A0" unicode="&#xa0;" horiz-adv-x="614" 
 />
    <glyph glyph-name="exclamdown" unicode="&#xa1;" horiz-adv-x="516" 
d="M289 1034l33 -989q0 -22 -15 -36.5t-37 -14.5h-24q-22 0 -36.5 14.5t-14.5 36.5l32 989q0 12 9.5 21.5t21.5 9.5t21.5 -9.5t9.5 -21.5zM326 1319q0 -29 -19.5 -48.5t-48.5 -19.5t-48.5 19.5t-19.5 48.5v55q0 29 19.5 48.5t48.5 19.5t48.5 -19.5t19.5 -48.5v-55z" />
    <glyph glyph-name="cent" unicode="&#xa2;" horiz-adv-x="1189" 
d="M449 43l34 168q-159 56 -257.5 197t-98.5 315v4q0 145 70 270.5t193 201t269 75.5h31l27 139q3 16 16.5 28.5t32.5 12.5q25 0 40 -18t9 -45l-27 -131q136 -33 265 -154q18 -18 18 -41q0 -22 -13.5 -36.5t-35.5 -14.5q-23 0 -39 16q-110 107 -219 135l-172 -884
q44 -7 74 -7q177 0 327 150q18 18 39 18q19 0 32 -14t13 -33t-14 -33q-172 -182 -404 -182q-52 0 -79 4l-33 -164q-3 -16 -16.5 -28t-32.5 -12q-25 0 -40 18t-9 45zM236 727q0 -143 75 -257.5t197 -164.5l168 875h-19q-178 0 -299.5 -130.5t-121.5 -318.5v-4z" />
    <glyph glyph-name="sterling" unicode="&#xa3;" horiz-adv-x="1318" 
d="M135 27q0 22 25 28l159 37v533h-135q-20 0 -34.5 14.5t-14.5 34.5t14.5 34.5t34.5 14.5h135v242q0 236 134 370q119 119 307 119q140 0 236.5 -50t172.5 -140q15 -19 15 -39q0 -22 -14.5 -35.5t-36.5 -13.5q-23 0 -41 18q-70 80 -146 122t-188 42q-144 0 -232 -88
q-102 -102 -102 -303v-244h569q20 0 34.5 -14.5t14.5 -34.5t-14.5 -34.5t-34.5 -14.5h-569v-529h725q20 0 34.5 -14.5t14.5 -34.5t-14.5 -33.5t-34.5 -13.5h-987q-10 0 -18.5 8t-8.5 19z" />
    <glyph glyph-name="yen" unicode="&#xa5;" horiz-adv-x="1404" 
d="M754 549v-201h397q19 0 33 -13.5t14 -33.5q0 -19 -14 -32t-33 -13h-397v-213q0 -22 -15 -36.5t-37 -14.5t-36.5 14.5t-14.5 36.5v213h-397q-19 0 -33 13t-14 32q0 20 14 33.5t33 13.5h397v201h-397q-19 0 -33 13t-14 32t14 33t33 14h360l-493 713q-12 18 -12 37
q0 22 15.5 36.5t37.5 14.5q26 0 49 -33l494 -739l497 743q19 29 49 29q20 0 33.5 -14.5t13.5 -34.5q0 -18 -14 -39l-496 -713h363q19 0 33 -14t14 -33t-14 -32t-33 -13h-397z" />
    <glyph glyph-name="section" unicode="&#xa7;" horiz-adv-x="1294" 
d="M674 -20q-122 0 -237.5 45.5t-200.5 121.5q-19 19 -19 41q0 23 16 38.5t39 15.5q19 0 41 -19q69 -65 166 -104t205 -39q116 0 177 44t61 114v4q0 67 -84 117t-291 100q-228 55 -321 119.5t-93 164.5v5q0 90 82 152t221 79q-82 36 -129 91.5t-47 123.5v4q0 115 99 185.5
t262 70.5q122 0 237.5 -46t200.5 -122q18 -18 18 -41t-16 -38t-39 -15q-20 0 -41 18q-70 65 -166.5 104.5t-204.5 39.5q-116 0 -176.5 -44t-60.5 -114v-4q0 -67 84 -117t291 -100q227 -55 320 -120t93 -165v-4q0 -90 -82 -152t-221 -79q82 -36 129 -91.5t47 -123.5v-4
q0 -116 -98.5 -186t-261.5 -70zM791 518q116 0 190 48t74 112v4q0 40 -26 71.5t-99 65.5t-197 64q-125 32 -229 32q-116 0 -190 -47.5t-74 -111.5v-4q0 -40 26 -71.5t98.5 -65.5t196.5 -64q127 -33 230 -33z" />
    <glyph glyph-name="dieresis" unicode="&#xa8;" horiz-adv-x="1024" 
d="M680 1391q31 0 51.5 -19.5t20.5 -50.5v-41q0 -31 -20.5 -50.5t-51.5 -19.5t-51.5 19.5t-20.5 50.5v41q0 31 20.5 50.5t51.5 19.5zM344 1391q31 0 51.5 -19.5t20.5 -50.5v-41q0 -31 -20.5 -50.5t-51.5 -19.5t-51.5 19.5t-20.5 50.5v41q0 31 20.5 50.5t51.5 19.5z" />
    <glyph glyph-name="copyright" unicode="&#xa9;" horiz-adv-x="1699" 
d="M848 -25q-153 0 -290.5 59t-235.5 158.5t-155.5 235.5t-57.5 285v4q0 149 58 285.5t157 236.5t237 159.5t291 59.5t290.5 -59t235.5 -158t155.5 -235t57.5 -285v-4q0 -149 -58 -285.5t-157 -237t-237 -160t-291 -59.5zM848 33q191 0 348 92.5t245.5 249t88.5 342.5v4
q0 186 -88 341.5t-244 247t-346 91.5q-191 0 -348 -92.5t-245.5 -249t-88.5 -342.5v-4q0 -186 88 -341.5t244 -247t346 -91.5zM858 340q-157 0 -265 113t-108 272v4q0 158 109 272.5t266 114.5q146 0 264 -102q19 -15 19 -37q0 -19 -13 -31t-32 -12q-16 0 -33 14
q-101 86 -207 86q-120 0 -201.5 -88.5t-81.5 -214.5v-4q0 -125 83.5 -215t201.5 -90t217 90q15 10 29 10q17 0 29 -12t12 -29q0 -20 -14 -30q-64 -55 -126.5 -83t-148.5 -28z" />
    <glyph glyph-name="ordfeminine" unicode="&#xaa;" horiz-adv-x="798" 
d="M356 842q-89 0 -156 48.5t-67 135.5v4q0 89 70 140t184 51q80 0 170 -23v10q0 77 -45.5 117.5t-124.5 40.5q-70 0 -154 -37q-12 -6 -22 -6q-15 0 -26 11t-11 26q0 24 25 35q98 45 192 45q118 0 184 -66q58 -58 58 -164v-327q0 -15 -12 -26t-27 -11t-26 11t-11 26v55
q-73 -96 -201 -96zM360 915q80 0 138.5 44.5t58.5 113.5v55q-77 23 -174 23q-77 0 -122.5 -32.5t-45.5 -84.5v-4q0 -53 42 -84t103 -31zM160 600q-17 0 -29 12t-12 29t12 29t29 12h450q17 0 29 -12t12 -29t-12 -29t-29 -12h-450z" />
    <glyph glyph-name="guillemotleft" unicode="&#xab;" horiz-adv-x="1054" 
d="M870 88q-23 0 -39 23l-280 366q-21 27 -21 45t21 45l280 367q16 22 39 22q19 0 32 -12t13 -31t-12 -34l-258 -355l258 -358q12 -18 12 -35q-2 -19 -14 -31t-31 -12zM453 88q-23 0 -39 23l-281 366q-20 26 -20 45t20 45l281 367q16 22 39 22q19 0 32 -12t13 -31
q0 -18 -13 -34l-258 -355l258 -358q13 -16 13 -35t-13 -31t-32 -12z" />
    <glyph glyph-name="registered" unicode="&#xae;" horiz-adv-x="851" 
d="M426 737q-150 0 -253 105t-103 252v2q0 147 104 252.5t252 105.5q150 0 253 -104.5t103 -251.5v-2q0 -147 -104 -253t-252 -106zM426 776q132 0 223.5 94t91.5 226v2q0 132 -90.5 224.5t-224.5 92.5q-132 0 -223.5 -93.5t-91.5 -225.5v-2q0 -132 90.5 -225t224.5 -93z
M293 946v307q0 12 8.5 20.5t20.5 8.5h131q58 0 95.5 -29.5t37.5 -81.5q0 -40 -23.5 -69t-62.5 -41l78 -92q10 -13 10 -25q0 -11 -7.5 -18.5t-19.5 -7.5q-16 0 -29 16l-100 121h-82v-109q0 -12 -8 -20t-20 -8t-20.5 8t-8.5 20zM350 1102h96q38 0 59 17.5t21 47.5q0 64 -80 64
h-96v-129z" />
    <glyph glyph-name="macron" unicode="&#xaf;" horiz-adv-x="1024" 
d="M782 1272h-540q-20 0 -34.5 14.5t-14.5 34.5t14.5 34.5t34.5 14.5h540q20 0 34.5 -14.5t14.5 -34.5t-14.5 -34.5t-34.5 -14.5z" />
    <glyph glyph-name="degree" unicode="&#xb0;" horiz-adv-x="921" 
d="M461 844q-122 0 -215.5 90t-93.5 209v4q0 119 93.5 209t215.5 90t215.5 -90t93.5 -209v-4q0 -119 -93.5 -209t-215.5 -90zM461 934q87 0 147 62.5t60 146.5v4q0 84 -60 146.5t-147 62.5t-147 -62.5t-60 -146.5v-4q0 -84 60 -146.5t147 -62.5z" />
    <glyph glyph-name="plusminus" unicode="&#xb1;" horiz-adv-x="1269" 
d="M584 360v373h-383q-20 0 -34.5 14.5t-14.5 34.5t14.5 34.5t34.5 14.5h383v373q0 22 14.5 36.5t36.5 14.5t36.5 -14.5t14.5 -36.5v-373h383q20 0 34.5 -14.5t14.5 -34.5t-14.5 -34.5t-34.5 -14.5h-383v-373q0 -22 -14.5 -36.5t-36.5 -14.5t-36.5 14.5t-14.5 36.5zM201 0
q-20 0 -34.5 14.5t-14.5 34.5t14.5 34.5t34.5 14.5h868q20 0 34.5 -14.5t14.5 -34.5t-14.5 -34.5t-34.5 -14.5h-868z" />
    <glyph glyph-name="acute" unicode="&#xb4;" horiz-adv-x="1024" 
d="M438 1212q-10 0 -18 5.5t-8 13.5q0 10 8 22l127 191q24 37 57 37q29 0 57.5 -16t28.5 -31t-22 -37l-164 -158q-29 -27 -66 -27z" />
    <glyph glyph-name="paragraph" unicode="&#xb6;" horiz-adv-x="983" 
d="M682 45v522h-12q-159 0 -285 49.5t-201 149t-75 233.5v5q0 198 147 314t383 116h96q23 0 39.5 -16.5t16.5 -39.5v-1333q0 -23 -15.5 -38t-38.5 -15t-39 15t-16 38z" />
    <glyph glyph-name="periodcentered" unicode="&#xb7;" horiz-adv-x="471" 
d="M168 637q0 29 19.5 48.5t48.5 19.5t48 -19.5t19 -48.5v-55q0 -29 -19 -48.5t-48 -19.5t-48.5 19.5t-19.5 48.5v55z" />
    <glyph glyph-name="cedilla" unicode="&#xb8;" horiz-adv-x="1024" 
d="M604 20l-133 -270q-10 -22 -21 -31.5t-32 -9.5q-25 0 -47.5 16t-22.5 33q0 14 10 31l158 231h88z" />
    <glyph glyph-name="ordmasculine" unicode="&#xba;" horiz-adv-x="798" 
d="M397 842q-125 0 -209 87.5t-84 209.5v4q0 124 85 212.5t212 88.5q125 0 209 -87.5t84 -209.5v-4q0 -124 -85 -212.5t-212 -88.5zM137 600q-17 0 -29 12t-12 29t12 29t29 12h525q17 0 28.5 -12t11.5 -29t-11.5 -29t-28.5 -12h-525zM401 922q89 0 147 63t58 154v4
q0 93 -60 157t-149 64t-146.5 -63t-57.5 -154v-4q0 -93 59.5 -157t148.5 -64z" />
    <glyph glyph-name="guillemotright" unicode="&#xbb;" horiz-adv-x="1054" 
d="M602 956q23 0 39 -22l281 -367q20 -26 20 -45t-20 -45l-281 -366q-16 -23 -39 -23q-19 0 -32 12t-13 31q0 20 12 35l258 354l-258 359q-12 15 -12 34t13 31t32 12zM184 956q23 0 39 -22l281 -367q20 -26 20 -45t-20 -45l-281 -366q-16 -23 -39 -23q-19 0 -32 12t-13 31
t13 35l258 354l-258 359q-15 22 -13 34q2 19 14 31t31 12z" />
    <glyph glyph-name="questiondown" unicode="&#xbf;" horiz-adv-x="1093" 
d="M590 1067h4q13 0 22.5 -9.5t10.5 -27.5l22 -264q2 -21 -11 -35.5t-36 -15.5q-177 -11 -282 -95.5t-105 -230.5v-4q0 -130 93.5 -219.5t246.5 -89.5q213 0 375 186q18 21 41 21q20 0 33.5 -12.5t13.5 -32.5t-12 -35q-187 -221 -455 -221q-198 0 -321.5 115.5t-123.5 283.5
v4q0 92 34 167.5t94.5 126t138 82t168.5 42.5l16 227q1 18 10.5 27.5t22.5 9.5zM659 1319q0 -29 -19 -48.5t-48 -19.5t-48.5 19.5t-19.5 48.5v55q0 29 19.5 48.5t48.5 19.5t48 -19.5t19 -48.5v-55z" />
    <glyph glyph-name="Agrave" unicode="&#xc0;" horiz-adv-x="1617" 
d="M115 37q0 17 8 33l612 1327q23 51 72 51h4q49 0 72 -51l610 -1323q8 -16 8 -33q0 -20 -14.5 -34.5t-36.5 -14.5q-35 0 -53 41l-168 368h-846l-168 -370q-16 -39 -51 -39q-20 0 -34.5 13t-14.5 32zM428 498h756l-377 829zM809 1581q-37 0 -66 27l-163 157q-23 23 -23 37
q0 15 28.5 31t57.5 16q33 0 57 -37l127 -190q9 -14 9 -23q0 -7 -8 -12.5t-19 -5.5z" />
    <glyph glyph-name="Aacute" unicode="&#xc1;" horiz-adv-x="1617" 
d="M115 37q0 17 8 33l612 1327q23 51 72 51h4q49 0 72 -51l610 -1323q8 -16 8 -33q0 -20 -14.5 -34.5t-36.5 -14.5q-35 0 -53 41l-168 368h-846l-168 -370q-16 -39 -51 -39q-20 0 -34.5 13t-14.5 32zM428 498h756l-377 829zM805 1581q-11 0 -19 5.5t-8 12.5q0 11 8 23
l127 190q24 37 58 37q29 0 57.5 -16t28.5 -31q0 -14 -23 -37l-164 -157q-29 -27 -65 -27z" />
    <glyph glyph-name="Acircumflex" unicode="&#xc2;" horiz-adv-x="1617" 
d="M115 37q0 17 8 33l612 1327q23 51 72 51h4q49 0 72 -51l610 -1323q8 -16 8 -33q0 -20 -14.5 -34.5t-36.5 -14.5q-35 0 -53 41l-168 368h-846l-168 -370q-16 -39 -51 -39q-20 0 -34.5 13t-14.5 32zM428 498h756l-377 829zM805 1726l-129 -118q-29 -27 -66 -27
q-11 0 -18.5 6.5t-7.5 14.5q0 12 10 24l147 180q29 37 58 37h16q28 0 57 -37l148 -180q10 -12 10 -24q0 -8 -8 -14.5t-21 -6.5q-38 0 -67 27z" />
    <glyph glyph-name="Atilde" unicode="&#xc3;" horiz-adv-x="1617" 
d="M115 37q0 17 8 33l612 1327q23 51 72 51h4q49 0 72 -51l610 -1323q8 -16 8 -33q0 -20 -14.5 -34.5t-36.5 -14.5q-35 0 -53 41l-168 368h-846l-168 -370q-16 -39 -51 -39q-20 0 -34.5 13t-14.5 32zM428 498h756l-377 829zM590 1593q-14 -28 -37 -28q-15 0 -26 9.5
t-11 24.5q0 13 4 25q28 86 66 120t96 34q40 0 134 -42t128 -42q33 0 53 17.5t39 60.5q14 28 37 28q15 0 26 -10t11 -25q0 -12 -4 -24q-28 -86 -66 -120t-96 -34q-40 0 -134 42t-128 42q-33 0 -53 -17.5t-39 -60.5z" />
    <glyph glyph-name="Adieresis" unicode="&#xc4;" horiz-adv-x="1617" 
d="M115 37q0 17 8 33l612 1327q23 51 72 51h4q49 0 72 -51l610 -1323q8 -16 8 -33q0 -20 -14.5 -34.5t-36.5 -14.5q-35 0 -53 41l-168 368h-846l-168 -370q-16 -39 -51 -39q-20 0 -34.5 13t-14.5 32zM428 498h756l-377 829zM975 1759q31 0 51.5 -19.5t20.5 -49.5v-41
q0 -31 -20.5 -50.5t-51.5 -19.5t-51.5 19.5t-20.5 50.5v41q0 30 20.5 49.5t51.5 19.5zM639 1759q31 0 51.5 -19.5t20.5 -49.5v-41q0 -31 -20.5 -50.5t-51.5 -19.5t-51.5 19.5t-20.5 50.5v41q0 30 20.5 49.5t51.5 19.5z" />
    <glyph glyph-name="Aring" unicode="&#xc5;" horiz-adv-x="1617" 
d="M887 1389l610 -1323q4 -8 4 -23q0 -20 -15.5 -35.5t-37.5 -15.5q-33 0 -51 41l-168 368h-846l-168 -370q-16 -39 -49 -39q-21 0 -36 15t-15 34q0 8 4 20l612 1328q-54 22 -88.5 69.5t-34.5 104.5v4q0 77 60.5 133.5t140.5 56.5t140.5 -56.5t60.5 -133.5v-4
q0 -58 -34 -105t-89 -69zM809 1438q51 0 89 37t38 88v4q0 51 -37.5 88t-89.5 37t-89.5 -37t-37.5 -88v-4q0 -51 38 -88t89 -37zM428 498h756l-377 829z" />
    <glyph glyph-name="AE" unicode="&#xc6;" horiz-adv-x="2140" 
d="M72 39q0 12 10 29l807 1333q20 33 53 33h1018q20 0 34.5 -15t14.5 -35t-14.5 -34.5t-34.5 -14.5h-842v-563h750q20 0 34.5 -14.5t14.5 -34.5t-14.5 -34.5t-34.5 -14.5h-750v-576h852q20 0 34.5 -14.5t14.5 -34.5t-14.5 -34.5t-34.5 -14.5h-905q-22 0 -37.5 15.5
t-15.5 37.5v348h-615l-231 -385q-16 -26 -45 -26q-20 0 -34.5 14.5t-14.5 34.5zM455 498h557v839h-54z" />
    <glyph glyph-name="Ccedilla" unicode="&#xc7;" horiz-adv-x="1511" 
d="M1405 199q-115 -106 -236.5 -163t-279.5 -61l-111 -225q-10 -22 -21 -31.5t-32 -9.5q-25 0 -47.5 16t-22.5 33q0 12 11 31l129 191q-185 16 -332.5 116.5t-230 262.5t-82.5 354v4q0 201 91.5 370.5t257 270t367.5 100.5q167 0 289.5 -51t237.5 -150q20 -20 20 -43
q0 -22 -16.5 -37.5t-38.5 -15.5t-37 15q-98 90 -206.5 138t-250.5 48q-127 0 -239 -50t-192 -135.5t-126.5 -204t-46.5 -251.5v-4q0 -134 47 -253.5t127.5 -205.5t193 -136t238.5 -50q141 0 251.5 48.5t215.5 149.5q17 17 37 17t35.5 -15.5t15.5 -35.5q0 -21 -16 -37z" />
    <glyph glyph-name="Egrave" unicode="&#xc8;" horiz-adv-x="1372" 
d="M266 0q-22 0 -37.5 15.5t-15.5 37.5v1327q0 22 15.5 38t37.5 16h926q20 0 34.5 -15t14.5 -35t-14.5 -34.5t-34.5 -14.5h-873v-563h781q20 0 34.5 -14.5t14.5 -34.5t-14.5 -34.5t-34.5 -14.5h-781v-576h883q20 0 34.5 -14.5t14.5 -34.5t-14.5 -34.5t-34.5 -14.5h-936z
M729 1561q-21 0 -34 5t-31 21l-164 158q-23 23 -23 37q0 15 28.5 31t57.5 16q34 0 58 -37l127 -190q8 -12 8 -23q0 -7 -8 -12.5t-19 -5.5z" />
    <glyph glyph-name="Eacute" unicode="&#xc9;" horiz-adv-x="1372" 
d="M266 0q-22 0 -37.5 15.5t-15.5 37.5v1327q0 22 15.5 38t37.5 16h926q20 0 34.5 -15t14.5 -35t-14.5 -34.5t-34.5 -14.5h-873v-563h781q20 0 34.5 -14.5t14.5 -34.5t-14.5 -34.5t-34.5 -14.5h-781v-576h883q20 0 34.5 -14.5t14.5 -34.5t-14.5 -34.5t-34.5 -14.5h-936z
M725 1561q-11 0 -19 5.5t-8 12.5q0 9 9 23l127 190q24 37 57 37q29 0 57.5 -16t28.5 -31q0 -14 -23 -37l-163 -158q-28 -26 -66 -26z" />
    <glyph glyph-name="Ecircumflex" unicode="&#xca;" horiz-adv-x="1372" 
d="M266 0q-22 0 -37.5 15.5t-15.5 37.5v1327q0 22 15.5 38t37.5 16h926q20 0 34.5 -15t14.5 -35t-14.5 -34.5t-34.5 -14.5h-873v-563h781q20 0 34.5 -14.5t14.5 -34.5t-14.5 -34.5t-34.5 -14.5h-781v-576h883q20 0 34.5 -14.5t14.5 -34.5t-14.5 -34.5t-34.5 -14.5h-936z
M725 1706l-129 -119q-28 -26 -66 -26q-12 0 -19 6t-7 14q0 13 10 25l148 180q29 37 57 37h16q29 0 58 -37l147 -180q10 -12 10 -25q0 -8 -7.5 -14t-20.5 -6q-40 0 -68 26z" />
    <glyph glyph-name="Edieresis" unicode="&#xcb;" horiz-adv-x="1372" 
d="M266 0q-22 0 -37.5 15.5t-15.5 37.5v1327q0 22 15.5 38t37.5 16h926q20 0 34.5 -15t14.5 -35t-14.5 -34.5t-34.5 -14.5h-873v-563h781q20 0 34.5 -14.5t14.5 -34.5t-14.5 -34.5t-34.5 -14.5h-781v-576h883q20 0 34.5 -14.5t14.5 -34.5t-14.5 -34.5t-34.5 -14.5h-936z
M895 1739q31 0 51.5 -19.5t20.5 -50.5v-41q0 -30 -20.5 -49.5t-51.5 -19.5t-51.5 19.5t-20.5 49.5v41q0 31 20.5 50.5t51.5 19.5zM559 1739q31 0 51.5 -19.5t20.5 -50.5v-41q0 -30 -20.5 -49.5t-51.5 -19.5t-51.5 19.5t-20.5 49.5v41q0 31 20.5 50.5t51.5 19.5z" />
    <glyph glyph-name="Igrave" unicode="&#xcc;" horiz-adv-x="561" 
d="M227 45v1344q0 22 16 37.5t38 15.5t37.5 -15.5t15.5 -37.5v-1344q0 -22 -15.5 -37.5t-37.5 -15.5t-38 15.5t-16 37.5zM283 1561q-38 0 -66 26l-164 158q-22 22 -22 37t28.5 31t57.5 16q33 0 57 -37l127 -190q8 -12 8 -23q0 -7 -7.5 -12.5t-18.5 -5.5z" />
    <glyph glyph-name="Iacute" unicode="&#xcd;" horiz-adv-x="561" 
d="M227 45v1344q0 22 16 37.5t38 15.5t37.5 -15.5t15.5 -37.5v-1344q0 -22 -15.5 -37.5t-37.5 -15.5t-38 15.5t-16 37.5zM279 1561q-11 0 -19 5.5t-8 12.5q0 11 8 23l127 190q24 37 57 37q29 0 57.5 -16t28.5 -31t-22 -37l-164 -158q-18 -16 -31 -21t-34 -5z" />
    <glyph glyph-name="Icircumflex" unicode="&#xce;" horiz-adv-x="561" 
d="M227 45v1344q0 22 16 37.5t38 15.5t37.5 -15.5t15.5 -37.5v-1344q0 -22 -15.5 -37.5t-37.5 -15.5t-38 15.5t-16 37.5zM279 1706l-129 -119q-28 -26 -66 -26q-12 0 -19.5 6t-7.5 14q0 11 11 25l147 180q29 37 57 37h17q28 0 57 -37l148 -180q10 -12 10 -25q0 -8 -8 -14
t-21 -6q-39 0 -67 26z" />
    <glyph glyph-name="Idieresis" unicode="&#xcf;" horiz-adv-x="561" 
d="M227 45v1344q0 22 16 37.5t38 15.5t37.5 -15.5t15.5 -37.5v-1344q0 -22 -15.5 -37.5t-37.5 -15.5t-38 15.5t-16 37.5zM449 1739q31 0 51 -19.5t20 -50.5v-41q0 -31 -20 -50t-51 -19t-51.5 19.5t-20.5 49.5v41q0 31 20.5 50.5t51.5 19.5zM113 1739q31 0 51 -19.5t20 -50.5
v-41q0 -31 -20 -50t-51 -19t-51.5 19.5t-20.5 49.5v41q0 31 20.5 50.5t51.5 19.5z" />
    <glyph glyph-name="Eth" unicode="&#xd0;" horiz-adv-x="1662" 
d="M162 770h112v610q0 22 16 38t38 16h424q166 0 308.5 -55t241.5 -150t155 -226.5t56 -281.5v-4q0 -150 -56 -282t-155 -228t-241.5 -151.5t-308.5 -55.5h-424q-22 0 -38 15.5t-16 37.5v619h-112q-20 0 -34.5 14.5t-14.5 34.5t14.5 34.5t34.5 14.5zM381 1335v-565h434
q20 0 34.5 -14.5t14.5 -34.5t-14.5 -34.5t-34.5 -14.5h-434v-574h371q146 0 269.5 48t206.5 131t129 195.5t46 240.5v4q0 127 -46 240t-129 196.5t-206.5 132.5t-269.5 49h-371z" />
    <glyph glyph-name="Ntilde" unicode="&#xd1;" horiz-adv-x="1617" 
d="M213 43v1343q0 22 15.5 38t37.5 16h17q29 0 53 -31l967 -1227v1209q0 22 14.5 36.5t36.5 14.5t36.5 -14.5t14.5 -36.5v-1352q0 -19 -12 -32t-31 -13h-8q-26 0 -54 35l-985 1249v-1235q0 -22 -14.5 -36.5t-36.5 -14.5t-36.5 14.5t-14.5 36.5zM592 1573q-14 -29 -37 -29
q-15 0 -26 10t-11 25q0 13 4 25q28 86 66 119.5t96 33.5q40 0 134 -42t128 -42q33 0 53 17.5t39 60.5q14 29 37 29q15 0 26 -10t11 -25q0 -13 -4 -25q-28 -86 -66 -119.5t-96 -33.5q-40 0 -134 42t-128 42q-33 0 -53 -17.5t-39 -60.5z" />
    <glyph glyph-name="Ograve" unicode="&#xd2;" horiz-adv-x="1740" 
d="M868 -25q-158 0 -294.5 60.5t-228 162t-143.5 235.5t-52 280v4q0 146 52.5 280.5t145 236.5t229.5 163t295 61q127 0 241 -39t200 -108t149.5 -161.5t96 -202t32.5 -226.5v-4q0 -146 -52.5 -280.5t-145.5 -237t-230 -163.5t-295 -61zM872 72q130 0 244 50.5t193.5 137
t125.5 204.5t46 249v4q0 131 -46.5 250t-127 205.5t-195 138t-244.5 51.5q-173 0 -313 -86t-217.5 -232.5t-77.5 -322.5v-4q0 -176 78.5 -323.5t219.5 -234.5t314 -87zM872 1581q-36 0 -65 27l-164 157q-22 22 -22 37t28.5 31t57.5 16q33 0 57 -37l127 -190q8 -12 8 -23
q0 -7 -8 -12.5t-19 -5.5z" />
    <glyph glyph-name="Oacute" unicode="&#xd3;" horiz-adv-x="1740" 
d="M868 -25q-158 0 -294.5 60.5t-228 162t-143.5 235.5t-52 280v4q0 146 52.5 280.5t145 236.5t229.5 163t295 61q127 0 241 -39t200 -108t149.5 -161.5t96 -202t32.5 -226.5v-4q0 -146 -52.5 -280.5t-145.5 -237t-230 -163.5t-295 -61zM872 72q130 0 244 50.5t193.5 137
t125.5 204.5t46 249v4q0 131 -46.5 250t-127 205.5t-195 138t-244.5 51.5q-173 0 -313 -86t-217.5 -232.5t-77.5 -322.5v-4q0 -176 78.5 -323.5t219.5 -234.5t314 -87zM868 1581q-11 0 -18.5 5.5t-7.5 12.5q0 11 8 23l127 190q24 37 57 37q29 0 57.5 -16t28.5 -31t-22 -37
l-164 -157q-29 -27 -66 -27z" />
    <glyph glyph-name="Ocircumflex" unicode="&#xd4;" horiz-adv-x="1740" 
d="M868 -25q-158 0 -294.5 60.5t-228 162t-143.5 235.5t-52 280v4q0 146 52.5 280.5t145 236.5t229.5 163t295 61q127 0 241 -39t200 -108t149.5 -161.5t96 -202t32.5 -226.5v-4q0 -146 -52.5 -280.5t-145.5 -237t-230 -163.5t-295 -61zM872 72q130 0 244 50.5t193.5 137
t125.5 204.5t46 249v4q0 131 -46.5 250t-127 205.5t-195 138t-244.5 51.5q-173 0 -313 -86t-217.5 -232.5t-77.5 -322.5v-4q0 -176 78.5 -323.5t219.5 -234.5t314 -87zM868 1726l-129 -118q-29 -27 -65 -27q-11 0 -19 6.5t-8 14.5q0 12 10 24l148 180q29 37 57 37h17
q28 0 57 -37l147 -180q11 -14 11 -24q0 -8 -8 -14.5t-21 -6.5q-39 0 -68 27z" />
    <glyph glyph-name="Otilde" unicode="&#xd5;" horiz-adv-x="1740" 
d="M868 -25q-158 0 -294.5 60.5t-228 162t-143.5 235.5t-52 280v4q0 146 52.5 280.5t145 236.5t229.5 163t295 61q127 0 241 -39t200 -108t149.5 -161.5t96 -202t32.5 -226.5v-4q0 -146 -52.5 -280.5t-145.5 -237t-230 -163.5t-295 -61zM872 72q130 0 244 50.5t193.5 137
t125.5 204.5t46 249v4q0 131 -46.5 250t-127 205.5t-195 138t-244.5 51.5q-173 0 -313 -86t-217.5 -232.5t-77.5 -322.5v-4q0 -176 78.5 -323.5t219.5 -234.5t314 -87zM653 1593q-14 -28 -37 -28q-15 0 -25.5 9.5t-10.5 24.5q0 13 4 25q28 86 65.5 120t95.5 34
q40 0 134.5 -42t128.5 -42q33 0 53 17.5t39 60.5q14 28 37 28q15 0 26 -10t11 -25q0 -9 -5 -24q-28 -86 -65.5 -120t-95.5 -34q-40 0 -134.5 42t-128.5 42q-33 0 -53 -17.5t-39 -60.5z" />
    <glyph glyph-name="Odieresis" unicode="&#xd6;" horiz-adv-x="1740" 
d="M868 -25q-158 0 -294.5 60.5t-228 162t-143.5 235.5t-52 280v4q0 146 52.5 280.5t145 236.5t229.5 163t295 61q127 0 241 -39t200 -108t149.5 -161.5t96 -202t32.5 -226.5v-4q0 -146 -52.5 -280.5t-145.5 -237t-230 -163.5t-295 -61zM872 72q130 0 244 50.5t193.5 137
t125.5 204.5t46 249v4q0 131 -46.5 250t-127 205.5t-195 138t-244.5 51.5q-173 0 -313 -86t-217.5 -232.5t-77.5 -322.5v-4q0 -176 78.5 -323.5t219.5 -234.5t314 -87zM1038 1759q31 0 51.5 -19.5t20.5 -49.5v-41q0 -31 -20.5 -50.5t-51.5 -19.5t-51 19.5t-20 50.5v41
q0 31 20 50t51 19zM702 1759q31 0 51.5 -19.5t20.5 -49.5v-41q0 -31 -20.5 -50.5t-51.5 -19.5t-51 19.5t-20 50.5v41q0 31 20 50t51 19z" />
    <glyph glyph-name="multiply" unicode="&#xd7;" horiz-adv-x="1269" 
d="M1049 1065l-347 -342l345 -340q18 -18 18 -41q0 -22 -14.5 -36.5t-36.5 -14.5q-23 0 -41 18l-340 344l-342 -346q-16 -16 -37 -16q-20 0 -34.5 14.5t-14.5 34.5q0 21 16 37l346 342l-344 340q-18 18 -18 41q0 22 14.5 36.5t36.5 14.5q23 0 41 -18l340 -345l342 347
q16 16 37 16q20 0 34.5 -14.5t14.5 -34.5q0 -21 -16 -37z" />
    <glyph glyph-name="Oslash" unicode="&#xd8;" horiz-adv-x="1740" 
d="M868 -25q-272 0 -467 168l-137 -145q-16 -16 -37 -16q-19 0 -31 12t-12 31t13 32l139 150q-89 101 -137.5 232.5t-48.5 273.5v4q0 146 52.5 280.5t145 236.5t229.5 163t295 61q269 0 467 -170l138 148q16 16 36 16q19 0 31 -12t12 -31q0 -21 -12 -33l-141 -151
q91 -100 139.5 -230.5t48.5 -273.5v-4q0 -146 -52.5 -280.5t-145.5 -237t-230 -163.5t-295 -61zM260 717q0 -248 152 -430l858 921q-170 154 -402 154q-173 0 -313 -86t-217.5 -232.5t-77.5 -322.5v-4zM872 72q130 0 244 50.5t193.5 137t125.5 204.5t46 249v4
q0 242 -152 428l-860 -920q169 -153 403 -153z" />
    <glyph glyph-name="Ugrave" unicode="&#xd9;" horiz-adv-x="1556" 
d="M778 -23q-129 0 -237 41t-186 118t-121.5 194.5t-43.5 265.5v793q0 22 16 37.5t38 15.5t37.5 -15.5t15.5 -37.5v-783q0 -252 128.5 -392t356.5 -140q223 0 350.5 134t127.5 388v793q0 22 15.5 37.5t37.5 15.5t37.5 -15.5t15.5 -37.5v-781q0 -302 -160 -466.5t-428 -164.5
zM780 1561q-21 0 -34 5t-31 21l-164 158q-23 23 -23 37q0 15 28.5 31t57.5 16q34 0 58 -37l127 -190q8 -12 8 -23q0 -7 -8 -12.5t-19 -5.5z" />
    <glyph glyph-name="Uacute" unicode="&#xda;" horiz-adv-x="1556" 
d="M778 -23q-129 0 -237 41t-186 118t-121.5 194.5t-43.5 265.5v793q0 22 16 37.5t38 15.5t37.5 -15.5t15.5 -37.5v-783q0 -252 128.5 -392t356.5 -140q223 0 350.5 134t127.5 388v793q0 22 15.5 37.5t37.5 15.5t37.5 -15.5t15.5 -37.5v-781q0 -302 -160 -466.5t-428 -164.5
zM776 1561q-11 0 -18.5 5.5t-7.5 12.5q0 11 8 23l127 190q24 37 57 37q29 0 57.5 -16t28.5 -31t-22 -37l-164 -158q-28 -26 -66 -26z" />
    <glyph glyph-name="Ucircumflex" unicode="&#xdb;" horiz-adv-x="1556" 
d="M778 -23q-129 0 -237 41t-186 118t-121.5 194.5t-43.5 265.5v793q0 22 16 37.5t38 15.5t37.5 -15.5t15.5 -37.5v-783q0 -252 128.5 -392t356.5 -140q223 0 350.5 134t127.5 388v793q0 22 15.5 37.5t37.5 15.5t37.5 -15.5t15.5 -37.5v-781q0 -302 -160 -466.5t-428 -164.5
zM776 1706l-129 -119q-18 -16 -31 -21t-34 -5q-12 0 -19.5 6t-7.5 14q0 13 10 25l148 180q29 37 57 37h16q29 0 58 -37l147 -180q10 -12 10 -25q0 -8 -7.5 -14t-20.5 -6q-40 0 -68 26z" />
    <glyph glyph-name="Udieresis" unicode="&#xdc;" horiz-adv-x="1556" 
d="M778 -23q-129 0 -237 41t-186 118t-121.5 194.5t-43.5 265.5v793q0 22 16 37.5t38 15.5t37.5 -15.5t15.5 -37.5v-783q0 -252 128.5 -392t356.5 -140q223 0 350.5 134t127.5 388v793q0 22 15.5 37.5t37.5 15.5t37.5 -15.5t15.5 -37.5v-781q0 -302 -160 -466.5t-428 -164.5
zM946 1739q31 0 51.5 -19.5t20.5 -50.5v-41q0 -30 -20.5 -49.5t-51.5 -19.5t-51.5 19.5t-20.5 49.5v41q0 31 20.5 50.5t51.5 19.5zM610 1739q31 0 51.5 -19.5t20.5 -50.5v-41q0 -30 -20.5 -49.5t-51.5 -19.5t-51 19t-20 50v41q0 31 20 50.5t51 19.5z" />
    <glyph glyph-name="Yacute" unicode="&#xdd;" horiz-adv-x="1466" 
d="M680 45v522l-559 789q-10 17 -10 33q0 22 16.5 37.5t38.5 15.5q28 0 49 -31l520 -747l522 747q23 31 48 31q20 0 36.5 -15.5t16.5 -35.5q0 -15 -17 -41l-555 -781v-524q0 -22 -15.5 -37.5t-37.5 -15.5t-37.5 15.5t-15.5 37.5zM731 1561q-11 0 -18.5 5.5t-7.5 12.5
q0 11 8 23l127 190q24 37 57 37q29 0 57.5 -16t28.5 -31t-22 -37l-164 -158q-28 -26 -66 -26z" />
    <glyph glyph-name="Thorn" unicode="&#xde;" horiz-adv-x="1378" 
d="M213 45v1344q0 22 15.5 37.5t37.5 15.5t37.5 -15.5t15.5 -37.5v-215h414q240 0 386.5 -117.5t146.5 -321.5v-4q0 -110 -45 -198.5t-122.5 -144.5t-178 -86t-213.5 -30h-388v-227q0 -22 -15.5 -37.5t-37.5 -15.5t-37.5 15.5t-15.5 37.5zM319 371h394q200 0 323 97.5
t123 256.5v4q0 166 -118 256t-316 90h-406v-704z" />
    <glyph glyph-name="germandbls" unicode="&#xdf;" horiz-adv-x="1269" 
d="M584 41q0 18 12.5 30.5t30.5 14.5q185 10 295 83.5t110 213.5v4q0 68 -30.5 122t-86 90.5t-125.5 60t-155 34.5q-51 7 -51 49q0 38 41 52q315 109 315 348v4q0 117 -85 192.5t-220 75.5q-151 0 -247.5 -106.5t-96.5 -284.5v-983q0 -22 -14.5 -35.5t-36.5 -13.5t-36 13.5
t-14 35.5v983q0 216 123 350.5t328 134.5q182 0 295 -102.5t113 -255.5v-4q0 -72 -27.5 -136.5t-74 -112.5t-102 -83t-118.5 -57q84 -15 156 -43t131 -71.5t93 -108.5t34 -144v-4q0 -182 -141.5 -282.5t-372.5 -108.5q-17 0 -30 13t-13 32z" />
    <glyph glyph-name="agrave" unicode="&#xe0;" horiz-adv-x="1175" 
d="M508 -25q-75 0 -146 21.5t-129 61t-93.5 103.5t-35.5 142v4q0 160 125.5 250t331.5 90q179 0 346 -45v45q0 156 -90.5 238t-253.5 82q-150 0 -297 -70q-12 -6 -22 -6q-19 0 -33 14t-14 33q0 17 9 29t19 16q176 78 344 78q215 0 330 -115q107 -107 107 -295v-608
q0 -23 -14 -37t-36 -14t-35.5 14t-13.5 37v131q-62 -86 -162 -142.5t-237 -56.5zM514 70q163 0 279 90.5t116 230.5v119q-180 47 -354 47q-163 0 -253.5 -66.5t-90.5 -177.5v-4q0 -110 88.5 -174.5t214.5 -64.5zM590 1212q-37 0 -66 27l-164 158q-22 22 -22 37t28.5 31
t57.5 16q33 0 57 -37l127 -191q8 -12 8 -22q0 -8 -8 -13.5t-18 -5.5z" />
    <glyph glyph-name="aacute" unicode="&#xe1;" horiz-adv-x="1175" 
d="M508 -25q-75 0 -146 21.5t-129 61t-93.5 103.5t-35.5 142v4q0 160 125.5 250t331.5 90q179 0 346 -45v45q0 156 -90.5 238t-253.5 82q-150 0 -297 -70q-12 -6 -22 -6q-19 0 -33 14t-14 33q0 17 9 29t19 16q176 78 344 78q215 0 330 -115q107 -107 107 -295v-608
q0 -23 -14 -37t-36 -14t-35.5 14t-13.5 37v131q-62 -86 -162 -142.5t-237 -56.5zM514 70q163 0 279 90.5t116 230.5v119q-180 47 -354 47q-163 0 -253.5 -66.5t-90.5 -177.5v-4q0 -110 88.5 -174.5t214.5 -64.5zM586 1212q-11 0 -19 6t-8 13q0 10 8 22l127 191q24 37 58 37
q29 0 57.5 -16t28.5 -31q0 -14 -23 -37l-164 -158q-29 -27 -65 -27z" />
    <glyph glyph-name="acircumflex" unicode="&#xe2;" horiz-adv-x="1175" 
d="M508 -25q-75 0 -146 21.5t-129 61t-93.5 103.5t-35.5 142v4q0 160 125.5 250t331.5 90q179 0 346 -45v45q0 156 -90.5 238t-253.5 82q-150 0 -297 -70q-12 -6 -22 -6q-19 0 -33 14t-14 33q0 17 9 29t19 16q176 78 344 78q215 0 330 -115q107 -107 107 -295v-608
q0 -23 -14 -37t-36 -14t-35.5 14t-13.5 37v131q-62 -86 -162 -142.5t-237 -56.5zM514 70q163 0 279 90.5t116 230.5v119q-180 47 -354 47q-163 0 -253.5 -66.5t-90.5 -177.5v-4q0 -110 88.5 -174.5t214.5 -64.5zM586 1358l-129 -119q-29 -27 -66 -27q-11 0 -18.5 6.5
t-7.5 14.5q0 11 10 24l147 181q29 37 58 37h16q28 0 57 -37l148 -181q10 -13 10 -24q0 -8 -8 -14.5t-21 -6.5q-38 0 -67 27z" />
    <glyph glyph-name="atilde" unicode="&#xe3;" horiz-adv-x="1175" 
d="M508 -25q-75 0 -146 21.5t-129 61t-93.5 103.5t-35.5 142v4q0 160 125.5 250t331.5 90q179 0 346 -45v45q0 156 -90.5 238t-253.5 82q-150 0 -297 -70q-12 -6 -22 -6q-19 0 -33 14t-14 33q0 17 9 29t19 16q176 78 344 78q215 0 330 -115q107 -107 107 -295v-608
q0 -23 -14 -37t-36 -14t-35.5 14t-13.5 37v131q-62 -86 -162 -142.5t-237 -56.5zM514 70q163 0 279 90.5t116 230.5v119q-180 47 -354 47q-163 0 -253.5 -66.5t-90.5 -177.5v-4q0 -110 88.5 -174.5t214.5 -64.5zM371 1225q-15 -29 -37 -29q-15 0 -26 10t-11 25q0 12 4 24
q28 86 66 120t96 34q40 0 134 -42t128 -42q33 0 53 17.5t39 60.5q15 29 37 29q15 0 26 -10t11 -25q0 -13 -4 -25q-28 -86 -66 -119.5t-96 -33.5q-40 0 -134 42t-128 42q-33 0 -53 -17.5t-39 -60.5z" />
    <glyph glyph-name="adieresis" unicode="&#xe4;" horiz-adv-x="1175" 
d="M508 -25q-75 0 -146 21.5t-129 61t-93.5 103.5t-35.5 142v4q0 160 125.5 250t331.5 90q179 0 346 -45v45q0 156 -90.5 238t-253.5 82q-150 0 -297 -70q-12 -6 -22 -6q-19 0 -33 14t-14 33q0 17 9 29t19 16q176 78 344 78q215 0 330 -115q107 -107 107 -295v-608
q0 -23 -14 -37t-36 -14t-35.5 14t-13.5 37v131q-62 -86 -162 -142.5t-237 -56.5zM514 70q163 0 279 90.5t116 230.5v119q-180 47 -354 47q-163 0 -253.5 -66.5t-90.5 -177.5v-4q0 -110 88.5 -174.5t214.5 -64.5zM756 1391q31 0 51 -19.5t20 -50.5v-41q0 -31 -20 -50.5
t-51 -19.5t-51.5 19.5t-20.5 50.5v41q0 31 20.5 50.5t51.5 19.5zM420 1391q31 0 51.5 -19.5t20.5 -50.5v-41q0 -31 -20.5 -50.5t-51.5 -19.5t-51.5 19.5t-20.5 50.5v41q0 31 20.5 50.5t51.5 19.5z" />
    <glyph glyph-name="aring" unicode="&#xe5;" horiz-adv-x="1175" 
d="M508 -25q-75 0 -146 21.5t-129 61t-93.5 103.5t-35.5 142v4q0 160 125.5 250t331.5 90q179 0 346 -45v45q0 156 -90.5 238t-253.5 82q-150 0 -297 -70q-12 -6 -22 -6q-19 0 -33 14t-14 33q0 17 9 29t19 16q176 78 344 78q215 0 330 -115q107 -107 107 -295v-608
q0 -23 -14 -37t-36 -14t-35.5 14t-13.5 37v131q-62 -86 -162 -142.5t-237 -56.5zM514 70q163 0 279 90.5t116 230.5v119q-180 47 -354 47q-163 0 -253.5 -66.5t-90.5 -177.5v-4q0 -110 88.5 -174.5t214.5 -64.5zM588 1214q-80 0 -140.5 57t-60.5 134v4q0 77 60.5 133.5
t140.5 56.5t140 -56.5t60 -133.5v-4q0 -78 -60 -134.5t-140 -56.5zM588 1280q51 0 89 37t38 88v4q0 51 -37.5 88t-89.5 37t-89.5 -37t-37.5 -88v-4q0 -51 38 -88t89 -37z" />
    <glyph glyph-name="ae" unicode="&#xe6;" horiz-adv-x="1953" 
d="M983 571h760q-5 81 -31 152.5t-71 129t-115.5 91t-157.5 33.5q-154 0 -262.5 -116t-122.5 -290zM504 70q243 0 418 219q-42 106 -45 223q-198 45 -332 45q-158 0 -246 -66.5t-88 -177.5v-4q0 -110 84 -174.5t209 -64.5zM1796 145q-83 -83 -178.5 -126.5t-228.5 -43.5
q-129 0 -241 61.5t-181 168.5q-201 -230 -469 -230q-74 0 -143.5 21t-126 61t-90.5 104t-34 142v4q0 160 123 250t324 90q161 0 328 -45v45q0 157 -86 238.5t-244 81.5q-136 0 -283 -70q-12 -6 -22 -6q-19 0 -33 14t-14 33q0 17 9 29t19 16q169 78 330 78q157 0 258.5 -66.5
t136.5 -195.5q63 124 174.5 197t247.5 73q143 0 253 -73t168 -195.5t58 -272.5q0 -19 -15 -33t-34 -14h-819q13 -188 131.5 -299.5t278.5 -111.5q192 0 338 143q14 14 32 14q20 0 34.5 -13.5t14.5 -33.5q0 -19 -16 -35z" />
    <glyph glyph-name="ccedilla" unicode="&#xe7;" horiz-adv-x="1169" 
d="M1055 156q-167 -171 -379 -181l-111 -225q-10 -22 -21 -31.5t-32 -9.5q-25 0 -47.5 16t-22.5 33q0 12 11 31l129 191q-199 26 -331 180.5t-132 357.5v4q0 145 70 270.5t193 201t269 75.5q124 0 217.5 -44.5t175.5 -121.5q15 -15 15 -37t-14.5 -36.5t-36.5 -14.5
q-23 0 -35 12q-73 69 -150 108.5t-174 39.5q-178 0 -300 -130.5t-122 -318.5v-4q0 -189 125 -320.5t305 -131.5q179 0 328 149q17 17 33 17q19 0 34 -15.5t15 -34.5q0 -18 -12 -30z" />
    <glyph glyph-name="egrave" unicode="&#xe8;" horiz-adv-x="1196" 
d="M225 571h760q-5 81 -31 152.5t-71 129t-115.5 91t-157.5 33.5q-154 0 -262.5 -116t-122.5 -290zM1038 145q-83 -83 -178.5 -126.5t-228.5 -43.5q-102 0 -195.5 40t-163.5 110t-111.5 173t-41.5 222v4q0 112 38 212.5t103 173.5t157.5 116t196.5 43q143 0 253.5 -73
t168.5 -195.5t58 -272.5q0 -19 -15.5 -33t-34.5 -14h-819q13 -188 131.5 -299.5t278.5 -111.5q192 0 338 143q14 14 33 14q20 0 34.5 -13.5t14.5 -33.5q0 -18 -17 -35zM616 1212q-36 0 -65 27l-164 158q-22 22 -22 37t28.5 31t57.5 16q33 0 57 -37l127 -191q8 -12 8 -22
q0 -7 -8 -13t-19 -6z" />
    <glyph glyph-name="eacute" unicode="&#xe9;" horiz-adv-x="1196" 
d="M225 571h760q-5 81 -31 152.5t-71 129t-115.5 91t-157.5 33.5q-154 0 -262.5 -116t-122.5 -290zM1038 145q-83 -83 -178.5 -126.5t-228.5 -43.5q-102 0 -195.5 40t-163.5 110t-111.5 173t-41.5 222v4q0 112 38 212.5t103 173.5t157.5 116t196.5 43q143 0 253.5 -73
t168.5 -195.5t58 -272.5q0 -19 -15.5 -33t-34.5 -14h-819q13 -188 131.5 -299.5t278.5 -111.5q192 0 338 143q14 14 33 14q20 0 34.5 -13.5t14.5 -33.5q0 -18 -17 -35zM612 1212q-10 0 -18 5.5t-8 13.5q0 10 8 22l127 191q24 37 57 37q29 0 57.5 -16t28.5 -31t-22 -37
l-164 -158q-29 -27 -66 -27z" />
    <glyph glyph-name="ecircumflex" unicode="&#xea;" horiz-adv-x="1196" 
d="M225 571h760q-5 81 -31 152.5t-71 129t-115.5 91t-157.5 33.5q-154 0 -262.5 -116t-122.5 -290zM1038 145q-83 -83 -178.5 -126.5t-228.5 -43.5q-102 0 -195.5 40t-163.5 110t-111.5 173t-41.5 222v4q0 112 38 212.5t103 173.5t157.5 116t196.5 43q143 0 253.5 -73
t168.5 -195.5t58 -272.5q0 -19 -15.5 -33t-34.5 -14h-819q13 -188 131.5 -299.5t278.5 -111.5q192 0 338 143q14 14 33 14q20 0 34.5 -13.5t14.5 -33.5q0 -18 -17 -35zM612 1358l-129 -119q-29 -27 -65 -27q-11 0 -19 6.5t-8 14.5q0 11 10 24l148 181q29 37 57 37h17
q28 0 57 -37l147 -181q11 -14 11 -24q0 -8 -8 -14.5t-21 -6.5q-39 0 -68 27z" />
    <glyph glyph-name="edieresis" unicode="&#xeb;" horiz-adv-x="1196" 
d="M225 571h760q-5 81 -31 152.5t-71 129t-115.5 91t-157.5 33.5q-154 0 -262.5 -116t-122.5 -290zM1038 145q-83 -83 -178.5 -126.5t-228.5 -43.5q-102 0 -195.5 40t-163.5 110t-111.5 173t-41.5 222v4q0 112 38 212.5t103 173.5t157.5 116t196.5 43q143 0 253.5 -73
t168.5 -195.5t58 -272.5q0 -19 -15.5 -33t-34.5 -14h-819q13 -188 131.5 -299.5t278.5 -111.5q192 0 338 143q14 14 33 14q20 0 34.5 -13.5t14.5 -33.5q0 -18 -17 -35zM782 1391q31 0 51.5 -19.5t20.5 -50.5v-41q0 -31 -20.5 -50.5t-51.5 -19.5t-51 19.5t-20 50.5v41
q0 31 20 50.5t51 19.5zM446 1391q31 0 51.5 -19.5t20.5 -50.5v-41q0 -31 -20.5 -50.5t-51.5 -19.5t-51 19.5t-20 50.5v41q0 31 20 50.5t51 19.5z" />
    <glyph glyph-name="igrave" unicode="&#xec;" horiz-adv-x="509" 
d="M205 43v958q0 22 14 37t35 15q22 0 36.5 -14.5t14.5 -37.5v-958q0 -23 -13.5 -37t-35.5 -14t-36.5 14t-14.5 37zM256 1212q-37 0 -66 27l-163 158q-23 23 -23 37q0 15 28.5 31t57.5 16q33 0 57 -37l127 -191q9 -13 9 -22q0 -7 -8 -13t-19 -6z" />
    <glyph glyph-name="iacute" unicode="&#xed;" horiz-adv-x="509" 
d="M205 43v958q0 22 14 37t35 15q22 0 36.5 -14.5t14.5 -37.5v-958q0 -23 -13.5 -37t-35.5 -14t-36.5 14t-14.5 37zM252 1212q-11 0 -19 6t-8 13q0 10 8 22l127 191q24 37 58 37q29 0 57.5 -16t28.5 -31q0 -14 -23 -37l-164 -158q-29 -27 -65 -27z" />
    <glyph glyph-name="icircumflex" unicode="&#xee;" horiz-adv-x="509" 
d="M205 43v958q0 22 14 37t35 15q22 0 36.5 -14.5t14.5 -37.5v-958q0 -23 -13.5 -37t-35.5 -14t-36.5 14t-14.5 37zM252 1358l-129 -119q-29 -27 -66 -27q-11 0 -18.5 6.5t-7.5 14.5q0 11 10 24l147 181q29 37 58 37h16q28 0 57 -37l148 -181q10 -13 10 -24q0 -8 -7.5 -14.5
t-20.5 -6.5q-39 0 -68 27z" />
    <glyph glyph-name="idieresis" unicode="&#xef;" horiz-adv-x="509" 
d="M205 43v958q0 22 14 37t35 15q22 0 36.5 -14.5t14.5 -37.5v-958q0 -23 -13.5 -37t-35.5 -14t-36.5 14t-14.5 37zM422 1391q31 0 51.5 -19.5t20.5 -50.5v-41q0 -31 -20.5 -50.5t-51.5 -19.5t-51.5 19.5t-20.5 50.5v41q0 31 20.5 50.5t51.5 19.5zM86 1391q31 0 51.5 -19.5
t20.5 -50.5v-41q0 -31 -20.5 -50.5t-51.5 -19.5t-51.5 19.5t-20.5 50.5v41q0 31 20.5 50.5t51.5 19.5z" />
    <glyph glyph-name="eth" unicode="&#xf0;" horiz-adv-x="1286" 
d="M973 866l-301 426l-250 -127q-12 -6 -25 -6q-19 0 -32 14t-13 33q0 26 29 41l240 117l-37 53q-13 17 -13 37t15 34.5t37 14.5q28 0 47 -26l43 -66l176 90q12 6 24 6q19 0 32 -14t13 -33q0 -27 -28 -41l-166 -82l221 -329q90 -132 134 -246t44 -254q0 -106 -38 -202.5
t-105.5 -170t-168 -117t-218.5 -43.5q-144 0 -263 72t-185 192.5t-66 260.5q0 108 40.5 202t108 157.5t157 99.5t185.5 36q114 0 199.5 -34t163.5 -95zM1055 498q0 168 -125 287.5t-307 119.5q-179 0 -287.5 -117t-108.5 -294q0 -109 52.5 -206t149.5 -157.5t214 -60.5
q119 0 214.5 60t146.5 157t51 211z" />
    <glyph glyph-name="ntilde" unicode="&#xf1;" horiz-adv-x="1255" 
d="M190 43v958q0 22 14 37t36 15t36.5 -14.5t14.5 -37.5v-151q125 219 377 219q194 0 305.5 -119t111.5 -311v-596q0 -23 -13.5 -37t-35.5 -14t-36.5 14t-14.5 37v578q0 163 -88 259.5t-244 96.5q-155 0 -258.5 -105.5t-103.5 -267.5v-561q0 -23 -13.5 -37t-35.5 -14t-37 14
t-15 37zM420 1225q-14 -29 -37 -29q-15 0 -26 10t-11 25q0 12 4 24q28 86 66 120t96 34q40 0 134 -42t128 -42q33 0 53 17.5t39 60.5q14 29 37 29q15 0 26 -10t11 -25q0 -13 -4 -25q-28 -86 -66 -119.5t-96 -33.5q-40 0 -134 42t-128 42q-33 0 -53 -17.5t-39 -60.5z" />
    <glyph glyph-name="ograve" unicode="&#xf2;" horiz-adv-x="1310" 
d="M653 -25q-113 0 -213 44t-170 117.5t-110.5 173t-40.5 208.5v4q0 109 41 209t111 174.5t171 119t215 44.5q151 0 274.5 -74.5t192 -198.5t68.5 -270v-4q0 -146 -69 -271t-193.5 -200.5t-276.5 -75.5zM657 70q121 0 219.5 60.5t152.5 163t54 224.5v4q0 190 -124.5 321.5
t-305.5 131.5q-183 0 -304.5 -131t-121.5 -318v-4q0 -189 124.5 -320.5t305.5 -131.5zM657 1212q-36 0 -65 27l-164 158q-22 22 -22 37t28.5 31t57.5 16q33 0 57 -37l127 -191q8 -12 8 -22q0 -7 -8 -13t-19 -6z" />
    <glyph glyph-name="oacute" unicode="&#xf3;" horiz-adv-x="1310" 
d="M653 -25q-113 0 -213 44t-170 117.5t-110.5 173t-40.5 208.5v4q0 109 41 209t111 174.5t171 119t215 44.5q151 0 274.5 -74.5t192 -198.5t68.5 -270v-4q0 -146 -69 -271t-193.5 -200.5t-276.5 -75.5zM657 70q121 0 219.5 60.5t152.5 163t54 224.5v4q0 190 -124.5 321.5
t-305.5 131.5q-183 0 -304.5 -131t-121.5 -318v-4q0 -189 124.5 -320.5t305.5 -131.5zM653 1212q-10 0 -18 5.5t-8 13.5q0 10 8 22l127 191q24 37 57 37q29 0 57.5 -16t28.5 -31t-22 -37l-164 -158q-29 -27 -66 -27z" />
    <glyph glyph-name="ocircumflex" unicode="&#xf4;" horiz-adv-x="1310" 
d="M653 -25q-113 0 -213 44t-170 117.5t-110.5 173t-40.5 208.5v4q0 109 41 209t111 174.5t171 119t215 44.5q151 0 274.5 -74.5t192 -198.5t68.5 -270v-4q0 -146 -69 -271t-193.5 -200.5t-276.5 -75.5zM657 70q121 0 219.5 60.5t152.5 163t54 224.5v4q0 190 -124.5 321.5
t-305.5 131.5q-183 0 -304.5 -131t-121.5 -318v-4q0 -189 124.5 -320.5t305.5 -131.5zM653 1358l-129 -119q-29 -27 -65 -27q-11 0 -19 6.5t-8 14.5q0 11 10 24l148 181q29 37 57 37h17q28 0 57 -37l147 -181q11 -14 11 -24q0 -8 -8 -14.5t-21 -6.5q-39 0 -68 27z" />
    <glyph glyph-name="otilde" unicode="&#xf5;" horiz-adv-x="1310" 
d="M653 -25q-113 0 -213 44t-170 117.5t-110.5 173t-40.5 208.5v4q0 109 41 209t111 174.5t171 119t215 44.5q151 0 274.5 -74.5t192 -198.5t68.5 -270v-4q0 -146 -69 -271t-193.5 -200.5t-276.5 -75.5zM657 70q121 0 219.5 60.5t152.5 163t54 224.5v4q0 190 -124.5 321.5
t-305.5 131.5q-183 0 -304.5 -131t-121.5 -318v-4q0 -189 124.5 -320.5t305.5 -131.5zM438 1225q-14 -29 -37 -29q-15 0 -25.5 10t-10.5 25q0 12 4 24q28 86 65.5 120t95.5 34q40 0 134.5 -42t128.5 -42q33 0 53 17.5t39 60.5q15 29 37 29q15 0 25.5 -10t10.5 -25
q0 -13 -4 -25q-28 -86 -65.5 -119.5t-95.5 -33.5q-40 0 -134.5 42t-128.5 42q-33 0 -53 -17.5t-39 -60.5z" />
    <glyph glyph-name="odieresis" unicode="&#xf6;" horiz-adv-x="1310" 
d="M653 -25q-113 0 -213 44t-170 117.5t-110.5 173t-40.5 208.5v4q0 109 41 209t111 174.5t171 119t215 44.5q151 0 274.5 -74.5t192 -198.5t68.5 -270v-4q0 -146 -69 -271t-193.5 -200.5t-276.5 -75.5zM657 70q121 0 219.5 60.5t152.5 163t54 224.5v4q0 190 -124.5 321.5
t-305.5 131.5q-183 0 -304.5 -131t-121.5 -318v-4q0 -189 124.5 -320.5t305.5 -131.5zM823 1391q31 0 51.5 -19.5t20.5 -50.5v-41q0 -31 -20.5 -50.5t-51.5 -19.5t-51 19.5t-20 50.5v41q0 31 20 50.5t51 19.5zM487 1391q31 0 51.5 -19.5t20.5 -50.5v-41q0 -31 -20.5 -50.5
t-51.5 -19.5t-51 19.5t-20 50.5v41q0 31 20 50.5t51 19.5z" />
    <glyph glyph-name="divide" unicode="&#xf7;" horiz-adv-x="1269" 
d="M180 672h910q20 0 34.5 14.5t14.5 34.5t-14.5 34.5t-34.5 14.5h-910q-20 0 -34.5 -14.5t-14.5 -34.5t14.5 -34.5t34.5 -14.5zM635 1214q34 0 58 -23.5t24 -57.5v-35q0 -34 -24 -58t-58 -24t-58 24t-24 58v35q0 34 24 57.5t58 23.5zM635 426q34 0 58 -24t24 -58v-35
q0 -34 -24 -58t-58 -24t-58 24t-24 58v35q0 34 24 58t58 24z" />
    <glyph glyph-name="oslash" unicode="&#xf8;" horiz-adv-x="1310" 
d="M653 -25q-196 0 -342 123l-98 -100q-16 -16 -37 -16q-18 0 -29.5 10.5t-11.5 27.5q0 19 12 31l103 107q-131 157 -131 360v4q0 109 41 209t111 174.5t171 119t215 44.5q198 0 342 -125l99 107q16 16 37 16q17 0 29 -11t12 -28q0 -18 -13 -31l-104 -110q133 -152 133 -361
v-4q0 -146 -69 -271t-193.5 -200.5t-276.5 -75.5zM657 70q121 0 219.5 60.5t152.5 163t54 224.5v4q0 164 -98 289l-608 -635q118 -106 280 -106zM227 522q0 -165 97 -289l610 633q-122 109 -281 109q-183 0 -304.5 -131t-121.5 -318v-4z" />
    <glyph glyph-name="ugrave" unicode="&#xf9;" horiz-adv-x="1255" 
d="M1065 1001v-958q0 -22 -13.5 -36.5t-35.5 -14.5t-36.5 14t-14.5 37v152q-125 -220 -377 -220q-194 0 -306 119.5t-112 311.5v595q0 23 13.5 37.5t35.5 14.5t36.5 -14.5t14.5 -37.5v-577q0 -163 88 -259.5t244 -96.5q155 0 259 105t104 267v561q0 23 13.5 37.5t35.5 14.5
t36.5 -14.5t14.5 -37.5zM618 1212q-36 0 -65 27l-164 158q-22 22 -22 37t28.5 31t57.5 16q33 0 57 -37l127 -191q8 -12 8 -22q0 -7 -8 -13t-19 -6z" />
    <glyph glyph-name="uacute" unicode="&#xfa;" horiz-adv-x="1255" 
d="M1065 1001v-958q0 -22 -13.5 -36.5t-35.5 -14.5t-36.5 14t-14.5 37v152q-125 -220 -377 -220q-194 0 -306 119.5t-112 311.5v595q0 23 13.5 37.5t35.5 14.5t36.5 -14.5t14.5 -37.5v-577q0 -163 88 -259.5t244 -96.5q155 0 259 105t104 267v561q0 23 13.5 37.5t35.5 14.5
t36.5 -14.5t14.5 -37.5zM614 1212q-10 0 -18 5.5t-8 13.5q0 10 8 22l127 191q24 37 57 37q29 0 57.5 -16t28.5 -31t-22 -37l-164 -158q-29 -27 -66 -27z" />
    <glyph glyph-name="ucircumflex" unicode="&#xfb;" horiz-adv-x="1255" 
d="M1065 1001v-958q0 -22 -13.5 -36.5t-35.5 -14.5t-36.5 14t-14.5 37v152q-125 -220 -377 -220q-194 0 -306 119.5t-112 311.5v595q0 23 13.5 37.5t35.5 14.5t36.5 -14.5t14.5 -37.5v-577q0 -163 88 -259.5t244 -96.5q155 0 259 105t104 267v561q0 23 13.5 37.5t35.5 14.5
t36.5 -14.5t14.5 -37.5zM614 1358l-129 -119q-29 -27 -65 -27q-11 0 -19 6.5t-8 14.5q0 11 10 24l148 181q29 37 57 37h17q28 0 57 -37l147 -181q11 -14 11 -24q0 -8 -8 -14.5t-21 -6.5q-39 0 -68 27z" />
    <glyph glyph-name="udieresis" unicode="&#xfc;" horiz-adv-x="1255" 
d="M1065 1001v-958q0 -22 -13.5 -36.5t-35.5 -14.5t-36.5 14t-14.5 37v152q-125 -220 -377 -220q-194 0 -306 119.5t-112 311.5v595q0 23 13.5 37.5t35.5 14.5t36.5 -14.5t14.5 -37.5v-577q0 -163 88 -259.5t244 -96.5q155 0 259 105t104 267v561q0 23 13.5 37.5t35.5 14.5
t36.5 -14.5t14.5 -37.5zM784 1391q31 0 51.5 -19.5t20.5 -50.5v-41q0 -31 -20.5 -50.5t-51.5 -19.5t-51 19.5t-20 50.5v41q0 31 20 50.5t51 19.5zM449 1391q31 0 51 -19.5t20 -50.5v-41q0 -31 -20 -50.5t-51 -19.5t-51.5 19.5t-20.5 50.5v41q0 31 20.5 50.5t51.5 19.5z" />
    <glyph glyph-name="yacute" unicode="&#xfd;" horiz-adv-x="1204" 
d="M317 -334q-87 0 -178 33q-28 11 -28 43q0 20 13.5 33.5t33.5 13.5q8 0 32 -8q58 -21 134 -21q84 0 141 55.5t110 176.5l7 14l-467 965q-9 23 -9 30q0 22 15.5 37t38.5 15q35 0 53 -41l418 -901l364 905q15 37 49 37q22 0 37 -15t15 -37q0 -11 -6 -26l-424 -1012
q-67 -160 -150 -228.5t-199 -68.5zM608 1212q-10 0 -18 5.5t-8 13.5q0 10 8 22l127 191q24 37 57 37q29 0 57.5 -16t28.5 -31t-22 -37l-164 -158q-29 -27 -66 -27z" />
    <glyph glyph-name="thorn" unicode="&#xfe;" 
d="M190 -285v1737q0 23 14 37t36 14t36.5 -14t14.5 -37v-641q169 258 430 258q95 0 185.5 -38t162.5 -105.5t116 -172t44 -227.5v-4q0 -123 -44 -228t-116 -173.5t-162.5 -107t-185.5 -38.5q-266 0 -430 250v-510q0 -23 -13.5 -37t-35.5 -14t-37 14t-15 37zM711 72
q176 0 292.5 120.5t116.5 325.5v4q0 100 -33 185.5t-89 143t-130.5 90t-156.5 32.5q-81 0 -158 -33t-136.5 -91t-95.5 -143t-36 -182v-4q0 -129 61.5 -233.5t158.5 -159.5t206 -55z" />
    <glyph glyph-name="ydieresis" unicode="&#xff;" horiz-adv-x="1204" 
d="M317 -334q-87 0 -178 33q-28 11 -28 43q0 20 13.5 33.5t33.5 13.5q8 0 32 -8q58 -21 134 -21q84 0 141 55.5t110 176.5l7 14l-467 965q-9 23 -9 30q0 22 15.5 37t38.5 15q35 0 53 -41l418 -901l364 905q15 37 49 37q22 0 37 -15t15 -37q0 -11 -6 -26l-424 -1012
q-67 -160 -150 -228.5t-199 -68.5zM778 1391q31 0 51.5 -19.5t20.5 -50.5v-41q0 -31 -20.5 -50.5t-51.5 -19.5t-51 19.5t-20 50.5v41q0 31 20 50.5t51 19.5zM442 1391q31 0 51.5 -19.5t20.5 -50.5v-41q0 -31 -20.5 -50.5t-51.5 -19.5t-51 19.5t-20 50.5v41q0 31 20 50.5
t51 19.5z" />
    <glyph glyph-name="Amacron" unicode="&#x100;" horiz-adv-x="1617" 
d="M115 37q0 17 8 33l612 1327q23 51 72 51h4q49 0 72 -51l610 -1323q8 -16 8 -33q0 -20 -14.5 -34.5t-36.5 -14.5q-35 0 -53 41l-168 368h-846l-168 -370q-16 -39 -51 -39q-20 0 -34.5 13t-14.5 32zM428 498h756l-377 829zM1077 1640h-540q-20 0 -35 15t-15 35t15 34.5
t35 14.5h540q20 0 34.5 -14.5t14.5 -34.5t-14.5 -35t-34.5 -15z" />
    <glyph glyph-name="amacron" unicode="&#x101;" horiz-adv-x="1175" 
d="M508 -25q-75 0 -146 21.5t-129 61t-93.5 103.5t-35.5 142v4q0 160 125.5 250t331.5 90q179 0 346 -45v45q0 156 -90.5 238t-253.5 82q-150 0 -297 -70q-12 -6 -22 -6q-19 0 -33 14t-14 33q0 17 9 29t19 16q176 78 344 78q215 0 330 -115q107 -107 107 -295v-608
q0 -23 -14 -37t-36 -14t-35.5 14t-13.5 37v131q-62 -86 -162 -142.5t-237 -56.5zM514 70q163 0 279 90.5t116 230.5v119q-180 47 -354 47q-163 0 -253.5 -66.5t-90.5 -177.5v-4q0 -110 88.5 -174.5t214.5 -64.5zM858 1272h-541q-20 0 -34.5 14.5t-14.5 34.5t14.5 34.5
t34.5 14.5h541q20 0 34.5 -14.5t14.5 -34.5t-14.5 -34.5t-34.5 -14.5z" />
    <glyph glyph-name="Abreve" unicode="&#x102;" horiz-adv-x="1617" 
d="M115 37q0 17 8 33l612 1327q23 51 72 51h4q49 0 72 -51l610 -1323q8 -16 8 -33q0 -20 -14.5 -34.5t-36.5 -14.5q-35 0 -53 41l-168 368h-846l-168 -370q-16 -39 -51 -39q-20 0 -34.5 13t-14.5 32zM428 498h756l-377 829zM807 1583q-170 0 -244 139q-22 42 -22 78
q0 21 10.5 33t28.5 12q31 0 43 -35q47 -122 184 -122t184 122q12 35 43 35q18 0 28.5 -12t10.5 -33q0 -36 -22 -78q-74 -139 -244 -139z" />
    <glyph glyph-name="abreve" unicode="&#x103;" horiz-adv-x="1175" 
d="M508 -25q-75 0 -146 21.5t-129 61t-93.5 103.5t-35.5 142v4q0 160 125.5 250t331.5 90q179 0 346 -45v45q0 156 -90.5 238t-253.5 82q-150 0 -297 -70q-12 -6 -22 -6q-19 0 -33 14t-14 33q0 17 9 29t19 16q176 78 344 78q215 0 330 -115q107 -107 107 -295v-608
q0 -23 -14 -37t-36 -14t-35.5 14t-13.5 37v131q-62 -86 -162 -142.5t-237 -56.5zM514 70q163 0 279 90.5t116 230.5v119q-180 47 -354 47q-163 0 -253.5 -66.5t-90.5 -177.5v-4q0 -110 88.5 -174.5t214.5 -64.5zM588 1214q-169 0 -244 140q-22 42 -22 78q0 45 38 45
q31 0 43 -35q47 -123 185 -123q137 0 184 123q12 35 43 35q18 0 28.5 -12t10.5 -33q0 -34 -23 -78q-75 -140 -243 -140z" />
    <glyph glyph-name="Aogonek" unicode="&#x104;" horiz-adv-x="1617" 
d="M115 37q0 17 8 33l612 1327q23 51 72 51h4q49 0 72 -51l616 -1336q8 -16 8 -32q0 -24 -24 -43q-53 -44 -76 -77t-23 -71q0 -41 28 -62.5t81 -31.5q55 -10 55 -41q0 -17 -11 -27t-30 -10q-16 0 -38.5 2.5t-57 13t-62 26.5t-47.5 47t-20 71q0 52 29.5 95t93.5 93l-176 387
h-846l-168 -370q-16 -39 -51 -39q-20 0 -34.5 13t-14.5 32zM428 498h756l-377 829z" />
    <glyph glyph-name="aogonek" unicode="&#x105;" horiz-adv-x="1175" 
d="M780 -174q0 52 31.5 97t95.5 95v156q-62 -86 -162 -142.5t-237 -56.5q-75 0 -146 21.5t-129 61t-93.5 103.5t-35.5 142v4q0 160 125.5 250t331.5 90q179 0 346 -45v45q0 156 -90.5 238t-253.5 82q-150 0 -297 -70q-12 -6 -22 -6q-19 0 -33 14t-14 33q0 17 9 29t19 16
q176 78 344 78q215 0 330 -115q107 -107 107 -295v-616q0 -30 -29 -53q-50 -42 -72 -74t-22 -70q0 -41 27.5 -62.5t80.5 -31.5q56 -10 56 -41q0 -17 -11 -27t-30 -10q-16 0 -38.5 2.5t-57.5 13t-62.5 26.5t-47.5 47t-20 71zM514 70q163 0 279 90.5t116 230.5v119
q-180 47 -354 47q-163 0 -253.5 -66.5t-90.5 -177.5v-4q0 -110 88.5 -174.5t214.5 -64.5z" />
    <glyph glyph-name="Cacute" unicode="&#x106;" horiz-adv-x="1511" 
d="M862 -25q-151 0 -284 57.5t-226.5 156.5t-147.5 235t-54 289v4q0 201 91.5 370.5t257 270t367.5 100.5q167 0 289.5 -51t237.5 -150q20 -20 20 -43q0 -22 -16.5 -37.5t-38.5 -15.5t-37 15q-98 90 -206.5 138t-250.5 48q-127 0 -239 -50t-192 -135.5t-126.5 -204
t-46.5 -251.5v-4q0 -134 47 -253.5t127.5 -205.5t193 -136t238.5 -50q141 0 251.5 48.5t215.5 149.5q17 17 37 17t35.5 -15.5t15.5 -35.5q0 -21 -16 -37q-118 -110 -245.5 -167t-297.5 -57zM854 1581q-11 0 -19 5.5t-8 12.5q0 9 9 23l127 190q24 37 57 37q29 0 57.5 -16
t28.5 -31q0 -14 -23 -37l-163 -157q-29 -27 -66 -27z" />
    <glyph glyph-name="cacute" unicode="&#x107;" horiz-adv-x="1169" 
d="M651 -25q-147 0 -270 74.5t-192.5 199t-69.5 269.5v4q0 145 70 270.5t193 201t269 75.5q124 0 217.5 -44.5t175.5 -121.5q15 -15 15 -37t-14.5 -36.5t-36.5 -14.5q-23 0 -35 12q-73 69 -150 108.5t-174 39.5q-178 0 -300 -130.5t-122 -318.5v-4q0 -189 125 -320.5
t305 -131.5q179 0 328 149q17 17 33 17q19 0 34 -15.5t15 -34.5q0 -18 -12 -30q-85 -87 -182 -134t-222 -47zM639 1212q-11 0 -19 6t-8 13q0 9 9 22l127 191q24 37 57 37q29 0 57.5 -16t28.5 -31q0 -14 -23 -37l-163 -158q-29 -27 -66 -27z" />
    <glyph glyph-name="Cdotaccent" unicode="&#x10a;" horiz-adv-x="1511" 
d="M862 -25q-151 0 -284 57.5t-226.5 156.5t-147.5 235t-54 289v4q0 201 91.5 370.5t257 270t367.5 100.5q167 0 289.5 -51t237.5 -150q20 -20 20 -43q0 -22 -16.5 -37.5t-38.5 -15.5t-37 15q-98 90 -206.5 138t-250.5 48q-127 0 -239 -50t-192 -135.5t-126.5 -204
t-46.5 -251.5v-4q0 -134 47 -253.5t127.5 -205.5t193 -136t238.5 -50q141 0 251.5 48.5t215.5 149.5q17 17 37 17t35.5 -15.5t15.5 -35.5q0 -21 -16 -37q-118 -110 -245.5 -167t-297.5 -57zM930 1690v-39q0 -32 -21 -52t-53 -20t-53 20t-21 52v39q0 32 20.5 51.5t53.5 19.5
t53.5 -19.5t20.5 -51.5z" />
    <glyph glyph-name="cdotaccent" unicode="&#x10b;" horiz-adv-x="1169" 
d="M651 -25q-147 0 -270 74.5t-192.5 199t-69.5 269.5v4q0 145 70 270.5t193 201t269 75.5q124 0 217.5 -44.5t175.5 -121.5q15 -15 15 -37t-14.5 -36.5t-36.5 -14.5q-23 0 -35 12q-73 69 -150 108.5t-174 39.5q-178 0 -300 -130.5t-122 -318.5v-4q0 -189 125 -320.5
t305 -131.5q179 0 328 149q17 17 33 17q19 0 34 -15.5t15 -34.5q0 -18 -12 -30q-85 -87 -182 -134t-222 -47zM715 1321v-39q0 -32 -21 -52t-53 -20t-53 20t-21 52v39q0 32 21 52t53 20t53 -20t21 -52z" />
    <glyph glyph-name="Ccaron" unicode="&#x10c;" horiz-adv-x="1511" 
d="M862 -25q-151 0 -284 57.5t-226.5 156.5t-147.5 235t-54 289v4q0 201 91.5 370.5t257 270t367.5 100.5q167 0 289.5 -51t237.5 -150q20 -20 20 -43q0 -22 -16.5 -37.5t-38.5 -15.5t-37 15q-98 90 -206.5 138t-250.5 48q-127 0 -239 -50t-192 -135.5t-126.5 -204
t-46.5 -251.5v-4q0 -134 47 -253.5t127.5 -205.5t193 -136t238.5 -50q141 0 251.5 48.5t215.5 149.5q17 17 37 17t35.5 -15.5t15.5 -35.5q0 -21 -16 -37q-118 -110 -245.5 -167t-297.5 -57zM858 1698l129 119q28 26 66 26q11 0 18.5 -6t7.5 -14q0 -13 -10 -25l-147 -180
q-29 -37 -58 -37h-16q-28 0 -57 37l-148 180q-10 12 -10 25q0 8 8 14t21 6q39 0 67 -26z" />
    <glyph glyph-name="ccaron" unicode="&#x10d;" horiz-adv-x="1169" 
d="M651 -25q-147 0 -270 74.5t-192.5 199t-69.5 269.5v4q0 145 70 270.5t193 201t269 75.5q124 0 217.5 -44.5t175.5 -121.5q15 -15 15 -37t-14.5 -36.5t-36.5 -14.5q-23 0 -35 12q-73 69 -150 108.5t-174 39.5q-178 0 -300 -130.5t-122 -318.5v-4q0 -189 125 -320.5
t305 -131.5q179 0 328 149q17 17 33 17q19 0 34 -15.5t15 -34.5q0 -18 -12 -30q-85 -87 -182 -134t-222 -47zM643 1329l129 119q29 27 66 27q11 0 18.5 -6.5t7.5 -14.5q0 -12 -10 -24l-147 -181q-29 -37 -58 -37h-16q-29 0 -58 37l-147 181q-10 12 -10 24q0 8 7.5 14.5
t20.5 6.5q39 0 68 -27z" />
    <glyph glyph-name="Dcaron" unicode="&#x10e;" horiz-adv-x="1601" 
d="M213 53v1327q0 22 15.5 38t37.5 16h424q166 0 309 -55t242 -150t155 -226.5t56 -281.5v-4q0 -150 -56 -282t-155 -228t-242 -151.5t-309 -55.5h-424q-22 0 -37.5 15.5t-15.5 37.5zM319 98h371q146 0 269.5 48t206.5 131t129 195.5t46 240.5v4q0 127 -46 240t-129 196.5
t-206.5 132.5t-269.5 49h-371v-1237zM770 1677l129 119q29 27 66 27q11 0 18.5 -6.5t7.5 -14.5q0 -12 -10 -24l-147 -181q-28 -36 -58 -36h-16q-30 0 -58 36l-147 181q-10 12 -10 24q0 8 7.5 14.5t20.5 6.5q39 0 68 -27z" />
    <glyph glyph-name="dcaron" unicode="&#x10f;" 
d="M1161 1452v-1409q0 -23 -13.5 -37t-35.5 -14t-36.5 14t-14.5 37v190q-169 -258 -430 -258q-95 0 -185.5 38t-162.5 105.5t-116 172t-44 227.5v4q0 123 44 228t116 173.5t162.5 107t185.5 38.5q266 0 430 -250v633q0 23 13.5 37t35.5 14t36.5 -14t14.5 -37zM641 973
q-176 0 -293 -121t-117 -326v-4q0 -100 33.5 -185.5t89.5 -143t130.5 -89.5t156.5 -32q109 0 206 55.5t158.5 160t61.5 232.5v4q0 129 -61.5 233.5t-158.5 160t-206 55.5zM1305 1223l24 227q9 53 57 53h27q35 0 35 -35q0 -13 -12 -49l-68 -198q-6 -20 -14 -28.5t-21 -8.5
q-33 0 -28 39z" />
    <glyph glyph-name="Dcroat" unicode="&#x110;" horiz-adv-x="1662" 
d="M162 770h112v610q0 22 16 38t38 16h424q166 0 308.5 -55t241.5 -150t155 -226.5t56 -281.5v-4q0 -150 -56 -282t-155 -228t-241.5 -151.5t-308.5 -55.5h-424q-22 0 -38 15.5t-16 37.5v619h-112q-20 0 -34.5 14.5t-14.5 34.5t14.5 34.5t34.5 14.5zM381 1335v-565h434
q20 0 34.5 -14.5t14.5 -34.5t-14.5 -34.5t-34.5 -14.5h-434v-574h371q146 0 269.5 48t206.5 131t129 195.5t46 240.5v4q0 127 -46 240t-129 196.5t-206.5 132.5t-269.5 49h-371z" />
    <glyph glyph-name="dcroat" unicode="&#x111;" 
d="M1161 1452v-94h107q19 0 32 -13t13 -32t-13 -32t-32 -13h-107v-1225q0 -23 -13.5 -37t-35.5 -14t-36.5 14t-14.5 37v190q-169 -258 -430 -258q-95 0 -185.5 38t-162.5 105.5t-116 172t-44 227.5v4q0 123 44 228t116 173.5t162.5 107t185.5 38.5q266 0 430 -250v449h-342
q-19 0 -32 13t-13 32t13 32t32 13h342v94q0 23 13.5 37t35.5 14t36.5 -14t14.5 -37zM641 973q-176 0 -293 -121t-117 -326v-4q0 -100 33.5 -185.5t89.5 -143t130.5 -89.5t156.5 -32q109 0 206 55.5t158.5 160t61.5 232.5v4q0 129 -61.5 233.5t-158.5 160t-206 55.5z" />
    <glyph glyph-name="Emacron" unicode="&#x112;" horiz-adv-x="1372" 
d="M266 0q-22 0 -37.5 15.5t-15.5 37.5v1327q0 22 15.5 38t37.5 16h926q20 0 34.5 -15t14.5 -35t-14.5 -34.5t-34.5 -14.5h-873v-563h781q20 0 34.5 -14.5t14.5 -34.5t-14.5 -34.5t-34.5 -14.5h-781v-576h883q20 0 34.5 -14.5t14.5 -34.5t-14.5 -34.5t-34.5 -14.5h-936z
M997 1620h-540q-20 0 -34.5 14.5t-14.5 34.5t14.5 34.5t34.5 14.5h540q20 0 35 -14.5t15 -34.5t-15 -34.5t-35 -14.5z" />
    <glyph glyph-name="emacron" unicode="&#x113;" horiz-adv-x="1196" 
d="M225 571h760q-5 81 -31 152.5t-71 129t-115.5 91t-157.5 33.5q-154 0 -262.5 -116t-122.5 -290zM1038 145q-83 -83 -178.5 -126.5t-228.5 -43.5q-102 0 -195.5 40t-163.5 110t-111.5 173t-41.5 222v4q0 112 38 212.5t103 173.5t157.5 116t196.5 43q143 0 253.5 -73
t168.5 -195.5t58 -272.5q0 -19 -15.5 -33t-34.5 -14h-819q13 -188 131.5 -299.5t278.5 -111.5q192 0 338 143q14 14 33 14q20 0 34.5 -13.5t14.5 -33.5q0 -18 -17 -35zM885 1272h-541q-20 0 -34.5 14.5t-14.5 34.5t14.5 34.5t34.5 14.5h541q20 0 34.5 -14.5t14.5 -34.5
t-14.5 -34.5t-34.5 -14.5z" />
    <glyph glyph-name="Ebreve" unicode="&#x114;" horiz-adv-x="1372" 
d="M266 0q-22 0 -37.5 15.5t-15.5 37.5v1327q0 22 15.5 38t37.5 16h926q20 0 34.5 -15t14.5 -35t-14.5 -34.5t-34.5 -14.5h-873v-563h781q20 0 34.5 -14.5t14.5 -34.5t-14.5 -34.5t-34.5 -14.5h-781v-576h883q20 0 34.5 -14.5t14.5 -34.5t-14.5 -34.5t-34.5 -14.5h-936z
M727 1563q-170 0 -244 139q-22 42 -22 78q0 21 10.5 33t28.5 12q31 0 43 -35q47 -123 184 -123t184 123q12 35 43 35q18 0 28.5 -12t10.5 -33q0 -36 -22 -78q-74 -139 -244 -139z" />
    <glyph glyph-name="ebreve" unicode="&#x115;" horiz-adv-x="1196" 
d="M225 571h760q-5 81 -31 152.5t-71 129t-115.5 91t-157.5 33.5q-154 0 -262.5 -116t-122.5 -290zM1038 145q-83 -83 -178.5 -126.5t-228.5 -43.5q-102 0 -195.5 40t-163.5 110t-111.5 173t-41.5 222v4q0 112 38 212.5t103 173.5t157.5 116t196.5 43q143 0 253.5 -73
t168.5 -195.5t58 -272.5q0 -19 -15.5 -33t-34.5 -14h-819q13 -188 131.5 -299.5t278.5 -111.5q192 0 338 143q14 14 33 14q20 0 34.5 -13.5t14.5 -33.5q0 -18 -17 -35zM614 1214q-168 0 -243 140q-23 44 -23 78q0 21 10.5 33t28.5 12q31 0 43 -35q47 -123 184 -123
q138 0 185 123q12 35 43 35q18 0 28.5 -12t10.5 -33q0 -34 -23 -78q-75 -140 -244 -140z" />
    <glyph glyph-name="Edotaccent" unicode="&#x116;" horiz-adv-x="1372" 
d="M266 0q-22 0 -37.5 15.5t-15.5 37.5v1327q0 22 15.5 38t37.5 16h926q20 0 34.5 -15t14.5 -35t-14.5 -34.5t-34.5 -14.5h-873v-563h781q20 0 34.5 -14.5t14.5 -34.5t-14.5 -34.5t-34.5 -14.5h-781v-576h883q20 0 34.5 -14.5t14.5 -34.5t-14.5 -34.5t-34.5 -14.5h-936z
M801 1669v-39q0 -32 -20.5 -51.5t-53.5 -19.5t-53.5 19.5t-20.5 51.5v39q0 32 21 52t53 20t53 -20t21 -52z" />
    <glyph glyph-name="edotaccent" unicode="&#x117;" horiz-adv-x="1196" 
d="M225 571h760q-5 81 -31 152.5t-71 129t-115.5 91t-157.5 33.5q-154 0 -262.5 -116t-122.5 -290zM1038 145q-83 -83 -178.5 -126.5t-228.5 -43.5q-102 0 -195.5 40t-163.5 110t-111.5 173t-41.5 222v4q0 112 38 212.5t103 173.5t157.5 116t196.5 43q143 0 253.5 -73
t168.5 -195.5t58 -272.5q0 -19 -15.5 -33t-34.5 -14h-819q13 -188 131.5 -299.5t278.5 -111.5q192 0 338 143q14 14 33 14q20 0 34.5 -13.5t14.5 -33.5q0 -18 -17 -35zM688 1321v-39q0 -32 -21 -52t-53 -20t-52.5 20t-20.5 52v39q0 32 20.5 52t52.5 20t53 -20t21 -52z" />
    <glyph glyph-name="Eogonek" unicode="&#x118;" horiz-adv-x="1372" 
d="M266 0q-22 0 -37.5 15.5t-15.5 37.5v1327q0 22 15.5 38t37.5 16h926q20 0 34.5 -15t14.5 -35t-14.5 -34.5t-34.5 -14.5h-873v-563h781q20 0 34.5 -14.5t14.5 -34.5t-14.5 -34.5t-34.5 -14.5h-781v-576h879q25 0 39 -11.5t14 -31.5q0 -28 -32 -53q-74 -56 -103 -90.5
t-29 -75.5t27 -61.5t80 -30.5q55 -10 55 -41q0 -17 -11 -27t-30 -10q-23 0 -53 5t-72.5 19.5t-71 49t-28.5 84.5q0 86 117 176h-834z" />
    <glyph glyph-name="eogonek" unicode="&#x119;" horiz-adv-x="1196" 
d="M1094 528q0 -19 -15.5 -33t-34.5 -14h-819q13 -188 131.5 -299.5t278.5 -111.5q192 0 338 143q14 14 33 14q20 0 34.5 -13.5t14.5 -33.5q0 -18 -17 -35q-16 -16 -80 -69q-92 -78 -125.5 -127.5t-33.5 -98.5t28 -72.5t82 -33.5q56 -10 56 -41q0 -17 -11 -27t-30 -10
q-50 0 -98.5 14.5t-88 55t-39.5 100.5q0 78 78 156q-76 -17 -145 -17q-102 0 -195.5 40t-163.5 110t-111.5 173t-41.5 222v4q0 112 38 212.5t103 173.5t157.5 116t196.5 43q143 0 253.5 -73t168.5 -195.5t58 -272.5zM225 571h760q-5 81 -31 152.5t-71 129t-115.5 91
t-157.5 33.5q-154 0 -262.5 -116t-122.5 -290z" />
    <glyph glyph-name="Ecaron" unicode="&#x11a;" horiz-adv-x="1372" 
d="M266 0q-22 0 -37.5 15.5t-15.5 37.5v1327q0 22 15.5 38t37.5 16h926q20 0 34.5 -15t14.5 -35t-14.5 -34.5t-34.5 -14.5h-873v-563h781q20 0 34.5 -14.5t14.5 -34.5t-14.5 -34.5t-34.5 -14.5h-781v-576h883q20 0 34.5 -14.5t14.5 -34.5t-14.5 -34.5t-34.5 -14.5h-936z
M729 1677l129 119q29 27 66 27q11 0 18.5 -6.5t7.5 -14.5q0 -12 -10 -24l-147 -181q-28 -36 -58 -36h-16q-29 0 -57 36l-148 181q-10 12 -10 24q0 8 7.5 14.5t20.5 6.5q39 0 68 -27z" />
    <glyph glyph-name="ecaron" unicode="&#x11b;" horiz-adv-x="1196" 
d="M225 571h760q-5 81 -31 152.5t-71 129t-115.5 91t-157.5 33.5q-154 0 -262.5 -116t-122.5 -290zM1038 145q-83 -83 -178.5 -126.5t-228.5 -43.5q-102 0 -195.5 40t-163.5 110t-111.5 173t-41.5 222v4q0 112 38 212.5t103 173.5t157.5 116t196.5 43q143 0 253.5 -73
t168.5 -195.5t58 -272.5q0 -19 -15.5 -33t-34.5 -14h-819q13 -188 131.5 -299.5t278.5 -111.5q192 0 338 143q14 14 33 14q20 0 34.5 -13.5t14.5 -33.5q0 -18 -17 -35zM616 1329l129 119q29 27 66 27q11 0 19 -6.5t8 -14.5q0 -10 -11 -24l-147 -181q-29 -37 -57 -37h-17
q-28 0 -57 37l-148 181q-10 12 -10 24q0 8 8 14.5t21 6.5q38 0 67 -27z" />
    <glyph glyph-name="Gbreve" unicode="&#x11e;" horiz-adv-x="1605" 
d="M870 -25q-166 0 -303 58.5t-227.5 159.5t-140 235t-49.5 285v4q0 145 51 279t141.5 236.5t225 164t290.5 61.5q154 0 269 -40t221 -120q20 -17 20 -43q0 -22 -15.5 -37.5t-37.5 -15.5q-15 0 -33 15q-92 71 -191.5 108t-238.5 37q-170 0 -306.5 -88t-211 -234.5
t-74.5 -318.5v-4q0 -139 42.5 -257.5t120.5 -205t194 -135.5t257 -49q130 0 252 46t205 117v412h-446q-20 0 -34.5 14.5t-14.5 34.5t14.5 34.5t34.5 14.5h495q22 0 38 -15.5t16 -37.5v-469q0 -32 -37 -61q-240 -185 -527 -185zM844 1583q-170 0 -244 139q-22 42 -22 78
q0 45 38 45q31 0 43 -35q47 -122 185 -122q137 0 184 122q12 35 43 35q18 0 28.5 -12t10.5 -33q0 -34 -23 -78q-74 -139 -243 -139z" />
    <glyph glyph-name="gbreve" unicode="&#x11f;" 
d="M649 -332q-249 0 -456 144q-23 16 -23 45q0 18 15.5 32.5t35.5 14.5q13 0 29 -8q181 -134 401 -134q186 0 298 105t112 301v151q-168 -241 -436 -241q-95 0 -185 35.5t-160.5 97.5t-113.5 155.5t-43 202.5v4q0 109 43 203.5t113.5 157.5t160.5 99t185 36q146 0 255 -65
t181 -168v165q0 22 14 37t35 15q22 0 36.5 -15t14.5 -37v-839q0 -222 -133 -355q-139 -139 -379 -139zM635 174q81 0 159 29t138.5 80t97.5 126.5t37 161.5v4q0 116 -63 209t-161 141t-208 48q-170 0 -287 -108.5t-117 -286.5v-5q0 -115 56 -207t148.5 -142t199.5 -50z
M676 1214q-169 0 -244 140q-22 42 -22 78q0 21 10.5 33t28.5 12q31 0 43 -35q47 -123 184 -123t184 123q12 35 43 35q18 0 28.5 -12t10.5 -33q0 -36 -22 -78q-75 -140 -244 -140z" />
    <glyph glyph-name="Gdotaccent" unicode="&#x120;" horiz-adv-x="1605" 
d="M870 -25q-166 0 -303 58.5t-227.5 159.5t-140 235t-49.5 285v4q0 145 51 279t141.5 236.5t225 164t290.5 61.5q154 0 269 -40t221 -120q20 -17 20 -43q0 -22 -15.5 -37.5t-37.5 -15.5q-15 0 -33 15q-92 71 -191.5 108t-238.5 37q-170 0 -306.5 -88t-211 -234.5
t-74.5 -318.5v-4q0 -139 42.5 -257.5t120.5 -205t194 -135.5t257 -49q130 0 252 46t205 117v412h-446q-20 0 -34.5 14.5t-14.5 34.5t14.5 34.5t34.5 14.5h495q22 0 38 -15.5t16 -37.5v-469q0 -32 -37 -61q-240 -185 -527 -185zM918 1690v-39q0 -32 -21 -52t-53 -20t-53 20
t-21 52v39q0 32 20.5 51.5t53.5 19.5t53.5 -19.5t20.5 -51.5z" />
    <glyph glyph-name="gdotaccent" unicode="&#x121;" 
d="M649 -332q-249 0 -456 144q-23 16 -23 45q0 18 15.5 32.5t35.5 14.5q13 0 29 -8q181 -134 401 -134q186 0 298 105t112 301v151q-168 -241 -436 -241q-95 0 -185 35.5t-160.5 97.5t-113.5 155.5t-43 202.5v4q0 109 43 203.5t113.5 157.5t160.5 99t185 36q146 0 255 -65
t181 -168v165q0 22 14 37t35 15q22 0 36.5 -15t14.5 -37v-839q0 -222 -133 -355q-139 -139 -379 -139zM635 174q81 0 159 29t138.5 80t97.5 126.5t37 161.5v4q0 116 -63 209t-161 141t-208 48q-170 0 -287 -108.5t-117 -286.5v-5q0 -115 56 -207t148.5 -142t199.5 -50z
M750 1321v-39q0 -32 -21 -52t-53 -20t-53 20t-21 52v39q0 32 21 52t53 20t53 -20t21 -52z" />
    <glyph glyph-name="Gcommaaccent" unicode="&#x122;" horiz-adv-x="1605" 
d="M870 -25q-166 0 -303 58.5t-227.5 159.5t-140 235t-49.5 285v4q0 145 51 279t141.5 236.5t225 164t290.5 61.5q154 0 269 -40t221 -120q20 -17 20 -43q0 -22 -15.5 -37.5t-37.5 -15.5q-15 0 -33 15q-92 71 -191.5 108t-238.5 37q-170 0 -306.5 -88t-211 -234.5
t-74.5 -318.5v-4q0 -139 42.5 -257.5t120.5 -205t194 -135.5t257 -49q130 0 252 46t205 117v412h-446q-20 0 -34.5 14.5t-14.5 34.5t14.5 34.5t34.5 14.5h495q22 0 38 -15.5t16 -37.5v-469q0 -32 -37 -61q-240 -185 -527 -185zM834 -301q-66 14 -66 72v12q0 31 21.5 52.5
t52.5 21.5q32 0 52.5 -22.5t20.5 -59.5v-13q0 -63 -10.5 -99t-38.5 -64q-25 -25 -65 -41.5t-66 -16.5q-12 0 -19 7t-7 16q0 20 26 28q55 15 77 39t22 68z" />
    <glyph glyph-name="gcommaaccent" unicode="&#x123;" 
d="M649 -332q-249 0 -456 144q-23 16 -23 45q0 18 15.5 32.5t35.5 14.5q13 0 29 -8q181 -134 401 -134q186 0 298 105t112 301v151q-168 -241 -436 -241q-95 0 -185 35.5t-160.5 97.5t-113.5 155.5t-43 202.5v4q0 109 43 203.5t113.5 157.5t160.5 99t185 36q146 0 255 -65
t181 -168v165q0 22 14 37t35 15q22 0 36.5 -15t14.5 -37v-839q0 -222 -133 -355q-139 -139 -379 -139zM635 174q81 0 159 29t138.5 80t97.5 126.5t37 161.5v4q0 116 -63 209t-161 141t-208 48q-170 0 -287 -108.5t-117 -286.5v-5q0 -115 56 -207t148.5 -142t199.5 -50z
M684 1368q66 -14 66 -72v-12q0 -31 -21.5 -52.5t-52.5 -21.5q-32 0 -53 22.5t-21 59.5v13q0 63 10.5 99t38.5 64q25 25 65 41.5t66 16.5q12 0 19.5 -7t7.5 -16q0 -20 -27 -28q-55 -15 -76.5 -38.5t-21.5 -68.5z" />
    <glyph glyph-name="Hbar" unicode="&#x126;" horiz-adv-x="1679" 
d="M274 45v999h-116q-19 0 -32 13.5t-13 32.5t13 32t32 13h116v254q0 22 16 37.5t38 15.5t37.5 -15.5t15.5 -37.5v-254h917v254q0 22 16 37.5t38 15.5t37.5 -15.5t15.5 -37.5v-254h117q19 0 32 -13t13 -32t-13 -32.5t-32 -13.5h-117v-999q0 -22 -15.5 -37.5t-37.5 -15.5
t-38 15.5t-16 37.5v627h-917v-627q0 -22 -15.5 -37.5t-37.5 -15.5t-38 15.5t-16 37.5zM381 770h917v274h-917v-274z" />
    <glyph glyph-name="hbar" unicode="&#x127;" horiz-adv-x="1255" 
d="M190 43v1225h-106q-19 0 -32 13t-13 32t13 32t32 13h106v94q0 22 14 36.5t36 14.5t36.5 -14.5t14.5 -36.5v-94h342q19 0 32 -13t13 -32t-13 -32t-32 -13h-342v-418q125 219 377 219q194 0 305.5 -119t111.5 -311v-596q0 -23 -13.5 -37t-35.5 -14t-36.5 14t-14.5 37v578
q0 163 -88 259.5t-244 96.5q-155 0 -258.5 -105.5t-103.5 -267.5v-561q0 -23 -13.5 -37t-35.5 -14t-37 14t-15 37z" />
    <glyph glyph-name="Imacron" unicode="&#x12a;" horiz-adv-x="561" 
d="M227 45v1344q0 22 16 37.5t38 15.5t37.5 -15.5t15.5 -37.5v-1344q0 -22 -15.5 -37.5t-37.5 -15.5t-38 15.5t-16 37.5zM551 1620h-541q-20 0 -34.5 14.5t-14.5 34.5t14.5 34.5t34.5 14.5h541q20 0 34.5 -14.5t14.5 -34.5t-14.5 -34.5t-34.5 -14.5z" />
    <glyph glyph-name="imacron" unicode="&#x12b;" horiz-adv-x="509" 
d="M205 43v958q0 22 14 37t35 15q22 0 36.5 -14.5t14.5 -37.5v-958q0 -23 -13.5 -37t-35.5 -14t-36.5 14t-14.5 37zM524 1272h-540q-20 0 -35 14.5t-15 34.5t15 34.5t35 14.5h540q20 0 34.5 -14.5t14.5 -34.5t-14.5 -34.5t-34.5 -14.5z" />
    <glyph glyph-name="Ibreve" unicode="&#x12c;" horiz-adv-x="561" 
d="M227 45v1344q0 22 16 37.5t38 15.5t37.5 -15.5t15.5 -37.5v-1344q0 -22 -15.5 -37.5t-37.5 -15.5t-38 15.5t-16 37.5zM281 1563q-170 0 -244 139q-23 44 -23 78q0 21 10.5 33t28.5 12q31 0 43 -35q47 -123 185 -123q137 0 184 123q12 35 43 35q18 0 28.5 -12t10.5 -33
q0 -34 -23 -78q-74 -139 -243 -139z" />
    <glyph glyph-name="ibreve" unicode="&#x12d;" horiz-adv-x="509" 
d="M205 43v958q0 22 14 37t35 15q22 0 36.5 -14.5t14.5 -37.5v-958q0 -23 -13.5 -37t-35.5 -14t-36.5 14t-14.5 37zM254 1214q-169 0 -244 140q-22 42 -22 78q0 21 10.5 33t28.5 12q31 0 43 -35q47 -123 184 -123t184 123q12 35 43 35q18 0 28.5 -12t10.5 -33q0 -36 -22 -78
q-75 -140 -244 -140z" />
    <glyph glyph-name="Iogonek" unicode="&#x12e;" horiz-adv-x="561" 
d="M109 -174q0 51 28.5 95t89.5 91v1377q0 22 16 37.5t38 15.5t37.5 -15.5t15.5 -37.5v-1354q0 -30 -27 -51q-54 -46 -75 -76.5t-21 -69.5q0 -41 27.5 -62.5t80.5 -31.5q56 -10 56 -41q0 -17 -11 -27t-30 -10q-16 0 -38.5 2.5t-57 13t-62 26.5t-47.5 47t-20 71z" />
    <glyph glyph-name="iogonek" unicode="&#x12f;" horiz-adv-x="509" 
d="M305 1001v-966q0 -30 -29 -53q-50 -42 -72 -74t-22 -70q0 -41 28 -62.5t81 -31.5q55 -10 55 -41q0 -17 -11 -27t-30 -10q-16 0 -38.5 2.5t-57 13t-62 26.5t-47.5 47t-20 71q0 52 30.5 96.5t94.5 93.5v985q0 22 14 37t35 15q22 0 36.5 -14.5t14.5 -37.5zM193 1368v35
q0 26 17.5 43.5t43.5 17.5t44.5 -17.5t18.5 -43.5v-35q0 -26 -18.5 -43.5t-44.5 -17.5t-43.5 17.5t-17.5 43.5z" />
    <glyph glyph-name="Idotaccent" unicode="&#x130;" horiz-adv-x="561" 
d="M227 45v1344q0 22 16 37.5t38 15.5t37.5 -15.5t15.5 -37.5v-1344q0 -22 -15.5 -37.5t-37.5 -15.5t-38 15.5t-16 37.5zM354 1669v-39q0 -32 -20.5 -51.5t-52.5 -19.5q-33 0 -53.5 19.5t-20.5 51.5v39q0 32 21 52t53 20t52.5 -20t20.5 -52z" />
    <glyph glyph-name="dotlessi" unicode="&#x131;" horiz-adv-x="509" 
d="M205 43v958q0 22 14 37t35 15q22 0 36.5 -14.5t14.5 -37.5v-958q0 -23 -13.5 -37t-35.5 -14t-36.5 14t-14.5 37z" />
    <glyph glyph-name="Kcommaaccent" unicode="&#x136;" horiz-adv-x="1464" 
d="M213 45v1344q0 22 15.5 37.5t37.5 15.5t37.5 -15.5t15.5 -37.5v-897l906 933q17 17 37 17t36.5 -16.5t16.5 -36.5t-17 -37l-546 -551l583 -715q17 -20 17 -39q0 -22 -17 -38.5t-39 -16.5q-25 0 -41 20l-579 713l-357 -360v-320q0 -22 -15.5 -37.5t-37.5 -15.5t-37.5 15.5
t-15.5 37.5zM731 -291q-65 14 -65 72v12q0 31 21 52.5t52 21.5q32 0 53 -22.5t21 -59.5v-12q0 -64 -10.5 -100t-38.5 -64q-25 -25 -65 -41.5t-66 -16.5q-12 0 -19.5 7t-7.5 16q0 21 27 29q55 15 76.5 38.5t21.5 67.5z" />
    <glyph glyph-name="kcommaaccent" unicode="&#x137;" horiz-adv-x="1146" 
d="M190 43v1409q0 22 14 36.5t36 14.5t36.5 -14.5t14.5 -36.5v-1077l641 663q15 15 35 15t33.5 -13.5t13.5 -33.5q0 -18 -17 -35l-383 -389l410 -506q14 -17 14 -37q0 -22 -13.5 -34.5t-35.5 -12.5q-24 0 -43 22l-401 496l-254 -256v-211q0 -23 -13.5 -37t-35.5 -14t-37 14
t-15 37zM598 -301q-66 14 -66 72v12q0 31 21.5 52.5t52.5 21.5q32 0 53 -22.5t21 -59.5v-13q0 -63 -10.5 -99t-38.5 -64q-25 -25 -65 -41.5t-66 -16.5q-12 0 -19.5 7t-7.5 16q0 20 27 28q55 15 76.5 38.5t21.5 68.5z" />
    <glyph glyph-name="Lacute" unicode="&#x139;" horiz-adv-x="1267" 
d="M213 53v1336q0 22 15.5 37.5t37.5 15.5t37.5 -15.5t15.5 -37.5v-1291h801q20 0 34.5 -14.5t14.5 -34.5t-14.5 -34.5t-34.5 -14.5h-854q-22 0 -37.5 15.5t-15.5 37.5zM289 1561q-11 0 -19 5.5t-8 12.5q0 11 8 23l127 190q24 37 58 37q29 0 57.5 -16t28.5 -31
q0 -14 -23 -37l-164 -158q-18 -16 -31 -21t-34 -5z" />
    <glyph glyph-name="lacute" unicode="&#x13a;" horiz-adv-x="509" 
d="M205 43v1409q0 22 13.5 36.5t35.5 14.5t36.5 -14.5t14.5 -36.5v-1409q0 -23 -13.5 -37t-35.5 -14t-36.5 14t-14.5 37zM258 1608q-11 0 -19 5.5t-8 12.5q0 10 9 23l127 190q24 37 57 37q29 0 57.5 -16t28.5 -31q0 -14 -23 -37l-163 -158q-28 -26 -66 -26z" />
    <glyph glyph-name="Lcommaaccent" unicode="&#x13b;" horiz-adv-x="1267" 
d="M213 53v1336q0 22 15.5 37.5t37.5 15.5t37.5 -15.5t15.5 -37.5v-1291h801q20 0 34.5 -14.5t14.5 -34.5t-14.5 -34.5t-34.5 -14.5h-854q-22 0 -37.5 15.5t-15.5 37.5zM668 -301q-66 14 -66 72v12q0 31 21.5 52.5t52.5 21.5q32 0 53 -22.5t21 -59.5v-13q0 -63 -11 -99
t-39 -64q-25 -25 -65 -41.5t-66 -16.5q-12 0 -19 7t-7 16q0 20 26 28q55 15 77 39t22 68z" />
    <glyph glyph-name="lcommaaccent" unicode="&#x13c;" horiz-adv-x="509" 
d="M205 43v1409q0 22 13.5 36.5t35.5 14.5t36.5 -14.5t14.5 -36.5v-1409q0 -23 -13.5 -37t-35.5 -14t-36.5 14t-14.5 37zM244 -301q-66 14 -66 72v12q0 31 21.5 52.5t52.5 21.5q32 0 53 -22.5t21 -59.5v-13q0 -63 -11 -99t-39 -64q-25 -25 -65 -41.5t-66 -16.5q-12 0 -19 7
t-7 16q0 20 26 28q55 15 77 39t22 68z" />
    <glyph glyph-name="Lcaron" unicode="&#x13d;" horiz-adv-x="1267" 
d="M213 53v1336q0 22 15.5 37.5t37.5 15.5t37.5 -15.5t15.5 -37.5v-1291h801q20 0 34.5 -14.5t14.5 -34.5t-14.5 -34.5t-34.5 -14.5h-854q-22 0 -37.5 15.5t-15.5 37.5zM520 1159l25 227q9 54 57 54h27q35 0 35 -35q0 -10 -13 -49l-67 -199q-6 -20 -14 -28.5t-21 -8.5
q-34 0 -29 39z" />
    <glyph glyph-name="lcaron" unicode="&#x13e;" horiz-adv-x="509" 
d="M205 43v1409q0 22 13.5 36.5t35.5 14.5t36.5 -14.5t14.5 -36.5v-1409q0 -23 -13.5 -37t-35.5 -14t-36.5 14t-14.5 37zM453 1221l24 227q9 53 58 53h26q35 0 35 -35q0 -13 -12 -49l-68 -198q-6 -20 -14 -28.5t-21 -8.5q-33 0 -28 39z" />
    <glyph glyph-name="Ldot" unicode="&#x13f;" horiz-adv-x="1267" 
d="M213 53v1336q0 22 15.5 37.5t37.5 15.5t37.5 -15.5t15.5 -37.5v-1291h801q20 0 34.5 -14.5t14.5 -34.5t-14.5 -34.5t-34.5 -14.5h-854q-22 0 -37.5 15.5t-15.5 37.5zM1010 762v-39q0 -32 -21 -52t-53 -20t-53 20t-21 52v39q0 32 21 52t53 20t53 -20t21 -52z" />
    <glyph glyph-name="ldot" unicode="&#x140;" horiz-adv-x="632" 
d="M647 766v-35q0 -31 -21.5 -52.5t-52.5 -21.5t-52 21.5t-21 52.5v35q0 31 21 52.5t52 21.5t52.5 -21.5t21.5 -52.5zM205 43v1409q0 22 13.5 36.5t35.5 14.5t36.5 -14.5t14.5 -36.5v-1409q0 -23 -13.5 -37t-35.5 -14t-36.5 14t-14.5 37z" />
    <glyph glyph-name="Lslash" unicode="&#x141;" horiz-adv-x="1329" 
d="M813 813l-434 -135v-580h803q20 0 34.5 -14.5t14.5 -34.5t-14.5 -34.5t-34.5 -14.5h-854q-22 0 -38 15.5t-16 37.5v594l-86 -26q-28 -7 -30 -7q-20 0 -32.5 13.5t-12.5 34.5q0 35 34 45l127 38v644q0 22 16 37.5t38 15.5t36.5 -15.5t14.5 -37.5v-613l393 123q24 6 31 6
q20 0 32.5 -13.5t12.5 -33.5q0 -34 -35 -45z" />
    <glyph glyph-name="lslash" unicode="&#x142;" horiz-adv-x="632" 
d="M496 760l-129 -41v-676q0 -23 -14 -37t-36 -14t-36.5 14t-14.5 37v645l-88 -26q-28 -7 -31 -7q-20 0 -32.5 13.5t-12.5 33.5q0 36 35 46q49 15 129 40v664q0 22 13.5 36.5t35.5 14.5t37 -14.5t15 -36.5v-633l88 27q24 6 30 6q20 0 32.5 -13.5t12.5 -33.5q0 -35 -34 -45z
" />
    <glyph glyph-name="Nacute" unicode="&#x143;" horiz-adv-x="1617" 
d="M213 43v1343q0 22 15.5 38t37.5 16h17q29 0 53 -31l967 -1227v1209q0 22 14.5 36.5t36.5 14.5t36.5 -14.5t14.5 -36.5v-1352q0 -19 -12 -32t-31 -13h-8q-26 0 -54 35l-985 1249v-1235q0 -22 -14.5 -36.5t-36.5 -14.5t-36.5 14.5t-14.5 36.5zM807 1561q-11 0 -19 5.5
t-8 12.5q0 11 8 23l127 190q24 37 58 37q29 0 57.5 -16t28.5 -31q0 -14 -23 -37l-164 -158q-18 -16 -31 -21t-34 -5z" />
    <glyph glyph-name="nacute" unicode="&#x144;" horiz-adv-x="1255" 
d="M190 43v958q0 22 14 37t36 15t36.5 -14.5t14.5 -37.5v-151q125 219 377 219q194 0 305.5 -119t111.5 -311v-596q0 -23 -13.5 -37t-35.5 -14t-36.5 14t-14.5 37v578q0 163 -88 259.5t-244 96.5q-155 0 -258.5 -105.5t-103.5 -267.5v-561q0 -23 -13.5 -37t-35.5 -14t-37 14
t-15 37zM635 1212q-11 0 -19 6t-8 13q0 10 8 22l127 191q24 37 58 37q29 0 57.5 -16t28.5 -31q0 -14 -23 -37l-164 -158q-29 -27 -65 -27z" />
    <glyph glyph-name="Ncommaaccent" unicode="&#x145;" horiz-adv-x="1617" 
d="M213 43v1343q0 22 15.5 38t37.5 16h17q29 0 53 -31l967 -1227v1209q0 22 14.5 36.5t36.5 14.5t36.5 -14.5t14.5 -36.5v-1352q0 -19 -12 -32t-31 -13h-8q-26 0 -54 35l-985 1249v-1235q0 -22 -14.5 -36.5t-36.5 -14.5t-36.5 14.5t-14.5 36.5zM799 -291q-66 14 -66 72v12
q0 31 21.5 52.5t52.5 21.5q32 0 53 -22.5t21 -59.5v-12q0 -63 -11 -99.5t-39 -64.5q-25 -25 -65 -41.5t-66 -16.5q-12 0 -19 7t-7 16q0 21 26 29q55 15 77 38.5t22 67.5z" />
    <glyph glyph-name="ncommaaccent" unicode="&#x146;" horiz-adv-x="1255" 
d="M190 43v958q0 22 14 37t36 15t36.5 -14.5t14.5 -37.5v-151q125 219 377 219q194 0 305.5 -119t111.5 -311v-596q0 -23 -13.5 -37t-35.5 -14t-36.5 14t-14.5 37v578q0 163 -88 259.5t-244 96.5q-155 0 -258.5 -105.5t-103.5 -267.5v-561q0 -23 -13.5 -37t-35.5 -14t-37 14
t-15 37zM627 -301q-66 14 -66 72v12q0 31 21.5 52.5t52.5 21.5q32 0 53 -22.5t21 -59.5v-13q0 -63 -11 -99t-39 -64q-25 -25 -65 -41.5t-66 -16.5q-12 0 -19 7t-7 16q0 20 26 28q55 15 77 39t22 68z" />
    <glyph glyph-name="Ncaron" unicode="&#x147;" horiz-adv-x="1617" 
d="M213 43v1343q0 22 15.5 38t37.5 16h17q29 0 53 -31l967 -1227v1209q0 22 14.5 36.5t36.5 14.5t36.5 -14.5t14.5 -36.5v-1352q0 -19 -12 -32t-31 -13h-8q-26 0 -54 35l-985 1249v-1235q0 -22 -14.5 -36.5t-36.5 -14.5t-36.5 14.5t-14.5 36.5zM811 1677l129 119
q29 27 66 27q11 0 18.5 -6.5t7.5 -14.5q0 -12 -10 -24l-148 -181q-28 -36 -57 -36h-16q-30 0 -58 36l-147 181q-10 12 -10 24q0 8 7.5 14.5t20.5 6.5q39 0 68 -27z" />
    <glyph glyph-name="ncaron" unicode="&#x148;" horiz-adv-x="1255" 
d="M190 43v958q0 22 14 37t36 15t36.5 -14.5t14.5 -37.5v-151q125 219 377 219q194 0 305.5 -119t111.5 -311v-596q0 -23 -13.5 -37t-35.5 -14t-36.5 14t-14.5 37v578q0 163 -88 259.5t-244 96.5q-155 0 -258.5 -105.5t-103.5 -267.5v-561q0 -23 -13.5 -37t-35.5 -14t-37 14
t-15 37zM639 1329l129 119q29 27 66 27q11 0 18.5 -6.5t7.5 -14.5q0 -12 -10 -24l-148 -181q-29 -37 -57 -37h-16q-29 0 -58 37l-147 181q-10 12 -10 24q0 8 7.5 14.5t20.5 6.5q39 0 68 -27z" />
    <glyph glyph-name="Omacron" unicode="&#x14c;" horiz-adv-x="1740" 
d="M868 -25q-158 0 -294.5 60.5t-228 162t-143.5 235.5t-52 280v4q0 146 52.5 280.5t145 236.5t229.5 163t295 61q127 0 241 -39t200 -108t149.5 -161.5t96 -202t32.5 -226.5v-4q0 -146 -52.5 -280.5t-145.5 -237t-230 -163.5t-295 -61zM872 72q130 0 244 50.5t193.5 137
t125.5 204.5t46 249v4q0 131 -46.5 250t-127 205.5t-195 138t-244.5 51.5q-173 0 -313 -86t-217.5 -232.5t-77.5 -322.5v-4q0 -176 78.5 -323.5t219.5 -234.5t314 -87zM1141 1640h-541q-20 0 -34.5 15t-14.5 35t14.5 34.5t34.5 14.5h541q20 0 34.5 -14.5t14.5 -34.5
t-14.5 -35t-34.5 -15z" />
    <glyph glyph-name="omacron" unicode="&#x14d;" horiz-adv-x="1310" 
d="M653 -25q-113 0 -213 44t-170 117.5t-110.5 173t-40.5 208.5v4q0 109 41 209t111 174.5t171 119t215 44.5q151 0 274.5 -74.5t192 -198.5t68.5 -270v-4q0 -146 -69 -271t-193.5 -200.5t-276.5 -75.5zM657 70q121 0 219.5 60.5t152.5 163t54 224.5v4q0 190 -124.5 321.5
t-305.5 131.5q-183 0 -304.5 -131t-121.5 -318v-4q0 -189 124.5 -320.5t305.5 -131.5zM926 1272h-541q-20 0 -34.5 14.5t-14.5 34.5t14.5 34.5t34.5 14.5h541q20 0 34.5 -14.5t14.5 -34.5t-14.5 -34.5t-34.5 -14.5z" />
    <glyph glyph-name="Obreve" unicode="&#x14e;" horiz-adv-x="1740" 
d="M868 -25q-158 0 -294.5 60.5t-228 162t-143.5 235.5t-52 280v4q0 146 52.5 280.5t145 236.5t229.5 163t295 61q127 0 241 -39t200 -108t149.5 -161.5t96 -202t32.5 -226.5v-4q0 -146 -52.5 -280.5t-145.5 -237t-230 -163.5t-295 -61zM872 72q130 0 244 50.5t193.5 137
t125.5 204.5t46 249v4q0 131 -46.5 250t-127 205.5t-195 138t-244.5 51.5q-173 0 -313 -86t-217.5 -232.5t-77.5 -322.5v-4q0 -176 78.5 -323.5t219.5 -234.5t314 -87zM870 1583q-169 0 -243 139q-23 44 -23 78q0 21 10.5 33t28.5 12q31 0 43 -35q47 -122 184 -122
q138 0 185 122q12 35 43 35q18 0 28.5 -12t10.5 -33q0 -34 -23 -78q-74 -139 -244 -139z" />
    <glyph glyph-name="obreve" unicode="&#x14f;" horiz-adv-x="1310" 
d="M653 -25q-113 0 -213 44t-170 117.5t-110.5 173t-40.5 208.5v4q0 109 41 209t111 174.5t171 119t215 44.5q151 0 274.5 -74.5t192 -198.5t68.5 -270v-4q0 -146 -69 -271t-193.5 -200.5t-276.5 -75.5zM657 70q121 0 219.5 60.5t152.5 163t54 224.5v4q0 190 -124.5 321.5
t-305.5 131.5q-183 0 -304.5 -131t-121.5 -318v-4q0 -189 124.5 -320.5t305.5 -131.5zM655 1214q-168 0 -243 140q-23 44 -23 78q0 21 10.5 33t28.5 12q31 0 43 -35q47 -123 184 -123q138 0 185 123q12 35 43 35q18 0 28.5 -12t10.5 -33q0 -34 -23 -78q-75 -140 -244 -140z
" />
    <glyph glyph-name="Ohungarumlaut" unicode="&#x150;" horiz-adv-x="1740" 
d="M868 -25q-158 0 -294.5 60.5t-228 162t-143.5 235.5t-52 280v4q0 146 52.5 280.5t145 236.5t229.5 163t295 61q127 0 241 -39t200 -108t149.5 -161.5t96 -202t32.5 -226.5v-4q0 -146 -52.5 -280.5t-145.5 -237t-230 -163.5t-295 -61zM872 72q130 0 244 50.5t193.5 137
t125.5 204.5t46 249v4q0 131 -46.5 250t-127 205.5t-195 138t-244.5 51.5q-173 0 -313 -86t-217.5 -232.5t-77.5 -322.5v-4q0 -176 78.5 -323.5t219.5 -234.5t314 -87zM997 1581q-11 0 -18.5 5.5t-7.5 12.5q0 11 8 23l129 193q22 34 55 34q28 0 54 -15t26 -30t-20 -35
l-160 -161q-29 -27 -66 -27zM686 1581q-11 0 -19 5.5t-8 12.5q0 9 9 23l129 193q22 34 55 34q28 0 54 -15t26 -30q0 -14 -21 -35l-159 -161q-29 -27 -66 -27z" />
    <glyph glyph-name="ohungarumlaut" unicode="&#x151;" horiz-adv-x="1310" 
d="M653 -25q-113 0 -213 44t-170 117.5t-110.5 173t-40.5 208.5v4q0 109 41 209t111 174.5t171 119t215 44.5q151 0 274.5 -74.5t192 -198.5t68.5 -270v-4q0 -146 -69 -271t-193.5 -200.5t-276.5 -75.5zM657 70q121 0 219.5 60.5t152.5 163t54 224.5v4q0 190 -124.5 321.5
t-305.5 131.5q-183 0 -304.5 -131t-121.5 -318v-4q0 -189 124.5 -320.5t305.5 -131.5zM782 1212q-10 0 -18 5.5t-8 13.5q0 10 8 22l129 193q22 35 55 35q28 0 54 -15t26 -30t-20 -35l-160 -162q-29 -27 -66 -27zM471 1212q-11 0 -19 6t-8 13q0 9 9 22l129 193q22 35 55 35
q28 0 54 -15t26 -30q0 -14 -21 -35l-159 -162q-29 -27 -66 -27z" />
    <glyph glyph-name="OE" unicode="&#x152;" horiz-adv-x="2359" 
d="M911 0q-222 0 -396 93t-269.5 255.5t-95.5 364.5v4q0 150 56 282t155 228t241.5 151.5t308.5 55.5h1268q20 0 34.5 -15t14.5 -35t-14.5 -34.5t-34.5 -14.5h-842v-563h750q20 0 34.5 -14.5t14.5 -34.5t-14.5 -34.5t-34.5 -14.5h-750v-576h852q20 0 34.5 -14.5t14.5 -34.5
t-14.5 -34.5t-34.5 -14.5h-1278zM911 98h320v1237h-320q-146 0 -269.5 -48t-206.5 -131t-129 -195t-46 -240v-4q0 -127 46 -240t129 -197t206.5 -133t269.5 -49z" />
    <glyph glyph-name="oe" unicode="&#x153;" horiz-adv-x="2160" 
d="M1190 571h760q-5 81 -31 152.5t-71 129t-115.5 91t-157.5 33.5q-154 0 -262.5 -116t-122.5 -290zM657 70q121 0 219.5 60.5t152.5 163t54 224.5v4q0 190 -124.5 321.5t-305.5 131.5q-183 0 -304.5 -131t-121.5 -318v-4q0 -189 124.5 -320.5t305.5 -131.5zM2003 145
q-83 -83 -179 -126.5t-225 -43.5q-153 0 -278.5 86.5t-185.5 235.5q-62 -144 -191.5 -233t-292.5 -89q-149 0 -272 74.5t-191.5 199t-68.5 269.5v4q0 145 69 270.5t193 201t274 75.5q162 0 290 -88t190 -231q58 145 176.5 232t269.5 87q142 0 252 -73t167.5 -195.5
t57.5 -272.5q0 -19 -15 -33t-34 -14h-819q13 -188 131 -299.5t278 -111.5q192 0 338 143q14 14 33 14q20 0 34.5 -13.5t14.5 -33.5q0 -19 -16 -35z" />
    <glyph glyph-name="Racute" unicode="&#x154;" horiz-adv-x="1480" 
d="M213 45v1335q0 22 15.5 38t37.5 16h549q129 0 233.5 -38t170.5 -104q108 -108 108 -266v-4q0 -174 -115 -279t-305 -131l408 -528q16 -19 16 -37q0 -22 -16.5 -38.5t-38.5 -16.5q-26 0 -47 28l-441 574h-469v-549q0 -22 -15.5 -37.5t-37.5 -15.5t-37.5 15.5t-15.5 37.5z
M319 690h484q184 0 301 88t117 240v4q0 146 -109 229.5t-303 83.5h-490v-645zM717 1561q-11 0 -19 5.5t-8 12.5q0 11 8 23l127 190q24 37 58 37q29 0 57.5 -16t28.5 -31q0 -14 -23 -37l-164 -158q-18 -16 -31 -21t-34 -5z" />
    <glyph glyph-name="racute" unicode="&#x155;" horiz-adv-x="819" 
d="M190 43v958q0 22 14 37t36 15t36.5 -14.5t14.5 -37.5v-253q65 146 184 229.5t236 83.5q23 0 38 -16t15 -39q0 -22 -14.5 -38.5t-38.5 -17.5q-85 -8 -159 -43.5t-133.5 -98t-93.5 -160.5t-34 -220v-385q0 -22 -13.5 -36.5t-35.5 -14.5t-37 14t-15 37zM430 1212
q-11 0 -19 6t-8 13q0 9 9 22l127 191q24 37 57 37q29 0 57.5 -16t28.5 -31q0 -14 -23 -37l-163 -158q-29 -27 -66 -27z" />
    <glyph glyph-name="Rcommaaccent" unicode="&#x156;" horiz-adv-x="1480" 
d="M213 45v1335q0 22 15.5 38t37.5 16h549q129 0 233.5 -38t170.5 -104q108 -108 108 -266v-4q0 -174 -115 -279t-305 -131l408 -528q16 -19 16 -37q0 -22 -16.5 -38.5t-38.5 -16.5q-26 0 -47 28l-441 574h-469v-549q0 -22 -15.5 -37.5t-37.5 -15.5t-37.5 15.5t-15.5 37.5z
M319 690h484q184 0 301 88t117 240v4q0 146 -109 229.5t-303 83.5h-490v-645zM709 -291q-66 14 -66 72v12q0 31 21.5 52.5t52.5 21.5q32 0 53 -22.5t21 -59.5v-12q0 -63 -11 -99.5t-39 -64.5q-25 -25 -65 -41.5t-66 -16.5q-12 0 -19 7t-7 16q0 21 26 29q55 15 77 38.5
t22 67.5z" />
    <glyph glyph-name="rcommaaccent" unicode="&#x157;" horiz-adv-x="819" 
d="M190 43v958q0 22 14 37t36 15t36.5 -14.5t14.5 -37.5v-253q65 146 184 229.5t236 83.5q23 0 38 -16t15 -39q0 -22 -14.5 -38.5t-38.5 -17.5q-85 -8 -159 -43.5t-133.5 -98t-93.5 -160.5t-34 -220v-385q0 -22 -13.5 -36.5t-35.5 -14.5t-37 14t-15 37zM248 -301
q-66 14 -66 72v12q0 31 21.5 52.5t52.5 21.5q32 0 53 -22.5t21 -59.5v-13q0 -63 -10.5 -99t-38.5 -64q-25 -25 -65 -41.5t-66 -16.5q-12 0 -19.5 7t-7.5 16q0 20 27 28q55 15 76.5 38.5t21.5 68.5z" />
    <glyph glyph-name="Rcaron" unicode="&#x158;" horiz-adv-x="1480" 
d="M213 45v1335q0 22 15.5 38t37.5 16h549q129 0 233.5 -38t170.5 -104q108 -108 108 -266v-4q0 -174 -115 -279t-305 -131l408 -528q16 -19 16 -37q0 -22 -16.5 -38.5t-38.5 -16.5q-26 0 -47 28l-441 574h-469v-549q0 -22 -15.5 -37.5t-37.5 -15.5t-37.5 15.5t-15.5 37.5z
M319 690h484q184 0 301 88t117 240v4q0 146 -109 229.5t-303 83.5h-490v-645zM721 1677l129 119q29 27 65 27q11 0 19 -6.5t8 -14.5q0 -12 -10 -24l-148 -181q-28 -36 -57 -36h-16q-30 0 -58 36l-147 181q-10 12 -10 24q0 8 7.5 14.5t20.5 6.5q39 0 68 -27z" />
    <glyph glyph-name="rcaron" unicode="&#x159;" horiz-adv-x="819" 
d="M190 43v958q0 22 14 37t36 15t36.5 -14.5t14.5 -37.5v-253q65 146 184 229.5t236 83.5q23 0 38 -16t15 -39q0 -22 -14.5 -38.5t-38.5 -17.5q-85 -8 -159 -43.5t-133.5 -98t-93.5 -160.5t-34 -220v-385q0 -22 -13.5 -36.5t-35.5 -14.5t-37 14t-15 37zM434 1329l129 119
q29 27 66 27q11 0 18.5 -6.5t7.5 -14.5q0 -12 -10 -24l-147 -181q-29 -37 -58 -37h-16q-28 0 -57 37l-148 181q-10 12 -10 24q0 8 8 14.5t21 6.5q38 0 67 -27z" />
    <glyph glyph-name="Sacute" unicode="&#x15a;" horiz-adv-x="1310" 
d="M698 -20q-158 0 -289 49t-255 151q-21 17 -21 41q0 22 15.5 37.5t37.5 15.5q19 0 35 -12q108 -97 222.5 -141.5t261.5 -44.5q160 0 261 80t101 204v5q0 80 -32.5 133t-122 96t-250.5 76q-258 53 -371 146.5t-113 256.5v4q0 161 131 269t330 108q141 0 248.5 -35.5
t208.5 -111.5q22 -18 22 -43q0 -22 -15.5 -38t-37.5 -16q-19 0 -35 13q-176 135 -395 135q-155 0 -252.5 -78t-97.5 -193v-4q0 -81 32.5 -134.5t125 -99t259.5 -79.5q249 -51 360.5 -144.5t111.5 -250.5v-4q0 -172 -134 -281.5t-342 -109.5zM670 1581q-11 0 -19 5.5t-8 12.5
q0 11 8 23l127 190q24 37 58 37q29 0 57.5 -16t28.5 -31q0 -14 -23 -37l-164 -157q-29 -27 -65 -27z" />
    <glyph glyph-name="sacute" unicode="&#x15b;" horiz-adv-x="1017" 
d="M528 -20q-105 0 -214.5 37t-190.5 98q-19 14 -19 39q0 20 15 34.5t35 14.5q19 0 32 -10q166 -119 349 -119q108 0 179.5 54.5t71.5 143.5v4q0 36 -16 65.5t-38.5 49.5t-62.5 38.5t-73.5 29.5t-85.5 26q-160 46 -224 81q-134 74 -134 206v4q0 126 96 207.5t248 81.5
q173 0 338 -94q26 -17 26 -45q0 -20 -14.5 -34.5t-34.5 -14.5q-17 0 -29 8q-146 86 -290 86q-106 0 -172 -52t-66 -131v-4q0 -28 10 -52t33 -43t45 -33t62 -28.5t66.5 -23t74.5 -22.5q49 -14 84.5 -25.5t79 -30t72.5 -40t55.5 -50t39.5 -65.5t13 -82v-4q0 -137 -103.5 -221
t-257.5 -84zM514 1212q-11 0 -19 6t-8 13q0 9 9 22l127 191q24 37 57 37q29 0 57.5 -16t28.5 -31q0 -14 -23 -37l-163 -158q-29 -27 -66 -27z" />
    <glyph glyph-name="Scedilla" unicode="&#x15e;" horiz-adv-x="1310" 
d="M1174 371q0 -166 -124 -273t-321 -116l-113 -232q-10 -22 -21 -31.5t-32 -9.5q-25 0 -47 16t-22 33q0 14 10 31l131 193q-264 17 -481 198q-21 17 -21 41q0 22 15.5 37.5t37.5 15.5q19 0 35 -12q108 -97 222.5 -141.5t261.5 -44.5q160 0 261 80t101 204v5q0 80 -32.5 133
t-122 96t-250.5 76q-258 53 -371 146.5t-113 256.5v4q0 161 131 269t330 108q141 0 248.5 -35.5t208.5 -111.5q22 -18 22 -43q0 -22 -15.5 -38t-37.5 -16q-19 0 -35 13q-176 135 -395 135q-155 0 -252.5 -78t-97.5 -193v-4q0 -81 32.5 -134.5t125 -99t259.5 -79.5
q249 -51 360.5 -144.5t111.5 -250.5v-4z" />
    <glyph glyph-name="scedilla" unicode="&#x15f;" horiz-adv-x="1017" 
d="M889 285q0 -132 -97 -215.5t-245 -89.5l-113 -230q-10 -22 -21 -31.5t-32 -9.5q-25 0 -47.5 16t-22.5 33q0 12 11 31l133 197q-91 11 -178.5 44.5t-153.5 84.5q-19 14 -19 39q0 20 15 34.5t35 14.5q19 0 32 -10q166 -119 349 -119q108 0 179.5 54.5t71.5 143.5v4
q0 36 -16 65.5t-38.5 49.5t-62.5 38.5t-73.5 29.5t-85.5 26q-160 46 -224 81q-134 74 -134 206v4q0 126 96 207.5t248 81.5q173 0 338 -94q26 -17 26 -45q0 -20 -14.5 -34.5t-34.5 -14.5q-17 0 -29 8q-146 86 -290 86q-106 0 -172 -52t-66 -131v-4q0 -28 10 -52t33 -43
t45 -33t62 -28.5t66.5 -23t74.5 -22.5q49 -14 84.5 -25.5t79 -30t72.5 -40t55.5 -50t39.5 -65.5t13 -82v-4z" />
    <glyph glyph-name="Scaron" unicode="&#x160;" horiz-adv-x="1310" 
d="M698 -20q-158 0 -289 49t-255 151q-21 17 -21 41q0 22 15.5 37.5t37.5 15.5q19 0 35 -12q108 -97 222.5 -141.5t261.5 -44.5q160 0 261 80t101 204v5q0 80 -32.5 133t-122 96t-250.5 76q-258 53 -371 146.5t-113 256.5v4q0 161 131 269t330 108q141 0 248.5 -35.5
t208.5 -111.5q22 -18 22 -43q0 -22 -15.5 -38t-37.5 -16q-19 0 -35 13q-176 135 -395 135q-155 0 -252.5 -78t-97.5 -193v-4q0 -81 32.5 -134.5t125 -99t259.5 -79.5q249 -51 360.5 -144.5t111.5 -250.5v-4q0 -172 -134 -281.5t-342 -109.5zM674 1698l129 119q18 16 31 21
t34 5q12 0 19.5 -6t7.5 -14q0 -13 -10 -25l-148 -180q-29 -37 -57 -37h-16q-29 0 -58 37l-147 180q-10 12 -10 25q0 8 7.5 14t20.5 6q40 0 68 -26z" />
    <glyph glyph-name="scaron" unicode="&#x161;" horiz-adv-x="1017" 
d="M528 -20q-105 0 -214.5 37t-190.5 98q-19 14 -19 39q0 20 15 34.5t35 14.5q19 0 32 -10q166 -119 349 -119q108 0 179.5 54.5t71.5 143.5v4q0 36 -16 65.5t-38.5 49.5t-62.5 38.5t-73.5 29.5t-85.5 26q-160 46 -224 81q-134 74 -134 206v4q0 126 96 207.5t248 81.5
q173 0 338 -94q26 -17 26 -45q0 -20 -14.5 -34.5t-34.5 -14.5q-17 0 -29 8q-146 86 -290 86q-106 0 -172 -52t-66 -131v-4q0 -28 10 -52t33 -43t45 -33t62 -28.5t66.5 -23t74.5 -22.5q49 -14 84.5 -25.5t79 -30t72.5 -40t55.5 -50t39.5 -65.5t13 -82v-4q0 -137 -103.5 -221
t-257.5 -84zM518 1329l129 119q29 27 66 27q11 0 18.5 -6.5t7.5 -14.5q0 -12 -10 -24l-147 -181q-29 -37 -58 -37h-16q-28 0 -57 37l-148 181q-10 12 -10 24q0 8 8 14.5t21 6.5q38 0 67 -27z" />
    <glyph glyph-name="Tcommaaccent" unicode="&#x162;" horiz-adv-x="1327" 
d="M610 45v1290h-458q-20 0 -35 14.5t-15 34.5t15 35t35 15h1024q20 0 34.5 -15t14.5 -35t-14.5 -34.5t-34.5 -14.5h-459v-1290q0 -22 -15.5 -37.5t-37.5 -15.5t-38 15.5t-16 37.5zM653 -301q-65 14 -65 72v12q0 31 21.5 52.5t52.5 21.5q32 0 52.5 -22.5t20.5 -59.5v-13
q0 -63 -10.5 -99t-38.5 -64q-25 -25 -65 -41.5t-66 -16.5q-12 0 -19.5 7t-7.5 16q0 20 27 28q55 15 76.5 38.5t21.5 68.5z" />
    <glyph glyph-name="Tcommaaccent" unicode="&#x21a;" horiz-adv-x="1327" 
d="M610 45v1290h-458q-20 0 -35 14.5t-15 34.5t15 35t35 15h1024q20 0 34.5 -15t14.5 -35t-14.5 -34.5t-34.5 -14.5h-459v-1290q0 -22 -15.5 -37.5t-37.5 -15.5t-38 15.5t-16 37.5zM653 -301q-65 14 -65 72v12q0 31 21.5 52.5t52.5 21.5q32 0 52.5 -22.5t20.5 -59.5v-13
q0 -63 -10.5 -99t-38.5 -64q-25 -25 -65 -41.5t-66 -16.5q-12 0 -19.5 7t-7.5 16q0 20 27 28q55 15 76.5 38.5t21.5 68.5z" />
    <glyph glyph-name="tcommaaccent" unicode="&#x163;" horiz-adv-x="819" 
d="M539 -18q-130 0 -211.5 72t-81.5 214v684h-113q-19 0 -33 14t-14 33t14 32t33 13h113v291q0 22 13.5 36.5t35.5 14.5t36.5 -14.5t14.5 -36.5v-291h328q19 0 33 -14t14 -33t-14 -32t-33 -13h-328v-673q0 -203 209 -203q32 0 58 5t41.5 10t19.5 5q18 0 31.5 -13.5
t13.5 -31.5q0 -30 -33 -43q-76 -26 -147 -26zM453 -301q-66 14 -66 72v12q0 31 21.5 52.5t52.5 21.5q32 0 53 -22.5t21 -59.5v-13q0 -63 -11 -99t-39 -64q-25 -25 -65 -41.5t-66 -16.5q-12 0 -19 7t-7 16q0 20 26 28q55 15 77 39t22 68z" />
    <glyph glyph-name="tcommaaccent" unicode="&#x21b;" horiz-adv-x="819" 
d="M539 -18q-130 0 -211.5 72t-81.5 214v684h-113q-19 0 -33 14t-14 33t14 32t33 13h113v291q0 22 13.5 36.5t35.5 14.5t36.5 -14.5t14.5 -36.5v-291h328q19 0 33 -14t14 -33t-14 -32t-33 -13h-328v-673q0 -203 209 -203q32 0 58 5t41.5 10t19.5 5q18 0 31.5 -13.5
t13.5 -31.5q0 -30 -33 -43q-76 -26 -147 -26zM453 -301q-66 14 -66 72v12q0 31 21.5 52.5t52.5 21.5q32 0 53 -22.5t21 -59.5v-13q0 -63 -11 -99t-39 -64q-25 -25 -65 -41.5t-66 -16.5q-12 0 -19 7t-7 16q0 20 26 28q55 15 77 39t22 68z" />
    <glyph glyph-name="Tcaron" unicode="&#x164;" horiz-adv-x="1327" 
d="M610 45v1290h-458q-20 0 -35 14.5t-15 34.5t15 35t35 15h1024q20 0 34.5 -15t14.5 -35t-14.5 -34.5t-34.5 -14.5h-459v-1290q0 -22 -15.5 -37.5t-37.5 -15.5t-38 15.5t-16 37.5zM666 1677l129 119q29 27 65 27q11 0 19 -6.5t8 -14.5q0 -12 -10 -24l-148 -181
q-28 -36 -57 -36h-17q-29 0 -57 36l-147 181q-11 14 -11 24q0 8 8 14.5t21 6.5q39 0 68 -27z" />
    <glyph glyph-name="tcaron" unicode="&#x165;" horiz-adv-x="819" 
d="M539 -18q-130 0 -211.5 72t-81.5 214v684h-113q-19 0 -33 14t-14 33t14 32t33 13h113v291q0 22 13.5 36.5t35.5 14.5t36.5 -14.5t14.5 -36.5v-291h328q19 0 33 -14t14 -33t-14 -32t-33 -13h-328v-673q0 -203 209 -203q32 0 58 5t41.5 10t19.5 5q18 0 31.5 -13.5
t13.5 -31.5q0 -30 -33 -43q-76 -26 -147 -26zM594 1219l24 227q9 53 58 53h26q35 0 35 -35q0 -13 -12 -49l-68 -198q-6 -21 -13.5 -29t-20.5 -8q-34 0 -29 39z" />
    <glyph glyph-name="Umacron" unicode="&#x16a;" horiz-adv-x="1556" 
d="M778 -23q-129 0 -237 41t-186 118t-121.5 194.5t-43.5 265.5v793q0 22 16 37.5t38 15.5t37.5 -15.5t15.5 -37.5v-783q0 -252 128.5 -392t356.5 -140q223 0 350.5 134t127.5 388v793q0 22 15.5 37.5t37.5 15.5t37.5 -15.5t15.5 -37.5v-781q0 -302 -160 -466.5t-428 -164.5
zM1049 1620h-541q-20 0 -34.5 14.5t-14.5 34.5t14.5 34.5t34.5 14.5h541q20 0 34.5 -14.5t14.5 -34.5t-14.5 -34.5t-34.5 -14.5z" />
    <glyph glyph-name="umacron" unicode="&#x16b;" horiz-adv-x="1255" 
d="M1065 1001v-958q0 -22 -13.5 -36.5t-35.5 -14.5t-36.5 14t-14.5 37v152q-125 -220 -377 -220q-194 0 -306 119.5t-112 311.5v595q0 23 13.5 37.5t35.5 14.5t36.5 -14.5t14.5 -37.5v-577q0 -163 88 -259.5t244 -96.5q155 0 259 105t104 267v561q0 23 13.5 37.5t35.5 14.5
t36.5 -14.5t14.5 -37.5zM887 1272h-541q-20 0 -34.5 14.5t-14.5 34.5t14.5 34.5t34.5 14.5h541q20 0 34.5 -14.5t14.5 -34.5t-14.5 -34.5t-34.5 -14.5z" />
    <glyph glyph-name="Ubreve" unicode="&#x16c;" horiz-adv-x="1556" 
d="M778 -23q-129 0 -237 41t-186 118t-121.5 194.5t-43.5 265.5v793q0 22 16 37.5t38 15.5t37.5 -15.5t15.5 -37.5v-783q0 -252 128.5 -392t356.5 -140q223 0 350.5 134t127.5 388v793q0 22 15.5 37.5t37.5 15.5t37.5 -15.5t15.5 -37.5v-781q0 -302 -160 -466.5t-428 -164.5
zM778 1563q-169 0 -243 139q-23 44 -23 78q0 21 10.5 33t28.5 12q31 0 43 -35q47 -123 184 -123q138 0 185 123q12 35 43 35q38 0 38 -45q0 -36 -22 -78q-74 -139 -244 -139z" />
    <glyph glyph-name="ubreve" unicode="&#x16d;" horiz-adv-x="1255" 
d="M1065 1001v-958q0 -22 -13.5 -36.5t-35.5 -14.5t-36.5 14t-14.5 37v152q-125 -220 -377 -220q-194 0 -306 119.5t-112 311.5v595q0 23 13.5 37.5t35.5 14.5t36.5 -14.5t14.5 -37.5v-577q0 -163 88 -259.5t244 -96.5q155 0 259 105t104 267v561q0 23 13.5 37.5t35.5 14.5
t36.5 -14.5t14.5 -37.5zM616 1214q-168 0 -243 140q-23 44 -23 78q0 21 10.5 33t28.5 12q31 0 43 -35q47 -123 184 -123q138 0 185 123q12 35 43 35q18 0 28.5 -12t10.5 -33q0 -34 -23 -78q-75 -140 -244 -140z" />
    <glyph glyph-name="Uring" unicode="&#x16e;" horiz-adv-x="1556" 
d="M778 -23q-129 0 -237 41t-186 118t-121.5 194.5t-43.5 265.5v793q0 22 16 37.5t38 15.5t37.5 -15.5t15.5 -37.5v-783q0 -252 128.5 -392t356.5 -140q223 0 350.5 134t127.5 388v793q0 22 15.5 37.5t37.5 15.5t37.5 -15.5t15.5 -37.5v-781q0 -302 -160 -466.5t-428 -164.5
zM778 1542q-80 0 -140 56.5t-60 134.5v4q0 77 60 133.5t140 56.5t140.5 -56.5t60.5 -133.5v-4q0 -77 -60.5 -134t-140.5 -57zM778 1608q51 0 89 37t38 88v4q0 51 -37.5 88t-89.5 37t-89.5 -37t-37.5 -88v-4q0 -51 38 -88t89 -37z" />
    <glyph glyph-name="uring" unicode="&#x16f;" horiz-adv-x="1255" 
d="M1065 1001v-958q0 -22 -13.5 -36.5t-35.5 -14.5t-36.5 14t-14.5 37v152q-125 -220 -377 -220q-194 0 -306 119.5t-112 311.5v595q0 23 13.5 37.5t35.5 14.5t36.5 -14.5t14.5 -37.5v-577q0 -163 88 -259.5t244 -96.5q155 0 259 105t104 267v561q0 23 13.5 37.5t35.5 14.5
t36.5 -14.5t14.5 -37.5zM616 1204q-80 0 -140 56.5t-60 134.5v4q0 77 60 133.5t140 56.5t140.5 -56.5t60.5 -133.5v-4q0 -77 -60.5 -134t-140.5 -57zM616 1270q51 0 89 37t38 88v4q0 51 -37.5 88t-89.5 37t-89.5 -37t-37.5 -88v-4q0 -51 38 -88t89 -37z" />
    <glyph glyph-name="Uhungarumlaut" unicode="&#x170;" horiz-adv-x="1556" 
d="M778 -23q-129 0 -237 41t-186 118t-121.5 194.5t-43.5 265.5v793q0 22 16 37.5t38 15.5t37.5 -15.5t15.5 -37.5v-783q0 -252 128.5 -392t356.5 -140q223 0 350.5 134t127.5 388v793q0 22 15.5 37.5t37.5 15.5t37.5 -15.5t15.5 -37.5v-781q0 -302 -160 -466.5t-428 -164.5
zM905 1561q-11 0 -18.5 5.5t-7.5 12.5q0 11 8 23l129 192q22 35 55 35q28 0 54 -15t26 -30q0 -14 -21 -35l-159 -162q-28 -26 -66 -26zM594 1561q-11 0 -19 5.5t-8 12.5q0 11 8 23l130 192q22 35 55 35q28 0 54 -15t26 -30q0 -14 -21 -35l-160 -162q-18 -16 -31 -21t-34 -5z
" />
    <glyph glyph-name="uhungarumlaut" unicode="&#x171;" horiz-adv-x="1255" 
d="M1065 1001v-958q0 -22 -13.5 -36.5t-35.5 -14.5t-36.5 14t-14.5 37v152q-125 -220 -377 -220q-194 0 -306 119.5t-112 311.5v595q0 23 13.5 37.5t35.5 14.5t36.5 -14.5t14.5 -37.5v-577q0 -163 88 -259.5t244 -96.5q155 0 259 105t104 267v561q0 23 13.5 37.5t35.5 14.5
t36.5 -14.5t14.5 -37.5zM743 1212q-10 0 -18 5.5t-8 13.5q0 10 8 22l129 193q22 35 55 35q28 0 54 -15t26 -30t-20 -35l-160 -162q-29 -27 -66 -27zM432 1212q-10 0 -18 5.5t-8 13.5q0 10 8 22l129 193q22 35 55 35q28 0 54 -15t26 -30q0 -14 -21 -35l-159 -162
q-29 -27 -66 -27z" />
    <glyph glyph-name="Uogonek" unicode="&#x172;" horiz-adv-x="1556" 
d="M637 -174q0 77 82 156q-241 18 -385 177.5t-144 436.5v793q0 22 16 37.5t38 15.5t37.5 -15.5t15.5 -37.5v-783q0 -252 128.5 -392t356.5 -140q223 0 350.5 134t127.5 388v793q0 22 15.5 37.5t37.5 15.5t37.5 -15.5t15.5 -37.5v-781q0 -287 -145.5 -450t-391.5 -178
q-48 -42 -69 -73.5t-21 -68.5q0 -41 28 -62.5t81 -31.5q55 -10 55 -41q0 -17 -11 -27t-30 -10q-16 0 -38.5 2.5t-57 13t-62 26.5t-47.5 47t-20 71z" />
    <glyph glyph-name="uogonek" unicode="&#x173;" horiz-adv-x="1255" 
d="M1065 1001v-966q0 -30 -29 -53q-50 -42 -72 -74t-22 -70q0 -41 28 -62.5t81 -31.5q55 -10 55 -41q0 -17 -11 -27t-30 -10q-16 0 -38.5 2.5t-57 13t-62 26.5t-47.5 47t-20 71q0 52 30.5 96.5t94.5 93.5v179q-125 -220 -377 -220q-194 0 -306 119.5t-112 311.5v595
q0 23 13.5 37.5t35.5 14.5t36.5 -14.5t14.5 -37.5v-577q0 -163 88 -259.5t244 -96.5q155 0 259 105t104 267v561q0 23 13.5 37.5t35.5 14.5t36.5 -14.5t14.5 -37.5z" />
    <glyph glyph-name="Wcircumflex" unicode="&#x174;" horiz-adv-x="2256" 
d="M608 31l-479 1329q-6 15 -6 26q0 22 16.5 39t38.5 17q21 0 36 -14.5t22 -34.5l436 -1235l407 1243q14 41 51 41h5q37 0 51 -41l407 -1243l439 1241q16 43 51 43q20 0 36.5 -16.5t16.5 -36.5q0 -9 -8 -29l-479 -1329q-17 -47 -56 -47h-4q-41 0 -55 47l-406 1204
l-405 -1204q-14 -47 -55 -47h-4q-40 0 -56 47zM1126 1706l-129 -119q-18 -16 -31 -21t-34 -5q-12 0 -19.5 6t-7.5 14q0 13 10 25l148 180q29 37 57 37h17q28 0 57 -37l147 -180q11 -14 11 -25q0 -8 -8 -14t-21 -6q-40 0 -68 26z" />
    <glyph glyph-name="wcircumflex" unicode="&#x175;" horiz-adv-x="1763" 
d="M524 -14q-39 0 -55 45l-342 940q-8 20 -8 33q0 20 15.5 34.5t37.5 14.5q39 0 53 -43l303 -883l303 887q14 39 50 39h4q37 0 51 -39l303 -887l305 887q12 39 49 39q22 0 37 -14t15 -33q0 -12 -9 -35l-342 -940q-16 -45 -55 -45h-4q-40 0 -55 47l-297 854l-299 -854
q-15 -47 -56 -47h-4zM879 1358l-129 -119q-29 -27 -66 -27q-11 0 -19 6.5t-8 14.5q0 10 11 24l147 181q29 37 57 37h17q28 0 57 -37l148 -181q10 -13 10 -24q0 -8 -8 -14.5t-21 -6.5q-38 0 -67 27z" />
    <glyph glyph-name="Ycircumflex" unicode="&#x176;" horiz-adv-x="1466" 
d="M680 45v522l-559 789q-10 17 -10 33q0 22 16.5 37.5t38.5 15.5q28 0 49 -31l520 -747l522 747q23 31 48 31q20 0 36.5 -15.5t16.5 -35.5q0 -15 -17 -41l-555 -781v-524q0 -22 -15.5 -37.5t-37.5 -15.5t-37.5 15.5t-15.5 37.5zM731 1706l-129 -119q-18 -16 -31 -21t-34 -5
q-12 0 -19.5 6t-7.5 14q0 13 10 25l148 180q29 37 57 37h16q29 0 58 -37l147 -180q10 -12 10 -25q0 -8 -7.5 -14t-20.5 -6q-40 0 -68 26z" />
    <glyph glyph-name="ycircumflex" unicode="&#x177;" horiz-adv-x="1204" 
d="M317 -334q-87 0 -178 33q-28 11 -28 43q0 20 13.5 33.5t33.5 13.5q8 0 32 -8q58 -21 134 -21q84 0 141 55.5t110 176.5l7 14l-467 965q-9 23 -9 30q0 22 15.5 37t38.5 15q35 0 53 -41l418 -901l364 905q15 37 49 37q22 0 37 -15t15 -37q0 -11 -6 -26l-424 -1012
q-67 -160 -150 -228.5t-199 -68.5zM608 1358l-129 -119q-29 -27 -65 -27q-11 0 -19 6.5t-8 14.5q0 11 10 24l148 181q29 37 57 37h16q29 0 58 -37l147 -181q11 -14 11 -24q0 -8 -8 -14.5t-21 -6.5q-39 0 -68 27z" />
    <glyph glyph-name="Ydieresis" unicode="&#x178;" horiz-adv-x="1466" 
d="M680 45v522l-559 789q-10 17 -10 33q0 22 16.5 37.5t38.5 15.5q28 0 49 -31l520 -747l522 747q23 31 48 31q20 0 36.5 -15.5t16.5 -35.5q0 -15 -17 -41l-555 -781v-524q0 -22 -15.5 -37.5t-37.5 -15.5t-37.5 15.5t-15.5 37.5zM901 1739q31 0 51.5 -19.5t20.5 -50.5v-41
q0 -30 -20.5 -49.5t-51.5 -19.5t-51.5 19.5t-20.5 49.5v41q0 31 20.5 50.5t51.5 19.5zM565 1739q31 0 51.5 -19.5t20.5 -50.5v-41q0 -30 -20.5 -49.5t-51.5 -19.5t-51 19t-20 50v41q0 31 20 50.5t51 19.5z" />
    <glyph glyph-name="Zacute" unicode="&#x179;" horiz-adv-x="1409" 
d="M197 0q-20 0 -36 14t-16 31v2q0 20 19 45l956 1245h-905q-20 0 -34.5 13.5t-14.5 33.5t14.5 35t34.5 15h999q20 0 36 -14t16 -31v-3q0 -20 -19 -45l-956 -1245h940q20 0 34.5 -13.5t14.5 -33.5t-14.5 -34.5t-34.5 -14.5h-1034zM721 1561q-11 0 -19 5.5t-8 12.5q0 11 8 23
l127 190q24 37 58 37q29 0 57.5 -16t28.5 -31q0 -14 -23 -37l-164 -158q-18 -16 -31 -21t-34 -5z" />
    <glyph glyph-name="zacute" unicode="&#x17a;" horiz-adv-x="1134" 
d="M172 0q-18 0 -32.5 13t-14.5 28v2q0 22 18 43l729 868h-688q-19 0 -32 13t-13 32t13 32t32 13h785q19 0 33 -12.5t14 -27.5v-3q0 -21 -19 -43l-729 -868h717q19 0 32 -13t13 -32t-13 -32t-32 -13h-813zM575 1212q-10 0 -18 5.5t-8 13.5q0 10 8 22l127 191q24 37 57 37
q29 0 57.5 -16t28.5 -31t-22 -37l-164 -158q-29 -27 -66 -27z" />
    <glyph glyph-name="Zdotaccent" unicode="&#x17b;" horiz-adv-x="1409" 
d="M197 0q-20 0 -36 14t-16 31v2q0 20 19 45l956 1245h-905q-20 0 -34.5 13.5t-14.5 33.5t14.5 35t34.5 15h999q20 0 36 -14t16 -31v-3q0 -20 -19 -45l-956 -1245h940q20 0 34.5 -13.5t14.5 -33.5t-14.5 -34.5t-34.5 -14.5h-1034zM797 1669v-39q0 -32 -20.5 -51.5
t-53.5 -19.5t-53.5 19.5t-20.5 51.5v39q0 32 21 52t53 20t53 -20t21 -52z" />
    <glyph glyph-name="zdotaccent" unicode="&#x17c;" horiz-adv-x="1134" 
d="M172 0q-18 0 -32.5 13t-14.5 28v2q0 22 18 43l729 868h-688q-19 0 -32 13t-13 32t13 32t32 13h785q19 0 33 -12.5t14 -27.5v-3q0 -21 -19 -43l-729 -868h717q19 0 32 -13t13 -32t-13 -32t-32 -13h-813zM651 1321v-39q0 -32 -20.5 -52t-52.5 -20t-53 20t-21 52v39
q0 32 21 52t53 20t52.5 -20t20.5 -52z" />
    <glyph glyph-name="Zcaron" unicode="&#x17d;" horiz-adv-x="1409" 
d="M197 0q-20 0 -36 14t-16 31v2q0 20 19 45l956 1245h-905q-20 0 -34.5 13.5t-14.5 33.5t14.5 35t34.5 15h999q20 0 36 -14t16 -31v-3q0 -20 -19 -45l-956 -1245h940q20 0 34.5 -13.5t14.5 -33.5t-14.5 -34.5t-34.5 -14.5h-1034zM725 1677l129 119q29 27 66 27
q11 0 18.5 -6.5t7.5 -14.5q0 -12 -10 -24l-148 -181q-28 -36 -57 -36h-16q-30 0 -58 36l-147 181q-10 12 -10 24q0 8 7.5 14.5t20.5 6.5q39 0 68 -27z" />
    <glyph glyph-name="zcaron" unicode="&#x17e;" horiz-adv-x="1134" 
d="M172 0q-18 0 -32.5 13t-14.5 28v2q0 22 18 43l729 868h-688q-19 0 -32 13t-13 32t13 32t32 13h785q19 0 33 -12.5t14 -27.5v-3q0 -21 -19 -43l-729 -868h717q19 0 32 -13t13 -32t-13 -32t-32 -13h-813zM580 1329l129 119q29 27 65 27q11 0 19 -6.5t8 -14.5q0 -12 -10 -24
l-148 -181q-29 -37 -57 -37h-17q-28 0 -57 37l-147 181q-11 14 -11 24q0 8 8 14.5t21 6.5q39 0 68 -27z" />
    <glyph glyph-name="florin" unicode="&#x192;" horiz-adv-x="1036" 
d="M193 -10q-78 0 -78 45t63 45q139 0 168 168l100 538h-184q-19 0 -33 13t-14 32q0 20 14 34t33 14h201l53 278q29 151 99 219t194 68q72 0 121 -12q41 -9 41 -48q0 -19 -13 -31t-32 -12q-2 0 -39 6.5t-68 6.5q-84 0 -129 -47t-65 -156l-52 -272h279q19 0 33 -14.5
t14 -33.5t-14 -32t-33 -13h-295l-102 -544q-49 -252 -262 -252z" />
    <glyph glyph-name="Aringacute" unicode="&#x1fa;" horiz-adv-x="1617" 
d="M887 1389l610 -1323q4 -8 4 -23q0 -20 -15.5 -35.5t-37.5 -15.5q-33 0 -51 41l-168 368h-846l-168 -370q-16 -39 -49 -39q-21 0 -36 15t-15 34q0 8 4 20l612 1328q-54 22 -88.5 69.5t-34.5 104.5v4q0 77 60.5 133.5t140.5 56.5t140.5 -56.5t60.5 -133.5v-4
q0 -58 -34 -105t-89 -69zM809 1438q51 0 89 37t38 88v4q0 51 -37.5 88t-89.5 37t-89.5 -37t-37.5 -88v-4q0 -51 38 -88t89 -37zM428 498h756l-377 829zM809 1825q-11 0 -19 5.5t-8 12.5q0 9 9 23l127 190q24 37 57 37q29 0 57.5 -16t28.5 -31q0 -14 -23 -37l-164 -158
q-18 -16 -31 -21t-34 -5z" />
    <glyph glyph-name="aringacute" unicode="&#x1fb;" horiz-adv-x="1175" 
d="M508 -25q-75 0 -146 21.5t-129 61t-93.5 103.5t-35.5 142v4q0 160 125.5 250t331.5 90q179 0 346 -45v45q0 156 -90.5 238t-253.5 82q-150 0 -297 -70q-12 -6 -22 -6q-19 0 -33 14t-14 33q0 17 9 29t19 16q176 78 344 78q215 0 330 -115q107 -107 107 -295v-608
q0 -23 -14 -37t-36 -14t-35.5 14t-13.5 37v131q-62 -86 -162 -142.5t-237 -56.5zM514 70q163 0 279 90.5t116 230.5v119q-180 47 -354 47q-163 0 -253.5 -66.5t-90.5 -177.5v-4q0 -110 88.5 -174.5t214.5 -64.5zM588 1214q-80 0 -140.5 57t-60.5 134v4q0 77 60.5 133.5
t140.5 56.5t140 -56.5t60 -133.5v-4q0 -78 -60 -134.5t-140 -56.5zM588 1280q51 0 89 37t38 88v4q0 51 -37.5 88t-89.5 37t-89.5 -37t-37.5 -88v-4q0 -51 38 -88t89 -37zM586 1673q-11 0 -19 6t-8 13q0 10 8 22l127 191q24 37 58 37q29 0 57.5 -16.5t28.5 -31.5
q0 -13 -23 -36l-164 -158q-29 -27 -65 -27z" />
    <glyph glyph-name="AEacute" unicode="&#x1fc;" horiz-adv-x="2140" 
d="M72 39q0 12 10 29l807 1333q20 33 53 33h1018q20 0 34.5 -15t14.5 -35t-14.5 -34.5t-34.5 -14.5h-842v-563h750q20 0 34.5 -14.5t14.5 -34.5t-14.5 -34.5t-34.5 -14.5h-750v-576h852q20 0 34.5 -14.5t14.5 -34.5t-14.5 -34.5t-34.5 -14.5h-905q-22 0 -37.5 15.5
t-15.5 37.5v348h-615l-231 -385q-16 -26 -45 -26q-20 0 -34.5 14.5t-14.5 34.5zM455 498h557v839h-54zM1042 1561q-11 0 -18.5 5.5t-7.5 12.5q0 11 8 23l127 190q24 37 57 37q29 0 57.5 -16t28.5 -31t-22 -37l-164 -158q-28 -26 -66 -26z" />
    <glyph glyph-name="aeacute" unicode="&#x1fd;" horiz-adv-x="1953" 
d="M983 571h760q-5 81 -31 152.5t-71 129t-115.5 91t-157.5 33.5q-154 0 -262.5 -116t-122.5 -290zM504 70q243 0 418 219q-42 106 -45 223q-198 45 -332 45q-158 0 -246 -66.5t-88 -177.5v-4q0 -110 84 -174.5t209 -64.5zM1796 145q-83 -83 -178.5 -126.5t-228.5 -43.5
q-129 0 -241 61.5t-181 168.5q-201 -230 -469 -230q-74 0 -143.5 21t-126 61t-90.5 104t-34 142v4q0 160 123 250t324 90q161 0 328 -45v45q0 157 -86 238.5t-244 81.5q-136 0 -283 -70q-12 -6 -22 -6q-19 0 -33 14t-14 33q0 17 9 29t19 16q169 78 330 78q157 0 258.5 -66.5
t136.5 -195.5q63 124 174.5 197t247.5 73q143 0 253 -73t168 -195.5t58 -272.5q0 -19 -15 -33t-34 -14h-819q13 -188 131.5 -299.5t278.5 -111.5q192 0 338 143q14 14 32 14q20 0 34.5 -13.5t14.5 -33.5q0 -19 -16 -35zM975 1212q-11 0 -19 6t-8 13q0 10 8 22l127 191
q24 37 58 37q29 0 57.5 -16t28.5 -31q0 -14 -23 -37l-164 -158q-29 -27 -65 -27z" />
    <glyph glyph-name="Oslashacute" unicode="&#x1fe;" horiz-adv-x="1740" 
d="M868 -25q-272 0 -467 168l-137 -145q-16 -16 -37 -16q-19 0 -31 12t-12 31t13 32l139 150q-89 101 -137.5 232.5t-48.5 273.5v4q0 146 52.5 280.5t145 236.5t229.5 163t295 61q269 0 467 -170l138 148q16 16 36 16q19 0 31 -12t12 -31q0 -21 -12 -33l-141 -151
q91 -100 139.5 -230.5t48.5 -273.5v-4q0 -146 -52.5 -280.5t-145.5 -237t-230 -163.5t-295 -61zM872 72q130 0 244 50.5t193.5 137t125.5 204.5t46 249v4q0 242 -152 428l-860 -920q169 -153 403 -153zM260 717q0 -248 152 -430l858 921q-170 154 -402 154q-173 0 -313 -86
t-217.5 -232.5t-77.5 -322.5v-4zM868 1581q-11 0 -18.5 5.5t-7.5 12.5q0 11 8 23l127 190q24 37 57 37q29 0 57.5 -16t28.5 -31t-22 -37l-164 -157q-29 -27 -66 -27z" />
    <glyph glyph-name="oslashacute" unicode="&#x1ff;" horiz-adv-x="1310" 
d="M653 -25q-196 0 -342 123l-98 -100q-16 -16 -37 -16q-18 0 -29.5 10.5t-11.5 27.5q0 19 12 31l103 107q-131 157 -131 360v4q0 109 41 209t111 174.5t171 119t215 44.5q198 0 342 -125l99 107q16 16 37 16q17 0 29 -11t12 -28q0 -18 -13 -31l-104 -110q133 -152 133 -361
v-4q0 -146 -69 -271t-193.5 -200.5t-276.5 -75.5zM657 70q121 0 219.5 60.5t152.5 163t54 224.5v4q0 164 -98 289l-608 -635q118 -106 280 -106zM227 522q0 -165 97 -289l610 633q-122 109 -281 109q-183 0 -304.5 -131t-121.5 -318v-4zM653 1212q-10 0 -18 5.5t-8 13.5
q0 10 8 22l127 191q24 37 57 37q29 0 57.5 -16t28.5 -31t-22 -37l-164 -158q-29 -27 -66 -27z" />
    <glyph glyph-name="Scommaaccent" unicode="&#x218;" horiz-adv-x="1310" 
d="M698 -20q-158 0 -289 49t-255 151q-21 17 -21 41q0 22 15.5 37.5t37.5 15.5q19 0 35 -12q108 -97 222.5 -141.5t261.5 -44.5q160 0 261 80t101 204v5q0 80 -32.5 133t-122 96t-250.5 76q-258 53 -371 146.5t-113 256.5v4q0 161 131 269t330 108q141 0 248.5 -35.5
t208.5 -111.5q22 -18 22 -43q0 -22 -15.5 -38t-37.5 -16q-19 0 -35 13q-176 135 -395 135q-155 0 -252.5 -78t-97.5 -193v-4q0 -81 32.5 -134.5t125 -99t259.5 -79.5q249 -51 360.5 -144.5t111.5 -250.5v-4q0 -172 -134 -281.5t-342 -109.5zM662 -301q-66 14 -66 72v12
q0 31 21.5 52.5t52.5 21.5q32 0 52.5 -22.5t20.5 -59.5v-13q0 -63 -10.5 -99t-38.5 -64q-25 -25 -65 -41.5t-66 -16.5q-12 0 -19 7t-7 16q0 20 26 28q55 15 77 39t22 68z" />
    <glyph glyph-name="scommaaccent" unicode="&#x219;" horiz-adv-x="1017" 
d="M528 -20q-105 0 -214.5 37t-190.5 98q-19 14 -19 39q0 20 15 34.5t35 14.5q19 0 32 -10q166 -119 349 -119q108 0 179.5 54.5t71.5 143.5v4q0 36 -16 65.5t-38.5 49.5t-62.5 38.5t-73.5 29.5t-85.5 26q-160 46 -224 81q-134 74 -134 206v4q0 126 96 207.5t248 81.5
q173 0 338 -94q26 -17 26 -45q0 -20 -14.5 -34.5t-34.5 -14.5q-17 0 -29 8q-146 86 -290 86q-106 0 -172 -52t-66 -131v-4q0 -28 10 -52t33 -43t45 -33t62 -28.5t66.5 -23t74.5 -22.5q49 -14 84.5 -25.5t79 -30t72.5 -40t55.5 -50t39.5 -65.5t13 -82v-4q0 -137 -103.5 -221
t-257.5 -84zM506 -301q-66 14 -66 72v12q0 31 21.5 52.5t52.5 21.5q32 0 53 -22.5t21 -59.5v-13q0 -63 -10.5 -99t-38.5 -64q-25 -25 -65 -41.5t-66 -16.5q-12 0 -19.5 7t-7.5 16q0 20 27 28q55 15 76.5 38.5t21.5 68.5z" />
    <glyph glyph-name="schwa" unicode="&#x259;" horiz-adv-x="1196" 
d="M971 473h-760q5 -81 31 -152.5t71 -128.5t115.5 -90.5t157.5 -33.5q154 0 262.5 115.5t122.5 289.5zM158 899q83 83 178.5 126.5t228.5 43.5q102 0 195.5 -40t163.5 -110t111.5 -173t41.5 -222v-4q0 -112 -38 -212.5t-103 -173.5t-157.5 -116t-196.5 -43
q-143 0 -253.5 73t-168.5 195.5t-58 272.5q0 18 15.5 32.5t34.5 14.5h819q-13 188 -131.5 300t-278.5 112q-190 0 -338 -144q-14 -14 -33 -14q-20 0 -34.5 13.5t-14.5 33.5q0 18 17 35z" />
    <glyph glyph-name="circumflex" unicode="&#x2c6;" horiz-adv-x="1024" 
d="M510 1358l-129 -119q-29 -27 -66 -27q-11 0 -18.5 6.5t-7.5 14.5q0 11 10 24l147 181q29 37 58 37h16q29 0 58 -37l147 -181q10 -13 10 -24q0 -8 -7.5 -14.5t-20.5 -6.5q-39 0 -68 27z" />
    <glyph glyph-name="caron" unicode="&#x2c7;" horiz-adv-x="1024" 
d="M514 1329l129 119q29 27 66 27q11 0 18.5 -6.5t7.5 -14.5q0 -12 -10 -24l-147 -181q-29 -37 -58 -37h-16q-29 0 -58 37l-147 181q-10 12 -10 24q0 8 7.5 14.5t20.5 6.5q39 0 68 -27z" />
    <glyph glyph-name="breve" unicode="&#x2d8;" horiz-adv-x="1024" 
d="M512 1214q-169 0 -244 140q-22 42 -22 78q0 21 10.5 33t28.5 12q31 0 43 -35q47 -123 184 -123t184 123q12 35 43 35q18 0 28.5 -12t10.5 -33q0 -36 -22 -78q-75 -140 -244 -140z" />
    <glyph glyph-name="dotaccent" unicode="&#x2d9;" horiz-adv-x="1024" 
d="M586 1321v-39q0 -32 -21 -52t-53 -20t-53 20t-21 52v39q0 32 21 52t53 20t53 -20t21 -52z" />
    <glyph glyph-name="ring" unicode="&#x2da;" horiz-adv-x="1024" 
d="M512 1214q-80 0 -140.5 57t-60.5 134v4q0 77 60.5 133.5t140.5 56.5t140.5 -56.5t60.5 -133.5v-4q0 -77 -60.5 -134t-140.5 -57zM512 1280q51 0 89 37t38 88v4q0 51 -37.5 88t-89.5 37t-89.5 -37t-37.5 -88v-4q0 -51 38 -88t89 -37z" />
    <glyph glyph-name="ogonek" unicode="&#x2db;" horiz-adv-x="1024" 
d="M399 -174q0 55 36 103t114 108l72 -35q-65 -53 -92 -88t-27 -76t27.5 -62.5t80.5 -31.5q56 -10 56 -41q0 -17 -11 -27t-30 -10q-16 0 -38.5 2.5t-57.5 13t-62.5 26.5t-47.5 47t-20 71z" />
    <glyph glyph-name="tilde" unicode="&#x2dc;" horiz-adv-x="1024" 
d="M289 1225q-15 -29 -37 -29q-15 0 -26 10t-11 25q0 12 4 24q28 86 66 120t96 34q40 0 134 -42t128 -42q33 0 53 17.5t39 60.5q15 29 37 29q15 0 26 -10t11 -25q0 -13 -4 -25q-28 -86 -66 -119.5t-96 -33.5q-40 0 -134 42t-128 42q-33 0 -53 -17.5t-39 -60.5z" />
    <glyph glyph-name="hungarumlaut" unicode="&#x2dd;" horiz-adv-x="1024" 
d="M561 1212q-10 0 -18 5.5t-8 13.5q0 10 8 22l129 193q22 35 55 35q28 0 54 -15t26 -30q0 -14 -21 -35l-159 -162q-29 -27 -66 -27zM250 1212q-11 0 -19 6t-8 13q0 10 8 22l129 193q22 35 56 35q28 0 54 -15t26 -30q0 -14 -21 -35l-160 -162q-29 -27 -65 -27z" />
    <glyph glyph-name="commaaccent" unicode="&#x326;" horiz-adv-x="1024" 
d="M504 -301q-66 14 -66 72v12q0 31 21.5 52.5t52.5 21.5q32 0 53 -22.5t21 -59.5v-13q0 -63 -10.5 -99t-38.5 -64q-25 -25 -65 -41.5t-66 -16.5q-12 0 -19.5 7t-7.5 16q0 20 27 28q55 15 76.5 38.5t21.5 68.5z" />
    <glyph glyph-name="Wgrave" unicode="&#x1e80;" horiz-adv-x="2256" 
d="M608 31l-479 1329q-6 15 -6 26q0 22 16.5 39t38.5 17q21 0 36 -14.5t22 -34.5l436 -1235l407 1243q14 41 51 41h5q37 0 51 -41l407 -1243l439 1241q16 43 51 43q20 0 36.5 -16.5t16.5 -36.5q0 -9 -8 -29l-479 -1329q-17 -47 -56 -47h-4q-41 0 -55 47l-406 1204
l-405 -1204q-14 -47 -55 -47h-4q-40 0 -56 47zM1130 1561q-21 0 -34 5t-31 21l-164 158q-22 22 -22 37t28.5 31t57.5 16q33 0 57 -37l127 -190q8 -12 8 -23q0 -7 -8 -12.5t-19 -5.5z" />
    <glyph glyph-name="wgrave" unicode="&#x1e81;" horiz-adv-x="1763" 
d="M524 -14q-39 0 -55 45l-342 940q-8 20 -8 33q0 20 15.5 34.5t37.5 14.5q39 0 53 -43l303 -883l303 887q14 39 50 39h4q37 0 51 -39l303 -887l305 887q12 39 49 39q22 0 37 -14t15 -33q0 -12 -9 -35l-342 -940q-16 -45 -55 -45h-4q-40 0 -55 47l-297 854l-299 -854
q-15 -47 -56 -47h-4zM883 1212q-37 0 -66 27l-164 158q-22 22 -22 37t28.5 31t57.5 16q33 0 57 -37l127 -191q8 -12 8 -22q0 -8 -8 -13.5t-18 -5.5z" />
    <glyph glyph-name="Wacute" unicode="&#x1e82;" horiz-adv-x="2256" 
d="M608 31l-479 1329q-6 15 -6 26q0 22 16.5 39t38.5 17q21 0 36 -14.5t22 -34.5l436 -1235l407 1243q14 41 51 41h5q37 0 51 -41l407 -1243l439 1241q16 43 51 43q20 0 36.5 -16.5t16.5 -36.5q0 -9 -8 -29l-479 -1329q-17 -47 -56 -47h-4q-41 0 -55 47l-406 1204
l-405 -1204q-14 -47 -55 -47h-4q-40 0 -56 47zM1126 1561q-11 0 -18.5 5.5t-7.5 12.5q0 11 8 23l127 190q24 37 57 37q29 0 57.5 -16t28.5 -31t-22 -37l-164 -158q-28 -26 -66 -26z" />
    <glyph glyph-name="wacute" unicode="&#x1e83;" horiz-adv-x="1763" 
d="M524 -14q-39 0 -55 45l-342 940q-8 20 -8 33q0 20 15.5 34.5t37.5 14.5q39 0 53 -43l303 -883l303 887q14 39 50 39h4q37 0 51 -39l303 -887l305 887q12 39 49 39q22 0 37 -14t15 -33q0 -12 -9 -35l-342 -940q-16 -45 -55 -45h-4q-40 0 -55 47l-297 854l-299 -854
q-15 -47 -56 -47h-4zM879 1212q-11 0 -19 6t-8 13q0 10 8 22l127 191q24 37 57 37q29 0 57.5 -16t28.5 -31t-22 -37l-164 -158q-29 -27 -65 -27z" />
    <glyph glyph-name="Wdieresis" unicode="&#x1e84;" horiz-adv-x="2256" 
d="M608 31l-479 1329q-6 15 -6 26q0 22 16.5 39t38.5 17q21 0 36 -14.5t22 -34.5l436 -1235l407 1243q14 41 51 41h5q37 0 51 -41l407 -1243l439 1241q16 43 51 43q20 0 36.5 -16.5t16.5 -36.5q0 -9 -8 -29l-479 -1329q-17 -47 -56 -47h-4q-41 0 -55 47l-406 1204
l-405 -1204q-14 -47 -55 -47h-4q-40 0 -56 47zM1296 1739q31 0 51.5 -19.5t20.5 -50.5v-41q0 -30 -20.5 -49.5t-51.5 -19.5t-51 19t-20 50v41q0 31 20 50.5t51 19.5zM961 1739q31 0 51 -19.5t20 -50.5v-41q0 -31 -20 -50t-51 -19t-51.5 19.5t-20.5 49.5v41q0 31 20.5 50.5
t51.5 19.5z" />
    <glyph glyph-name="wdieresis" unicode="&#x1e85;" horiz-adv-x="1763" 
d="M524 -14q-39 0 -55 45l-342 940q-8 20 -8 33q0 20 15.5 34.5t37.5 14.5q39 0 53 -43l303 -883l303 887q14 39 50 39h4q37 0 51 -39l303 -887l305 887q12 39 49 39q22 0 37 -14t15 -33q0 -12 -9 -35l-342 -940q-16 -45 -55 -45h-4q-40 0 -55 47l-297 854l-299 -854
q-15 -47 -56 -47h-4zM1049 1391q31 0 51 -19.5t20 -50.5v-41q0 -31 -20 -50.5t-51 -19.5t-51.5 19.5t-20.5 50.5v41q0 31 20.5 50.5t51.5 19.5zM713 1391q31 0 51 -19.5t20 -50.5v-41q0 -31 -20 -50.5t-51 -19.5t-51.5 19.5t-20.5 50.5v41q0 31 20.5 50.5t51.5 19.5z" />
    <glyph glyph-name="Ygrave" unicode="&#x1ef2;" horiz-adv-x="1466" 
d="M680 45v522l-559 789q-10 17 -10 33q0 22 16.5 37.5t38.5 15.5q28 0 49 -31l520 -747l522 747q23 31 48 31q20 0 36.5 -15.5t16.5 -35.5q0 -15 -17 -41l-555 -781v-524q0 -22 -15.5 -37.5t-37.5 -15.5t-37.5 15.5t-15.5 37.5zM735 1561q-21 0 -34 5t-31 21l-164 158
q-23 23 -23 37q0 15 28.5 31t57.5 16q34 0 58 -37l127 -190q8 -12 8 -23q0 -7 -8 -12.5t-19 -5.5z" />
    <glyph glyph-name="ygrave" unicode="&#x1ef3;" horiz-adv-x="1204" 
d="M317 -334q-87 0 -178 33q-28 11 -28 43q0 20 13.5 33.5t33.5 13.5q8 0 32 -8q58 -21 134 -21q84 0 141 55.5t110 176.5l7 14l-467 965q-9 23 -9 30q0 22 15.5 37t38.5 15q35 0 53 -41l418 -901l364 905q15 37 49 37q22 0 37 -15t15 -37q0 -11 -6 -26l-424 -1012
q-67 -160 -150 -228.5t-199 -68.5zM612 1212q-36 0 -65 27l-164 158q-23 23 -23 37q0 15 28.5 31t57.5 16q34 0 58 -37l127 -191q8 -12 8 -22q0 -7 -8 -13t-19 -6z" />
    <glyph glyph-name="enspace" unicode="&#x2002;" horiz-adv-x="1024" 
 />
    <glyph glyph-name="emspace" unicode="&#x2003;" horiz-adv-x="2048" 
 />
    <glyph glyph-name="threeperemspace" unicode="&#x2004;" horiz-adv-x="681" 
 />
    <glyph glyph-name="fourperemspace" unicode="&#x2005;" horiz-adv-x="512" 
 />
    <glyph glyph-name="thinspace" unicode="&#x2009;" horiz-adv-x="272" 
 />
    <glyph glyph-name="hairspace" unicode="&#x200a;" horiz-adv-x="153" 
 />
    <glyph glyph-name="endash" unicode="&#x2013;" horiz-adv-x="1081" 
d="M188 555q-22 0 -37.5 15.5t-15.5 37.5t15.5 38t37.5 16h705q22 0 37.5 -16t15.5 -38t-15.5 -37.5t-37.5 -15.5h-705z" />
    <glyph glyph-name="emdash" unicode="&#x2014;" horiz-adv-x="1839" 
d="M188 555q-22 0 -37.5 15.5t-15.5 37.5t15.5 38t37.5 16h1463q22 0 37.5 -16t15.5 -38t-15.5 -37.5t-37.5 -15.5h-1463z" />
    <glyph glyph-name="quoteleft" unicode="&#x2018;" horiz-adv-x="471" 
d="M350 1409q0 -17 -16 -27q-56 -31 -78 -67t-18 -90q55 -14 55 -72v-43q0 -28 -20 -48t-48 -20t-47.5 20t-19.5 48v51q0 158 55 213q27 27 59.5 46.5t46.5 19.5q12 0 21.5 -8.5t9.5 -22.5z" />
    <glyph glyph-name="quoteright" unicode="&#x2019;" horiz-adv-x="471" 
d="M121 1075q0 17 16 27q56 31 78 67.5t18 90.5q-55 14 -55 71v43q0 28 20 48t48 20t47.5 -20t19.5 -48v-51q0 -158 -55 -213q-27 -27 -59.5 -46.5t-46.5 -19.5q-12 0 -21.5 8.5t-9.5 22.5z" />
    <glyph glyph-name="quotesinglbase" unicode="&#x201a;" horiz-adv-x="471" 
d="M111 -184q0 16 16 26q56 31 78 67.5t18 90.5q-55 14 -55 72v43q0 29 19.5 48t48.5 19t48 -19t19 -48v-52q0 -158 -55 -213q-26 -26 -59 -45.5t-48 -19.5q-11 0 -20.5 8.5t-9.5 22.5z" />
    <glyph glyph-name="quotedblleft" unicode="&#x201c;" horiz-adv-x="839" 
d="M719 1409q0 -17 -17 -27q-56 -31 -78 -67t-18 -90q56 -14 56 -72v-43q0 -28 -20 -48t-48 -20t-48 20t-20 48v51q0 157 56 213q27 27 59.5 46.5t46.5 19.5q12 0 21.5 -8.5t9.5 -22.5zM350 1409q0 -17 -16 -27q-56 -31 -78 -67t-18 -90q55 -14 55 -72v-43q0 -28 -20 -48
t-48 -20t-47.5 20t-19.5 48v51q0 158 55 213q27 27 59.5 46.5t46.5 19.5q12 0 21.5 -8.5t9.5 -22.5z" />
    <glyph glyph-name="quotedblright" unicode="&#x201d;" horiz-adv-x="839" 
d="M121 1075q0 17 16 27q56 31 78 67.5t18 90.5q-55 14 -55 71v43q0 28 20 48t48 20t47.5 -20t19.5 -48v-51q0 -158 -55 -213q-27 -27 -59.5 -46.5t-46.5 -19.5q-12 0 -21.5 8.5t-9.5 22.5zM489 1075q0 17 17 27q56 31 78 67.5t18 90.5q-55 14 -55 71v43q0 28 19.5 48
t47.5 20t48 -20t20 -48v-51q0 -158 -55 -213q-26 -26 -59.5 -46t-47.5 -20q-12 0 -21.5 8.5t-9.5 22.5z" />
    <glyph glyph-name="quotedblbase" unicode="&#x201e;" horiz-adv-x="839" 
d="M111 -184q0 16 16 26q56 31 78 67.5t18 90.5q-55 14 -55 72v43q0 29 19.5 48t48.5 19t48 -19t19 -48v-52q0 -158 -55 -213q-26 -26 -59 -45.5t-48 -19.5q-11 0 -20.5 8.5t-9.5 22.5zM479 -184q0 16 17 26q56 31 78 67.5t18 90.5q-55 14 -55 72v43q0 28 19.5 47.5
t47.5 19.5t48 -19.5t20 -47.5v-52q0 -157 -56 -213q-26 -26 -59 -45.5t-47 -19.5q-12 0 -21.5 8.5t-9.5 22.5z" />
    <glyph glyph-name="dagger" unicode="&#x2020;" horiz-adv-x="839" 
d="M375 526l10 547l-217 -12q-19 -2 -33 11t-14 32t14 32.5t33 12.5l215 -12l-12 252q-2 23 12 38t37 15t37 -15t12 -38l-12 -252l215 12q19 1 33 -12.5t14 -32.5t-14 -32t-33 -11l-217 12l10 -547q0 -21 -13 -34t-32 -13t-32 13t-13 34z" />
    <glyph glyph-name="daggerdbl" unicode="&#x2021;" horiz-adv-x="880" 
d="M391 45l12 252l-215 -12q-19 -1 -33 12.5t-14 32.5t14 32t33 11l218 -13l-11 357l11 356l-218 -12q-19 -2 -33 11t-14 32t14 32.5t33 12.5l215 -12l-12 252q-2 23 12 38t37 15t37 -15t12 -38l-12 -252l215 12q19 1 33 -12.5t14 -32.5t-14 -32t-33 -11l-217 12l10 -356
l-10 -357l217 13q19 2 33 -11t14 -32t-14 -32.5t-33 -12.5l-215 12l12 -252q2 -23 -12 -38t-37 -15t-37 15t-12 38z" />
    <glyph glyph-name="bullet" unicode="&#x2022;" horiz-adv-x="962" 
d="M481 467q-104 0 -179 74t-75 178v4q0 103 76.5 177.5t177.5 74.5q100 0 177 -74.5t77 -177.5v-4q0 -104 -75 -178t-179 -74z" />
    <glyph glyph-name="ellipsis" unicode="&#x2026;" horiz-adv-x="1392" 
d="M1094 115q0 29 18 48t47 19t47.5 -19t18.5 -48v-56q0 -29 -18.5 -48t-47.5 -19t-47 19t-18 48v56zM631 115q0 29 18 48t47 19t47.5 -19t18.5 -48v-56q0 -29 -18.5 -48t-47.5 -19t-47 19t-18 48v56zM168 115q0 29 18 48t47 19t47.5 -19t18.5 -48v-56q0 -29 -18.5 -48
t-47.5 -19t-47 19t-18 48v56z" />
    <glyph glyph-name="perthousand" unicode="&#x2030;" horiz-adv-x="2457" 
d="M426 717q-137 0 -225 107.5t-88 254.5v4q0 97 39 180.5t112.5 135t165.5 51.5q91 0 163.5 -51.5t111 -134t38.5 -177.5v-4q0 -149 -89 -257.5t-228 -108.5zM299 35q0 15 8 26l998 1358q16 23 38 23q19 0 32.5 -12.5t13.5 -30.5q0 -15 -9 -27l-997 -1358q-16 -22 -39 -22
q-19 0 -32 12t-13 31zM2028 -16q-137 0 -225.5 107.5t-88.5 254.5v4q0 149 89.5 258t228.5 109q91 0 163.5 -51.5t111 -134t38.5 -177.5v-4q0 -149 -89 -257.5t-228 -108.5zM1257 -16q-137 0 -225 107.5t-88 254.5v4q0 149 89.5 258t228.5 109q91 0 163.5 -51.5t111 -134
t38.5 -177.5v-4q0 -149 -89.5 -257.5t-228.5 -108.5zM430 805q90 0 148.5 78.5t58.5 195.5v4q0 119 -62 199t-149 80q-89 0 -148 -80.5t-59 -194.5v-4q0 -120 61.5 -199t149.5 -79zM2032 72q90 0 148 78.5t58 195.5v4q0 119 -61.5 199t-148.5 80q-89 0 -148 -80.5
t-59 -194.5v-4q0 -120 61.5 -199t149.5 -79zM1262 72q90 0 148 78.5t58 195.5v4q0 119 -62 199t-149 80q-89 0 -147.5 -80t-58.5 -195v-4q0 -120 61.5 -199t149.5 -79z" />
    <glyph glyph-name="guilsinglleft" unicode="&#x2039;" horiz-adv-x="636" 
d="M453 88q-23 0 -39 23l-281 366q-20 26 -20 45t20 45l281 367q16 22 39 22q19 0 32 -12t13 -31q0 -18 -13 -34l-258 -355l258 -358q13 -16 13 -35t-13 -31t-32 -12z" />
    <glyph glyph-name="guilsinglright" unicode="&#x203a;" horiz-adv-x="636" 
d="M184 956q23 0 39 -22l281 -367q20 -26 20 -45t-20 -45l-281 -366q-16 -23 -39 -23q-19 0 -32 12t-13 31t13 35l258 354l-258 359q-15 22 -13 34q2 19 14 31t31 12z" />
    <glyph glyph-name="fraction" unicode="&#x2044;" horiz-adv-x="839" 
d="M-109 -164q0 13 9 31l909 1663q17 31 45 31q21 0 35 -12.5t14 -32.5q0 -15 -8 -31l-909 -1663q-17 -31 -45 -31q-21 0 -35.5 12.5t-14.5 32.5z" />
    <glyph glyph-name="Euro" unicode="&#x20ac;" horiz-adv-x="1474" 
d="M1348 279q0 -14 -11 -29q-89 -129 -199.5 -202t-260.5 -73q-210 0 -364 145t-206 382h-145q-20 0 -34.5 14.5t-14.5 34.5t14.5 34.5t34.5 14.5h129q-6 56 -6 115q0 77 8 137h-131q-20 0 -34.5 14.5t-14.5 34.5t14.5 34.5t34.5 14.5h151q57 225 205.5 366.5t343.5 141.5
q108 0 198.5 -34.5t153 -88.5t119.5 -133q13 -17 13 -33q0 -20 -15 -34.5t-35 -14.5q-28 0 -43 23q-85 113 -174.5 167t-220.5 54q-152 0 -271 -114.5t-169 -299.5h540q20 0 35 -14.5t15 -34.5t-15 -34.5t-35 -14.5h-559q-10 -72 -10 -133q0 -63 6 -119h563q20 0 35 -14.5
t15 -34.5t-15 -34.5t-35 -14.5h-544q48 -197 173 -314.5t296 -117.5q220 0 377 231q16 23 40 23q21 0 34.5 -12.5t13.5 -32.5z" />
    <glyph glyph-name="published" unicode="&#x2117;" horiz-adv-x="1699" 
d="M848 -25q-153 0 -290.5 59t-235.5 158.5t-155.5 235.5t-57.5 285v4q0 149 58 285.5t157 236.5t237 159.5t291 59.5t290.5 -59t235.5 -158t155.5 -235t57.5 -285v-4q0 -149 -58 -285.5t-157 -237t-237 -160t-291 -59.5zM848 33q191 0 348 92.5t245.5 249t88.5 342.5v4
q0 186 -88 341.5t-244 247t-346 91.5q-191 0 -348 -92.5t-245.5 -249t-88.5 -342.5v-4q0 -186 88 -341.5t244 -247t346 -91.5zM606 395v668q0 19 13 32t32 13h244q134 0 213.5 -62t79.5 -174v-4q0 -120 -88.5 -183.5t-218.5 -63.5h-185v-226q0 -19 -13 -32t-32 -13t-32 13
t-13 32zM696 705h187q98 0 155.5 42t57.5 117v4q0 78 -54.5 117t-152.5 39h-193v-319z" />
    <glyph glyph-name="servicemark" unicode="&#x2120;" horiz-adv-x="1449" 
d="M719 829v570q0 15 10 25t25 10h10q20 0 33 -19l243 -371l244 371q13 19 33 19h8q13 0 24 -11t11 -24v-570q0 -15 -11 -24.5t-26 -9.5t-25 9.5t-10 24.5v463l-215 -321q-14 -21 -33 -21q-20 0 -34 21l-215 321v-463q0 -15 -11 -24.5t-26 -9.5q-14 0 -24.5 9.5t-10.5 24.5z
M74 909q0 14 9.5 23.5t22.5 9.5q14 0 27 -10q96 -74 205 -74q65 0 106 31.5t41 79.5v2q0 45 -36.5 71.5t-133.5 47.5q-114 24 -165.5 64.5t-51.5 115.5v2q0 74 62.5 123t156.5 49q114 0 203 -62q19 -13 19 -30q0 -14 -10 -24.5t-23 -10.5q-14 0 -27 10q-71 51 -164 51
q-65 0 -104 -29t-39 -73v-2q0 -45 36 -72t138 -49q108 -24 160.5 -65.5t52.5 -112.5v-2q0 -80 -64.5 -130t-158.5 -50q-139 0 -244 84q-18 15 -18 32z" />
    <glyph glyph-name="trademark" unicode="&#x2122;" horiz-adv-x="1413" 
d="M260 829v535h-180q-14 0 -24.5 11t-10.5 24t10.5 24t24.5 11h432q14 0 24.5 -11t10.5 -24t-10.5 -24t-24.5 -11h-180v-535q0 -15 -11 -24.5t-26 -9.5t-25 9.5t-10 24.5zM682 829v570q0 15 10 25t25 10h10q20 0 33 -19l244 -371l243 371q13 19 33 19h8q14 0 24.5 -11
t10.5 -24v-570q0 -15 -11 -24.5t-26 -9.5t-25 9.5t-10 24.5v463l-215 -321q-14 -21 -32 -21q-21 0 -35 21l-215 321v-463q0 -15 -11 -24.5t-26 -9.5q-14 0 -24.5 9.5t-10.5 24.5z" />
    <glyph glyph-name="minus" unicode="&#x2212;" horiz-adv-x="1269" 
d="M1087 670h-905q-22 0 -36.5 14.5t-14.5 36.5t14.5 36.5t36.5 14.5h905q22 0 37 -14.5t15 -36.5t-15 -36.5t-37 -14.5z" />
    <glyph glyph-name="Q.alt" horiz-adv-x="1740" 
d="M1591 717q0 -175 -72.5 -330.5t-203.5 -259.5l260 -244q20 -20 20 -43t-16 -39t-39 -16t-39 16l-284 260q-156 -86 -349 -86q-158 0 -294.5 60.5t-228 162t-143.5 235.5t-52 280v4q0 146 52.5 280.5t145 236.5t229.5 163t295 61q127 0 241 -39t200 -108t149.5 -161.5
t96 -202t32.5 -226.5v-4zM1481 713v4q0 131 -46.5 250t-127 205.5t-195 138t-244.5 51.5q-173 0 -313 -86t-217.5 -232.5t-77.5 -322.5v-4q0 -176 78.5 -323.5t219.5 -234.5t314 -87q130 0 244 50.5t193.5 137t125.5 204.5t46 249z" />
    <glyph glyph-name="a.alt" 
d="M1061 819v182q0 22 14 37t35 15q22 0 36.5 -15t14.5 -37v-958q0 -23 -13.5 -37t-35.5 -14t-36.5 14t-14.5 37v190q-169 -258 -430 -258q-95 0 -185.5 38t-162.5 105.5t-116 172t-44 227.5v4q0 123 44 228t116 173.5t162.5 107t185.5 38.5q266 0 430 -250zM641 973
q-176 0 -293 -121t-117 -326v-4q0 -100 33.5 -185.5t89.5 -143t130.5 -89.5t156.5 -32q109 0 206 55.5t158.5 160t61.5 232.5v4q0 129 -61.5 233.5t-158.5 160t-206 55.5z" />
    <glyph glyph-name="aacute.alt" 
d="M1061 819v182q0 22 14 37t35 15q22 0 36.5 -15t14.5 -37v-958q0 -23 -13.5 -37t-35.5 -14t-36.5 14t-14.5 37v190q-169 -258 -430 -258q-95 0 -185.5 38t-162.5 105.5t-116 172t-44 227.5v4q0 123 44 228t116 173.5t162.5 107t185.5 38.5q266 0 430 -250zM641 973
q-176 0 -293 -121t-117 -326v-4q0 -100 33.5 -185.5t89.5 -143t130.5 -89.5t156.5 -32q109 0 206 55.5t158.5 160t61.5 232.5v4q0 129 -61.5 233.5t-158.5 160t-206 55.5zM678 1212q-11 0 -19 6t-8 13q0 10 8 22l127 191q24 37 58 37q29 0 57.5 -16t28.5 -31q0 -14 -23 -37
l-164 -158q-29 -27 -65 -27z" />
    <glyph glyph-name="abreve.alt" 
d="M1061 819v182q0 22 14 37t35 15q22 0 36.5 -15t14.5 -37v-958q0 -23 -13.5 -37t-35.5 -14t-36.5 14t-14.5 37v190q-169 -258 -430 -258q-95 0 -185.5 38t-162.5 105.5t-116 172t-44 227.5v4q0 123 44 228t116 173.5t162.5 107t185.5 38.5q266 0 430 -250zM641 973
q-176 0 -293 -121t-117 -326v-4q0 -100 33.5 -185.5t89.5 -143t130.5 -89.5t156.5 -32q109 0 206 55.5t158.5 160t61.5 232.5v4q0 129 -61.5 233.5t-158.5 160t-206 55.5zM680 1214q-169 0 -244 140q-22 42 -22 78q0 21 10.5 33t28.5 12q31 0 43 -35q47 -123 184 -123
t184 123q12 35 43 35q18 0 28.5 -12t10.5 -33q0 -36 -22 -78q-75 -140 -244 -140z" />
    <glyph glyph-name="acircumflex.alt" 
d="M1061 819v182q0 22 14 37t35 15q22 0 36.5 -15t14.5 -37v-958q0 -23 -13.5 -37t-35.5 -14t-36.5 14t-14.5 37v190q-169 -258 -430 -258q-95 0 -185.5 38t-162.5 105.5t-116 172t-44 227.5v4q0 123 44 228t116 173.5t162.5 107t185.5 38.5q266 0 430 -250zM641 973
q-176 0 -293 -121t-117 -326v-4q0 -100 33.5 -185.5t89.5 -143t130.5 -89.5t156.5 -32q109 0 206 55.5t158.5 160t61.5 232.5v4q0 129 -61.5 233.5t-158.5 160t-206 55.5zM678 1358l-129 -119q-29 -27 -66 -27q-11 0 -18.5 6.5t-7.5 14.5q0 11 10 24l147 181q29 37 58 37h16
q28 0 57 -37l148 -181q10 -13 10 -24q0 -8 -8 -14.5t-21 -6.5q-38 0 -67 27z" />
    <glyph glyph-name="adieresis.alt" 
d="M1061 819v182q0 22 14 37t35 15q22 0 36.5 -15t14.5 -37v-958q0 -23 -13.5 -37t-35.5 -14t-36.5 14t-14.5 37v190q-169 -258 -430 -258q-95 0 -185.5 38t-162.5 105.5t-116 172t-44 227.5v4q0 123 44 228t116 173.5t162.5 107t185.5 38.5q266 0 430 -250zM641 973
q-176 0 -293 -121t-117 -326v-4q0 -100 33.5 -185.5t89.5 -143t130.5 -89.5t156.5 -32q109 0 206 55.5t158.5 160t61.5 232.5v4q0 129 -61.5 233.5t-158.5 160t-206 55.5zM848 1391q31 0 51.5 -19.5t20.5 -50.5v-41q0 -31 -20.5 -50.5t-51.5 -19.5t-51.5 19.5t-20.5 50.5v41
q0 31 20.5 50.5t51.5 19.5zM512 1391q31 0 51.5 -19.5t20.5 -50.5v-41q0 -31 -20.5 -50.5t-51.5 -19.5t-51.5 19.5t-20.5 50.5v41q0 31 20.5 50.5t51.5 19.5z" />
    <glyph glyph-name="agrave.alt" 
d="M1061 819v182q0 22 14 37t35 15q22 0 36.5 -15t14.5 -37v-958q0 -23 -13.5 -37t-35.5 -14t-36.5 14t-14.5 37v190q-169 -258 -430 -258q-95 0 -185.5 38t-162.5 105.5t-116 172t-44 227.5v4q0 123 44 228t116 173.5t162.5 107t185.5 38.5q266 0 430 -250zM641 973
q-176 0 -293 -121t-117 -326v-4q0 -100 33.5 -185.5t89.5 -143t130.5 -89.5t156.5 -32q109 0 206 55.5t158.5 160t61.5 232.5v4q0 129 -61.5 233.5t-158.5 160t-206 55.5zM682 1212q-37 0 -66 27l-163 158q-23 23 -23 37q0 15 28.5 31t57.5 16q33 0 57 -37l127 -191
q9 -13 9 -22q0 -7 -8 -13t-19 -6z" />
    <glyph glyph-name="amacron.alt" 
d="M1061 819v182q0 22 14 37t35 15q22 0 36.5 -15t14.5 -37v-958q0 -23 -13.5 -37t-35.5 -14t-36.5 14t-14.5 37v190q-169 -258 -430 -258q-95 0 -185.5 38t-162.5 105.5t-116 172t-44 227.5v4q0 123 44 228t116 173.5t162.5 107t185.5 38.5q266 0 430 -250zM641 973
q-176 0 -293 -121t-117 -326v-4q0 -100 33.5 -185.5t89.5 -143t130.5 -89.5t156.5 -32q109 0 206 55.5t158.5 160t61.5 232.5v4q0 129 -61.5 233.5t-158.5 160t-206 55.5zM950 1272h-540q-20 0 -35 14.5t-15 34.5t15 34.5t35 14.5h540q20 0 34.5 -14.5t14.5 -34.5
t-14.5 -34.5t-34.5 -14.5z" />
    <glyph glyph-name="aogonek.alt" 
d="M1061 819v182q0 22 14 37t35 15q22 0 36.5 -15t14.5 -37v-966q0 -31 -28 -53q-51 -43 -73 -74.5t-22 -69.5q0 -41 28 -62.5t81 -31.5q55 -10 55 -41q0 -17 -11 -27t-30 -10q-16 0 -38.5 2.5t-57 13t-62 26.5t-47.5 47t-20 71q0 52 30.5 96.5t94.5 93.5v217
q-169 -258 -430 -258q-95 0 -185.5 38t-162.5 105.5t-116 172t-44 227.5v4q0 123 44 228t116 173.5t162.5 107t185.5 38.5q266 0 430 -250zM641 973q-176 0 -293 -121t-117 -326v-4q0 -100 33.5 -185.5t89.5 -143t130.5 -89.5t156.5 -32q109 0 206 55.5t158.5 160
t61.5 232.5v4q0 129 -61.5 233.5t-158.5 160t-206 55.5z" />
    <glyph glyph-name="aring.alt" 
d="M1061 819v182q0 22 14 37t35 15q22 0 36.5 -15t14.5 -37v-958q0 -23 -13.5 -37t-35.5 -14t-36.5 14t-14.5 37v190q-169 -258 -430 -258q-95 0 -185.5 38t-162.5 105.5t-116 172t-44 227.5v4q0 123 44 228t116 173.5t162.5 107t185.5 38.5q266 0 430 -250zM641 973
q-176 0 -293 -121t-117 -326v-4q0 -100 33.5 -185.5t89.5 -143t130.5 -89.5t156.5 -32q109 0 206 55.5t158.5 160t61.5 232.5v4q0 129 -61.5 233.5t-158.5 160t-206 55.5zM680 1214q-80 0 -140.5 57t-60.5 134v4q0 77 60.5 133.5t140.5 56.5t140.5 -56.5t60.5 -133.5v-4
q0 -77 -60.5 -134t-140.5 -57zM680 1280q51 0 89 37t38 88v4q0 51 -37.5 88t-89.5 37t-89.5 -37t-37.5 -88v-4q0 -51 38 -88t89 -37z" />
    <glyph glyph-name="aring.alt2" horiz-adv-x="1175" 
d="M508 -25q-75 0 -146 21.5t-129 61t-93.5 103.5t-35.5 142v4q0 160 125.5 250t331.5 90q179 0 346 -45v45q0 156 -90.5 238t-253.5 82q-150 0 -297 -70q-12 -6 -22 -6q-19 0 -33 14t-14 33q0 17 9 29t19 16q117 54 226 70q-64 54 -64 135v4q0 77 60.5 133.5t140.5 56.5
t140 -56.5t60 -133.5v-4q0 -89 -75 -144q111 -26 186 -98q107 -107 107 -295v-608q0 -23 -14 -37t-36 -14t-35.5 14t-13.5 37v131q-62 -86 -162 -142.5t-237 -56.5zM514 70q163 0 279 90.5t116 230.5v119q-180 47 -354 47q-163 0 -253.5 -66.5t-90.5 -177.5v-4
q0 -110 88.5 -174.5t214.5 -64.5zM588 1063q51 0 89 37t38 88v4q0 51 -37.5 88t-89.5 37t-89.5 -37t-37.5 -88v-4q0 -51 38 -88t89 -37z" />
    <glyph glyph-name="aringacute.alt" 
d="M1061 819v182q0 22 14 37t35 15q22 0 36.5 -15t14.5 -37v-958q0 -23 -13.5 -37t-35.5 -14t-36.5 14t-14.5 37v190q-169 -258 -430 -258q-95 0 -185.5 38t-162.5 105.5t-116 172t-44 227.5v4q0 123 44 228t116 173.5t162.5 107t185.5 38.5q266 0 430 -250zM641 973
q-176 0 -293 -121t-117 -326v-4q0 -100 33.5 -185.5t89.5 -143t130.5 -89.5t156.5 -32q109 0 206 55.5t158.5 160t61.5 232.5v4q0 129 -61.5 233.5t-158.5 160t-206 55.5zM680 1214q-80 0 -140.5 57t-60.5 134v4q0 77 60.5 133.5t140.5 56.5t140.5 -56.5t60.5 -133.5v-4
q0 -77 -60.5 -134t-140.5 -57zM680 1280q51 0 89 37t38 88v4q0 51 -37.5 88t-89.5 37t-89.5 -37t-37.5 -88v-4q0 -51 38 -88t89 -37zM678 1673q-11 0 -19 6t-8 13q0 10 8 22l127 191q24 37 58 37q29 0 57.5 -16.5t28.5 -31.5q0 -13 -23 -36l-164 -158q-29 -27 -65 -27z" />
    <glyph glyph-name="aringacute.alt2" horiz-adv-x="1175" 
d="M508 -25q-75 0 -146 21.5t-129 61t-93.5 103.5t-35.5 142v4q0 160 125.5 250t331.5 90q179 0 346 -45v45q0 156 -90.5 238t-253.5 82q-150 0 -297 -70q-12 -6 -22 -6q-19 0 -33 14t-14 33q0 17 9 29t19 16q117 54 226 70q-64 54 -64 135v4q0 77 60.5 133.5t140.5 56.5
t140 -56.5t60 -133.5v-4q0 -89 -75 -144q111 -26 186 -98q107 -107 107 -295v-608q0 -23 -14 -37t-36 -14t-35.5 14t-13.5 37v131q-62 -86 -162 -142.5t-237 -56.5zM514 70q163 0 279 90.5t116 230.5v119q-180 47 -354 47q-163 0 -253.5 -66.5t-90.5 -177.5v-4
q0 -110 88.5 -174.5t214.5 -64.5zM588 1063q51 0 89 37t38 88v4q0 51 -37.5 88t-89.5 37t-89.5 -37t-37.5 -88v-4q0 -51 38 -88t89 -37zM586 1456q-11 0 -19 6t-8 13q0 10 8 22l127 191q23 36 58 36q29 0 57.5 -16t28.5 -31q0 -14 -23 -37l-164 -157q-29 -27 -65 -27z" />
    <glyph glyph-name="atilde.alt" 
d="M1061 819v182q0 22 14 37t35 15q22 0 36.5 -15t14.5 -37v-958q0 -23 -13.5 -37t-35.5 -14t-36.5 14t-14.5 37v190q-169 -258 -430 -258q-95 0 -185.5 38t-162.5 105.5t-116 172t-44 227.5v4q0 123 44 228t116 173.5t162.5 107t185.5 38.5q266 0 430 -250zM641 973
q-176 0 -293 -121t-117 -326v-4q0 -100 33.5 -185.5t89.5 -143t130.5 -89.5t156.5 -32q109 0 206 55.5t158.5 160t61.5 232.5v4q0 129 -61.5 233.5t-158.5 160t-206 55.5zM463 1225q-15 -29 -37 -29q-15 0 -26 10t-11 25q0 12 4 24q28 86 66 120t96 34q40 0 134 -42t128 -42
q33 0 53 17.5t39 60.5q15 29 37 29q15 0 26 -10t11 -25q0 -13 -4 -25q-28 -86 -66 -119.5t-96 -33.5q-40 0 -134 42t-128 42q-33 0 -53 -17.5t-39 -60.5z" />
    <glyph glyph-name="three.alt" horiz-adv-x="1228" 
d="M621 -25q-154 0 -283 63t-221 171q-17 20 -17 41t16 36t38 15q26 0 45 -22q172 -207 426 -207q158 0 261 84t103 219v4q0 139 -112 218t-312 79h-104q-20 0 -33.5 13.5t-13.5 33.5t13.5 33.5t33.5 13.5h106q167 0 275 80.5t108 218.5v4q0 126 -95 207.5t-249 81.5
q-121 0 -213 -49.5t-170 -147.5q-18 -22 -41 -22q-20 0 -33.5 13.5t-13.5 33.5t12 35q183 233 463 233q194 0 322.5 -109t128.5 -272v-4q0 -71 -23.5 -129.5t-64 -98.5t-86 -67t-99.5 -45q141 -41 226.5 -129.5t85.5 -222.5v-4q0 -168 -135.5 -285t-343.5 -117z" />
    <glyph glyph-name="registered.alt" horiz-adv-x="1699" 
d="M848 -25q-153 0 -290.5 59t-235.5 158.5t-155.5 235.5t-57.5 285v4q0 149 58 285.5t157 236.5t237 159.5t291 59.5t290.5 -59t235.5 -158t155.5 -235t57.5 -285v-4q0 -149 -58 -285.5t-157 -237t-237 -160t-291 -59.5zM848 33q191 0 348 92.5t245.5 249t88.5 342.5v4
q0 186 -88 341.5t-244 247t-346 91.5q-191 0 -348 -92.5t-245.5 -249t-88.5 -342.5v-4q0 -186 88 -341.5t244 -247t346 -91.5zM565 397v672q0 19 12 31t31 12h293q143 0 219 -76q58 -58 58 -139v-4q0 -85 -55.5 -141t-149.5 -74l196 -248q13 -16 13 -33q0 -19 -13 -31
t-32 -12q-21 0 -39 21l-228 289h-217v-267q0 -19 -13 -31t-32 -12t-31 12t-12 31zM653 745h234q88 0 143 38t55 106v4q0 62 -50.5 98.5t-137.5 36.5h-244v-283z" />
    <glyph glyph-name="NUL" horiz-adv-x="0" 
 />
    <glyph glyph-name="hcoslug" horiz-adv-x="1421" 
d="M559 37h-53q0 -25 20 -25q16 0 19 15h14q-7 -29 -37 -29q-20 0 -31.5 11t-11.5 30t12 31t29 12q42 0 39 -45zM520 72q-14 0 -14 -25h29q0 25 -15 25zM399 160q17 0 17 33q0 30 -17 30q-16 0 -16 -30q0 -33 16 -33zM430 8q16 0 16 33q0 31 -16 31t-16 -31q0 -33 16 -33z
M430 -2q-19 0 -31 11.5t-12 31.5q0 19 12 30t31 11t31 -11t12 -30t-12 -31t-31 -12zM1118 8q17 0 17 33q0 31 -17 31q-16 0 -16 -31q0 -33 16 -33zM1118 -2q-19 0 -31 11.5t-12 31.5q0 19 12 30t31 11t31 -11t12 -30t-12 -31t-31 -12zM256 152v14h14v84h-14v14h104v-41h-16
q-3 17 -7 22t-15 5h-25v-37h8q7 0 8.5 2.5t3.5 13.5h15v-47h-15q-7 16 -12 17h-8v-33h20v-14h-61zM399 150q-19 0 -31 11.5t-12 31.5q0 18 12 29t31 11t31 -11t12 -29q0 -19 -12 -31t-31 -12zM1319 -205v1639h-1217v-1639h1217zM1020 -2q-28 0 -43.5 15.5t-15.5 41.5
q0 27 16.5 44.5t38.5 17.5q18 0 33 -15l2 13h16v-45h-16q-6 19 -12.5 25.5t-18.5 6.5q-29 0 -29 -45t33 -45q25 0 29 33h16q-3 -47 -49 -47zM762 164q14 0 14 26q0 27 -14 27q-17 0 -17 -27q0 -26 17 -26zM565 0v14h13v52h-15v14h15v2q0 19 11 29t27 10q11 0 19 -4l20 4
v-107h13v-14h-47v14h10v52h-29v-52h10v-14h-47zM754 0v14h12v52h-12v14h37v-21q9 23 24 23q16 0 16 -16q0 -15 -14 -15q-12 0 -12 12v3q-6 0 -14 -19v-33h16v-14h-53zM721 150v106h-12v14h36v-55q6 18 27 18q14 0 22.5 -11t8.5 -29q0 -16 -8 -29.5t-25 -13.5q-19 0 -29 16
l-8 -16h-12zM819 154q10 0 12.5 -8t-2.5 -13q14 0 17 17l-33 67h-10v14h51v-14h-12l18 -41l17 41h-11v14h35v-14h-10l-27 -63q-13 -33 -37 -33q-22 0 -22 18q0 15 14 15zM506 877q0 26 15 42.5t40 16.5q26 0 43 -21.5t17 -56.5q0 -46 -37 -102q-30 29 -42.5 42.5t-24 35
t-11.5 43.5zM618 152v28h15q12 -18 24 -18q11 0 11 8q0 6 -25 13t-25 26q0 10 8 17t21 7q16 0 23 -10l4 10h12v-26h-14q-10 14 -21 14q-10 0 -10 -8q0 -6 24.5 -12t24.5 -25q0 -11 -7.5 -18.5t-20.5 -7.5q-12 0 -27 10l-2 -8h-15zM535 449q-46 0 -76.5 31.5t-30.5 78.5
q0 49 33 82q72 -68 151 -168q-31 -24 -77 -24zM561 250l25 4v-23h26v-14h-26v-41q0 -10 8 -10q7 0 10 14l10 -4q-6 -26 -28 -26q-25 0 -25 26v41h-14v14h14v19zM877 627q-53 -31 -95 -86q39 -45 68 -64.5t59 -19.5q54 0 88 59l15 -4q-3 -87 -49.5 -140t-114.5 -53
q-46 0 -84.5 20.5t-89.5 72.5q-84 -93 -213 -93q-93 0 -158 55t-65 136q0 129 168 186q-34 35 -49 67t-15 75q0 69 62 121.5t161 52.5q90 0 142.5 -46.5t52.5 -105.5q0 -37 -19 -69q43 2 70.5 -17t30.5 -59q53 78 123 78q43 0 72.5 -30t29.5 -77t-29.5 -79t-72.5 -32
q-58 0 -88 52zM449 152v14h12v51h-12v14h34v-20q9 22 29 22q25 0 25 -28v-39h12v-14h-45v14h8v37q0 14 -12 14q-15 0 -15 -20v-31h9v-14h-45zM913 68h37v-15h-10q-6 -12 -18 -28q7 -11 12 -11t8 11l10 -2q-7 -25 -26 -25q-15 0 -25 12q-12 -12 -31 -12q-36 0 -36 29
q0 23 26 30q-12 12 -12 25q0 11 10.5 20t24.5 9q13 0 20.5 -7.5t7.5 -17.5q0 -16 -22 -25q5 -5 12.5 -13.5t11.5 -12.5q11 11 13 18h-13v15zM879 12q7 0 16 6q-20 24 -29 33q-8 -8 -8 -18q0 -9 6 -15t15 -6zM602 86v-6h29v10q-13 0 -13 12l3 7q-3 2 -7 2q-12 0 -12 -25z
M870 88q0 -7 13 -20q10 7 10 18q0 12 -12 12q-11 0 -11 -10zM639 700q61 42 86 70q23 -23 29 -49t-2 -52.5t-29 -62.5q-68 78 -84 94zM750 37h-54q0 -25 21 -25q15 0 18 15h15q-7 -29 -37 -29q-20 0 -31.5 11t-11.5 30t12 31t29 12q42 0 39 -45zM711 72q-15 0 -15 -25h29
q0 25 -14 25zM254 0v14h16v84h-16v15h59v-15h-16v-32h45v32h-16v15h59v-15h-16v-84h16v-14h-59v14h16v37h-45v-37h16v-14h-59zM1180 27q14 0 14 -15q0 -14 -14 -14q-15 0 -15 14q0 6 4.5 10.5t10.5 4.5z" />
    <glyph glyph-name="i.dot" horiz-adv-x="509" 
d="M193 1368v35q0 26 17.5 43.5t43.5 17.5t44.5 -17.5t18.5 -43.5v-35q0 -26 -18.5 -43.5t-44.5 -17.5t-43.5 17.5t-17.5 43.5zM205 43v958q0 22 14 37t35 15q22 0 36.5 -14.5t14.5 -37.5v-958q0 -23 -13.5 -37t-35.5 -14t-36.5 14t-14.5 37z" />
    <glyph glyph-name="caron.alt" horiz-adv-x="1024" 
d="M436 1221l25 227q9 53 57 53h27q35 0 35 -35q0 -10 -13 -49l-67 -198q-6 -20 -14 -28.5t-21 -8.5q-34 0 -29 39z" />
    </font>
</defs>
</svg>
