<?xml version="1.0" standalone="no"?>
<!DOCTYPE svg PUBLIC "-//W3C//DTD SVG 1.1//EN" "http://www.w3.org/Graphics/SVG/1.1/DTD/svg11.dtd" >
<svg xmlns="http://www.w3.org/2000/svg" xmlns:xlink="http://www.w3.org/1999/xlink" version="1.1">
<metadata>
Created by FontForge 20201107 at Wed Jan 22 23:47:44 2025
 By 
Copyright (c) 2006-2022 Hoefler &#38; Co. All rights reserved.
</metadata>
<defs>
<font id="GothamRounded-Medium" horiz-adv-x="1374" >
  <font-face 
    font-family="Gotham Rounded Medium"
    font-weight="500"
    font-stretch="normal"
    units-per-em="2048"
    panose-1="2 0 0 0 0 0 0 0 0 0"
    ascent="1638"
    descent="-410"
    x-height="1081"
    cap-height="1444"
    bbox="-100 -563 2417 2185"
    underline-thickness="102"
    underline-position="-204"
    unicode-range="U+0020-FB04"
  />
<missing-glyph horiz-adv-x="1024" 
d="M0 -410v2048h1024v-2048h-1024zM145 1536l367 -799l367 799h-734zM102 -156l353 770l-353 770v-1540zM922 1384l-353 -770l353 -770v1540zM512 492l-367 -799h734z" />
    <glyph glyph-name="f_f" unicode="ff" horiz-adv-x="1540" 
d="M211 113v755h-43q-43 0 -74 30t-31 73t31 73.5t74 30.5h43v80q0 178 88 266q86 86 244 86q67 0 125 -10q35 -5 60.5 -33.5t25.5 -68.5q0 -43 -31 -73.5t-74 -29.5q-28 4 -51 4q-143 0 -143 -163v-60h192q44 0 74.5 -29.5t30.5 -72.5t-31 -73t-74 -30h-188v-755
q0 -51 -36.5 -87t-88.5 -36q-51 0 -87 36t-36 87zM981 113v755h-43q-43 0 -73.5 30t-30.5 73t30.5 73.5t73.5 30.5h43v80q0 178 88 266q86 86 244 86q67 0 125 -10q35 -5 60.5 -33.5t25.5 -68.5q0 -43 -31 -73.5t-74 -29.5q-28 4 -51 4q-143 0 -143 -163v-60h192
q44 0 74.5 -29.5t30.5 -72.5t-31 -73t-74 -30h-188v-755q0 -51 -36.5 -87t-88.5 -36q-51 0 -87 36t-36 87z" />
    <glyph glyph-name="fi" unicode="fi" horiz-adv-x="1355" 
d="M922 1360v12q0 55 40 88t101 33t101 -33t40 -88v-12q0 -55 -40 -89t-101 -34t-101 34t-40 89zM940 113v856q0 53 35.5 89t87.5 36q53 0 89 -36t36 -89v-856q0 -52 -36 -87.5t-89 -35.5q-51 0 -87 35.5t-36 87.5zM211 113v755h-43q-43 0 -74 30t-31 73t31 73.5t74 30.5h43
v80q0 178 88 266q86 86 244 86q67 0 125 -10q35 -5 60.5 -33.5t25.5 -68.5q0 -43 -31 -73.5t-74 -29.5q-28 4 -51 4q-143 0 -143 -163v-60h192q44 0 74.5 -29.5t30.5 -72.5t-31 -73t-74 -30h-188v-755q0 -51 -36.5 -87t-88.5 -36q-51 0 -87 36t-36 87z" />
    <glyph glyph-name="fl" unicode="fl" horiz-adv-x="1355" 
d="M940 113v1269q0 51 35.5 87t87.5 36t88.5 -36t36.5 -87v-1269q0 -52 -36 -87.5t-89 -35.5q-51 0 -87 35.5t-36 87.5zM211 113v755h-43q-43 0 -74 30t-31 73t31 73.5t74 30.5h43v80q0 178 88 266q86 86 244 86q67 0 125 -10q35 -5 60.5 -33.5t25.5 -68.5q0 -43 -31 -73.5
t-74 -29.5q-28 4 -51 4q-143 0 -143 -163v-60h192q44 0 74.5 -29.5t30.5 -72.5t-31 -73t-74 -30h-188v-755q0 -51 -36.5 -87t-88.5 -36q-51 0 -87 36t-36 87z" />
    <glyph glyph-name="f_f_i" unicode="ffi" horiz-adv-x="2125" 
d="M1692 1360v12q0 55 40 88t101 33t101 -33t40 -88v-12q0 -55 -40 -89t-101 -34t-101 34t-40 89zM1710 113v856q0 53 35.5 89t87.5 36q53 0 89 -36t36 -89v-856q0 -52 -36 -87.5t-89 -35.5q-51 0 -87 35.5t-36 87.5zM211 113v755h-43q-43 0 -74 30t-31 73t31 73.5t74 30.5
h43v80q0 178 88 266q86 86 244 86q67 0 125 -10q35 -5 60.5 -33.5t25.5 -68.5q0 -43 -31 -73.5t-74 -29.5q-28 4 -51 4q-143 0 -143 -163v-60h192q44 0 74.5 -29.5t30.5 -72.5t-31 -73t-74 -30h-188v-755q0 -51 -36.5 -87t-88.5 -36q-51 0 -87 36t-36 87zM981 113v755h-43
q-43 0 -73.5 30t-30.5 73t30.5 73.5t73.5 30.5h43v80q0 178 88 266q86 86 244 86q67 0 125 -10q35 -5 60.5 -33.5t25.5 -68.5q0 -43 -31 -73.5t-74 -29.5q-28 4 -51 4q-143 0 -143 -163v-60h192q44 0 74.5 -29.5t30.5 -72.5t-31 -73t-74 -30h-188v-755q0 -51 -36.5 -87
t-88.5 -36q-51 0 -87 36t-36 87z" />
    <glyph glyph-name="f_f_l" unicode="ffl" horiz-adv-x="2125" 
d="M211 113v755h-43q-43 0 -74 30t-31 73t31 73.5t74 30.5h43v80q0 178 88 266q86 86 244 86q67 0 125 -10q35 -5 60.5 -33.5t25.5 -68.5q0 -43 -31 -73.5t-74 -29.5q-28 4 -51 4q-143 0 -143 -163v-60h192q44 0 74.5 -29.5t30.5 -72.5t-31 -73t-74 -30h-188v-755
q0 -51 -36.5 -87t-88.5 -36q-51 0 -87 36t-36 87zM981 113v755h-43q-43 0 -73.5 30t-30.5 73t30.5 73.5t73.5 30.5h43v80q0 178 88 266q86 86 244 86q67 0 125 -10q35 -5 60.5 -33.5t25.5 -68.5q0 -43 -31 -73.5t-74 -29.5q-28 4 -51 4q-143 0 -143 -163v-60h192
q44 0 74.5 -29.5t30.5 -72.5t-31 -73t-74 -30h-188v-755q0 -51 -36.5 -87t-88.5 -36q-51 0 -87 36t-36 87zM1710 113v1269q0 51 35.5 87t87.5 36t88.5 -36t36.5 -87v-1269q0 -52 -36 -87.5t-89 -35.5q-51 0 -87 35.5t-36 87.5z" />
    <glyph glyph-name=".notdef" horiz-adv-x="1024" 
d="M0 -410v2048h1024v-2048h-1024zM145 1536l367 -799l367 799h-734zM102 -156l353 770l-353 770v-1540zM922 1384l-353 -770l353 -770v1540zM512 492l-367 -799h734z" />
    <glyph glyph-name=".null" horiz-adv-x="0" 
 />
    <glyph glyph-name="nonmarkingreturn" horiz-adv-x="682" 
 />
    <glyph glyph-name="space" unicode=" " horiz-adv-x="614" 
 />
    <glyph glyph-name="exclam" unicode="!" horiz-adv-x="618" 
d="M236 516l-72 836q-3 37 17 62.5t55 25.5h147q35 0 56 -25.5t18 -62.5l-72 -836q-3 -34 -24 -54t-52 -20t-50.5 20t-22.5 54zM164 152q0 60 41.5 100.5t103.5 40.5q63 0 104.5 -40.5t41.5 -100.5v-21q0 -60 -41.5 -100.5t-104.5 -40.5q-62 0 -103.5 40.5t-41.5 100.5v21z
" />
    <glyph glyph-name="quotedbl" unicode="&#x22;" horiz-adv-x="997" 
d="M578 887l34 438q3 50 35 82.5t82 32.5h82q29 0 47.5 -18.5t18.5 -49.5q0 -9 -9 -45l-149 -455q-23 -63 -74 -63q-30 0 -50 22t-17 56zM127 887l37 438q3 50 35 82.5t82 32.5h79q30 0 49 -18t19 -50q0 -13 -8 -45l-150 -455q-23 -63 -73 -63q-31 0 -51 21.5t-19 56.5z" />
    <glyph glyph-name="numbersign" unicode="#" horiz-adv-x="1433" 
d="M233 115l37 215h-94q-44 0 -75 31t-31 75q0 43 31 75t75 32h131l62 356h-119q-43 0 -75 32t-32 75t32 74.5t75 31.5h156l40 244q6 39 36.5 63.5t70.5 24.5q50 0 81 -38.5t25 -86.5l-36 -207h321l41 244q6 39 36.5 63.5t72.5 24.5q49 0 80.5 -38.5t23.5 -86.5l-35 -207h94
q43 0 75 -31t32 -75q0 -43 -32 -75t-75 -32h-131l-61 -356h117q44 0 75 -31.5t31 -75.5q0 -43 -31 -74.5t-75 -31.5h-154l-43 -252q-6 -38 -36 -63t-70 -25q-50 0 -82.5 38.5t-24.5 86.5l39 215h-322l-43 -252q-6 -36 -35.5 -62t-72.5 -26q-50 0 -81 36.5t-24 88.5zM526 543
h320l61 356h-319z" />
    <glyph glyph-name="dollar" unicode="$" horiz-adv-x="1314" 
d="M584 1475q0 37 26.5 62.5t63.5 25.5t62.5 -25.5t25.5 -62.5v-45q168 -19 317 -113q62 -34 62 -98q0 -47 -34 -80t-81 -33q-31 0 -61 18q-113 68 -211 90v-393q234 -59 339 -158.5t105 -263.5q0 -167 -119 -273.5t-317 -125.5v-123q0 -37 -25.5 -62.5t-62.5 -25.5
t-63.5 25.5t-26.5 62.5v127q-226 23 -420 160q-55 36 -55 98q0 47 32.5 80t79.5 33q38 0 68 -23q151 -110 303 -137v403q-230 60 -334 156.5t-104 265.5q0 163 118.5 270t311.5 122v43zM956 385q0 70 -43.5 114.5t-158.5 80.5v-373q97 10 149.5 57t52.5 121zM395 1055
q0 -68 41.5 -111t155.5 -80v363q-95 -9 -146 -55.5t-51 -116.5z" />
    <glyph glyph-name="percent" unicode="%" horiz-adv-x="1738" 
d="M434 717q-148 0 -242 105.5t-94 256.5v4q0 154 95.5 260.5t244.5 106.5t242.5 -105.5t93.5 -257.5v-4q0 -153 -95 -259.5t-245 -106.5zM315 70q0 26 19 53l940 1284q21 37 69 37q34 0 58 -23t24 -57q0 -28 -18 -53l-940 -1284q-24 -37 -72 -37q-34 0 -57 23t-23 57z
M1300 -16q-148 0 -241.5 105.5t-93.5 256.5v4q0 154 95.5 260.5t244.5 106.5q147 0 241 -106t94 -257v-4q0 -153 -95.5 -259.5t-244.5 -106.5zM438 874q70 0 112 59.5t42 145.5v4q0 87 -45 148t-113 61q-70 0 -111.5 -59.5t-41.5 -145.5v-4q0 -89 44.5 -149t112.5 -60z
M1305 141q70 0 111.5 59.5t41.5 145.5v4q0 87 -45 148t-113 61q-70 0 -111.5 -59.5t-41.5 -145.5v-4q0 -89 45 -149t113 -60z" />
    <glyph glyph-name="ampersand" unicode="&#x26;" horiz-adv-x="1425" 
d="M1229 -20q-50 0 -88 38l-150 152q-196 -190 -442 -190q-204 0 -336.5 113t-132.5 296v4q0 272 305 402q-119 151 -119 299v4q0 150 113 255t299 105q168 0 274.5 -99.5t106.5 -246.5v-4q0 -253 -314 -373l244 -248q57 81 119 205q9 22 34.5 41t59.5 19q44 0 76.5 -32
t32.5 -75q0 -25 -15 -55q-71 -133 -155 -252l159 -160q39 -39 39 -86t-31.5 -79.5t-78.5 -32.5zM610 870q114 41 170 94.5t56 129.5v4q0 72 -45.5 117t-116.5 45q-76 0 -124 -49t-48 -124v-4q0 -54 23.5 -100t84.5 -113zM573 188q139 0 273 127l-320 326
q-97 -43 -144.5 -105.5t-47.5 -134.5v-4q0 -91 67.5 -150t171.5 -59z" />
    <glyph glyph-name="quotesingle" unicode="'" horiz-adv-x="550" 
d="M127 887l37 438q3 50 35 82.5t82 32.5h79q30 0 50 -18.5t20 -49.5q0 -13 -8 -45l-150 -455q-23 -63 -75 -63q-31 0 -51 21.5t-19 56.5z" />
    <glyph glyph-name="parenleft" unicode="(" horiz-adv-x="903" 
d="M709 -276q-41 0 -60 14q-520 312 -520 850t520 850q19 14 60 14q37 0 65.5 -31t28.5 -69q0 -54 -41 -84q-198 -138 -291.5 -301t-93.5 -379t93.5 -379t291.5 -301q41 -30 41 -84q0 -38 -28.5 -69t-65.5 -31z" />
    <glyph glyph-name="parenright" unicode=")" horiz-adv-x="903" 
d="M193 -276q-37 0 -66 31t-29 69q0 53 43 84q197 139 291 302t94 378t-94 378t-291 302q-43 31 -43 84q0 38 29 69t66 31q40 0 59 -14q522 -312 522 -850t-522 -850q-19 -14 -59 -14z" />
    <glyph glyph-name="asterisk" unicode="*" horiz-adv-x="880" 
d="M377 848l20 184l-153 -112q-32 -21 -51 -21q-28 0 -48 21t-20 49q0 43 47 63l180 78l-180 80q-47 19 -47 63q0 28 21 48t49 20q22 0 49 -21l153 -112l-20 182q-5 32 13.5 55t49.5 23t49.5 -22t14.5 -54l-21 -184l154 112q27 21 51 21q28 0 48 -20t20 -48q0 -44 -47 -63
l-181 -80l181 -78q47 -19 47 -65q0 -28 -21 -48t-49 -20q-18 0 -49 21l-154 112l21 -182q4 -32 -14.5 -55t-49.5 -23t-49 22t-14 54z" />
    <glyph glyph-name="plus" unicode="+" horiz-adv-x="1298" 
d="M532 324v284h-290q-46 0 -79.5 33t-33.5 80q0 46 33.5 79.5t79.5 33.5h290v284q0 50 34 83.5t83 33.5q48 0 82.5 -34t34.5 -83v-284h291q46 0 79 -33.5t33 -79.5q0 -47 -33 -80t-79 -33h-291v-284q0 -49 -34.5 -83t-82.5 -34q-49 0 -83 33.5t-34 83.5z" />
    <glyph glyph-name="comma" unicode="," horiz-adv-x="550" 
d="M61 -240q0 21 13.5 36t34.5 20q145 48 139 184q-48 13 -82.5 50t-34.5 89v17q0 59 38.5 98t100.5 39q69 0 108.5 -48.5t39.5 -131.5v-23q0 -193 -101 -299q-41 -39 -95 -63.5t-97 -24.5q-31 0 -47.5 16t-16.5 41z" />
    <glyph glyph-name="hyphen" unicode="-" horiz-adv-x="835" 
d="M225 506q-49 0 -85 36t-36 85q0 51 35.5 87t85.5 36h385q50 0 85.5 -36t35.5 -87q0 -49 -35.5 -85t-85.5 -36h-385z" />
    <glyph glyph-name="period" unicode="." horiz-adv-x="550" 
d="M131 152q0 60 41 100.5t104 40.5q61 0 102.5 -40.5t41.5 -100.5v-21q0 -60 -41.5 -100.5t-102.5 -40.5q-63 0 -104 40.5t-41 100.5v21z" />
    <glyph glyph-name="slash" unicode="/" horiz-adv-x="1067" 
d="M0 -178q0 25 12 49l838 1716q28 58 90 58q40 0 68 -28.5t28 -66.5q0 -19 -10 -49l-840 -1716q-28 -57 -88 -57q-40 0 -69 28t-29 66z" />
    <glyph glyph-name="zero" unicode="0" horiz-adv-x="1482" 
d="M739 -25q-184 0 -327 99t-219 266.5t-76 372.5v4q0 205 77 373t221 268t328 100q183 0 326.5 -99t220 -266t76.5 -372v-4q0 -153 -45.5 -289t-126 -236t-199 -158.5t-256.5 -58.5zM743 203q109 0 192.5 69t127 184.5t43.5 256.5v4q0 217 -102.5 365.5t-264.5 148.5
q-108 0 -191 -68t-127 -183.5t-44 -258.5v-4q0 -142 44.5 -258.5t128.5 -186t193 -69.5z" />
    <glyph glyph-name="one" unicode="1" horiz-adv-x="811" 
d="M365 115v1081l-148 -45q-21 -6 -45 -6q-44 0 -77.5 31.5t-33.5 74.5q0 40 23 69t61 40l217 70q77 22 123 22h4q54 0 89.5 -36t35.5 -89v-1212q0 -53 -36 -89t-89 -36q-51 0 -87.5 36.5t-36.5 88.5z" />
    <glyph glyph-name="two" unicode="2" horiz-adv-x="1255" 
d="M88 119q0 71 66 125l440 374q151 127 209.5 210t58.5 178q0 103 -65 163t-166 60q-83 0 -148.5 -38.5t-134.5 -121.5q-35 -39 -88 -39q-47 0 -81 34t-34 81q0 41 29 78q94 116 204 173.5t271 57.5q211 0 342 -118t131 -310v-4q0 -67 -15.5 -125t-41.5 -107t-75.5 -104
t-102.5 -103t-137 -116l-295 -246h581q46 0 78.5 -32t32.5 -78t-32.5 -78.5t-78.5 -32.5h-813q-60 0 -97.5 32t-37.5 87z" />
    <glyph glyph-name="three" unicode="3" horiz-adv-x="1265" 
d="M637 -25q-291 0 -485 187q-41 32 -41 90q0 50 35.5 85.5t84.5 35.5q47 0 84 -33q137 -137 326 -137q107 0 177.5 60t70.5 157v4q0 105 -88.5 163t-241.5 58h-51q-44 0 -76.5 32.5t-32.5 76.5q0 48 54 102l335 358h-520q-46 0 -78 32t-32 77q0 46 32 78.5t78 32.5h733
q55 0 90 -30.5t35 -80.5q0 -41 -17 -70.5t-54 -66.5l-338 -350q68 -8 127.5 -26.5t114.5 -51t94 -76.5t62.5 -107.5t23.5 -140.5v-4q0 -199 -139.5 -327t-362.5 -128z" />
    <glyph glyph-name="four" unicode="4" horiz-adv-x="1396" 
d="M844 109v213h-641q-52 0 -87.5 33t-35.5 85q0 69 55 133l674 799q37 44 69.5 63t84.5 19q51 0 86.5 -35t35.5 -86v-805h111q44 0 74 -30.5t30 -73.5t-30 -72.5t-74 -29.5h-111v-213q0 -51 -34.5 -85t-85.5 -34t-86 34t-35 85zM373 528h471v568z" />
    <glyph glyph-name="five" unicode="5" horiz-adv-x="1275" 
d="M631 -25q-256 0 -459 156q-51 41 -51 98q0 49 35.5 85t85.5 36q43 0 73 -24q148 -121 312 -121q123 0 200.5 67.5t77.5 180.5v4q0 109 -82.5 173t-214.5 64q-61 0 -113.5 -12t-86 -24.5t-46.5 -12.5q-49 0 -118 49q-52 38 -49 111l30 516q3 49 36 81t79 32h649
q46 0 79.5 -33.5t33.5 -79.5t-33.5 -78.5t-79.5 -32.5h-538l-23 -336q112 41 227 41q107 0 197 -28t158 -82.5t106.5 -141.5t38.5 -198v-4q0 -217 -146.5 -351.5t-377.5 -134.5z" />
    <glyph glyph-name="six" unicode="6" horiz-adv-x="1343" 
d="M690 -25q-247 0 -399 152q-87 87 -130.5 213.5t-43.5 333.5v4q0 132 24.5 249t75 214.5t122.5 168t172.5 109.5t219.5 39q207 0 359 -102q63 -40 63 -109q0 -49 -35.5 -83t-85.5 -34q-29 0 -63 19q-122 80 -246 80q-155 0 -245 -125.5t-99 -329.5q69 67 148.5 105.5
t195.5 38.5q140 0 252 -52t180 -156t68 -243v-4q0 -140 -70 -252t-192 -174t-271 -62zM684 195q131 0 209 72.5t78 185.5v4q0 109 -80.5 179.5t-212.5 70.5q-130 0 -210.5 -73t-80.5 -179v-4q0 -110 82.5 -183t214.5 -73z" />
    <glyph glyph-name="seven" unicode="7" horiz-adv-x="1247" 
d="M281 102q0 36 22 78l557 1032h-620q-46 0 -78.5 32.5t-32.5 78.5t32.5 78.5t78.5 32.5h804q53 0 84 -30t31 -83t-35 -121l-594 -1126q-46 -84 -120 -84q-54 0 -91.5 30t-37.5 82z" />
    <glyph glyph-name="eight" unicode="8" horiz-adv-x="1290" 
d="M645 -20q-156 0 -280 50.5t-195.5 144.5t-71.5 216v4q0 240 258 348q-209 109 -209 320v4q0 165 142 276t356 111q215 0 356.5 -110.5t141.5 -276.5v-4q0 -211 -209 -320q126 -57 192 -139.5t66 -204.5v-4q0 -125 -71.5 -220.5t-195 -145t-280.5 -49.5zM645 827
q111 0 183.5 59.5t72.5 151.5v4q0 85 -71.5 143t-184.5 58t-184.5 -57.5t-71.5 -141.5v-4q0 -93 72.5 -153t183.5 -60zM645 190q137 0 219 62t82 154v4q0 97 -85.5 157t-215.5 60q-129 0 -214 -60t-85 -157v-4q0 -91 81 -153.5t218 -62.5z" />
    <glyph glyph-name="nine" unicode="9" horiz-adv-x="1343" 
d="M612 -25q-212 0 -387 119q-57 37 -57 105q0 49 34.5 81.5t84.5 32.5q36 0 69 -20q125 -88 262 -88q156 0 248.5 124t98.5 326q-126 -151 -336 -151q-229 0 -368.5 124t-139.5 330v5q0 213 149.5 354t384.5 141q132 0 226.5 -37t173.5 -114q83 -85 127.5 -215t44.5 -332
v-4q0 -231 -72.5 -406.5t-212.5 -275t-330 -99.5zM666 715q132 0 211 75t79 183v4q0 114 -82.5 189t-216.5 75q-130 0 -207 -76t-77 -190v-4q0 -113 80.5 -184.5t212.5 -71.5z" />
    <glyph glyph-name="colon" unicode=":" horiz-adv-x="571" 
d="M141 950q0 62 41.5 103t104.5 41q61 0 102 -41t41 -103v-18q0 -62 -41 -103t-102 -41q-63 0 -104.5 41t-41.5 103v18zM141 152q0 60 41.5 100.5t104.5 40.5q61 0 102 -40.5t41 -100.5v-21q0 -60 -41 -100.5t-102 -40.5q-63 0 -104.5 40.5t-41.5 100.5v21z" />
    <glyph glyph-name="semicolon" unicode=";" horiz-adv-x="571" 
d="M141 950q0 62 41.5 103t104.5 41q61 0 102 -41t41 -103v-18q0 -62 -41 -103t-102 -41q-63 0 -104.5 41t-41.5 103v18zM72 -240q0 21 13 36t34 20q145 48 139 184q-48 13 -82.5 50t-34.5 89v17q0 59 39 98t101 39q69 0 108 -48t39 -132v-23q0 -194 -100 -299
q-41 -39 -95 -63.5t-98 -24.5q-31 0 -47 16t-16 41z" />
    <glyph glyph-name="less" unicode="&#x3c;" horiz-adv-x="1298" 
d="M1018 197q-23 0 -55 16l-740 362q-98 47 -98 138v16q0 90 98 137l740 363q32 16 63 16q40 2 70 -29t30 -75q0 -71 -69 -103l-674 -315l674 -317q69 -32 69 -105q0 -45 -31 -74.5t-77 -29.5z" />
    <glyph glyph-name="equal" unicode="=" horiz-adv-x="1298" 
d="M260 862q-47 0 -81 34t-34 81t34 81t81 34h778q47 0 81 -34t34 -81t-34 -81t-81 -34h-778zM260 350q-47 0 -81 34t-34 81q0 46 34 80.5t81 34.5h778q47 0 81 -34.5t34 -80.5q0 -47 -34 -81t-81 -34h-778z" />
    <glyph glyph-name="greater" unicode="&#x3e;" horiz-adv-x="1298" 
d="M281 1245q23 0 55 -16l737 -363q101 -46 101 -137v-16q0 -92 -101 -138l-737 -362q-32 -16 -64 -16q-40 -2 -70 29t-30 75q0 71 70 100l673 318l-673 317q-70 33 -70 105q0 45 31.5 74.5t77.5 29.5z" />
    <glyph glyph-name="question" unicode="?" horiz-adv-x="1107" 
d="M514 442h-12q-35 0 -59 23t-29 59l-21 176q-6 41 16.5 69.5t63.5 33.5q146 14 222.5 69.5t76.5 151.5v4q0 88 -63 141.5t-172 53.5q-154 0 -279 -113q-36 -29 -76 -29q-47 0 -80.5 33.5t-33.5 79.5q0 53 41 88q182 170 434 170q217 0 349 -112.5t132 -303.5v-4
q0 -94 -32 -167.5t-90.5 -122t-130.5 -79t-161 -45.5l-8 -94q-6 -35 -30 -58.5t-58 -23.5zM356 152q0 60 41.5 100.5t104.5 40.5t104 -40.5t41 -100.5v-21q0 -60 -41 -100.5t-104 -40.5t-104.5 40.5t-41.5 100.5v21z" />
    <glyph glyph-name="at" unicode="@" horiz-adv-x="2007" 
d="M1022 -332q-129 0 -249.5 32.5t-220.5 90.5t-183 140.5t-140 180.5t-88.5 213t-31.5 236q0 181 70 346t189.5 286t286 193t351.5 72q184 0 350.5 -67.5t284.5 -179t187.5 -259.5t69.5 -305q0 -125 -32 -224t-87.5 -160.5t-126 -93.5t-151.5 -32q-112 0 -188 40.5
t-115 103.5q-140 -144 -317 -144q-158 0 -264.5 107t-106.5 280q0 106 39.5 202t104 163.5t149 107t172.5 39.5q191 0 289 -151l6 37q18 102 106 102q46 0 77 -36t22 -89l-78 -438q-11 -68 -11 -88q0 -67 43 -106.5t117 -39.5q116 0 193.5 109.5t77.5 310.5q0 112 -39 220.5
t-113 200.5t-172 162.5t-224.5 110t-262.5 39.5q-171 0 -323 -65t-260 -175t-170.5 -261t-62.5 -318q0 -168 62.5 -318t171 -259.5t264.5 -173.5t334 -64q144 0 258.5 31t228.5 96q9 6 23 6q13 0 23 -11.5t10 -25.5q0 -22 -19 -30q-243 -144 -524 -144zM936 315
q113 0 198 96.5t85 227.5q0 97 -61 159t-154 62q-114 0 -198.5 -93.5t-84.5 -229.5q0 -104 59 -163t156 -59z" />
    <glyph glyph-name="A" unicode="A" horiz-adv-x="1583" 
d="M86 106q0 26 16 58l533 1188q47 102 151 102h13q102 0 149 -102l533 -1188q14 -25 14 -53q0 -51 -34 -86t-85 -35q-85 0 -123 88l-116 268h-697l-121 -276q-15 -38 -45.5 -59t-70.5 -21q-50 0 -83.5 33.5t-33.5 82.5zM537 569h503l-252 580z" />
    <glyph glyph-name="B" unicode="B" horiz-adv-x="1478" 
d="M184 127v1180q0 54 36.5 90.5t90.5 36.5h516q248 0 375 -127q96 -96 96 -238v-4q0 -214 -204 -320q137 -46 210.5 -128t73.5 -220v-4q0 -189 -143 -291t-387 -102h-537q-54 0 -90.5 36.5t-36.5 90.5zM432 829h344q125 0 198 49.5t73 145.5v4q0 85 -66 133.5t-186 48.5
h-363v-381zM432 223h418q131 0 203.5 50.5t72.5 146.5v4q0 92 -74 142t-221 50h-399v-393z" />
    <glyph glyph-name="C" unicode="C" horiz-adv-x="1511" 
d="M850 -25q-154 0 -290 57.5t-232 156.5t-151.5 235.5t-55.5 288.5v4q0 152 55 288t151 236t235 158.5t298 58.5q156 0 273 -42t219 -120q49 -36 49 -100q0 -52 -36 -87.5t-89 -35.5q-43 0 -76 25q-158 129 -342 129q-202 0 -337.5 -146.5t-135.5 -359.5v-4
q0 -213 135 -360.5t338 -147.5q109 0 193 33.5t166 103.5q33 29 75 29q47 0 83 -35t36 -82q0 -54 -41 -90q-108 -95 -231.5 -144t-288.5 -49z" />
    <glyph glyph-name="D" unicode="D" horiz-adv-x="1601" 
d="M184 127v1180q0 54 36.5 90.5t90.5 36.5h408q166 0 309 -55t242 -150t155 -226.5t56 -281.5v-4q0 -150 -56 -282t-155 -228t-242 -151.5t-309 -55.5h-408q-54 0 -90.5 36.5t-36.5 90.5zM436 229h283q224 0 361 135.5t137 348.5v4q0 213 -137.5 350t-360.5 137h-283v-975z
" />
    <glyph glyph-name="E" unicode="E" horiz-adv-x="1372" 
d="M311 0q-54 0 -90.5 36.5t-36.5 90.5v1180q0 54 36.5 90.5t90.5 36.5h834q46 0 79 -33.5t33 -79.5q0 -47 -33 -80t-79 -33h-709v-372h617q46 0 79 -34t33 -81q0 -46 -33 -78.5t-79 -32.5h-617v-385h719q46 0 79.5 -33t33.5 -79q0 -47 -33.5 -80t-79.5 -33h-844z" />
    <glyph glyph-name="F" unicode="F" horiz-adv-x="1343" 
d="M184 115v1192q0 54 36.5 90.5t90.5 36.5h836q47 0 81 -34t34 -81t-34 -81t-81 -34h-711v-391h619q47 0 80.5 -34t33.5 -81t-33.5 -80.5t-80.5 -33.5h-619v-469q0 -53 -36 -89t-89 -36q-54 0 -90.5 36t-36.5 89z" />
    <glyph glyph-name="G" unicode="G" horiz-adv-x="1605" 
d="M864 -25q-220 0 -390.5 97.5t-261.5 265t-91 375.5v4q0 149 55.5 284.5t151.5 236.5t235 160.5t297 59.5q156 0 272 -36t218 -109q51 -37 51 -103q0 -51 -36.5 -88t-88.5 -37q-37 0 -78 29q-75 56 -156.5 84.5t-191.5 28.5q-129 0 -236.5 -69t-168 -185t-60.5 -252v-4
q0 -147 60 -263t171.5 -182.5t255.5 -66.5q203 0 347 108v269h-283q-46 0 -79.5 31.5t-33.5 76.5q0 46 33.5 78.5t79.5 32.5h399q54 0 90.5 -36.5t36.5 -90.5v-383q0 -105 -88 -160q-234 -156 -510 -156z" />
    <glyph glyph-name="H" unicode="H" horiz-adv-x="1556" 
d="M184 115v1204q0 53 36.5 89t90.5 36q53 0 89 -36t36 -89v-481h684v481q0 53 36 89t89 36q54 0 90.5 -36t36.5 -89v-1204q0 -53 -36.5 -89t-90.5 -36q-53 0 -89 36t-36 89v489h-684v-489q0 -53 -36 -89t-89 -36q-54 0 -90.5 36t-36.5 89z" />
    <glyph glyph-name="I" unicode="I" horiz-adv-x="649" 
d="M199 115v1204q0 53 36.5 89t90.5 36q52 0 88.5 -36t36.5 -89v-1204q0 -53 -36.5 -89t-88.5 -36q-54 0 -90.5 36t-36.5 89z" />
    <glyph glyph-name="J" unicode="J" horiz-adv-x="1146" 
d="M502 -20q-234 0 -391 157q-43 37 -43 94q0 51 34.5 86t85.5 35q42 0 78 -28q55 -57 110 -84t124 -27q108 0 169.5 71t61.5 212v823q0 52 37 88.5t90 36.5t90 -36.5t37 -88.5v-832q0 -246 -135 -381q-126 -126 -348 -126z" />
    <glyph glyph-name="K" unicode="K" horiz-adv-x="1460" 
d="M184 115v1204q0 53 36.5 89t90.5 36q53 0 89 -36t36 -89v-606l680 684q44 47 105 47q51 0 83.5 -35t32.5 -82q0 -52 -45 -94l-446 -430l483 -600q35 -47 35 -90q0 -52 -36.5 -87.5t-90.5 -35.5q-61 0 -107 59l-460 588l-234 -225v-297q0 -53 -36 -89t-89 -36
q-54 0 -90.5 36t-36.5 89z" />
    <glyph glyph-name="L" unicode="L" horiz-adv-x="1267" 
d="M184 127v1192q0 53 36.5 89t90.5 36q53 0 89 -36t36 -89v-1090h649q47 0 81 -33.5t34 -80.5t-34 -81t-81 -34h-774q-54 0 -90.5 36.5t-36.5 90.5z" />
    <glyph glyph-name="M" unicode="M" horiz-adv-x="1777" 
d="M184 113v1202q0 53 36.5 90t90.5 37h27q73 0 117 -68l434 -680l436 682q41 66 115 66h26q54 0 90.5 -37t36.5 -90v-1200q0 -53 -36.5 -89t-90.5 -36q-51 0 -88 37t-37 88v860l-350 -526q-43 -66 -106 -66q-62 0 -105 66l-348 522v-858q0 -52 -36 -87.5t-89 -35.5t-88 35
t-35 88z" />
    <glyph glyph-name="N" unicode="N" horiz-adv-x="1617" 
d="M184 113v1202q0 53 36.5 90t90.5 37h27q42 0 71.5 -18.5t59.5 -55.5l717 -928v881q0 51 36 87t87 36q52 0 88.5 -36t36.5 -87v-1204q0 -53 -35.5 -89t-87.5 -36h-11q-72 0 -131 76l-737 954v-909q0 -51 -36 -87t-87 -36q-52 0 -88.5 36t-36.5 87z" />
    <glyph glyph-name="O" unicode="O" horiz-adv-x="1740" 
d="M868 -25q-215 0 -387 100.5t-266 268.5t-94 369v4q0 150 56 285.5t154 236t239 160t302 59.5t301.5 -58.5t238 -158.5t153 -235t55.5 -285v-4q0 -150 -56 -286t-154 -236.5t-239.5 -160t-302.5 -59.5zM872 209q139 0 250.5 67.5t172.5 182.5t61 254v4q0 139 -62 255.5
t-174.5 185.5t-251.5 69t-250.5 -68t-172 -183.5t-60.5 -254.5v-4q0 -139 61.5 -255t174 -184.5t251.5 -68.5z" />
    <glyph glyph-name="P" unicode="P" horiz-adv-x="1368" 
d="M184 115v1192q0 54 36.5 90.5t90.5 36.5h439q250 0 397 -131t147 -349v-4q0 -156 -78.5 -268.5t-206 -166.5t-288.5 -54h-285v-346q0 -53 -36 -89t-89 -36q-54 0 -90.5 36t-36.5 89zM436 688h293q141 0 225 71t84 185v4q0 124 -82.5 190t-226.5 66h-293v-516z" />
    <glyph glyph-name="Q" unicode="Q" horiz-adv-x="1740" 
d="M868 -25q-215 0 -387 100.5t-266 268.5t-94 369v4q0 150 56 285.5t154 236t239 160t302 59.5t301.5 -58.5t238 -158.5t153 -235t55.5 -285v-4q0 -244 -145 -441l92 -75q47 -41 47 -99q0 -50 -35 -85t-84 -35q-52 0 -88 36l-102 93q-191 -136 -437 -136zM942 426
q-47 41 -47 98q0 50 35 85.5t84 35.5q45 0 88 -37l184 -168q70 121 70 273v4q0 139 -62 255.5t-174.5 185.5t-251.5 69t-250.5 -68t-172 -183.5t-60.5 -254.5v-4q0 -139 61.5 -255t174 -184.5t251.5 -68.5q137 0 248 65z" />
    <glyph glyph-name="R" unicode="R" horiz-adv-x="1480" 
d="M184 115v1192q0 54 36.5 90.5t90.5 36.5h512q267 0 414 -144q119 -122 119 -309v-4q0 -166 -87.5 -274t-238.5 -154l275 -346q41 -51 41 -97q0 -51 -36.5 -83.5t-84.5 -32.5q-75 0 -123 65l-348 445h-318v-385q0 -53 -36 -89t-89 -36q-54 0 -90.5 36t-36.5 89zM436 723
h369q135 0 215 65.5t80 174.5v4q0 114 -78 175.5t-219 61.5h-367v-481z" />
    <glyph glyph-name="S" unicode="S" horiz-adv-x="1310" 
d="M686 -20q-297 0 -539 180q-49 34 -49 96q0 49 34.5 83t84.5 34q43 0 74 -23q186 -147 401 -147q116 0 185 50t69 130v4q0 54 -25 89.5t-95.5 67.5t-202.5 62q-98 24 -167.5 48t-131.5 58.5t-99.5 78t-58.5 104.5t-21 139v4q0 184 137.5 300t352.5 116q255 0 455 -133
q24 -13 39.5 -39t15.5 -61q0 -49 -34.5 -83t-84.5 -34q-35 0 -65 18q-168 109 -330 109q-107 0 -170.5 -48.5t-63.5 -121.5v-4q0 -58 28.5 -94.5t101 -67.5t212.5 -64q238 -58 348.5 -152.5t110.5 -266.5v-4q0 -198 -141.5 -313t-370.5 -115z" />
    <glyph glyph-name="T" unicode="T" horiz-adv-x="1327" 
d="M537 115v1085h-349q-49 0 -82.5 34.5t-33.5 82.5t33.5 82.5t82.5 34.5h953q47 0 80.5 -34.5t33.5 -82.5t-33.5 -82.5t-80.5 -34.5h-350v-1085q0 -52 -37 -88.5t-90 -36.5t-90 36.5t-37 88.5z" />
    <glyph glyph-name="U" unicode="U" horiz-adv-x="1550" 
d="M772 -23q-285 0 -447.5 162t-162.5 469v711q0 53 36.5 89t90.5 36q53 0 89 -36t36 -89v-701q0 -197 95.5 -302t266.5 -105q170 0 265.5 101t95.5 296v711q0 53 36.5 89t90.5 36q52 0 88.5 -36t36.5 -89v-698q0 -314 -164.5 -479t-452.5 -165z" />
    <glyph glyph-name="V" unicode="V" horiz-adv-x="1501" 
d="M743 -20q-99 0 -143 102l-502 1180q-14 32 -14 59q0 51 36.5 87t90.5 36q95 0 129 -90l414 -1035l420 1043q13 34 45.5 58t74.5 24q53 0 89 -35t36 -86q0 -25 -12 -53l-504 -1188q-44 -102 -145 -102h-15z" />
    <glyph glyph-name="W" unicode="W" horiz-adv-x="2250" 
d="M520 84l-424 1188q-10 23 -10 49q0 52 38 87.5t91 35.5q45 0 79 -25.5t46 -66.5l330 -985l323 981q16 46 48.5 73t78.5 27h19q46 0 79.5 -27.5t47.5 -72.5l323 -981l330 987q14 40 46.5 65t76.5 25q51 0 88 -35t37 -86q0 -21 -13 -51l-423 -1188q-18 -48 -52.5 -76
t-79.5 -28h-24q-93 0 -129 104l-320 936l-319 -936q-17 -50 -51 -77t-80 -27h-25q-92 0 -131 104z" />
    <glyph glyph-name="X" unicode="X" horiz-adv-x="1462" 
d="M111 106q0 46 36 95l426 528l-401 498q-39 53 -39 94q0 53 35.5 88t89.5 35q38 0 64.5 -15t50.5 -47l362 -477l359 469q51 70 123 70q44 0 79 -32.5t35 -82.5q0 -48 -39 -96l-401 -500l422 -526q39 -53 39 -94q0 -53 -35.5 -88t-89.5 -35q-69 0 -115 61l-385 502
l-379 -494q-28 -36 -56 -52.5t-67 -16.5q-45 0 -79.5 32t-34.5 84z" />
    <glyph glyph-name="Y" unicode="Y" horiz-adv-x="1425" 
d="M588 115v442l-494 678q-28 44 -28 88q0 51 36.5 86t90.5 35q70 0 122 -76l400 -575l405 577q52 76 121 76q54 0 88.5 -35.5t34.5 -87.5q0 -41 -35 -90l-489 -670v-448q0 -53 -36.5 -89t-90.5 -36q-53 0 -89 36t-36 89z" />
    <glyph glyph-name="Z" unicode="Z" horiz-adv-x="1437" 
d="M238 0q-44 0 -78.5 33.5t-34.5 77.5v6q0 63 47 116l807 977h-719q-44 0 -77 33t-33 78q0 46 33 79.5t77 33.5h942q46 0 79.5 -33.5t33.5 -77.5v-6q0 -60 -45 -117l-809 -977h745q46 0 79.5 -33t33.5 -79t-33.5 -78.5t-79.5 -32.5h-968z" />
    <glyph glyph-name="bracketleft" unicode="[" horiz-adv-x="931" 
d="M180 -143v1454q0 51 35 87t86 36h422q40 0 69 -29.5t29 -69.5t-29 -68t-69 -28h-305v-1311h305q40 0 69 -28t29 -68t-29 -69t-69 -29h-422q-51 0 -86 36t-35 87z" />
    <glyph glyph-name="backslash" unicode="\" horiz-adv-x="1067" 
d="M1067 -178q0 -38 -29 -66t-69 -28q-60 0 -88 57l-840 1716q-10 30 -10 49q0 38 28.5 66.5t67.5 28.5q62 0 90 -58l838 -1716q12 -24 12 -49z" />
    <glyph glyph-name="bracketright" unicode="]" horiz-adv-x="931" 
d="M752 1311v-1454q0 -51 -36 -87t-87 -36h-422q-40 0 -68 29t-28 69t28 68t68 28h307v1311h-307q-40 0 -68 28t-28 68t28.5 69.5t67.5 29.5h422q51 0 87 -36t36 -87z" />
    <glyph glyph-name="asciicircum" unicode="^" horiz-adv-x="1024" 
d="M510 1280l-148 -190q-41 -53 -71.5 -72t-75.5 -19q-25 0 -41 11t-16 30q0 28 24 62l195 266q52 74 125 74h18q41 0 70 -18t57 -56l195 -266q22 -36 22 -62q0 -19 -16 -30t-41 -11q-46 0 -77.5 19t-72.5 72z" />
    <glyph glyph-name="underscore" unicode="_" horiz-adv-x="1228" 
d="M-4 -328q-40 0 -68 28.5t-28 68.5t28 68t68 28h1237q40 0 68 -28t28 -68t-28 -68.5t-68 -28.5h-1237z" />
    <glyph glyph-name="grave" unicode="`" horiz-adv-x="1024" 
d="M600 1208q-45 0 -77 12t-66 44l-140 131q-34 31 -34 61q0 29 48.5 54.5t98.5 25.5q61 0 98 -59l117 -181q19 -28 19 -45q0 -20 -18 -31.5t-46 -11.5z" />
    <glyph glyph-name="a" unicode="a" horiz-adv-x="1202" 
d="M467 -23q-104 0 -189.5 37.5t-139.5 114.5t-54 182v4q0 170 121 259.5t325 89.5q148 0 291 -46v27q0 115 -68.5 175.5t-199.5 60.5q-132 0 -240 -43q-24 -7 -39 -7q-43 0 -73.5 30t-30.5 73q0 33 19.5 60t48.5 38q167 64 348 64q240 0 358 -121q117 -114 117 -334v-532
q0 -51 -35 -85t-86 -34q-53 0 -87 31t-34 73v41q-133 -158 -352 -158zM537 158q124 0 206 64.5t82 166.5v74q-108 43 -245 43q-120 0 -187 -47.5t-67 -132.5v-4q0 -76 59.5 -120t151.5 -44z" />
    <glyph glyph-name="b" unicode="b" 
d="M156 113v1269q0 52 35 87.5t88 35.5t88.5 -35.5t35.5 -87.5v-481q144 203 369 203q96 0 185.5 -38t160.5 -107t113.5 -177t42.5 -239v-4q0 -130 -42.5 -238t-113 -178t-160 -108t-186.5 -38q-224 0 -369 191v-55q0 -51 -36 -87t-88 -36q-51 0 -87 36t-36 87zM713 193
q131 0 220 95t89 251v4q0 153 -90 249.5t-219 96.5q-130 0 -223 -97.5t-93 -248.5v-4q0 -151 93 -248.5t223 -97.5z" />
    <glyph glyph-name="c" unicode="c" horiz-adv-x="1169" 
d="M655 -25q-158 0 -286.5 75.5t-200.5 204t-72 280.5v4q0 153 72 282t202 206t289 77q224 0 379 -135q39 -34 39 -86q0 -47 -33.5 -80t-80.5 -33q-41 0 -74 25q-109 92 -232 92q-133 0 -223 -100.5t-90 -243.5v-4q0 -147 91.5 -246.5t232.5 -99.5q126 0 241 96q30 26 68 26
q44 0 75 -32t31 -76q0 -51 -34 -78q-161 -154 -394 -154z" />
    <glyph glyph-name="d" unicode="d" 
d="M1219 1382v-1269q0 -52 -36 -87.5t-87 -35.5q-53 0 -89 35.5t-36 87.5v67q-144 -203 -369 -203q-96 0 -185.5 38t-160.5 108t-113.5 178t-42.5 238v4q0 130 42 238t112.5 177.5t160 107.5t187.5 38q223 0 369 -191v469q0 52 36 87.5t87 35.5q53 0 89 -35.5t36 -87.5z
M662 889q-132 0 -222 -94.5t-90 -251.5v-4q0 -153 91 -249.5t221 -96.5q128 0 220.5 97.5t92.5 248.5v4q0 152 -92 249t-221 97z" />
    <glyph glyph-name="e" unicode="e" horiz-adv-x="1236" 
d="M342 616h555q-13 126 -84.5 205.5t-189.5 79.5q-112 0 -187.5 -78.5t-93.5 -206.5zM1040 119q-160 -144 -389 -144q-156 0 -282 70t-199.5 199t-73.5 293v4q0 154 67 282.5t189 204.5t273 76q100 0 185.5 -31.5t144.5 -84t101.5 -121.5t62.5 -144.5t20 -151.5
q0 -51 -34.5 -84.5t-82.5 -33.5h-678q20 -130 104.5 -202.5t206.5 -72.5q141 0 256 94q30 23 64 23q41 0 69.5 -28.5t28.5 -71.5t-33 -76z" />
    <glyph glyph-name="f" unicode="f" horiz-adv-x="770" 
d="M211 113v755h-43q-43 0 -74 30t-31 73t31 73.5t74 30.5h43v80q0 178 88 266q86 86 244 86q67 0 125 -10q35 -5 60.5 -33.5t25.5 -68.5q0 -43 -31 -73.5t-74 -29.5q-28 4 -51 4q-143 0 -143 -163v-60h192q44 0 74.5 -29.5t30.5 -72.5t-31 -73t-74 -30h-188v-755
q0 -51 -36.5 -87t-88.5 -36q-51 0 -87 36t-36 87z" />
    <glyph glyph-name="g" unicode="g" 
d="M637 -332q-218 0 -418 96q-69 26 -69 99q0 41 30.5 71.5t73.5 30.5q25 0 45 -10q153 -86 332 -86q166 0 254 85t88 247v84q-74 -96 -164.5 -147.5t-216.5 -51.5q-96 0 -184 35t-157 98.5t-110 160.5t-41 212v4q0 116 41.5 213.5t110.5 161t157 98.5t183 35
q126 0 216.5 -49.5t162.5 -134.5v51q0 51 36 87t87 36q52 0 88.5 -36t36.5 -89v-748q0 -269 -138 -407q-146 -146 -444 -146zM657 297q132 0 225 84t93 213v4q0 129 -93 213t-225 84q-131 0 -219 -83t-88 -214v-4q0 -130 88.5 -213.5t218.5 -83.5z" />
    <glyph glyph-name="h" unicode="h" horiz-adv-x="1269" 
d="M156 113v1269q0 51 35.5 87t87.5 36t88 -36t36 -87v-467q132 189 338 189q181 0 283 -112t102 -302v-577q0 -53 -35 -88t-87 -35q-53 0 -89 35.5t-36 87.5v501q0 126 -61 195.5t-171 69.5q-109 0 -176.5 -72.5t-67.5 -196.5v-497q0 -52 -35.5 -87.5t-88.5 -35.5
q-51 0 -87 35.5t-36 87.5z" />
    <glyph glyph-name="i" unicode="i" horiz-adv-x="585" 
d="M152 1360v12q0 55 40 88t101 33t101 -33t40 -88v-12q0 -55 -40 -89t-101 -34t-101 34t-40 89zM170 113v856q0 53 35.5 89t87.5 36q53 0 89 -36t36 -89v-856q0 -52 -36 -87.5t-89 -35.5q-51 0 -87 35.5t-36 87.5z" />
    <glyph glyph-name="j" unicode="j" horiz-adv-x="585" 
d="M119 -334h-19q-61 2 -98 28t-37 75q0 45 28.5 73.5t69.5 28.5q2 0 8 -1t7 -1q92 0 92 117v983q0 53 35.5 89t87.5 36q53 0 89 -36t36 -89v-983q0 -160 -79 -240t-220 -80zM152 1360v12q0 55 40 88t101 33t101 -33t40 -88v-12q0 -55 -40 -89t-101 -34t-101 34t-40 89z" />
    <glyph glyph-name="k" unicode="k" horiz-adv-x="1187" 
d="M156 113v1269q0 51 35.5 87t87.5 36t88 -36t36 -87v-798l465 456q54 54 107 54q48 0 78 -33.5t30 -79.5q0 -52 -55 -104l-287 -265l328 -428q33 -44 33 -82q0 -50 -34 -81t-83 -31q-36 0 -60 12.5t-48 42.5l-310 412l-164 -156v-188q0 -52 -35.5 -87.5t-88.5 -35.5
q-51 0 -87 35.5t-36 87.5z" />
    <glyph glyph-name="l" unicode="l" horiz-adv-x="585" 
d="M170 113v1269q0 51 35.5 87t87.5 36t88.5 -36t36.5 -87v-1269q0 -52 -36 -87.5t-89 -35.5q-51 0 -87 35.5t-36 87.5z" />
    <glyph glyph-name="m" unicode="m" horiz-adv-x="1945" 
d="M156 113v856q0 53 35.5 89t87.5 36t88 -36t36 -89v-51q62 86 139.5 136t190.5 50q114 0 197 -51t127 -140q143 191 364 191q178 0 278.5 -108.5t100.5 -305.5v-577q0 -53 -35 -88t-88 -35t-89 35.5t-36 87.5v501q0 128 -57 196.5t-162 68.5q-104 0 -167.5 -70.5
t-63.5 -198.5v-497q0 -52 -36 -87.5t-87 -35.5q-53 0 -89 35.5t-36 87.5v503q0 125 -58 194t-161 69q-104 0 -168 -73t-64 -196v-497q0 -52 -35.5 -87.5t-88.5 -35.5q-51 0 -87 35.5t-36 87.5z" />
    <glyph glyph-name="n" unicode="n" horiz-adv-x="1269" 
d="M156 113v856q0 53 35.5 89t87.5 36t88 -36t36 -89v-54q132 189 338 189q181 0 283 -112t102 -302v-577q0 -53 -35 -88t-87 -35q-53 0 -89 35.5t-36 87.5v501q0 126 -61 195.5t-171 69.5q-109 0 -176.5 -72.5t-67.5 -196.5v-497q0 -52 -35.5 -87.5t-88.5 -35.5
q-51 0 -87 35.5t-36 87.5z" />
    <glyph glyph-name="o" unicode="o" horiz-adv-x="1345" 
d="M670 -25q-121 0 -228.5 44.5t-183 120t-119 178.5t-43.5 217v4q0 153 74.5 282.5t208 206t295.5 76.5q122 0 229.5 -44.5t183 -120t119 -178.5t43.5 -218v-4q0 -114 -44 -217.5t-120 -180t-184 -121.5t-231 -45zM674 193q147 0 237 99t90 243v4q0 145 -93.5 246.5
t-237.5 101.5q-146 0 -236 -99.5t-90 -244.5v-4q0 -144 94 -245t236 -101z" />
    <glyph glyph-name="p" unicode="p" 
d="M156 -215v1184q0 53 35.5 89t87.5 36t88 -36t36 -89v-68q144 203 369 203q96 0 185.5 -38t160.5 -107t113.5 -177t42.5 -239v-4q0 -130 -42.5 -238t-113 -178t-160 -108t-186.5 -38q-224 0 -369 191v-383q0 -52 -35.5 -87.5t-88.5 -35.5q-51 0 -87 35.5t-36 87.5z
M713 193q131 0 220 95t89 251v4q0 153 -90 249.5t-219 96.5q-130 0 -223 -97.5t-93 -248.5v-4q0 -151 93 -248.5t223 -97.5z" />
    <glyph glyph-name="q" unicode="q" 
d="M1219 969v-1184q0 -52 -36 -87.5t-87 -35.5q-53 0 -89 35.5t-36 87.5v395q-144 -203 -369 -203q-96 0 -185.5 38t-160.5 108t-113.5 178t-42.5 238v4q0 130 42 238t112.5 177.5t160 107.5t187.5 38q223 0 369 -191v58q0 51 36 87t87 36q52 0 88.5 -36t36.5 -89zM662 889
q-132 0 -222 -94.5t-90 -251.5v-4q0 -153 91 -249.5t221 -96.5q128 0 220.5 97.5t92.5 248.5v4q0 152 -92 249t-221 97z" />
    <glyph glyph-name="r" unicode="r" horiz-adv-x="845" 
d="M156 113v856q0 53 35.5 89t87.5 36t88 -36t36 -89v-111q44 104 118.5 171t154.5 67q57 0 90 -34t33 -89q0 -48 -28 -79.5t-71 -39.5q-138 -24 -217.5 -130.5t-79.5 -291.5v-319q0 -51 -36 -87t-88 -36q-51 0 -87 35.5t-36 87.5z" />
    <glyph glyph-name="s" unicode="s" horiz-adv-x="1026" 
d="M526 -20q-223 0 -411 129q-47 24 -47 86q0 42 29 71t71 29q28 0 53 -14q156 -105 311 -105q79 0 123.5 31.5t44.5 85.5v4q0 28 -16.5 50t-49.5 39t-66.5 29t-84.5 27q-16 5 -24 7q-57 16 -97.5 30.5t-89.5 41t-79 57.5t-51 79.5t-21 108.5v4q0 150 109.5 240t275.5 90
q174 0 340 -88q59 -30 59 -94q0 -43 -29.5 -72t-72.5 -29q-25 0 -49 12q-145 74 -254 74q-71 0 -111.5 -29.5t-40.5 -76.5v-4q0 -59 97 -102q34 -16 147 -52q56 -17 96.5 -32.5t89 -43t78.5 -58.5t51 -78t21 -103v-5q0 -164 -112.5 -251.5t-289.5 -87.5z" />
    <glyph glyph-name="t" unicode="t" horiz-adv-x="841" 
d="M518 -18q-311 0 -311 317v569h-41q-44 0 -75.5 31.5t-31.5 75.5t31.5 75t75.5 31h41v185q0 51 36.5 87t88.5 36q51 0 87 -36t36 -87v-185h194q45 0 77 -31t32 -75t-32.5 -75.5t-76.5 -31.5h-194v-530q0 -135 133 -135q17 0 38.5 3t22.5 3q42 0 73.5 -30.5t31.5 -72.5
q0 -32 -19 -58.5t-47 -37.5q-82 -28 -170 -28z" />
    <glyph glyph-name="u" unicode="u" horiz-adv-x="1269" 
d="M1116 969v-856q0 -51 -36.5 -87t-88.5 -36t-88.5 35.5t-36.5 87.5v55q-131 -191 -338 -191q-181 0 -283 112.5t-102 303.5v576q0 52 36 88.5t87 36.5q52 0 88.5 -36t36.5 -89v-502q0 -126 60.5 -194t171.5 -68q109 0 176 71t67 195v498q0 53 36 89t89 36q51 0 88 -36.5
t37 -88.5z" />
    <glyph glyph-name="v" unicode="v" horiz-adv-x="1200" 
d="M748 88q-50 -108 -142 -108h-12q-94 0 -141 108l-361 825q-14 42 -14 62q0 47 36.5 83t86.5 36q88 0 123 -90l278 -717l283 721q36 86 116 86q51 0 86 -34t35 -85q0 -32 -14 -60z" />
    <glyph glyph-name="w" unicode="w" horiz-adv-x="1746" 
d="M518 -18q-101 0 -137 110l-291 823q-12 32 -12 64q0 46 34 80.5t87 34.5q44 0 75 -27t45 -72l209 -655l211 655q14 44 47.5 71.5t79.5 27.5h15q46 0 79.5 -27.5t47.5 -71.5l213 -655l211 657q13 43 43 70t77 27q50 0 83.5 -34t33.5 -81q0 -25 -10 -55l-295 -832
q-39 -110 -137 -110h-8q-47 0 -83 27t-53 79l-211 643l-213 -643q-17 -52 -52 -79t-81 -27h-8z" />
    <glyph glyph-name="x" unicode="x" horiz-adv-x="1173" 
d="M98 94q0 48 35 86l307 369l-284 338q-41 50 -41 94q0 51 33.5 83t80.5 32q66 0 115 -62l244 -319l248 317q50 64 106 64q49 0 83 -31.5t34 -77.5q0 -40 -35 -84l-293 -350l303 -358q41 -50 41 -95q0 -51 -33.5 -82.5t-80.5 -31.5q-67 0 -115 63l-262 338l-262 -338
q-52 -63 -109 -63q-48 0 -81.5 31.5t-33.5 76.5z" />
    <glyph glyph-name="y" unicode="y" horiz-adv-x="1202" 
d="M352 -334q-93 0 -172 31q-32 11 -55 36t-23 66q0 45 30 74t71 29q21 0 45 -8q54 -15 86 -15q55 0 88.5 25.5t64.5 89.5l9 22l-402 897q-14 31 -14 60q0 52 35 86.5t88 34.5q83 0 121 -95l290 -718l271 718q37 95 119 95q50 0 84 -34t34 -83q0 -29 -10 -59l-395 -949
q-69 -166 -151.5 -234.5t-213.5 -68.5z" />
    <glyph glyph-name="z" unicode="z" horiz-adv-x="1146" 
d="M221 0q-52 0 -86.5 28.5t-34.5 71.5v4q0 34 13 60.5t43 58.5l575 656h-510q-43 0 -72.5 29.5t-29.5 70.5q0 43 29.5 72.5t72.5 29.5h713q51 0 85 -27.5t34 -70.5v-6q0 -34 -12.5 -60.5t-41.5 -58.5l-577 -655h532q43 0 73 -30t30 -73q0 -41 -30 -70.5t-73 -29.5h-733z
" />
    <glyph glyph-name="braceleft" unicode="{" horiz-adv-x="997" 
d="M788 -276q-117 26 -196 62.5t-123.5 87.5t-63 109.5t-18.5 137.5q0 15 2 72t2 75q0 114 -44.5 166t-147.5 55q-49 3 -77 30t-28 69t28 68.5t77 29.5q104 4 148 56t44 167q0 18 -2 75.5t-2 72.5q0 78 18.5 136.5t63 109t123.5 87t196 62.5q47 10 80 -14.5t33 -69.5
q0 -34 -17.5 -55.5t-39.5 -28.5q-74 -23 -119.5 -47t-69.5 -56.5t-31.5 -68t-7.5 -92.5q0 -20 2.5 -75t2.5 -77q0 -115 -53.5 -180.5t-159.5 -99.5q108 -35 160.5 -100t52.5 -181q0 -22 -2.5 -76.5t-2.5 -74.5q0 -57 7.5 -92.5t31.5 -68.5t69.5 -57t119.5 -47
q22 -7 39.5 -28.5t17.5 -55.5q0 -44 -33 -68.5t-80 -14.5z" />
    <glyph glyph-name="bar" unicode="|" horiz-adv-x="677" 
d="M240 -174v1720q0 41 29 70t69 29q41 0 70.5 -29t29.5 -70v-1720q0 -41 -29.5 -69.5t-70.5 -28.5q-40 0 -69 28.5t-29 69.5z" />
    <glyph glyph-name="braceright" unicode="}" horiz-adv-x="997" 
d="M209 1452q117 -26 196 -62.5t123.5 -87t63 -109t18.5 -136.5q0 -15 -2 -72.5t-2 -75.5q0 -114 45.5 -166.5t149.5 -56.5q47 -3 74.5 -29.5t27.5 -68.5t-27.5 -69t-74.5 -30q-104 -3 -149.5 -55.5t-45.5 -165.5q0 -18 2 -75t2 -72q0 -79 -18.5 -137.5t-63 -109.5
t-123.5 -87.5t-196 -62.5q-47 -10 -80 14.5t-33 68.5q0 34 18 55.5t42 28.5q74 23 118.5 47t68 57t31 68.5t7.5 92.5q0 20 -2 74.5t-2 76.5q0 115 53.5 181t159.5 100q-108 35 -160.5 100t-52.5 180q0 22 2 77t2 75q0 57 -7.5 92t-31 68t-68 57t-118.5 47q-24 7 -42 28.5
t-18 55.5q0 45 33 69.5t80 14.5z" />
    <glyph glyph-name="asciitilde" unicode="~" horiz-adv-x="1013" 
d="M274 506q-21 -41 -65 -41q-31 0 -53.5 21t-22.5 49q0 29 8 45q34 95 81.5 140.5t127.5 45.5q62 0 162 -40t131 -40q35 0 55.5 14.5t40.5 49.5q22 43 66 43q30 0 53 -21.5t23 -48.5q0 -26 -9 -47q-34 -95 -81.5 -141t-126.5 -46q-62 0 -162 41t-131 41q-35 0 -56 -15
t-41 -50z" />
    <glyph glyph-name="uni00A0" unicode="&#xa0;" horiz-adv-x="614" 
 />
    <glyph glyph-name="exclamdown" unicode="&#xa1;" horiz-adv-x="618" 
d="M385 918l72 -836q3 -37 -18 -62.5t-56 -25.5h-147q-35 0 -55 25.5t-17 62.5l72 836q3 34 22.5 53.5t50.5 19.5t52 -20t24 -53zM455 1284q0 -62 -41.5 -102.5t-104.5 -40.5q-62 0 -103.5 41t-41.5 102v19q0 60 41.5 100.5t103.5 40.5q63 0 104.5 -40.5t41.5 -100.5v-19z
" />
    <glyph glyph-name="cent" unicode="&#xa2;" horiz-adv-x="1189" 
d="M449 84l22 113q-163 58 -264 201.5t-101 324.5v4q0 115 42.5 218.5t116.5 179.5t179 120.5t224 44.5h16l18 94q6 32 29.5 52t59.5 20q41 0 67 -31.5t16 -74.5l-16 -86q102 -34 195 -113q37 -33 37 -84q0 -46 -32.5 -78.5t-78.5 -32.5q-41 0 -70 25q-57 46 -102 66
l-131 -668q132 3 242 98q33 25 69 25q40 0 70 -31t30 -74q0 -46 -32 -75q-165 -158 -398 -158h-14l-22 -115q-6 -32 -29 -52t-57 -20q-42 0 -68.5 31.5t-17.5 75.5zM348 727q0 -104 46 -187t128 -126l129 661q-130 -4 -216.5 -104t-86.5 -240v-4z" />
    <glyph glyph-name="sterling" unicode="&#xa3;" horiz-adv-x="1318" 
d="M119 88q0 69 67 90l105 31v360h-66q-44 0 -75 31.5t-31 75.5q0 43 31 74.5t75 31.5h66v189q0 229 127 356q124 127 344 127q243 0 399 -166q39 -39 39 -90q0 -52 -36 -87.5t-89 -35.5q-55 0 -90 39q-50 54 -101 80.5t-118 26.5q-91 0 -152 -58q-67 -70 -67 -198v-183h414
q43 0 74.5 -31.5t31.5 -74.5q0 -44 -31.5 -75.5t-74.5 -31.5h-414v-350h565q46 0 78.5 -32t32.5 -78t-32.5 -77.5t-78.5 -31.5h-897q-42 0 -69 25.5t-27 62.5z" />
    <glyph glyph-name="yen" unicode="&#xa5;" horiz-adv-x="1404" 
d="M823 541v-150h316q37 0 63.5 -27t26.5 -65q0 -37 -26.5 -63.5t-63.5 -26.5h-316v-98q0 -51 -35 -86t-86 -35t-85.5 35t-34.5 86v98h-316q-37 0 -63.5 26.5t-26.5 63.5q0 38 26.5 65t63.5 27h316v150h-316q-37 0 -63.5 26.5t-26.5 63.5q0 38 26.5 65t63.5 27h244l-377 516
q-31 45 -31 86q0 48 36 83.5t89 35.5q72 0 119 -70l359 -534l362 532q49 72 115 72q51 0 86 -32t35 -85q0 -45 -31 -88l-381 -516h248q37 0 63.5 -27t26.5 -65q0 -37 -26.5 -63.5t-63.5 -26.5h-316z" />
    <glyph glyph-name="section" unicode="&#xa7;" horiz-adv-x="1294" 
d="M668 -20q-249 0 -426 147q-37 33 -37 78q0 43 29.5 72.5t72.5 29.5q36 0 64 -24q137 -115 295 -115q79 0 122 28t43 72v4q0 46 -58 78t-212 66q-240 54 -341 122t-101 177v4q0 179 219 237q-113 72 -113 195v4q0 137 107.5 218t294.5 81q249 0 426 -147q37 -33 37 -78
q0 -43 -30 -72t-73 -29q-36 0 -63 23q-137 115 -295 115q-80 0 -123 -27.5t-43 -73.5v-4q0 -44 55.5 -75t214.5 -68q241 -55 342 -121.5t101 -177.5v-4q0 -93 -59.5 -152t-160.5 -86q54 -32 84.5 -83.5t30.5 -110.5v-4q0 -136 -108.5 -217.5t-294.5 -81.5zM795 569
q68 0 112.5 31.5t44.5 79.5v4q0 45 -55 78t-184 65q-143 37 -213 37q-69 0 -113.5 -31.5t-44.5 -78.5v-4q0 -45 55.5 -78.5t186.5 -65.5q140 -37 211 -37z" />
    <glyph glyph-name="dieresis" unicode="&#xa8;" horiz-adv-x="1024" 
d="M717 1475q56 0 94.5 -36t38.5 -91v-15q0 -55 -38.5 -90t-94.5 -35q-58 0 -96.5 35t-38.5 90v15q0 55 39 91t96 36zM309 1475q56 0 94.5 -36t38.5 -91v-15q0 -55 -38.5 -90t-94.5 -35q-58 0 -96.5 35t-38.5 90v15q0 55 39 91t96 36z" />
    <glyph glyph-name="copyright" unicode="&#xa9;" horiz-adv-x="1699" 
d="M848 -25q-153 0 -290.5 59t-235.5 158.5t-155.5 235.5t-57.5 285v4q0 149 58 285.5t157 236.5t237 159.5t291 59.5t290.5 -59t235.5 -158t155.5 -235t57.5 -285v-4q0 -149 -58 -285.5t-157 -237t-237 -160t-291 -59.5zM848 49q186 0 339 90t239.5 243t86.5 335v4
q0 181 -86 333t-238 241t-337 89q-186 0 -339.5 -90t-240 -242.5t-86.5 -334.5v-4q0 -181 86 -333.5t238.5 -241.5t337.5 -89zM858 326q-168 0 -280.5 115t-112.5 282v4q0 167 113 284t284 117q88 0 150 -22.5t116 -65.5q33 -22 33 -61q0 -32 -21.5 -54t-52.5 -22
q-21 0 -49 21q-83 65 -176 65q-103 0 -172 -76t-69 -184v-4q0 -107 69 -183.5t172 -76.5q102 0 189 74q23 18 45 18q29 0 50 -21.5t21 -50.5q0 -33 -22 -51q-62 -54 -128 -81t-159 -27z" />
    <glyph glyph-name="ordfeminine" unicode="&#xaa;" horiz-adv-x="798" 
d="M326 825q-89 0 -150 49t-61 136v4q0 92 67 141t178 49q74 0 156 -22v10q0 60 -37 92.5t-106 32.5q-56 0 -119 -23q-18 -6 -31 -6q-26 0 -43.5 17.5t-17.5 42.5q0 43 39 57q87 35 190 35q134 0 199 -68q63 -60 63 -182v-295q0 -28 -21 -48t-50 -20q-27 0 -47.5 18.5
t-20.5 45.5v16q-72 -82 -188 -82zM158 578q-25 0 -42.5 17t-17.5 42t17.5 42t42.5 17h454q25 0 43.5 -17.5t18.5 -41.5t-18.5 -41.5t-43.5 -17.5h-454zM362 930q66 0 110 34.5t44 88.5v37q-64 22 -129 22q-61 0 -96 -24.5t-35 -67.5v-4q0 -39 29.5 -62.5t76.5 -23.5z" />
    <glyph glyph-name="guillemotleft" unicode="&#xab;" horiz-adv-x="1241" 
d="M1001 86q-55 0 -86 43l-264 340q-30 42 -30 72q0 33 30 71l258 334q34 49 92 49q42 0 71.5 -30t29.5 -72q0 -37 -29 -70l-215 -280l219 -287q27 -35 27 -68q-2 -43 -31 -72.5t-72 -29.5zM485 86q-55 0 -86 43l-264 340q-29 40 -29 72q0 34 29 71l258 334q39 49 94 49
q41 0 70 -30t29 -72q0 -35 -27 -70l-217 -280l221 -287q25 -31 25 -68q0 -43 -30 -72.5t-73 -29.5z" />
    <glyph glyph-name="registered" unicode="&#xae;" horiz-adv-x="782" 
d="M391 737q-150 0 -253 105t-103 252v2q0 147 104 252.5t252 105.5q150 0 253.5 -104.5t103.5 -251.5v-2q0 -147 -104.5 -253t-252.5 -106zM391 776q132 0 224 94t92 226v2q0 132 -91 224.5t-225 92.5q-132 0 -223.5 -93.5t-91.5 -225.5v-2q0 -132 90.5 -225t224.5 -93z
M244 954v287q0 20 13 33.5t32 13.5h129q68 0 108.5 -31.5t40.5 -91.5q0 -83 -73 -112l55 -68q12 -12 12 -33q0 -19 -12.5 -31t-32.5 -12q-18 0 -37 19l-86 106h-59v-80q0 -19 -13 -32t-32 -13t-32 13t-13 32zM334 1108h78q30 0 46.5 13.5t16.5 37.5q0 51 -63 51h-78v-102z
" />
    <glyph glyph-name="macron" unicode="&#xaf;" horiz-adv-x="1024" 
d="M784 1241h-544q-37 0 -63.5 26.5t-26.5 63.5t26.5 63.5t63.5 26.5h544q37 0 63.5 -26.5t26.5 -63.5t-26.5 -63.5t-63.5 -26.5z" />
    <glyph glyph-name="degree" unicode="&#xb0;" horiz-adv-x="964" 
d="M483 780q-136 0 -239 99.5t-103 232.5v4q0 133 103 231.5t239 98.5q134 0 237 -98.5t103 -231.5v-4q0 -133 -103 -232.5t-237 -99.5zM483 915q82 0 137.5 58.5t55.5 138.5v4q0 79 -55.5 137t-137.5 58q-83 0 -138.5 -57.5t-55.5 -137.5v-4q0 -80 55.5 -138.5t138.5 -58.5
z" />
    <glyph glyph-name="plusminus" unicode="&#xb1;" horiz-adv-x="1298" 
d="M537 487l2 277h-289q-44 0 -76.5 32t-32.5 76t32.5 76.5t76.5 32.5h289l-2 276q0 47 32.5 80t79.5 33t80 -33t33 -80l-2 -276h287q45 0 77.5 -32.5t32.5 -76.5t-32 -76t-78 -32h-287l2 -277q0 -47 -33 -79.5t-80 -32.5t-79.5 32.5t-32.5 79.5zM246 0q-43 0 -74 30.5
t-31 73.5q0 44 31 75.5t74 31.5h807q43 0 73.5 -31.5t30.5 -75.5q0 -43 -30.5 -73.5t-73.5 -30.5h-807z" />
    <glyph glyph-name="acute" unicode="&#xb4;" horiz-adv-x="1024" 
d="M424 1208q-27 0 -44.5 11.5t-17.5 31.5q0 19 17 45l117 181q37 59 98 59q50 0 98.5 -25.5t48.5 -54.5q0 -30 -34 -61l-138 -131q-35 -32 -67.5 -44t-77.5 -12z" />
    <glyph glyph-name="paragraph" unicode="&#xb6;" horiz-adv-x="1140" 
d="M709 115v385h-37q-170 0 -302 51.5t-210 158.5t-78 255v4q0 215 152.5 340t402.5 125h199q54 0 90.5 -36.5t36.5 -90.5v-1192q0 -53 -36.5 -89t-90.5 -36q-53 0 -90 36.5t-37 88.5z" />
    <glyph glyph-name="periodcentered" unicode="&#xb7;" horiz-adv-x="550" 
d="M131 637q0 60 41.5 100.5t103.5 40.5q60 0 102 -40.5t42 -100.5v-19q0 -61 -42 -102t-102 -41q-62 0 -103.5 41t-41.5 102v19z" />
    <glyph glyph-name="cedilla" unicode="&#xb8;" horiz-adv-x="1024" 
d="M639 20l-125 -288q-13 -31 -31 -45.5t-49 -14.5q-40 0 -91.5 30t-51.5 60q0 26 16 48l146 210h186z" />
    <glyph glyph-name="ordmasculine" unicode="&#xba;" horiz-adv-x="798" 
d="M397 823q-131 0 -219 89t-88 218v5q0 129 89.5 219t221.5 90t220 -89t88 -218v-4q0 -129 -90 -219.5t-222 -90.5zM154 578q-25 0 -42.5 17t-17.5 42t17.5 42t42.5 17h491q25 0 42.5 -17t17.5 -42t-17.5 -42t-42.5 -17h-491zM401 950q73 0 118.5 52t45.5 128v5
q0 75 -48 128.5t-120 53.5t-118 -52.5t-46 -127.5v-4q0 -75 48 -129t120 -54z" />
    <glyph glyph-name="guillemotright" unicode="&#xbb;" horiz-adv-x="1241" 
d="M756 995q54 0 86 -45l264 -338q31 -43 31 -73q0 -29 -31 -72l-258 -332q-39 -49 -94 -49q-41 0 -70 30t-29 72q0 35 27 70l217 279l-221 286q-25 36 -25 70q0 43 30 72.5t73 29.5zM240 995q54 0 86 -45l264 -338q31 -43 31 -73q0 -29 -31 -72l-258 -332q-34 -49 -92 -49
q-42 0 -71.5 30t-29.5 72q0 37 29 70l215 279l-219 286q-27 35 -27 70q2 43 31.5 72.5t71.5 29.5z" />
    <glyph glyph-name="questiondown" unicode="&#xbf;" horiz-adv-x="1107" 
d="M594 991h12q35 0 59 -23t29 -59l21 -176q6 -41 -16 -68.5t-64 -33.5q-297 -28 -297 -221v-4q0 -87 63 -141t170 -54q154 0 279 113q35 28 76 28q47 0 80.5 -33t33.5 -79q0 -53 -41 -88q-182 -170 -434 -170q-217 0 -348 112t-131 303v4q0 94 32 168t90 122.5t129.5 78.5
t160.5 45l10 94q5 35 28.5 58.5t57.5 23.5zM752 1284q0 -62 -41.5 -102.5t-104.5 -40.5t-104 40.5t-41 102.5v19q0 60 41 100.5t104 40.5t104.5 -40.5t41.5 -100.5v-19z" />
    <glyph glyph-name="Agrave" unicode="&#xc0;" horiz-adv-x="1583" 
d="M86 106q0 26 16 58l533 1188q47 102 151 102h13q102 0 149 -102l533 -1188q14 -25 14 -53q0 -51 -34 -86t-85 -35q-85 0 -123 88l-116 268h-697l-121 -276q-15 -38 -45.5 -59t-70.5 -21q-50 0 -83.5 33.5t-33.5 82.5zM537 569h503l-252 580zM797 1563q-46 0 -78 11.5
t-66 43.5l-139 131q-35 31 -35 61q0 29 48.5 54.5t99.5 25.5q61 0 98 -59l117 -180q18 -27 18 -45q0 -20 -17.5 -31.5t-45.5 -11.5z" />
    <glyph glyph-name="Aacute" unicode="&#xc1;" horiz-adv-x="1583" 
d="M86 106q0 26 16 58l533 1188q47 102 151 102h13q102 0 149 -102l533 -1188q14 -25 14 -53q0 -51 -34 -86t-85 -35q-85 0 -123 88l-116 268h-697l-121 -276q-15 -38 -45.5 -59t-70.5 -21q-50 0 -83.5 33.5t-33.5 82.5zM537 569h503l-252 580zM782 1563q-27 0 -44 11.5
t-17 31.5q0 21 16 45l117 180q37 59 98 59q51 0 99.5 -25.5t48.5 -54.5q0 -30 -35 -61l-137 -131q-35 -32 -67.5 -43.5t-78.5 -11.5z" />
    <glyph glyph-name="Acircumflex" unicode="&#xc2;" horiz-adv-x="1583" 
d="M86 106q0 26 16 58l533 1188q47 102 151 102h13q102 0 149 -102l533 -1188q14 -25 14 -53q0 -51 -34 -86t-85 -35q-85 0 -123 88l-116 268h-697l-121 -276q-15 -38 -45.5 -59t-70.5 -21q-50 0 -83.5 33.5t-33.5 82.5zM537 569h503l-252 580zM786 1710l-106 -92
q-38 -32 -72 -43.5t-80 -11.5q-24 0 -39.5 10.5t-15.5 30.5q0 16 25 49l135 170q49 59 119 59h73q73 0 119 -59l135 -170q25 -33 25 -49q0 -19 -17 -30t-43 -11q-45 0 -78.5 11.5t-72.5 43.5z" />
    <glyph glyph-name="Atilde" unicode="&#xc3;" horiz-adv-x="1583" 
d="M86 106q0 26 16 58l533 1188q47 102 151 102h13q102 0 149 -102l533 -1188q14 -25 14 -53q0 -51 -34 -86t-85 -35q-85 0 -123 88l-116 268h-697l-121 -276q-15 -38 -45.5 -59t-70.5 -21q-50 0 -83.5 33.5t-33.5 82.5zM537 569h503l-252 580zM567 1589q-25 -41 -67 -41
q-30 0 -53 20.5t-23 47.5q0 19 8 47q34 94 82.5 140t126.5 46q61 0 162 -41t133 -41q34 0 54 15t40 51q25 41 68 41q30 0 53 -20.5t23 -47.5q0 -16 -9 -47q-34 -94 -82.5 -140t-126.5 -46q-61 0 -161.5 41t-132.5 41q-34 0 -54.5 -15.5t-40.5 -50.5z" />
    <glyph glyph-name="Adieresis" unicode="&#xc4;" horiz-adv-x="1583" 
d="M86 106q0 26 16 58l533 1188q47 102 151 102h13q102 0 149 -102l533 -1188q14 -25 14 -53q0 -51 -34 -86t-85 -35q-85 0 -123 88l-116 268h-697l-121 -276q-15 -38 -45.5 -59t-70.5 -21q-50 0 -83.5 33.5t-33.5 82.5zM537 569h503l-252 580zM993 1829q56 0 94.5 -36
t38.5 -91v-14q0 -55 -38.5 -90t-94.5 -35q-58 0 -96.5 35t-38.5 90v14q0 55 39 91t96 36zM586 1829q56 0 94.5 -36t38.5 -91v-14q0 -55 -38.5 -90t-94.5 -35q-58 0 -96.5 35t-38.5 90v14q0 55 39 91t96 36z" />
    <glyph glyph-name="Aring" unicode="&#xc5;" horiz-adv-x="1617" 
d="M944 1401l555 -1239q14 -25 14 -51q0 -50 -34.5 -85.5t-85.5 -35.5q-81 0 -123 88l-117 268h-696l-119 -276q-38 -80 -117 -80q-50 0 -84.5 34t-34.5 82q0 14 15 54l557 1241q-45 30 -72 77t-27 101v4q0 90 70.5 156.5t163.5 66.5t163 -66.5t70 -156.5v-4
q0 -53 -26.5 -100.5t-71.5 -77.5zM809 1454q52 0 89.5 37t37.5 88v4q0 51 -37.5 88t-89.5 37t-89.5 -37t-37.5 -88v-4q0 -51 37.5 -88t89.5 -37zM553 569h504l-252 580z" />
    <glyph glyph-name="AE" unicode="&#xc6;" horiz-adv-x="2140" 
d="M70 92q0 42 20 72l690 1182q50 88 148 88h985q46 0 79 -33.5t33 -79.5q0 -47 -33 -80t-79 -33h-664v-372h572q46 0 79 -34t33 -81q0 -46 -33 -78.5t-79 -32.5h-572v-385h674q46 0 79.5 -33t33.5 -79q0 -47 -33.5 -80t-79.5 -33h-799q-54 0 -90.5 36.5t-36.5 90.5v219
h-540l-166 -289q-41 -69 -111 -69q-46 0 -78 30t-32 74zM586 569h411v645h-41z" />
    <glyph glyph-name="Ccedilla" unicode="&#xc7;" horiz-adv-x="1511" 
d="M1370 168q-101 -90 -214 -137.5t-263 -53.5l-105 -245q-13 -31 -30.5 -45.5t-48.5 -14.5q-40 0 -92 30t-52 60q0 24 17 48l123 180q-169 31 -302 133.5t-207.5 256.5t-74.5 333v4q0 152 55 288t151 236t235 158.5t298 58.5q156 0 273 -42t219 -120q49 -36 49 -100
q0 -52 -36 -87.5t-89 -35.5q-43 0 -76 25q-158 129 -342 129q-202 0 -337.5 -146.5t-135.5 -359.5v-4q0 -213 135 -360.5t338 -147.5q109 0 193 33.5t166 103.5q33 29 75 29q47 0 83 -35t36 -82q0 -54 -41 -90z" />
    <glyph glyph-name="Egrave" unicode="&#xc8;" horiz-adv-x="1372" 
d="M311 0q-54 0 -90.5 36.5t-36.5 90.5v1180q0 54 36.5 90.5t90.5 36.5h834q46 0 79 -33.5t33 -79.5q0 -47 -33 -80t-79 -33h-709v-372h617q46 0 79 -34t33 -81q0 -46 -33 -78.5t-79 -32.5h-617v-385h719q46 0 79.5 -33t33.5 -79q0 -47 -33.5 -80t-79.5 -33h-844zM725 1542
q-45 0 -77 11.5t-66 43.5l-140 132q-34 31 -34 61q0 29 48.5 54.5t98.5 25.5q61 0 98 -60l117 -180q18 -27 18 -45q0 -20 -17.5 -31.5t-45.5 -11.5z" />
    <glyph glyph-name="Eacute" unicode="&#xc9;" horiz-adv-x="1372" 
d="M713 1542q-27 0 -44.5 11.5t-17.5 31.5q0 19 17 45l116 180q37 60 99 60q50 0 98.5 -25.5t48.5 -54.5q0 -30 -35 -61l-137 -132q-35 -32 -67.5 -43.5t-77.5 -11.5zM311 0q-54 0 -90.5 36.5t-36.5 90.5v1180q0 54 36.5 90.5t90.5 36.5h834q46 0 79 -33.5t33 -79.5
q0 -47 -33 -80t-79 -33h-709v-372h617q46 0 79 -34t33 -81q0 -46 -33 -78.5t-79 -32.5h-617v-385h719q46 0 79.5 -33t33.5 -79q0 -47 -33.5 -80t-79.5 -33h-844z" />
    <glyph glyph-name="Ecircumflex" unicode="&#xca;" horiz-adv-x="1372" 
d="M717 1690l-107 -93q-38 -32 -71.5 -43.5t-79.5 -11.5q-24 0 -40 10.5t-16 30.5q0 16 25 49l135 170q26 30 52.5 45t66.5 15h74q71 0 118 -60l136 -170q24 -32 24 -49q0 -20 -16.5 -30.5t-42.5 -10.5q-45 0 -79 11.5t-73 43.5zM311 0q-54 0 -90.5 36.5t-36.5 90.5v1180
q0 54 36.5 90.5t90.5 36.5h834q46 0 79 -33.5t33 -79.5q0 -47 -33 -80t-79 -33h-709v-372h617q46 0 79 -34t33 -81q0 -46 -33 -78.5t-79 -32.5h-617v-385h719q46 0 79.5 -33t33.5 -79q0 -47 -33.5 -80t-79.5 -33h-844z" />
    <glyph glyph-name="Edieresis" unicode="&#xcb;" horiz-adv-x="1372" 
d="M924 1808q56 0 94.5 -36t38.5 -91v-14q0 -55 -38.5 -90t-94.5 -35q-58 0 -97 35t-39 90v14q0 55 39 91t97 36zM516 1808q56 0 94.5 -36t38.5 -91v-14q0 -55 -38.5 -90t-94.5 -35q-58 0 -96.5 35t-38.5 90v14q0 55 39 91t96 36zM311 0q-54 0 -90.5 36.5t-36.5 90.5v1180
q0 54 36.5 90.5t90.5 36.5h834q46 0 79 -33.5t33 -79.5q0 -47 -33 -80t-79 -33h-709v-372h617q46 0 79 -34t33 -81q0 -46 -33 -78.5t-79 -32.5h-617v-385h719q46 0 79.5 -33t33.5 -79q0 -47 -33.5 -80t-79.5 -33h-844z" />
    <glyph glyph-name="Igrave" unicode="&#xcc;" horiz-adv-x="649" 
d="M199 115v1204q0 53 36.5 89t90.5 36q52 0 88.5 -36t36.5 -89v-1204q0 -53 -36.5 -89t-88.5 -36q-54 0 -90.5 36t-36.5 89zM332 1542q-46 0 -78 11.5t-66 43.5l-139 132q-35 31 -35 61q0 29 48.5 54.5t99.5 25.5q61 0 98 -60l117 -180q18 -27 18 -45q0 -20 -17.5 -31.5
t-45.5 -11.5z" />
    <glyph glyph-name="Iacute" unicode="&#xcd;" horiz-adv-x="649" 
d="M199 115v1204q0 53 36.5 89t90.5 36q52 0 88.5 -36t36.5 -89v-1204q0 -53 -36.5 -89t-88.5 -36q-54 0 -90.5 36t-36.5 89zM319 1542q-27 0 -44 11.5t-17 31.5q0 21 16 45l117 180q37 60 98 60q51 0 99.5 -25.5t48.5 -54.5q0 -30 -35 -61l-137 -132q-35 -32 -67.5 -43.5
t-78.5 -11.5z" />
    <glyph glyph-name="Icircumflex" unicode="&#xce;" horiz-adv-x="649" 
d="M199 115v1204q0 53 36.5 89t90.5 36q52 0 88.5 -36t36.5 -89v-1204q0 -53 -36.5 -89t-88.5 -36q-54 0 -90.5 36t-36.5 89zM324 1690l-107 -93q-38 -32 -71.5 -43.5t-79.5 -11.5q-24 0 -40 10.5t-16 30.5q0 16 25 49l135 170q26 30 52.5 45t66.5 15h73q72 0 119 -60
l135 -170q25 -33 25 -49q0 -20 -16.5 -30.5t-42.5 -10.5q-45 0 -79 11.5t-73 43.5z" />
    <glyph glyph-name="Idieresis" unicode="&#xcf;" horiz-adv-x="649" 
d="M199 115v1204q0 53 36.5 89t90.5 36q52 0 88.5 -36t36.5 -89v-1204q0 -53 -36.5 -89t-88.5 -36q-54 0 -90.5 36t-36.5 89zM530 1808q56 0 95 -36t39 -91v-14q0 -55 -39 -90t-95 -35q-58 0 -96.5 35t-38.5 90v14q0 55 39 91t96 36zM123 1808q56 0 94.5 -36t38.5 -91v-14
q0 -55 -38.5 -90t-94.5 -35q-58 0 -96.5 35t-38.5 90v14q0 55 39 91t96 36z" />
    <glyph glyph-name="Eth" unicode="&#xd0;" horiz-adv-x="1662" 
d="M193 834h53v473q0 54 36.5 90.5t90.5 36.5h407q166 0 309 -55t242 -150t155 -226.5t56 -281.5v-4q0 -150 -56 -282t-155 -228t-242 -151.5t-309 -55.5h-407q-54 0 -90.5 36.5t-36.5 90.5v481h-53q-46 0 -78.5 33.5t-32.5 79.5q0 47 32.5 80t78.5 33zM496 1204v-370h260
q46 0 78 -33t32 -80q0 -46 -32.5 -79.5t-77.5 -33.5h-260v-379h284q224 0 361 135.5t137 348.5v4q0 213 -137.5 350t-360.5 137h-284z" />
    <glyph glyph-name="Ntilde" unicode="&#xd1;" horiz-adv-x="1617" 
d="M184 113v1202q0 53 36.5 90t90.5 37h27q42 0 71.5 -18.5t59.5 -55.5l717 -928v881q0 51 36 87t87 36q52 0 88.5 -36t36.5 -87v-1204q0 -53 -35.5 -89t-87.5 -36h-11q-72 0 -131 76l-737 954v-909q0 -51 -36 -87t-87 -36q-52 0 -88.5 36t-36.5 87zM586 1569
q-25 -41 -68 -41q-31 0 -53.5 20.5t-22.5 46.5q0 15 9 47q34 95 82 141t126 46q61 0 162 -41t133 -41q34 0 54.5 15t40.5 50q25 41 67 41q31 0 53.5 -20.5t22.5 -46.5q0 -19 -8 -47q-34 -94 -82.5 -140.5t-126.5 -46.5q-61 0 -162 41t-133 41q-34 0 -54 -15t-40 -50z" />
    <glyph glyph-name="Ograve" unicode="&#xd2;" horiz-adv-x="1740" 
d="M868 -25q-215 0 -387 100.5t-266 268.5t-94 369v4q0 150 56 285.5t154 236t239 160t302 59.5t301.5 -58.5t238 -158.5t153 -235t55.5 -285v-4q0 -150 -56 -286t-154 -236.5t-239.5 -160t-302.5 -59.5zM872 209q139 0 250.5 67.5t172.5 182.5t61 254v4q0 139 -62 255.5
t-174.5 185.5t-251.5 69t-250.5 -68t-172 -183.5t-60.5 -254.5v-4q0 -139 61.5 -255t174 -184.5t251.5 -68.5zM877 1563q-46 0 -78 11.5t-66 43.5l-139 131q-35 31 -35 61q0 29 48.5 54.5t99.5 25.5q61 0 98 -59l117 -180q18 -27 18 -45q0 -20 -17.5 -31.5t-45.5 -11.5z" />
    <glyph glyph-name="Oacute" unicode="&#xd3;" horiz-adv-x="1740" 
d="M862 1563q-27 0 -44 11.5t-17 31.5q0 21 16 45l117 180q37 59 98 59q51 0 99.5 -25.5t48.5 -54.5q0 -30 -35 -61l-137 -131q-35 -32 -67.5 -43.5t-78.5 -11.5zM868 -25q-215 0 -387 100.5t-266 268.5t-94 369v4q0 150 56 285.5t154 236t239 160t302 59.5t301.5 -58.5
t238 -158.5t153 -235t55.5 -285v-4q0 -150 -56 -286t-154 -236.5t-239.5 -160t-302.5 -59.5zM872 209q139 0 250.5 67.5t172.5 182.5t61 254v4q0 139 -62 255.5t-174.5 185.5t-251.5 69t-250.5 -68t-172 -183.5t-60.5 -254.5v-4q0 -139 61.5 -255t174 -184.5t251.5 -68.5z
" />
    <glyph glyph-name="Ocircumflex" unicode="&#xd4;" horiz-adv-x="1740" 
d="M868 1710l-106 -92q-38 -32 -72 -43.5t-80 -11.5q-24 0 -39.5 10.5t-15.5 30.5q0 16 25 49l135 170q49 59 119 59h73q73 0 119 -59l135 -170q25 -33 25 -49q0 -19 -17 -30t-43 -11q-45 0 -78.5 11.5t-72.5 43.5zM868 -25q-215 0 -387 100.5t-266 268.5t-94 369v4
q0 150 56 285.5t154 236t239 160t302 59.5t301.5 -58.5t238 -158.5t153 -235t55.5 -285v-4q0 -150 -56 -286t-154 -236.5t-239.5 -160t-302.5 -59.5zM872 209q139 0 250.5 67.5t172.5 182.5t61 254v4q0 139 -62 255.5t-174.5 185.5t-251.5 69t-250.5 -68t-172 -183.5
t-60.5 -254.5v-4q0 -139 61.5 -255t174 -184.5t251.5 -68.5z" />
    <glyph glyph-name="Otilde" unicode="&#xd5;" horiz-adv-x="1740" 
d="M868 -25q-215 0 -387 100.5t-266 268.5t-94 369v4q0 150 56 285.5t154 236t239 160t302 59.5t301.5 -58.5t238 -158.5t153 -235t55.5 -285v-4q0 -150 -56 -286t-154 -236.5t-239.5 -160t-302.5 -59.5zM872 209q139 0 250.5 67.5t172.5 182.5t61 254v4q0 139 -62 255.5
t-174.5 185.5t-251.5 69t-250.5 -68t-172 -183.5t-60.5 -254.5v-4q0 -139 61.5 -255t174 -184.5t251.5 -68.5zM647 1589q-25 -41 -67 -41q-30 0 -53 20.5t-23 47.5q0 19 8 47q34 94 82.5 140t126.5 46q61 0 162 -41t133 -41q34 0 54 15t40 51q25 41 68 41q30 0 52.5 -20.5
t22.5 -47.5q0 -19 -8 -47q-34 -94 -82.5 -140t-126.5 -46q-61 0 -162 41t-133 41q-34 0 -54 -15t-40 -51z" />
    <glyph glyph-name="Odieresis" unicode="&#xd6;" horiz-adv-x="1740" 
d="M1075 1829q56 0 94.5 -36t38.5 -91v-14q0 -55 -38.5 -90t-94.5 -35q-58 0 -96.5 35t-38.5 90v14q0 55 39 91t96 36zM668 1829q56 0 94.5 -36t38.5 -91v-14q0 -55 -38.5 -90t-94.5 -35q-58 0 -97 35t-39 90v14q0 55 39 91t97 36zM868 -25q-215 0 -387 100.5t-266 268.5
t-94 369v4q0 150 56 285.5t154 236t239 160t302 59.5t301.5 -58.5t238 -158.5t153 -235t55.5 -285v-4q0 -150 -56 -286t-154 -236.5t-239.5 -160t-302.5 -59.5zM872 209q139 0 250.5 67.5t172.5 182.5t61 254v4q0 139 -62 255.5t-174.5 185.5t-251.5 69t-250.5 -68
t-172 -183.5t-60.5 -254.5v-4q0 -139 61.5 -255t174 -184.5t251.5 -68.5z" />
    <glyph glyph-name="multiply" unicode="&#xd7;" horiz-adv-x="1298" 
d="M1065 985l-266 -262l268 -262q35 -35 35 -82q0 -46 -32.5 -78.5t-78.5 -32.5q-45 0 -82 33l-262 270l-264 -268q-30 -35 -80 -35q-44 0 -75 31.5t-31 75.5q0 51 36 82l267 262l-271 262q-32 36 -32 82t32 78.5t78 32.5q47 0 82 -35l262 -269l264 269q30 35 78 35
q46 0 77.5 -31.5t31.5 -77.5q0 -48 -37 -80z" />
    <glyph glyph-name="Oslash" unicode="&#xd8;" horiz-adv-x="1740" 
d="M868 -25q-252 0 -446 138l-98 -99q-31 -34 -78 -34q-38 0 -63 23.5t-25 57.5q0 41 35 76l96 101q-168 204 -168 475v4q0 150 56 285.5t154 236t239 160t302 59.5q256 0 447 -139l98 100q35 35 78 35q38 0 63 -23.5t25 -56.5q0 -43 -35 -78l-96 -100q168 -204 168 -475v-4
q0 -150 -56 -286t-154 -236.5t-239.5 -160t-302.5 -59.5zM381 717q0 -162 86 -293l684 715q-126 92 -283 92q-105 0 -196 -40.5t-154.5 -109t-100 -162.5t-36.5 -198v-4zM872 203q139 0 251.5 68.5t174.5 185t62 256.5v4q0 157 -86 293l-686 -717q126 -90 284 -90z" />
    <glyph glyph-name="Ugrave" unicode="&#xd9;" horiz-adv-x="1550" 
d="M772 -23q-285 0 -447.5 162t-162.5 469v711q0 53 36.5 89t90.5 36q53 0 89 -36t36 -89v-701q0 -197 95.5 -302t266.5 -105q170 0 265.5 101t95.5 296v711q0 53 36.5 89t90.5 36q52 0 88.5 -36t36.5 -89v-698q0 -314 -164.5 -479t-452.5 -165zM780 1542q-46 0 -77.5 11.5
t-65.5 43.5l-139 132q-35 31 -35 61q0 29 48.5 54.5t98.5 25.5q62 0 99 -60l116 -180q19 -29 19 -45q0 -20 -18 -31.5t-46 -11.5z" />
    <glyph glyph-name="Uacute" unicode="&#xda;" horiz-adv-x="1550" 
d="M768 1542q-27 0 -44 11.5t-17 31.5q0 21 16 45l117 180q37 60 98 60q50 0 98.5 -25.5t48.5 -54.5q0 -30 -34 -61l-138 -132q-35 -32 -67.5 -43.5t-77.5 -11.5zM772 -23q-285 0 -447.5 162t-162.5 469v711q0 53 36.5 89t90.5 36q53 0 89 -36t36 -89v-701q0 -197 95.5 -302
t266.5 -105q170 0 265.5 101t95.5 296v711q0 53 36.5 89t90.5 36q52 0 88.5 -36t36.5 -89v-698q0 -314 -164.5 -479t-452.5 -165z" />
    <glyph glyph-name="Ucircumflex" unicode="&#xdb;" horiz-adv-x="1550" 
d="M772 1690l-106 -93q-38 -32 -72 -43.5t-80 -11.5q-24 0 -39.5 10.5t-15.5 30.5q0 17 24 49l135 170q26 30 52.5 45t66.5 15h74q72 0 119 -60l135 -170q25 -33 25 -49q0 -19 -17 -30t-43 -11q-45 0 -78.5 11.5t-72.5 43.5zM772 -23q-285 0 -447.5 162t-162.5 469v711
q0 53 36.5 89t90.5 36q53 0 89 -36t36 -89v-701q0 -197 95.5 -302t266.5 -105q170 0 265.5 101t95.5 296v711q0 53 36.5 89t90.5 36q52 0 88.5 -36t36.5 -89v-698q0 -314 -164.5 -479t-452.5 -165z" />
    <glyph glyph-name="Udieresis" unicode="&#xdc;" horiz-adv-x="1550" 
d="M979 1808q56 0 94.5 -36t38.5 -91v-14q0 -55 -38.5 -90t-94.5 -35q-58 0 -96.5 35t-38.5 90v14q0 55 39 91t96 36zM571 1808q56 0 95 -36t39 -91v-14q0 -55 -39 -90t-95 -35q-58 0 -96.5 35t-38.5 90v14q0 55 39 91t96 36zM772 -23q-285 0 -447.5 162t-162.5 469v711
q0 53 36.5 89t90.5 36q53 0 89 -36t36 -89v-701q0 -197 95.5 -302t266.5 -105q170 0 265.5 101t95.5 296v711q0 53 36.5 89t90.5 36q52 0 88.5 -36t36.5 -89v-698q0 -314 -164.5 -479t-452.5 -165z" />
    <glyph glyph-name="Yacute" unicode="&#xdd;" horiz-adv-x="1425" 
d="M588 115v442l-494 678q-28 44 -28 88q0 51 36.5 86t90.5 35q70 0 122 -76l400 -575l405 577q52 76 121 76q54 0 88.5 -35.5t34.5 -87.5q0 -41 -35 -90l-489 -670v-448q0 -53 -36.5 -89t-90.5 -36q-53 0 -89 36t-36 89zM707 1542q-27 0 -44.5 11.5t-17.5 31.5q0 19 17 45
l116 180q37 60 99 60q50 0 98.5 -25.5t48.5 -54.5q0 -30 -35 -61l-137 -132q-35 -32 -67.5 -43.5t-77.5 -11.5z" />
    <glyph glyph-name="Thorn" unicode="&#xde;" horiz-adv-x="1378" 
d="M184 115v1204q0 53 36.5 89t90.5 36q53 0 89 -36t36 -89v-109h314q251 0 397.5 -130.5t146.5 -348.5v-4q0 -157 -78.5 -269.5t-206 -166t-288.5 -53.5h-285v-123q0 -53 -36 -89t-89 -36q-54 0 -90.5 36t-36.5 89zM436 463h293q141 0 225 72t84 186v4q0 124 -82.5 190
t-226.5 66h-293v-518z" />
    <glyph glyph-name="germandbls" unicode="&#xdf;" horiz-adv-x="1269" 
d="M596 96q0 37 24 63.5t64 35.5q238 38 238 213v4q0 157 -236 217q-90 27 -90 108q0 69 53 103q189 105 189 258v4q0 89 -56.5 142.5t-150.5 53.5q-102 0 -166 -71.5t-64 -190.5v-925q0 -51 -36 -86t-89 -35q-51 0 -85.5 35t-34.5 86v917q0 222 131 351.5t356 129.5
q204 0 323 -109.5t119 -275.5v-4q0 -87 -33.5 -157.5t-80.5 -113t-113 -79.5q64 -21 117 -51.5t98 -73.5t70.5 -104.5t25.5 -134.5v-5q0 -96 -39 -174.5t-104.5 -128t-147 -76t-169.5 -28.5q-52 0 -82.5 28.5t-30.5 73.5z" />
    <glyph glyph-name="agrave" unicode="&#xe0;" horiz-adv-x="1202" 
d="M467 -23q-104 0 -189.5 37.5t-139.5 114.5t-54 182v4q0 170 121 259.5t325 89.5q148 0 291 -46v27q0 115 -68.5 175.5t-199.5 60.5q-132 0 -240 -43q-24 -7 -39 -7q-43 0 -73.5 30t-30.5 73q0 33 19.5 60t48.5 38q167 64 348 64q240 0 358 -121q117 -114 117 -334v-532
q0 -51 -35 -85t-86 -34q-53 0 -87 31t-34 73v41q-133 -158 -352 -158zM537 158q124 0 206 64.5t82 166.5v74q-108 43 -245 43q-120 0 -187 -47.5t-67 -132.5v-4q0 -76 59.5 -120t151.5 -44zM608 1208q-45 0 -77 12t-66 44l-139 131q-35 31 -35 61q0 29 48.5 54.5t98.5 25.5
q62 0 99 -59l116 -181q19 -28 19 -45q0 -20 -18 -31.5t-46 -11.5z" />
    <glyph glyph-name="aacute" unicode="&#xe1;" horiz-adv-x="1202" 
d="M467 -23q-104 0 -189.5 37.5t-139.5 114.5t-54 182v4q0 170 121 259.5t325 89.5q148 0 291 -46v27q0 115 -68.5 175.5t-199.5 60.5q-132 0 -240 -43q-24 -7 -39 -7q-43 0 -73.5 30t-30.5 73q0 33 19.5 60t48.5 38q167 64 348 64q240 0 358 -121q117 -114 117 -334v-532
q0 -51 -35 -85t-86 -34q-53 0 -87 31t-34 73v41q-133 -158 -352 -158zM537 158q124 0 206 64.5t82 166.5v74q-108 43 -245 43q-120 0 -187 -47.5t-67 -132.5v-4q0 -76 59.5 -120t151.5 -44zM596 1208q-27 0 -44 11.5t-17 31.5q0 21 16 45l117 181q37 59 98 59
q50 0 98.5 -25.5t48.5 -54.5q0 -30 -34 -61l-138 -131q-35 -32 -67.5 -44t-77.5 -12z" />
    <glyph glyph-name="acircumflex" unicode="&#xe2;" horiz-adv-x="1202" 
d="M467 -23q-104 0 -189.5 37.5t-139.5 114.5t-54 182v4q0 170 121 259.5t325 89.5q148 0 291 -46v27q0 115 -68.5 175.5t-199.5 60.5q-132 0 -240 -43q-24 -7 -39 -7q-43 0 -73.5 30t-30.5 73q0 33 19.5 60t48.5 38q167 64 348 64q240 0 358 -121q117 -114 117 -334v-532
q0 -51 -35 -85t-86 -34q-53 0 -87 31t-34 73v41q-133 -158 -352 -158zM537 158q124 0 206 64.5t82 166.5v74q-108 43 -245 43q-120 0 -187 -47.5t-67 -132.5v-4q0 -76 59.5 -120t151.5 -44zM600 1356l-106 -92q-38 -32 -72.5 -44t-79.5 -12q-24 0 -39.5 10.5t-15.5 30.5
q0 17 24 49l135 170q26 30 52.5 45t66.5 15h74q72 0 119 -60l135 -170q25 -33 25 -49q0 -19 -17 -30t-43 -11q-45 0 -78 11.5t-73 44.5z" />
    <glyph glyph-name="atilde" unicode="&#xe3;" horiz-adv-x="1202" 
d="M467 -23q-104 0 -189.5 37.5t-139.5 114.5t-54 182v4q0 170 121 259.5t325 89.5q148 0 291 -46v27q0 115 -68.5 175.5t-199.5 60.5q-132 0 -240 -43q-24 -7 -39 -7q-43 0 -73.5 30t-30.5 73q0 33 19.5 60t48.5 38q167 64 348 64q240 0 358 -121q117 -114 117 -334v-532
q0 -51 -35 -85t-86 -34q-53 0 -87 31t-34 73v41q-133 -158 -352 -158zM381 1235q-25 -41 -68 -41q-30 0 -52.5 20.5t-22.5 47.5q0 19 8 47q34 94 82.5 140t126.5 46q61 0 162 -41t133 -41q34 0 54 15t40 51q25 41 67 41q30 0 53 -20.5t23 -47.5q0 -19 -8 -47
q-34 -94 -82.5 -140t-126.5 -46q-61 0 -162 40.5t-133 40.5q-34 0 -54 -15t-40 -50zM537 158q124 0 206 64.5t82 166.5v74q-108 43 -245 43q-120 0 -187 -47.5t-67 -132.5v-4q0 -76 59.5 -120t151.5 -44z" />
    <glyph glyph-name="adieresis" unicode="&#xe4;" horiz-adv-x="1202" 
d="M467 -23q-104 0 -189.5 37.5t-139.5 114.5t-54 182v4q0 170 121 259.5t325 89.5q148 0 291 -46v27q0 115 -68.5 175.5t-199.5 60.5q-132 0 -240 -43q-24 -7 -39 -7q-43 0 -73.5 30t-30.5 73q0 33 19.5 60t48.5 38q167 64 348 64q240 0 358 -121q117 -114 117 -334v-532
q0 -51 -35 -85t-86 -34q-53 0 -87 31t-34 73v41q-133 -158 -352 -158zM537 158q124 0 206 64.5t82 166.5v74q-108 43 -245 43q-120 0 -187 -47.5t-67 -132.5v-4q0 -76 59.5 -120t151.5 -44zM807 1475q56 0 94.5 -36t38.5 -91v-15q0 -55 -38.5 -90t-94.5 -35q-58 0 -96.5 35
t-38.5 90v15q0 55 39 91t96 36zM399 1475q56 0 94.5 -36t38.5 -91v-15q0 -55 -38.5 -90t-94.5 -35q-58 0 -96.5 35t-38.5 90v15q0 55 39 91t96 36z" />
    <glyph glyph-name="aring" unicode="&#xe5;" horiz-adv-x="1202" 
d="M467 -23q-104 0 -189.5 37.5t-139.5 114.5t-54 182v4q0 170 121 259.5t325 89.5q148 0 291 -46v27q0 115 -68.5 175.5t-199.5 60.5q-132 0 -240 -43q-24 -7 -39 -7q-43 0 -73.5 30t-30.5 73q0 33 19.5 60t48.5 38q167 64 348 64q240 0 358 -121q117 -114 117 -334v-532
q0 -51 -35 -85t-86 -34q-53 0 -87 31t-34 73v41q-133 -158 -352 -158zM602 1214q-93 0 -163 67t-70 157v4q0 91 70 157t163 66t163.5 -66t70.5 -157v-4q0 -90 -70.5 -157t-163.5 -67zM537 158q124 0 206 64.5t82 166.5v74q-108 43 -245 43q-120 0 -187 -47.5t-67 -132.5v-4
q0 -76 59.5 -120t151.5 -44zM602 1313q52 0 89.5 37t37.5 88v4q0 51 -37.5 88t-89.5 37t-89.5 -37t-37.5 -88v-4q0 -51 37.5 -88t89.5 -37z" />
    <glyph glyph-name="ae" unicode="&#xe6;" horiz-adv-x="1949" 
d="M1053 616h557q-13 126 -84.5 205.5t-190.5 79.5q-112 0 -188 -78.5t-94 -206.5zM532 160q174 0 322 139q-33 84 -41 166q-112 41 -238 41q-118 0 -183.5 -47.5t-65.5 -132.5v-4q0 -73 59 -117.5t147 -44.5zM1751 119q-160 -144 -389 -144q-125 0 -234.5 49t-183.5 136
q-221 -183 -452 -183q-175 0 -291.5 89.5t-116.5 244.5v4q0 170 120 259.5t322 89.5q144 0 287 -46v27q0 115 -67.5 175.5t-196.5 60.5q-125 0 -236 -43q-24 -7 -39 -7q-43 0 -73.5 30t-30.5 73q0 33 19.5 60t48.5 38q159 64 344 64q280 0 381 -176q66 87 163.5 135.5
t214.5 48.5q98 0 182 -31.5t143 -84t101 -121.5t62 -144.5t20 -151.5q0 -52 -33 -85t-83 -33h-676q20 -130 104 -202.5t205 -72.5q143 0 258 94q26 23 62 23q43 0 71.5 -28.5t28.5 -71.5q0 -45 -35 -76z" />
    <glyph glyph-name="ccedilla" unicode="&#xe7;" horiz-adv-x="1169" 
d="M1049 129q-148 -142 -349 -152l-106 -245q-13 -31 -31 -45.5t-49 -14.5q-40 0 -91.5 30t-51.5 60q0 26 16 48l125 184q-184 44 -300 195t-116 346v4q0 153 72 282t202 206t289 77q224 0 379 -135q39 -34 39 -86q0 -47 -33.5 -80t-80.5 -33q-41 0 -74 25q-109 92 -232 92
q-133 0 -223 -100.5t-90 -243.5v-4q0 -147 91.5 -246.5t232.5 -99.5q126 0 241 96q30 26 68 26q44 0 75 -32t31 -76q0 -51 -34 -78z" />
    <glyph glyph-name="egrave" unicode="&#xe8;" horiz-adv-x="1236" 
d="M342 616h555q-13 126 -84.5 205.5t-189.5 79.5q-112 0 -187.5 -78.5t-93.5 -206.5zM1040 119q-160 -144 -389 -144q-156 0 -282 70t-199.5 199t-73.5 293v4q0 154 67 282.5t189 204.5t273 76q100 0 185.5 -31.5t144.5 -84t101.5 -121.5t62.5 -144.5t20 -151.5
q0 -51 -34.5 -84.5t-82.5 -33.5h-678q20 -130 104.5 -202.5t206.5 -72.5q141 0 256 94q30 23 64 23q41 0 69.5 -28.5t28.5 -71.5t-33 -76zM627 1208q-45 0 -77.5 12t-66.5 44l-139 131q-35 31 -35 61q0 29 48.5 54.5t99.5 25.5q61 0 98 -59l117 -181q18 -27 18 -45
q0 -20 -17.5 -31.5t-45.5 -11.5z" />
    <glyph glyph-name="eacute" unicode="&#xe9;" horiz-adv-x="1236" 
d="M614 1208q-27 0 -44 11.5t-17 31.5q0 21 16 45l117 181q37 59 98 59q51 0 99.5 -25.5t48.5 -54.5q0 -30 -35 -61l-137 -131q-35 -32 -68 -44t-78 -12zM342 616h555q-13 126 -84.5 205.5t-189.5 79.5q-112 0 -187.5 -78.5t-93.5 -206.5zM1040 119q-160 -144 -389 -144
q-156 0 -282 70t-199.5 199t-73.5 293v4q0 154 67 282.5t189 204.5t273 76q100 0 185.5 -31.5t144.5 -84t101.5 -121.5t62.5 -144.5t20 -151.5q0 -51 -34.5 -84.5t-82.5 -33.5h-678q20 -130 104.5 -202.5t206.5 -72.5q141 0 256 94q30 23 64 23q41 0 69.5 -28.5t28.5 -71.5
t-33 -76z" />
    <glyph glyph-name="ecircumflex" unicode="&#xea;" horiz-adv-x="1236" 
d="M618 1356l-106 -92q-38 -32 -72.5 -44t-79.5 -12q-24 0 -39.5 10.5t-15.5 30.5q0 16 25 49l135 170q26 30 52.5 45t66.5 15h73q72 0 119 -60l135 -170q25 -33 25 -49q0 -20 -16.5 -30.5t-42.5 -10.5q-45 0 -78.5 12t-73.5 44zM342 616h555q-13 126 -84.5 205.5
t-189.5 79.5q-112 0 -187.5 -78.5t-93.5 -206.5zM1040 119q-160 -144 -389 -144q-156 0 -282 70t-199.5 199t-73.5 293v4q0 154 67 282.5t189 204.5t273 76q100 0 185.5 -31.5t144.5 -84t101.5 -121.5t62.5 -144.5t20 -151.5q0 -51 -34.5 -84.5t-82.5 -33.5h-678
q20 -130 104.5 -202.5t206.5 -72.5q141 0 256 94q30 23 64 23q41 0 69.5 -28.5t28.5 -71.5t-33 -76z" />
    <glyph glyph-name="edieresis" unicode="&#xeb;" horiz-adv-x="1236" 
d="M825 1475q56 0 94.5 -36t38.5 -91v-15q0 -55 -38.5 -90t-94.5 -35q-58 0 -96.5 35t-38.5 90v15q0 55 39 91t96 36zM418 1475q56 0 94.5 -36t38.5 -91v-15q0 -55 -38.5 -90t-94.5 -35q-58 0 -96.5 35t-38.5 90v15q0 55 39 91t96 36zM342 616h555q-13 126 -84.5 205.5
t-189.5 79.5q-112 0 -187.5 -78.5t-93.5 -206.5zM1040 119q-160 -144 -389 -144q-156 0 -282 70t-199.5 199t-73.5 293v4q0 154 67 282.5t189 204.5t273 76q100 0 185.5 -31.5t144.5 -84t101.5 -121.5t62.5 -144.5t20 -151.5q0 -51 -34.5 -84.5t-82.5 -33.5h-678
q20 -130 104.5 -202.5t206.5 -72.5q141 0 256 94q30 23 64 23q41 0 69.5 -28.5t28.5 -71.5t-33 -76z" />
    <glyph glyph-name="igrave" unicode="&#xec;" horiz-adv-x="585" 
d="M170 113v856q0 53 35.5 89t87.5 36q53 0 89 -36t36 -89v-856q0 -52 -36 -87.5t-89 -35.5q-51 0 -87 35.5t-36 87.5zM299 1208q-45 0 -77 12t-66 44l-140 131q-34 31 -34 61q0 29 48.5 54.5t98.5 25.5q61 0 98 -59l117 -181q18 -27 18 -45q0 -20 -17.5 -31.5t-45.5 -11.5z
" />
    <glyph glyph-name="iacute" unicode="&#xed;" horiz-adv-x="585" 
d="M287 1208q-27 0 -44.5 11.5t-17.5 31.5q0 19 17 45l116 181q37 59 99 59q50 0 98.5 -25.5t48.5 -54.5q0 -30 -35 -61l-137 -131q-35 -32 -67.5 -44t-77.5 -12zM170 113v856q0 53 35.5 89t87.5 36q53 0 89 -36t36 -89v-856q0 -52 -36 -87.5t-89 -35.5q-51 0 -87 35.5
t-36 87.5z" />
    <glyph glyph-name="icircumflex" unicode="&#xee;" horiz-adv-x="585" 
d="M291 1356l-107 -92q-38 -32 -72 -44t-79 -12q-24 0 -40 10.5t-16 30.5q0 16 25 49l135 170q26 30 52.5 45t66.5 15h74q72 0 119 -60l135 -170q24 -32 24 -49q0 -20 -16.5 -30.5t-42.5 -10.5q-45 0 -78.5 12t-73.5 44zM170 113v856q0 53 35.5 89t87.5 36q53 0 89 -36
t36 -89v-856q0 -52 -36 -87.5t-89 -35.5q-51 0 -87 35.5t-36 87.5z" />
    <glyph glyph-name="idieresis" unicode="&#xef;" horiz-adv-x="585" 
d="M498 1475q56 0 94.5 -36t38.5 -91v-15q0 -55 -38.5 -90t-94.5 -35q-58 0 -97 35t-39 90v15q0 55 39 91t97 36zM90 1475q56 0 94.5 -36t38.5 -91v-15q0 -55 -38.5 -90t-94.5 -35q-58 0 -96.5 35t-38.5 90v15q0 55 39 91t96 36zM170 113v856q0 53 35.5 89t87.5 36
q53 0 89 -36t36 -89v-856q0 -52 -36 -87.5t-89 -35.5q-51 0 -87 35.5t-36 87.5z" />
    <glyph glyph-name="eth" unicode="&#xf0;" horiz-adv-x="1314" 
d="M856 911l-213 293l-223 -98q-15 -6 -35 -6q-32 0 -55 23t-23 55q0 53 55 73l187 82q-21 30 -21 66q0 46 33 79t80 33q60 0 98 -55l23 -33l178 78q24 8 35 8q32 0 55 -23.5t23 -55.5q0 -53 -54 -74l-147 -64l184 -262q94 -137 136 -251.5t42 -248.5q0 -112 -39.5 -212.5
t-111 -177t-179.5 -121t-237 -44.5q-235 0 -393 156t-158 379q0 214 135.5 349.5t339.5 135.5q83 0 148.5 -20.5t136.5 -63.5zM971 506q0 129 -91 218t-231 89q-139 0 -224 -87.5t-85 -221.5q0 -130 90 -224t227 -94q140 0 227 92.5t87 227.5z" />
    <glyph glyph-name="ntilde" unicode="&#xf1;" horiz-adv-x="1269" 
d="M156 113v856q0 53 35.5 89t87.5 36t88 -36t36 -89v-54q132 189 338 189q181 0 283 -112t102 -302v-577q0 -53 -35 -88t-87 -35q-53 0 -89 35.5t-36 87.5v501q0 126 -61 195.5t-171 69.5q-109 0 -176.5 -72.5t-67.5 -196.5v-497q0 -52 -35.5 -87.5t-88.5 -35.5
q-51 0 -87 35.5t-36 87.5zM416 1235q-25 -41 -68 -41q-30 0 -53 20.5t-23 47.5q0 16 9 47q34 94 82 140t126 46q61 0 162 -41t133 -41q34 0 54.5 15.5t40.5 50.5q25 41 67 41q30 0 53 -20.5t23 -47.5q0 -19 -8 -47q-34 -94 -82.5 -140t-126.5 -46q-61 0 -162 40.5t-133 40.5
q-34 0 -54 -15t-40 -50z" />
    <glyph glyph-name="ograve" unicode="&#xf2;" horiz-adv-x="1345" 
d="M670 -25q-121 0 -228.5 44.5t-183 120t-119 178.5t-43.5 217v4q0 153 74.5 282.5t208 206t295.5 76.5q122 0 229.5 -44.5t183 -120t119 -178.5t43.5 -218v-4q0 -114 -44 -217.5t-120 -180t-184 -121.5t-231 -45zM674 193q147 0 237 99t90 243v4q0 145 -93.5 246.5
t-237.5 101.5q-146 0 -236 -99.5t-90 -244.5v-4q0 -144 94 -245t236 -101zM678 1208q-45 0 -77 12t-66 44l-140 131q-35 31 -35 61q0 29 48.5 54.5t99.5 25.5q61 0 98 -59l117 -181q18 -27 18 -45q0 -20 -17.5 -31.5t-45.5 -11.5z" />
    <glyph glyph-name="oacute" unicode="&#xf3;" horiz-adv-x="1345" 
d="M666 1208q-27 0 -44.5 11.5t-17.5 31.5q0 19 17 45l116 181q37 59 99 59q50 0 98.5 -25.5t48.5 -54.5q0 -30 -35 -61l-137 -131q-35 -32 -67.5 -44t-77.5 -12zM670 -25q-121 0 -228.5 44.5t-183 120t-119 178.5t-43.5 217v4q0 153 74.5 282.5t208 206t295.5 76.5
q122 0 229.5 -44.5t183 -120t119 -178.5t43.5 -218v-4q0 -114 -44 -217.5t-120 -180t-184 -121.5t-231 -45zM674 193q147 0 237 99t90 243v4q0 145 -93.5 246.5t-237.5 101.5q-146 0 -236 -99.5t-90 -244.5v-4q0 -144 94 -245t236 -101z" />
    <glyph glyph-name="ocircumflex" unicode="&#xf4;" horiz-adv-x="1345" 
d="M670 1356l-107 -92q-38 -32 -72 -44t-79 -12q-24 0 -40 10.5t-16 30.5q0 16 25 49l135 170q26 30 52.5 45t66.5 15h74q71 0 118 -60l136 -170q24 -32 24 -49q0 -20 -16.5 -30.5t-42.5 -10.5q-45 0 -78.5 12t-73.5 44zM670 -25q-121 0 -228.5 44.5t-183 120t-119 178.5
t-43.5 217v4q0 153 74.5 282.5t208 206t295.5 76.5q122 0 229.5 -44.5t183 -120t119 -178.5t43.5 -218v-4q0 -114 -44 -217.5t-120 -180t-184 -121.5t-231 -45zM674 193q147 0 237 99t90 243v4q0 145 -93.5 246.5t-237.5 101.5q-146 0 -236 -99.5t-90 -244.5v-4
q0 -144 94 -245t236 -101z" />
    <glyph glyph-name="otilde" unicode="&#xf5;" horiz-adv-x="1345" 
d="M670 -25q-121 0 -228.5 44.5t-183 120t-119 178.5t-43.5 217v4q0 153 74.5 282.5t208 206t295.5 76.5q122 0 229.5 -44.5t183 -120t119 -178.5t43.5 -218v-4q0 -114 -44 -217.5t-120 -180t-184 -121.5t-231 -45zM674 193q147 0 237 99t90 243v4q0 145 -93.5 246.5
t-237.5 101.5q-146 0 -236 -99.5t-90 -244.5v-4q0 -144 94 -245t236 -101zM449 1235q-25 -41 -68 -41q-30 0 -53 20.5t-23 47.5q0 19 8 47q34 94 82.5 140t126.5 46q61 0 162 -41t133 -41q34 0 54 15t40 51q25 41 68 41q30 0 53 -20.5t23 -47.5q0 -19 -8 -47
q-34 -94 -82.5 -140t-126.5 -46q-61 0 -162 40.5t-133 40.5q-34 0 -54 -15t-40 -50z" />
    <glyph glyph-name="odieresis" unicode="&#xf6;" horiz-adv-x="1345" 
d="M877 1475q56 0 94.5 -36t38.5 -91v-15q0 -55 -38.5 -90t-94.5 -35q-58 0 -97 35t-39 90v15q0 55 39 91t97 36zM469 1475q56 0 94.5 -36t38.5 -91v-15q0 -55 -38.5 -90t-94.5 -35q-58 0 -96.5 35t-38.5 90v15q0 55 39 91t96 36zM670 -25q-121 0 -228.5 44.5t-183 120
t-119 178.5t-43.5 217v4q0 153 74.5 282.5t208 206t295.5 76.5q122 0 229.5 -44.5t183 -120t119 -178.5t43.5 -218v-4q0 -114 -44 -217.5t-120 -180t-184 -121.5t-231 -45zM674 193q147 0 237 99t90 243v4q0 145 -93.5 246.5t-237.5 101.5q-146 0 -236 -99.5t-90 -244.5v-4
q0 -144 94 -245t236 -101z" />
    <glyph glyph-name="divide" unicode="&#xf7;" horiz-adv-x="1298" 
d="M1063 614h-827q-44 0 -75.5 32t-31.5 75t31.5 74.5t75.5 31.5h827q44 0 75 -31.5t31 -74.5t-31 -75t-75 -32zM649 1288q58 0 100 -39.5t42 -95.5v-10q0 -57 -41.5 -97t-100.5 -40t-100 40t-41 97v10q0 56 41.5 95.5t99.5 39.5zM649 436q59 0 100.5 -40t41.5 -97v-10
q0 -57 -41.5 -96t-100.5 -39t-100 39t-41 96v10q0 57 41 97t100 40z" />
    <glyph glyph-name="oslash" unicode="&#xf8;" horiz-adv-x="1345" 
d="M670 -25q-183 0 -332 99l-59 -62q-37 -37 -78 -37q-32 0 -56 22.5t-24 53.5q0 41 35 76l59 61q-119 147 -119 347v4q0 153 74.5 282.5t208 206t295.5 76.5q186 0 332 -100l61 63q37 37 78 37q32 0 56 -21.5t24 -52.5q0 -39 -35 -78l-62 -61q121 -153 121 -348v-4
q0 -114 -44 -217.5t-120 -180t-184 -121.5t-231 -45zM338 539q0 -99 45 -181l469 480q-80 55 -182 55q-148 0 -240 -101.5t-92 -248.5v-4zM674 186q149 0 241.5 101.5t92.5 247.5v4q0 100 -47 180l-469 -479q79 -54 182 -54z" />
    <glyph glyph-name="ugrave" unicode="&#xf9;" horiz-adv-x="1269" 
d="M1116 969v-856q0 -51 -36.5 -87t-88.5 -36t-88.5 35.5t-36.5 87.5v55q-131 -191 -338 -191q-181 0 -283 112.5t-102 303.5v576q0 52 36 88.5t87 36.5q52 0 88.5 -36t36.5 -89v-502q0 -126 60.5 -194t171.5 -68q109 0 176 71t67 195v498q0 53 36 89t89 36q51 0 88 -36.5
t37 -88.5zM633 1208q-45 0 -77.5 12t-66.5 44l-139 131q-35 31 -35 61q0 29 48.5 54.5t99.5 25.5q61 0 98 -59l117 -181q18 -27 18 -45q0 -20 -17.5 -31.5t-45.5 -11.5z" />
    <glyph glyph-name="uacute" unicode="&#xfa;" horiz-adv-x="1269" 
d="M621 1208q-27 0 -44.5 11.5t-17.5 31.5q0 21 16 45l117 181q37 59 99 59q50 0 98.5 -25.5t48.5 -54.5q0 -30 -35 -61l-137 -131q-35 -32 -67.5 -44t-77.5 -12zM1116 969v-856q0 -51 -36.5 -87t-88.5 -36t-88.5 35.5t-36.5 87.5v55q-131 -191 -338 -191q-181 0 -283 112.5
t-102 303.5v576q0 52 36 88.5t87 36.5q52 0 88.5 -36t36.5 -89v-502q0 -126 60.5 -194t171.5 -68q109 0 176 71t67 195v498q0 53 36 89t89 36q51 0 88 -36.5t37 -88.5z" />
    <glyph glyph-name="ucircumflex" unicode="&#xfb;" horiz-adv-x="1269" 
d="M625 1356l-107 -92q-38 -32 -72 -44t-79 -12q-24 0 -40 10.5t-16 30.5q0 16 25 49l135 170q26 30 52.5 45t66.5 15h74q71 0 118 -60l136 -170q24 -32 24 -49q0 -20 -16.5 -30.5t-42.5 -10.5q-45 0 -78.5 12t-73.5 44zM1116 969v-856q0 -51 -36.5 -87t-88.5 -36
t-88.5 35.5t-36.5 87.5v55q-131 -191 -338 -191q-181 0 -283 112.5t-102 303.5v576q0 52 36 88.5t87 36.5q52 0 88.5 -36t36.5 -89v-502q0 -126 60.5 -194t171.5 -68q109 0 176 71t67 195v498q0 53 36 89t89 36q51 0 88 -36.5t37 -88.5z" />
    <glyph glyph-name="udieresis" unicode="&#xfc;" horiz-adv-x="1269" 
d="M831 1475q56 0 95 -36t39 -91v-15q0 -55 -39 -90t-95 -35q-58 0 -96.5 35t-38.5 90v15q0 55 39 91t96 36zM424 1475q56 0 94.5 -36t38.5 -91v-15q0 -55 -38.5 -90t-94.5 -35q-58 0 -96.5 35t-38.5 90v15q0 55 39 91t96 36zM1116 969v-856q0 -51 -36.5 -87t-88.5 -36
t-88.5 35.5t-36.5 87.5v55q-131 -191 -338 -191q-181 0 -283 112.5t-102 303.5v576q0 52 36 88.5t87 36.5q52 0 88.5 -36t36.5 -89v-502q0 -126 60.5 -194t171.5 -68q109 0 176 71t67 195v498q0 53 36 89t89 36q51 0 88 -36.5t37 -88.5z" />
    <glyph glyph-name="yacute" unicode="&#xfd;" horiz-adv-x="1202" 
d="M352 -334q-93 0 -172 31q-32 11 -55 36t-23 66q0 45 30 74t71 29q21 0 45 -8q54 -15 86 -15q55 0 88.5 25.5t64.5 89.5l9 22l-402 897q-14 31 -14 60q0 52 35 86.5t88 34.5q83 0 121 -95l290 -718l271 718q37 95 119 95q50 0 84 -34t34 -83q0 -29 -10 -59l-395 -949
q-69 -166 -151.5 -234.5t-213.5 -68.5zM596 1208q-27 0 -44 11.5t-17 31.5q0 21 16 45l117 181q37 59 98 59q50 0 98.5 -25.5t48.5 -54.5q0 -30 -34 -61l-138 -131q-35 -32 -67.5 -44t-77.5 -12z" />
    <glyph glyph-name="thorn" unicode="&#xfe;" 
d="M156 -215v1597q0 52 35 87.5t88 35.5t88.5 -35.5t35.5 -87.5v-481q144 203 369 203q96 0 185.5 -38t160.5 -107t113.5 -177t42.5 -239v-4q0 -130 -42.5 -238t-113 -178t-160 -108t-186.5 -38q-224 0 -369 191v-383q0 -52 -35.5 -87.5t-88.5 -35.5q-51 0 -87 35.5
t-36 87.5zM713 193q131 0 220 95t89 251v4q0 153 -90 249.5t-219 96.5q-130 0 -223 -97.5t-93 -248.5v-4q0 -151 93 -248.5t223 -97.5z" />
    <glyph glyph-name="ydieresis" unicode="&#xff;" horiz-adv-x="1202" 
d="M352 -334q-93 0 -172 31q-32 11 -55 36t-23 66q0 45 30 74t71 29q21 0 45 -8q54 -15 86 -15q55 0 88.5 25.5t64.5 89.5l9 22l-402 897q-14 31 -14 60q0 52 35 86.5t88 34.5q83 0 121 -95l290 -718l271 718q37 95 119 95q50 0 84 -34t34 -83q0 -29 -10 -59l-395 -949
q-69 -166 -151.5 -234.5t-213.5 -68.5zM807 1475q56 0 94.5 -36t38.5 -91v-15q0 -55 -38.5 -90t-94.5 -35q-58 0 -96.5 35t-38.5 90v15q0 55 39 91t96 36zM399 1475q56 0 94.5 -36t38.5 -91v-15q0 -55 -38.5 -90t-94.5 -35q-58 0 -96.5 35t-38.5 90v15q0 55 39 91t96 36z
" />
    <glyph glyph-name="Amacron" unicode="&#x100;" horiz-adv-x="1583" 
d="M86 106q0 26 16 58l533 1188q47 102 151 102h13q102 0 149 -102l533 -1188q14 -25 14 -53q0 -51 -34 -86t-85 -35q-85 0 -123 88l-116 268h-697l-121 -276q-15 -38 -45.5 -59t-70.5 -21q-50 0 -83.5 33.5t-33.5 82.5zM537 569h503l-252 580zM1061 1595h-545
q-37 0 -63.5 27t-26.5 64t26.5 63.5t63.5 26.5h545q37 0 63.5 -26.5t26.5 -63.5t-26.5 -64t-63.5 -27z" />
    <glyph glyph-name="amacron" unicode="&#x101;" horiz-adv-x="1202" 
d="M467 -23q-104 0 -189.5 37.5t-139.5 114.5t-54 182v4q0 170 121 259.5t325 89.5q148 0 291 -46v27q0 115 -68.5 175.5t-199.5 60.5q-132 0 -240 -43q-24 -7 -39 -7q-43 0 -73.5 30t-30.5 73q0 33 19.5 60t48.5 38q167 64 348 64q240 0 358 -121q117 -114 117 -334v-532
q0 -51 -35 -85t-86 -34q-53 0 -87 31t-34 73v41q-133 -158 -352 -158zM537 158q124 0 206 64.5t82 166.5v74q-108 43 -245 43q-120 0 -187 -47.5t-67 -132.5v-4q0 -76 59.5 -120t151.5 -44zM874 1241h-544q-37 0 -63.5 26.5t-26.5 63.5t26.5 63.5t63.5 26.5h544
q37 0 64 -26.5t27 -63.5t-27 -63.5t-64 -26.5z" />
    <glyph glyph-name="Abreve" unicode="&#x102;" horiz-adv-x="1583" 
d="M86 106q0 26 16 58l533 1188q47 102 151 102h13q102 0 149 -102l533 -1188q14 -25 14 -53q0 -51 -34 -86t-85 -35q-85 0 -123 88l-116 268h-697l-121 -276q-15 -38 -45.5 -59t-70.5 -21q-50 0 -83.5 33.5t-33.5 82.5zM537 569h503l-252 580zM788 1569q-107 0 -187.5 43
t-125.5 121q-16 32 -16 63q0 37 24.5 62.5t61.5 25.5q52 0 78 -47q53 -94 165 -94q116 0 166 94q26 47 78 47q37 0 61.5 -25.5t24.5 -62.5q0 -31 -16 -63q-45 -79 -125.5 -121.5t-188.5 -42.5z" />
    <glyph glyph-name="abreve" unicode="&#x103;" horiz-adv-x="1202" 
d="M467 -23q-104 0 -189.5 37.5t-139.5 114.5t-54 182v4q0 170 121 259.5t325 89.5q148 0 291 -46v27q0 115 -68.5 175.5t-199.5 60.5q-132 0 -240 -43q-24 -7 -39 -7q-43 0 -73.5 30t-30.5 73q0 33 19.5 60t48.5 38q167 64 348 64q240 0 358 -121q117 -114 117 -334v-532
q0 -51 -35 -85t-86 -34q-53 0 -87 31t-34 73v41q-133 -158 -352 -158zM537 158q124 0 206 64.5t82 166.5v74q-108 43 -245 43q-120 0 -187 -47.5t-67 -132.5v-4q0 -76 59.5 -120t151.5 -44zM602 1214q-107 0 -187.5 43t-125.5 121q-17 34 -17 64q0 37 24.5 62.5t61.5 25.5
q52 0 78 -47q53 -94 166 -94q116 0 166 94q26 47 78 47q37 0 61.5 -25.5t24.5 -62.5q0 -30 -17 -64q-45 -79 -125 -121.5t-188 -42.5z" />
    <glyph glyph-name="Aogonek" unicode="&#x104;" horiz-adv-x="1617" 
d="M102 106q0 16 17 58l532 1188q47 102 152 102h14q103 0 150 -102l534 -1192q15 -34 15 -54q0 -28 -11 -49t-37 -49q-77 -74 -77 -137q0 -35 22 -54t68 -30q67 -15 67 -63q0 -30 -21.5 -47t-60.5 -17q-109 0 -185.5 43t-76.5 129q0 87 94 184l-145 330h-696l-119 -276
q-36 -80 -119 -80q-50 0 -83.5 33.5t-33.5 82.5zM553 569h504l-252 580z" />
    <glyph glyph-name="aogonek" unicode="&#x105;" horiz-adv-x="1202" 
d="M741 -174q0 94 109 197q-13 12 -22 49.5t-9 60.5v2q-133 -158 -352 -158q-104 0 -189.5 37.5t-139.5 114.5t-54 182v4q0 170 121 259.5t325 89.5q148 0 291 -46v27q0 115 -68.5 175.5t-199.5 60.5q-132 0 -240 -43q-24 -7 -39 -7q-43 0 -73.5 30t-30.5 73q0 33 19.5 60
t48.5 38q167 64 348 64q240 0 358 -121q117 -114 117 -334v-535q0 -30 -11 -51.5t-38 -46.5q-82 -79 -82 -139q0 -34 21.5 -52.5t66.5 -29.5q67 -15 67 -63q0 -30 -21 -47t-60 -17q-69 0 -126.5 16.5t-97 55t-39.5 94.5zM537 158q124 0 206 64.5t82 166.5v74
q-108 43 -245 43q-120 0 -187 -47.5t-67 -132.5v-4q0 -76 59.5 -120t151.5 -44z" />
    <glyph glyph-name="Cacute" unicode="&#x106;" horiz-adv-x="1511" 
d="M829 1563q-27 0 -44 11.5t-17 31.5q0 21 16 45l117 180q37 59 98 59q51 0 99.5 -25.5t48.5 -54.5q0 -30 -35 -61l-137 -131q-35 -32 -67.5 -43.5t-78.5 -11.5zM850 -25q-154 0 -290 57.5t-232 156.5t-151.5 235.5t-55.5 288.5v4q0 152 55 288t151 236t235 158.5t298 58.5
q156 0 273 -42t219 -120q49 -36 49 -100q0 -52 -36 -87.5t-89 -35.5q-43 0 -76 25q-158 129 -342 129q-202 0 -337.5 -146.5t-135.5 -359.5v-4q0 -213 135 -360.5t338 -147.5q109 0 193 33.5t166 103.5q33 29 75 29q47 0 83 -35t36 -82q0 -54 -41 -90q-108 -95 -231.5 -144
t-288.5 -49z" />
    <glyph glyph-name="cacute" unicode="&#x107;" horiz-adv-x="1169" 
d="M639 1208q-27 0 -44 11.5t-17 31.5q0 21 16 45l117 181q37 59 98 59q50 0 98.5 -25.5t48.5 -54.5q0 -30 -34 -61l-138 -131q-35 -32 -67.5 -44t-77.5 -12zM655 -25q-158 0 -286.5 75.5t-200.5 204t-72 280.5v4q0 153 72 282t202 206t289 77q224 0 379 -135q39 -34 39 -86
q0 -47 -33.5 -80t-80.5 -33q-41 0 -74 25q-109 92 -232 92q-133 0 -223 -100.5t-90 -243.5v-4q0 -147 91.5 -246.5t232.5 -99.5q126 0 241 96q30 26 68 26q44 0 75 -32t31 -76q0 -51 -34 -78q-161 -154 -394 -154z" />
    <glyph glyph-name="Cdotaccent" unicode="&#x10a;" horiz-adv-x="1511" 
d="M850 -25q-154 0 -290 57.5t-232 156.5t-151.5 235.5t-55.5 288.5v4q0 152 55 288t151 236t235 158.5t298 58.5q156 0 273 -42t219 -120q49 -36 49 -100q0 -52 -36 -87.5t-89 -35.5q-43 0 -76 25q-158 129 -342 129q-202 0 -337.5 -146.5t-135.5 -359.5v-4
q0 -213 135 -360.5t338 -147.5q109 0 193 33.5t166 103.5q33 29 75 29q47 0 83 -35t36 -82q0 -54 -41 -90q-108 -95 -231.5 -144t-288.5 -49zM975 1702v-14q0 -56 -40 -90.5t-99 -34.5q-58 0 -98 34.5t-40 90.5v14q0 56 40 91.5t98 35.5t98.5 -35.5t40.5 -91.5z" />
    <glyph glyph-name="cdotaccent" unicode="&#x10b;" horiz-adv-x="1169" 
d="M655 -25q-158 0 -286.5 75.5t-200.5 204t-72 280.5v4q0 153 72 282t202 206t289 77q224 0 379 -135q39 -34 39 -86q0 -47 -33.5 -80t-80.5 -33q-41 0 -74 25q-109 92 -232 92q-133 0 -223 -100.5t-90 -243.5v-4q0 -147 91.5 -246.5t232.5 -99.5q126 0 241 96q30 26 68 26
q44 0 75 -32t31 -76q0 -51 -34 -78q-161 -154 -394 -154zM784 1348v-15q0 -56 -40 -90.5t-99 -34.5q-58 0 -97.5 34.5t-39.5 90.5v15q0 56 39.5 91.5t97.5 35.5t98.5 -35.5t40.5 -91.5z" />
    <glyph glyph-name="Ccaron" unicode="&#x10c;" horiz-adv-x="1511" 
d="M838 1737l106 92q39 32 73 43.5t79 11.5q55 0 55 -41q0 -16 -25 -49l-135 -170q-46 -59 -119 -59h-73q-70 0 -119 59l-135 170q-25 33 -25 49q0 19 17 30t43 11q46 0 79.5 -11.5t71.5 -43.5zM850 -25q-154 0 -290 57.5t-232 156.5t-151.5 235.5t-55.5 288.5v4
q0 152 55 288t151 236t235 158.5t298 58.5q156 0 273 -42t219 -120q49 -36 49 -100q0 -52 -36 -87.5t-89 -35.5q-43 0 -76 25q-158 129 -342 129q-202 0 -337.5 -146.5t-135.5 -359.5v-4q0 -213 135 -360.5t338 -147.5q109 0 193 33.5t166 103.5q33 29 75 29q47 0 83 -35
t36 -82q0 -54 -41 -90q-108 -95 -231.5 -144t-288.5 -49z" />
    <glyph glyph-name="ccaron" unicode="&#x10d;" horiz-adv-x="1169" 
d="M647 1382l107 93q39 32 72.5 43.5t78.5 11.5q56 0 56 -41q0 -16 -25 -49l-135 -170q-47 -60 -119 -60h-74q-40 0 -66.5 15t-52.5 45l-135 170q-24 32 -24 49q0 20 16.5 30.5t42.5 10.5q46 0 80 -11.5t72 -43.5zM655 -25q-158 0 -286.5 75.5t-200.5 204t-72 280.5v4
q0 153 72 282t202 206t289 77q224 0 379 -135q39 -34 39 -86q0 -47 -33.5 -80t-80.5 -33q-41 0 -74 25q-109 92 -232 92q-133 0 -223 -100.5t-90 -243.5v-4q0 -147 91.5 -246.5t232.5 -99.5q126 0 241 96q30 26 68 26q44 0 75 -32t31 -76q0 -51 -34 -78q-161 -154 -394 -154
z" />
    <glyph glyph-name="Dcaron" unicode="&#x10e;" horiz-adv-x="1601" 
d="M774 1716l107 92q40 33 73 44.5t78 11.5q55 0 55 -41q0 -17 -24 -49l-135 -170q-47 -60 -119 -60h-74q-40 0 -66.5 15t-52.5 45l-135 170q-24 32 -24 49q0 20 16.5 30.5t42.5 10.5q45 0 79.5 -12t72.5 -44zM184 127v1180q0 54 36.5 90.5t90.5 36.5h408q166 0 309 -55
t242 -150t155 -226.5t56 -281.5v-4q0 -150 -56 -282t-155 -228t-242 -151.5t-309 -55.5h-408q-54 0 -90.5 36.5t-36.5 90.5zM436 229h283q224 0 361 135.5t137 348.5v4q0 213 -137.5 350t-360.5 137h-283v-975z" />
    <glyph glyph-name="dcaron" unicode="&#x10f;" 
d="M1333 1161l6 254q2 39 27 64.5t64 25.5h36q29 0 46.5 -15.5t17.5 -43.5q0 -23 -8 -47l-76 -248q-15 -51 -60 -51q-25 0 -39.5 16t-13.5 45zM1219 1382v-1269q0 -52 -36 -87.5t-87 -35.5q-53 0 -89 35.5t-36 87.5v67q-144 -203 -369 -203q-96 0 -185.5 38t-160.5 108
t-113.5 178t-42.5 238v4q0 130 42 238t112.5 177.5t160 107.5t187.5 38q223 0 369 -191v469q0 52 36 87.5t87 35.5q53 0 89 -35.5t36 -87.5zM662 889q-132 0 -222 -94.5t-90 -251.5v-4q0 -153 91 -249.5t221 -96.5q128 0 220.5 97.5t92.5 248.5v4q0 152 -92 249t-221 97z
" />
    <glyph glyph-name="Dcroat" unicode="&#x110;" horiz-adv-x="1662" 
d="M193 834h53v473q0 54 36.5 90.5t90.5 36.5h407q166 0 309 -55t242 -150t155 -226.5t56 -281.5v-4q0 -150 -56 -282t-155 -228t-242 -151.5t-309 -55.5h-407q-54 0 -90.5 36.5t-36.5 90.5v481h-53q-46 0 -78.5 33.5t-32.5 79.5q0 47 32.5 80t78.5 33zM496 1204v-370h260
q46 0 78 -33t32 -80q0 -46 -32.5 -79.5t-77.5 -33.5h-260v-379h284q224 0 361 135.5t137 348.5v4q0 213 -137.5 350t-360.5 137h-284z" />
    <glyph glyph-name="dcroat" unicode="&#x111;" 
d="M1219 1382v-2h77q30 0 52 -22t22 -51q0 -31 -21.5 -52.5t-52.5 -21.5h-77v-1120q0 -52 -36 -87.5t-87 -35.5q-53 0 -89 35.5t-36 87.5v67q-144 -203 -369 -203q-96 0 -185.5 38t-160.5 108t-113.5 178t-42.5 238v4q0 130 42 238t112.5 177.5t160 107.5t187.5 38
q223 0 369 -191v320h-273q-31 0 -52 21.5t-21 52.5q0 30 21.5 51.5t51.5 21.5h273v2q0 52 36 87.5t87 35.5q53 0 89 -35.5t36 -87.5zM662 889q-132 0 -222 -94.5t-90 -251.5v-4q0 -153 91 -249.5t221 -96.5q128 0 220.5 97.5t92.5 248.5v4q0 152 -92 249t-221 97z" />
    <glyph glyph-name="Emacron" unicode="&#x112;" horiz-adv-x="1372" 
d="M311 0q-54 0 -90.5 36.5t-36.5 90.5v1180q0 54 36.5 90.5t90.5 36.5h834q46 0 79 -33.5t33 -79.5q0 -47 -33 -80t-79 -33h-709v-372h617q46 0 79 -34t33 -81q0 -46 -33 -78.5t-79 -32.5h-617v-385h719q46 0 79.5 -33t33.5 -79q0 -47 -33.5 -80t-79.5 -33h-844zM991 1575
h-545q-37 0 -63.5 26.5t-26.5 63.5t26.5 63.5t63.5 26.5h545q37 0 63.5 -26.5t26.5 -63.5t-26.5 -63.5t-63.5 -26.5z" />
    <glyph glyph-name="emacron" unicode="&#x113;" horiz-adv-x="1236" 
d="M342 616h555q-13 126 -84.5 205.5t-189.5 79.5q-112 0 -187.5 -78.5t-93.5 -206.5zM1040 119q-160 -144 -389 -144q-156 0 -282 70t-199.5 199t-73.5 293v4q0 154 67 282.5t189 204.5t273 76q100 0 185.5 -31.5t144.5 -84t101.5 -121.5t62.5 -144.5t20 -151.5
q0 -51 -34.5 -84.5t-82.5 -33.5h-678q20 -130 104.5 -202.5t206.5 -72.5q141 0 256 94q30 23 64 23q41 0 69.5 -28.5t28.5 -71.5t-33 -76zM893 1241h-545q-37 0 -63.5 26.5t-26.5 63.5t26.5 63.5t63.5 26.5h545q37 0 63.5 -26.5t26.5 -63.5t-26.5 -63.5t-63.5 -26.5z" />
    <glyph glyph-name="Ebreve" unicode="&#x114;" horiz-adv-x="1372" 
d="M311 0q-54 0 -90.5 36.5t-36.5 90.5v1180q0 54 36.5 90.5t90.5 36.5h834q46 0 79 -33.5t33 -79.5q0 -47 -33 -80t-79 -33h-709v-372h617q46 0 79 -34t33 -81q0 -46 -33 -78.5t-79 -32.5h-617v-385h719q46 0 79.5 -33t33.5 -79q0 -47 -33.5 -80t-79.5 -33h-844zM719 1548
q-107 0 -187.5 43t-125.5 121q-17 34 -17 64q0 37 24.5 62.5t61.5 25.5q52 0 78 -47q54 -95 166 -95q116 0 166 95q26 47 78 47q37 0 61.5 -25.5t24.5 -62.5q0 -30 -17 -64q-45 -79 -125 -121.5t-188 -42.5z" />
    <glyph glyph-name="ebreve" unicode="&#x115;" horiz-adv-x="1236" 
d="M342 616h555q-13 126 -84.5 205.5t-189.5 79.5q-112 0 -187.5 -78.5t-93.5 -206.5zM1040 119q-160 -144 -389 -144q-156 0 -282 70t-199.5 199t-73.5 293v4q0 154 67 282.5t189 204.5t273 76q100 0 185.5 -31.5t144.5 -84t101.5 -121.5t62.5 -144.5t20 -151.5
q0 -51 -34.5 -84.5t-82.5 -33.5h-678q20 -130 104.5 -202.5t206.5 -72.5q141 0 256 94q30 23 64 23q41 0 69.5 -28.5t28.5 -71.5t-33 -76zM621 1214q-107 0 -188.5 43t-125.5 121q-16 32 -16 64q0 37 24.5 62.5t61.5 25.5q52 0 78 -47q53 -94 166 -94q115 0 165 94
q26 47 78 47q37 0 61.5 -25.5t24.5 -62.5q0 -32 -16 -64q-45 -79 -125 -121.5t-188 -42.5z" />
    <glyph glyph-name="Edotaccent" unicode="&#x116;" horiz-adv-x="1372" 
d="M311 0q-54 0 -90.5 36.5t-36.5 90.5v1180q0 54 36.5 90.5t90.5 36.5h834q46 0 79 -33.5t33 -79.5q0 -47 -33 -80t-79 -33h-709v-372h617q46 0 79 -34t33 -81q0 -46 -33 -78.5t-79 -32.5h-617v-385h719q46 0 79.5 -33t33.5 -79q0 -47 -33.5 -80t-79.5 -33h-844zM858 1681
v-14q0 -56 -40 -90.5t-99 -34.5q-58 0 -97.5 34.5t-39.5 90.5v14q0 56 39.5 91.5t97.5 35.5t98.5 -35.5t40.5 -91.5z" />
    <glyph glyph-name="edotaccent" unicode="&#x117;" horiz-adv-x="1236" 
d="M342 616h555q-13 126 -84.5 205.5t-189.5 79.5q-112 0 -187.5 -78.5t-93.5 -206.5zM1040 119q-160 -144 -389 -144q-156 0 -282 70t-199.5 199t-73.5 293v4q0 154 67 282.5t189 204.5t273 76q100 0 185.5 -31.5t144.5 -84t101.5 -121.5t62.5 -144.5t20 -151.5
q0 -51 -34.5 -84.5t-82.5 -33.5h-678q20 -130 104.5 -202.5t206.5 -72.5q141 0 256 94q30 23 64 23q41 0 69.5 -28.5t28.5 -71.5t-33 -76zM760 1348v-15q0 -56 -40 -90.5t-99 -34.5q-58 0 -98 34.5t-40 90.5v15q0 56 40 91.5t98 35.5t98.5 -35.5t40.5 -91.5z" />
    <glyph glyph-name="Eogonek" unicode="&#x118;" horiz-adv-x="1372" 
d="M311 0q-54 0 -90.5 36.5t-36.5 90.5v1180q0 54 36.5 90.5t90.5 36.5h834q46 0 79 -33.5t33 -79.5q0 -47 -33 -80t-79 -33h-709v-372h617q46 0 79 -34t33 -81q0 -46 -33 -78.5t-79 -32.5h-617v-385h717q49 0 82 -31t33 -73q0 -36 -14 -58.5t-50 -56.5q-46 -40 -66 -70.5
t-20 -64.5q0 -35 22 -54t66 -30q70 -15 70 -63q0 -30 -21.5 -47t-60.5 -17q-110 0 -187 42.5t-77 129.5q0 77 84 168h-703z" />
    <glyph glyph-name="eogonek" unicode="&#x119;" horiz-adv-x="1236" 
d="M1139 571q0 -51 -34.5 -84.5t-82.5 -33.5h-678q20 -130 104.5 -202.5t206.5 -72.5q141 0 256 94q30 23 64 23q41 0 69.5 -28.5t28.5 -71.5q0 -39 -33 -76q-17 -16 -43 -39.5t-45 -42.5q-52 -49 -71 -84t-19 -72q0 -42 22 -62.5t68 -31.5q68 -15 68 -63q0 -30 -20.5 -47
t-59.5 -17q-117 0 -190.5 44.5t-73.5 131.5q0 70 69 148q-70 -9 -94 -9q-156 0 -282 70t-199.5 199t-73.5 293v4q0 154 67 282.5t189 204.5t273 76q100 0 185.5 -31.5t144.5 -84t101.5 -121.5t62.5 -144.5t20 -151.5zM342 616h555q-13 126 -84.5 205.5t-189.5 79.5
q-112 0 -187.5 -78.5t-93.5 -206.5z" />
    <glyph glyph-name="Ecaron" unicode="&#x11a;" horiz-adv-x="1372" 
d="M721 1716l106 92q40 32 73.5 44t78.5 12q55 0 55 -41q0 -17 -24 -49l-136 -170q-47 -60 -118 -60h-74q-40 0 -66.5 15t-52.5 45l-135 170q-25 33 -25 49q0 19 17 30t43 11q45 0 79 -12t72 -44zM311 0q-54 0 -90.5 36.5t-36.5 90.5v1180q0 54 36.5 90.5t90.5 36.5h834
q46 0 79 -33.5t33 -79.5q0 -47 -33 -80t-79 -33h-709v-372h617q46 0 79 -34t33 -81q0 -46 -33 -78.5t-79 -32.5h-617v-385h719q46 0 79.5 -33t33.5 -79q0 -47 -33.5 -80t-79.5 -33h-844z" />
    <glyph glyph-name="ecaron" unicode="&#x11b;" horiz-adv-x="1236" 
d="M623 1382l106 93q39 32 73 43.5t79 11.5q55 0 55 -41q0 -16 -25 -49l-135 -170q-47 -60 -119 -60h-73q-40 0 -66.5 15t-52.5 45l-135 170q-25 33 -25 49q0 19 17 30t43 11q46 0 79.5 -11.5t71.5 -43.5zM342 616h555q-13 126 -84.5 205.5t-189.5 79.5q-112 0 -187.5 -78.5
t-93.5 -206.5zM1040 119q-160 -144 -389 -144q-156 0 -282 70t-199.5 199t-73.5 293v4q0 154 67 282.5t189 204.5t273 76q100 0 185.5 -31.5t144.5 -84t101.5 -121.5t62.5 -144.5t20 -151.5q0 -51 -34.5 -84.5t-82.5 -33.5h-678q20 -130 104.5 -202.5t206.5 -72.5
q141 0 256 94q30 23 64 23q41 0 69.5 -28.5t28.5 -71.5t-33 -76z" />
    <glyph glyph-name="Gbreve" unicode="&#x11e;" horiz-adv-x="1605" 
d="M864 -25q-220 0 -390.5 97.5t-261.5 265t-91 375.5v4q0 149 55.5 284.5t151.5 236.5t235 160.5t297 59.5q156 0 272 -36t218 -109q51 -37 51 -103q0 -51 -36.5 -88t-88.5 -37q-37 0 -78 29q-75 56 -156.5 84.5t-191.5 28.5q-129 0 -236.5 -69t-168 -185t-60.5 -252v-4
q0 -147 60 -263t171.5 -182.5t255.5 -66.5q203 0 347 108v269h-283q-46 0 -79.5 31.5t-33.5 76.5q0 46 33.5 78.5t79.5 32.5h399q54 0 90.5 -36.5t36.5 -90.5v-383q0 -105 -88 -160q-234 -156 -510 -156zM844 1569q-107 0 -188.5 43t-125.5 121q-16 32 -16 63
q0 37 24.5 62.5t61.5 25.5q52 0 78 -47q53 -94 166 -94q116 0 166 94q26 47 77 47q37 0 62 -25.5t25 -62.5q0 -29 -17 -63q-45 -79 -125 -121.5t-188 -42.5z" />
    <glyph glyph-name="gbreve" unicode="&#x11f;" 
d="M637 -332q-218 0 -418 96q-69 26 -69 99q0 41 30.5 71.5t73.5 30.5q25 0 45 -10q153 -86 332 -86q166 0 254 85t88 247v84q-74 -96 -164.5 -147.5t-216.5 -51.5q-96 0 -184 35t-157 98.5t-110 160.5t-41 212v4q0 116 41.5 213.5t110.5 161t157 98.5t183 35
q126 0 216.5 -49.5t162.5 -134.5v51q0 51 36 87t87 36q52 0 88.5 -36t36.5 -89v-748q0 -269 -138 -407q-146 -146 -444 -146zM657 297q132 0 225 84t93 213v4q0 129 -93 213t-225 84q-131 0 -219 -83t-88 -214v-4q0 -130 88.5 -213.5t218.5 -83.5zM668 1214
q-107 0 -188.5 43t-125.5 121q-16 32 -16 64q0 37 24.5 62.5t61.5 25.5q52 0 78 -47q53 -94 166 -94q116 0 166 94q26 47 77 47q37 0 61.5 -25.5t24.5 -62.5q0 -32 -16 -64q-45 -79 -125 -121.5t-188 -42.5z" />
    <glyph glyph-name="Gdotaccent" unicode="&#x120;" horiz-adv-x="1605" 
d="M864 -25q-220 0 -390.5 97.5t-261.5 265t-91 375.5v4q0 149 55.5 284.5t151.5 236.5t235 160.5t297 59.5q156 0 272 -36t218 -109q51 -37 51 -103q0 -51 -36.5 -88t-88.5 -37q-37 0 -78 29q-75 56 -156.5 84.5t-191.5 28.5q-129 0 -236.5 -69t-168 -185t-60.5 -252v-4
q0 -147 60 -263t171.5 -182.5t255.5 -66.5q203 0 347 108v269h-283q-46 0 -79.5 31.5t-33.5 76.5q0 46 33.5 78.5t79.5 32.5h399q54 0 90.5 -36.5t36.5 -90.5v-383q0 -105 -88 -160q-234 -156 -510 -156zM983 1702v-14q0 -56 -40 -90.5t-99 -34.5q-58 0 -97.5 34.5
t-39.5 90.5v14q0 56 39.5 91.5t97.5 35.5t98.5 -35.5t40.5 -91.5z" />
    <glyph glyph-name="gdotaccent" unicode="&#x121;" 
d="M637 -332q-218 0 -418 96q-69 26 -69 99q0 41 30.5 71.5t73.5 30.5q25 0 45 -10q153 -86 332 -86q166 0 254 85t88 247v84q-74 -96 -164.5 -147.5t-216.5 -51.5q-96 0 -184 35t-157 98.5t-110 160.5t-41 212v4q0 116 41.5 213.5t110.5 161t157 98.5t183 35
q126 0 216.5 -49.5t162.5 -134.5v51q0 51 36 87t87 36q52 0 88.5 -36t36.5 -89v-748q0 -269 -138 -407q-146 -146 -444 -146zM657 297q132 0 225 84t93 213v4q0 129 -93 213t-225 84q-131 0 -219 -83t-88 -214v-4q0 -130 88.5 -213.5t218.5 -83.5zM807 1348v-15
q0 -56 -40 -90.5t-99 -34.5q-58 0 -98 34.5t-40 90.5v15q0 56 40 91.5t98 35.5t98.5 -35.5t40.5 -91.5z" />
    <glyph glyph-name="Gcommaaccent" unicode="&#x122;" horiz-adv-x="1605" 
d="M825 -346q-49 8 -79.5 35.5t-30.5 72.5v5q0 47 35 77.5t90 30.5q60 0 95.5 -39t35.5 -104v-6q0 -146 -88 -222q-33 -30 -82.5 -48.5t-93.5 -18.5q-26 0 -40 12.5t-14 30.5q0 34 43 43q132 29 129 131zM864 -25q-220 0 -390.5 97.5t-261.5 265t-91 375.5v4
q0 149 55.5 284.5t151.5 236.5t235 160.5t297 59.5q156 0 272 -36t218 -109q51 -37 51 -103q0 -51 -36.5 -88t-88.5 -37q-37 0 -78 29q-75 56 -156.5 84.5t-191.5 28.5q-129 0 -236.5 -69t-168 -185t-60.5 -252v-4q0 -147 60 -263t171.5 -182.5t255.5 -66.5q203 0 347 108
v269h-283q-46 0 -79.5 31.5t-33.5 76.5q0 46 33.5 78.5t79.5 32.5h399q54 0 90.5 -36.5t36.5 -90.5v-383q0 -105 -88 -160q-234 -156 -510 -156z" />
    <glyph glyph-name="gcommaaccent" unicode="&#x123;" 
d="M682 1427q49 -8 80 -35.5t31 -72.5v-4q0 -48 -35 -78.5t-90 -30.5q-60 0 -95.5 39.5t-35.5 104.5v6q0 145 88 221q33 30 83 49t93 19q26 0 39.5 -12t13.5 -31q0 -34 -43 -43q-132 -29 -129 -132zM637 -332q-218 0 -418 96q-69 26 -69 99q0 41 30.5 71.5t73.5 30.5
q25 0 45 -10q153 -86 332 -86q166 0 254 85t88 247v84q-74 -96 -164.5 -147.5t-216.5 -51.5q-96 0 -184 35t-157 98.5t-110 160.5t-41 212v4q0 116 41.5 213.5t110.5 161t157 98.5t183 35q126 0 216.5 -49.5t162.5 -134.5v51q0 51 36 87t87 36q52 0 88.5 -36t36.5 -89v-748
q0 -269 -138 -407q-146 -146 -444 -146zM657 297q132 0 225 84t93 213v4q0 129 -93 213t-225 84q-131 0 -219 -83t-88 -214v-4q0 -130 88.5 -213.5t218.5 -83.5z" />
    <glyph glyph-name="Hbar" unicode="&#x126;" horiz-adv-x="1593" 
d="M203 115v932h-68q-37 0 -63.5 26.5t-26.5 61.5q0 37 26.5 63.5t63.5 26.5h68v94q0 53 36.5 89t90.5 36q52 0 88.5 -36t36.5 -89v-94h684v94q0 53 36.5 89t88.5 36q54 0 90.5 -36t36.5 -89v-94h65q37 0 63.5 -26.5t26.5 -63.5q0 -35 -26.5 -61.5t-63.5 -26.5h-65v-932
q0 -53 -36.5 -89t-90.5 -36q-52 0 -88.5 36t-36.5 89v489h-684v-489q0 -53 -36.5 -89t-88.5 -36q-54 0 -90.5 36t-36.5 89zM455 838h684v209h-684v-209z" />
    <glyph glyph-name="hbar" unicode="&#x127;" horiz-adv-x="1269" 
d="M156 113v1120h-78q-31 0 -52.5 21.5t-21.5 52.5q0 29 22 51t52 22h78v2q0 51 35.5 87t87.5 36t88 -36t36 -87v-2h273q30 0 52 -22t22 -51q0 -31 -21.5 -52.5t-52.5 -21.5h-273v-318q132 189 338 189q181 0 283 -112t102 -302v-577q0 -53 -35 -88t-87 -35q-53 0 -89 35.5
t-36 87.5v501q0 126 -61 195.5t-171 69.5q-109 0 -176.5 -72.5t-67.5 -196.5v-497q0 -52 -35.5 -87.5t-88.5 -35.5q-51 0 -87 35.5t-36 87.5z" />
    <glyph glyph-name="Imacron" unicode="&#x12a;" horiz-adv-x="649" 
d="M199 115v1204q0 53 36.5 89t90.5 36q52 0 88.5 -36t36.5 -89v-1204q0 -53 -36.5 -89t-88.5 -36q-54 0 -90.5 36t-36.5 89zM598 1575h-545q-37 0 -63.5 26.5t-26.5 63.5t26.5 63.5t63.5 26.5h545q37 0 63.5 -26.5t26.5 -63.5t-26.5 -63.5t-63.5 -26.5z" />
    <glyph glyph-name="imacron" unicode="&#x12b;" horiz-adv-x="585" 
d="M170 113v856q0 53 35.5 89t87.5 36q53 0 89 -36t36 -89v-856q0 -52 -36 -87.5t-89 -35.5q-51 0 -87 35.5t-36 87.5zM565 1241h-545q-37 0 -63.5 26.5t-26.5 63.5t26.5 63.5t63.5 26.5h545q37 0 63.5 -26.5t26.5 -63.5t-26.5 -63.5t-63.5 -26.5z" />
    <glyph glyph-name="Ibreve" unicode="&#x12c;" horiz-adv-x="649" 
d="M199 115v1204q0 53 36.5 89t90.5 36q52 0 88.5 -36t36.5 -89v-1204q0 -53 -36.5 -89t-88.5 -36q-54 0 -90.5 36t-36.5 89zM326 1548q-107 0 -188.5 43t-125.5 121q-16 32 -16 64q0 37 24.5 62.5t61.5 25.5q52 0 78 -47q54 -95 166 -95q116 0 166 95q26 47 77 47
q37 0 61.5 -25.5t24.5 -62.5q0 -32 -16 -64q-45 -79 -125 -121.5t-188 -42.5z" />
    <glyph glyph-name="ibreve" unicode="&#x12d;" horiz-adv-x="585" 
d="M170 113v856q0 53 35.5 89t87.5 36q53 0 89 -36t36 -89v-856q0 -52 -36 -87.5t-89 -35.5q-51 0 -87 35.5t-36 87.5zM293 1214q-107 0 -187.5 43t-125.5 121q-17 34 -17 64q0 37 24.5 62.5t61.5 25.5q52 0 78 -47q53 -94 166 -94q116 0 166 94q26 47 78 47
q37 0 61.5 -25.5t24.5 -62.5q0 -30 -17 -64q-45 -79 -125 -121.5t-188 -42.5z" />
    <glyph glyph-name="Iogonek" unicode="&#x12e;" horiz-adv-x="649" 
d="M137 -168q0 48 23.5 92t75.5 99q-37 32 -37 83v1213q0 53 36.5 89t90.5 36q52 0 88.5 -36t36.5 -89v-1206q0 -55 -48 -103q-44 -45 -61.5 -76.5t-17.5 -62.5q0 -35 22 -54t68 -30q69 -15 69 -63q0 -30 -21.5 -47t-60.5 -17q-111 0 -187.5 43t-76.5 129z" />
    <glyph glyph-name="iogonek" unicode="&#x12f;" horiz-adv-x="585" 
d="M418 969v-863q0 -30 -11 -51.5t-38 -46.5q-82 -79 -82 -139q0 -34 21.5 -52.5t66.5 -29.5q67 -15 67 -63q0 -30 -21.5 -47t-60.5 -17q-109 0 -185.5 42t-76.5 124q0 98 109 197q-37 32 -37 81v865q0 53 35.5 89t87.5 36q53 0 89 -36t36 -89zM152 1360v12q0 55 40 88
t101 33t101 -33t40 -88v-12q0 -55 -40 -89t-101 -34t-101 34t-40 89z" />
    <glyph glyph-name="Idotaccent" unicode="&#x130;" horiz-adv-x="649" 
d="M199 115v1204q0 53 36.5 89t90.5 36q52 0 88.5 -36t36.5 -89v-1204q0 -53 -36.5 -89t-88.5 -36q-54 0 -90.5 36t-36.5 89zM465 1681v-14q0 -56 -40 -90.5t-99 -34.5q-58 0 -98 34.5t-40 90.5v14q0 56 40 91.5t98 35.5t98.5 -35.5t40.5 -91.5z" />
    <glyph glyph-name="dotlessi" unicode="&#x131;" horiz-adv-x="585" 
d="M170 113v856q0 53 35.5 89t87.5 36q53 0 89 -36t36 -89v-856q0 -52 -36 -87.5t-89 -35.5q-51 0 -87 35.5t-36 87.5z" />
    <glyph glyph-name="Kcommaaccent" unicode="&#x136;" horiz-adv-x="1460" 
d="M729 -330q-49 8 -80 36t-31 73v4q0 47 35 77.5t90 30.5q60 0 95.5 -39t35.5 -104v-6q0 -145 -88 -221q-33 -30 -83 -49t-93 -19q-26 0 -39.5 12t-13.5 31q0 34 43 43q132 29 129 131zM184 115v1204q0 53 36.5 89t90.5 36q53 0 89 -36t36 -89v-606l680 684q44 47 105 47
q51 0 83.5 -35t32.5 -82q0 -52 -45 -94l-446 -430l483 -600q35 -47 35 -90q0 -52 -36.5 -87.5t-90.5 -35.5q-61 0 -107 59l-460 588l-234 -225v-297q0 -53 -36 -89t-89 -36q-54 0 -90.5 36t-36.5 89z" />
    <glyph glyph-name="kcommaaccent" unicode="&#x137;" horiz-adv-x="1187" 
d="M604 -340q-49 8 -79.5 36t-30.5 73v4q0 48 34.5 78t89.5 30q60 0 96 -39t36 -104v-6q0 -145 -88 -221q-33 -30 -83 -49t-94 -19q-26 0 -39.5 12t-13.5 31q0 34 43 43q132 29 129 131zM156 113v1269q0 51 35.5 87t87.5 36t88 -36t36 -87v-798l465 456q54 54 107 54
q48 0 78 -33.5t30 -79.5q0 -52 -55 -104l-287 -265l328 -428q33 -44 33 -82q0 -50 -34 -81t-83 -31q-36 0 -60 12.5t-48 42.5l-310 412l-164 -156v-188q0 -52 -35.5 -87.5t-88.5 -35.5q-51 0 -87 35.5t-36 87.5z" />
    <glyph glyph-name="Lacute" unicode="&#x139;" horiz-adv-x="1267" 
d="M346 1542q-27 0 -44 11.5t-17 31.5q0 21 16 45l117 180q37 60 98 60q51 0 99.5 -25.5t48.5 -54.5q0 -30 -35 -61l-137 -132q-35 -32 -67.5 -43.5t-78.5 -11.5zM184 127v1192q0 53 36.5 89t90.5 36q53 0 89 -36t36 -89v-1090h649q47 0 81 -33.5t34 -80.5t-34 -81t-81 -34
h-774q-54 0 -90.5 36.5t-36.5 90.5z" />
    <glyph glyph-name="lacute" unicode="&#x13a;" horiz-adv-x="585" 
d="M289 1577q-27 0 -44.5 11.5t-17.5 31.5t17 45l116 180q37 60 99 60q50 0 98.5 -25.5t48.5 -54.5q0 -31 -35 -62l-137 -131q-35 -32 -67.5 -43.5t-77.5 -11.5zM170 113v1269q0 51 35.5 87t87.5 36t88.5 -36t36.5 -87v-1269q0 -52 -36 -87.5t-89 -35.5q-51 0 -87 35.5
t-36 87.5z" />
    <glyph glyph-name="Lcommaaccent" unicode="&#x13b;" horiz-adv-x="1267" 
d="M666 -340q-49 8 -80 36t-31 73v4q0 47 35 77.5t90 30.5q60 0 95.5 -39t35.5 -104v-6q0 -145 -88 -221q-33 -30 -83 -49t-93 -19q-26 0 -39.5 12t-13.5 31q0 34 43 43q132 29 129 131zM184 127v1192q0 53 36.5 89t90.5 36q53 0 89 -36t36 -89v-1090h649q47 0 81 -33.5
t34 -80.5t-34 -81t-81 -34h-774q-54 0 -90.5 36.5t-36.5 90.5z" />
    <glyph glyph-name="lcommaaccent" unicode="&#x13c;" horiz-adv-x="585" 
d="M276 -340q-49 8 -79.5 36t-30.5 73v4q0 47 35 77.5t90 30.5q60 0 95.5 -39t35.5 -104v-6q0 -145 -88 -221q-33 -30 -83 -49t-93 -19q-26 0 -40 12.5t-14 30.5q0 34 43 43q132 29 129 131zM170 113v1269q0 51 35.5 87t87.5 36t88.5 -36t36.5 -87v-1269q0 -52 -36 -87.5
t-89 -35.5q-51 0 -87 35.5t-36 87.5z" />
    <glyph glyph-name="Lcaron" unicode="&#x13d;" horiz-adv-x="1267" 
d="M608 1094l6 254q2 39 27 64.5t64 25.5h36q29 0 46.5 -16t17.5 -44q0 -23 -8 -47l-76 -248q-15 -51 -59 -51q-25 0 -40 16.5t-14 45.5zM184 127v1192q0 53 36.5 89t90.5 36q53 0 89 -36t36 -89v-1090h649q47 0 81 -33.5t34 -80.5t-34 -81t-81 -34h-774q-54 0 -90.5 36.5
t-36.5 90.5z" />
    <glyph glyph-name="lcaron" unicode="&#x13e;" horiz-adv-x="585" 
d="M532 1161l7 254q2 39 26.5 64.5t63.5 25.5h37q29 0 46 -15.5t17 -43.5q0 -23 -8 -47l-76 -248q-15 -51 -59 -51q-25 0 -40 16t-14 45zM170 113v1269q0 51 35.5 87t87.5 36t88.5 -36t36.5 -87v-1269q0 -52 -36 -87.5t-89 -35.5q-51 0 -87 35.5t-36 87.5z" />
    <glyph glyph-name="Ldot" unicode="&#x13f;" horiz-adv-x="1267" 
d="M184 127v1192q0 53 36.5 89t90.5 36q53 0 89 -36t36 -89v-1090h649q47 0 81 -33.5t34 -80.5t-34 -81t-81 -34h-774q-54 0 -90.5 36.5t-36.5 90.5zM1112 780v-14q0 -56 -40 -90.5t-99 -34.5q-58 0 -97.5 34.5t-39.5 90.5v14q0 56 39.5 91.5t97.5 35.5t98.5 -35.5
t40.5 -91.5z" />
    <glyph glyph-name="ldot" unicode="&#x140;" horiz-adv-x="751" 
d="M782 778v-22q0 -48 -31.5 -80.5t-80.5 -32.5t-81 32.5t-32 80.5v22q0 48 32 80.5t81 32.5t80.5 -32.5t31.5 -80.5zM170 113v1269q0 51 35.5 87t87.5 36t88.5 -36t36.5 -87v-1269q0 -52 -36 -87.5t-89 -35.5q-51 0 -87 35.5t-36 87.5z" />
    <glyph glyph-name="Lslash" unicode="&#x141;" horiz-adv-x="1329" 
d="M840 750l-344 -105v-416h651q47 0 81 -33.5t34 -80.5t-34 -81t-81 -34h-774q-54 0 -90.5 36.5t-36.5 90.5v442l-13 -4q-5 -1 -14 -2.5t-15.5 -2.5t-10.5 -1q-47 0 -79 33.5t-32 81.5q0 39 22 67t58 39l84 25v514q0 53 36 89t89 36t89 -36t36 -89v-438l272 82q21 6 41 6
q46 0 78.5 -33.5t32.5 -79.5q0 -40 -22.5 -68.5t-57.5 -37.5z" />
    <glyph glyph-name="lslash" unicode="&#x142;" horiz-adv-x="708" 
d="M567 709l-90 -29v-567q0 -53 -35.5 -88t-87.5 -35q-51 0 -87 35.5t-36 87.5v493l-18 -4q-21 -6 -41 -6q-47 0 -79 33t-32 80q0 40 22.5 67.5t57.5 38.5q39 13 90 27v540q0 51 35.5 87t87.5 36t87.5 -36t35.5 -87v-467l19 7q21 6 41 6q47 0 78.5 -33.5t31.5 -79.5
q0 -40 -22 -68.5t-58 -37.5z" />
    <glyph glyph-name="Nacute" unicode="&#x143;" horiz-adv-x="1617" 
d="M801 1542q-27 0 -44.5 11.5t-17.5 31.5q0 19 17 45l116 180q37 60 99 60q50 0 98.5 -25.5t48.5 -54.5q0 -30 -35 -61l-137 -132q-35 -32 -67.5 -43.5t-77.5 -11.5zM184 113v1202q0 53 36.5 90t90.5 37h27q42 0 71.5 -18.5t59.5 -55.5l717 -928v881q0 51 36 87t87 36
q52 0 88.5 -36t36.5 -87v-1204q0 -53 -35.5 -89t-87.5 -36h-11q-72 0 -131 76l-737 954v-909q0 -51 -36 -87t-87 -36q-52 0 -88.5 36t-36.5 87z" />
    <glyph glyph-name="nacute" unicode="&#x144;" horiz-adv-x="1269" 
d="M633 1208q-27 0 -44.5 11.5t-17.5 31.5q0 19 17 45l117 181q37 59 98 59q50 0 98.5 -25.5t48.5 -54.5q0 -30 -35 -61l-137 -131q-35 -32 -67.5 -44t-77.5 -12zM156 113v856q0 53 35.5 89t87.5 36t88 -36t36 -89v-54q132 189 338 189q181 0 283 -112t102 -302v-577
q0 -53 -35 -88t-87 -35q-53 0 -89 35.5t-36 87.5v501q0 126 -61 195.5t-171 69.5q-109 0 -176.5 -72.5t-67.5 -196.5v-497q0 -52 -35.5 -87.5t-88.5 -35.5q-51 0 -87 35.5t-36 87.5z" />
    <glyph glyph-name="Ncommaaccent" unicode="&#x145;" horiz-adv-x="1617" 
d="M791 -330q-49 8 -80 36t-31 73v4q0 47 35 77.5t90 30.5q60 0 95.5 -39t35.5 -104v-6q0 -145 -88 -221q-33 -30 -83 -49t-93 -19q-26 0 -40 12.5t-14 30.5q0 34 44 43q132 29 129 131zM184 113v1202q0 53 36.5 90t90.5 37h27q42 0 71.5 -18.5t59.5 -55.5l717 -928v881
q0 51 36 87t87 36q52 0 88.5 -36t36.5 -87v-1204q0 -53 -35.5 -89t-87.5 -36h-11q-72 0 -131 76l-737 954v-909q0 -51 -36 -87t-87 -36q-52 0 -88.5 36t-36.5 87z" />
    <glyph glyph-name="ncommaaccent" unicode="&#x146;" horiz-adv-x="1269" 
d="M623 -340q-49 8 -80 36t-31 73v4q0 47 35 77.5t90 30.5q60 0 95.5 -39t35.5 -104v-6q0 -145 -88 -221q-33 -30 -83 -49t-93 -19q-26 0 -39.5 12t-13.5 31q0 34 43 43q132 29 129 131zM156 113v856q0 53 35.5 89t87.5 36t88 -36t36 -89v-54q132 189 338 189
q181 0 283 -112t102 -302v-577q0 -53 -35 -88t-87 -35q-53 0 -89 35.5t-36 87.5v501q0 126 -61 195.5t-171 69.5q-109 0 -176.5 -72.5t-67.5 -196.5v-497q0 -52 -35.5 -87.5t-88.5 -35.5q-51 0 -87 35.5t-36 87.5z" />
    <glyph glyph-name="Ncaron" unicode="&#x147;" horiz-adv-x="1617" 
d="M811 1716l107 92q40 33 73 44.5t78 11.5q55 0 55 -41q0 -17 -24 -49l-135 -170q-47 -60 -119 -60h-74q-40 0 -66.5 15t-52.5 45l-135 170q-24 32 -24 49q0 20 16.5 30.5t42.5 10.5q45 0 79.5 -12t72.5 -44zM184 113v1202q0 53 36.5 90t90.5 37h27q42 0 71.5 -18.5
t59.5 -55.5l717 -928v881q0 51 36 87t87 36q52 0 88.5 -36t36.5 -87v-1204q0 -53 -35.5 -89t-87.5 -36h-11q-72 0 -131 76l-737 954v-909q0 -51 -36 -87t-87 -36q-52 0 -88.5 36t-36.5 87z" />
    <glyph glyph-name="ncaron" unicode="&#x148;" horiz-adv-x="1269" 
d="M641 1382l107 93q39 32 72.5 43.5t78.5 11.5q55 0 55 -41q0 -17 -24 -49l-135 -170q-47 -60 -119 -60h-74q-40 0 -66.5 15t-52.5 45l-135 170q-24 32 -24 49q0 20 16.5 30.5t42.5 10.5q46 0 80 -11.5t72 -43.5zM156 113v856q0 53 35.5 89t87.5 36t88 -36t36 -89v-54
q132 189 338 189q181 0 283 -112t102 -302v-577q0 -53 -35 -88t-87 -35q-53 0 -89 35.5t-36 87.5v501q0 126 -61 195.5t-171 69.5q-109 0 -176.5 -72.5t-67.5 -196.5v-497q0 -52 -35.5 -87.5t-88.5 -35.5q-51 0 -87 35.5t-36 87.5z" />
    <glyph glyph-name="Omacron" unicode="&#x14c;" horiz-adv-x="1740" 
d="M1143 1595h-545q-37 0 -63.5 27t-26.5 64t26.5 63.5t63.5 26.5h545q37 0 63.5 -26.5t26.5 -63.5t-26.5 -64t-63.5 -27zM868 -25q-215 0 -387 100.5t-266 268.5t-94 369v4q0 150 56 285.5t154 236t239 160t302 59.5t301.5 -58.5t238 -158.5t153 -235t55.5 -285v-4
q0 -150 -56 -286t-154 -236.5t-239.5 -160t-302.5 -59.5zM872 209q139 0 250.5 67.5t172.5 182.5t61 254v4q0 139 -62 255.5t-174.5 185.5t-251.5 69t-250.5 -68t-172 -183.5t-60.5 -254.5v-4q0 -139 61.5 -255t174 -184.5t251.5 -68.5z" />
    <glyph glyph-name="omacron" unicode="&#x14d;" horiz-adv-x="1345" 
d="M944 1241h-545q-37 0 -63.5 26.5t-26.5 63.5t26.5 63.5t63.5 26.5h545q37 0 63.5 -26.5t26.5 -63.5t-26.5 -63.5t-63.5 -26.5zM670 -25q-121 0 -228.5 44.5t-183 120t-119 178.5t-43.5 217v4q0 153 74.5 282.5t208 206t295.5 76.5q122 0 229.5 -44.5t183 -120t119 -178.5
t43.5 -218v-4q0 -114 -44 -217.5t-120 -180t-184 -121.5t-231 -45zM674 193q147 0 237 99t90 243v4q0 145 -93.5 246.5t-237.5 101.5q-146 0 -236 -99.5t-90 -244.5v-4q0 -144 94 -245t236 -101z" />
    <glyph glyph-name="Obreve" unicode="&#x14e;" horiz-adv-x="1740" 
d="M868 -25q-215 0 -387 100.5t-266 268.5t-94 369v4q0 150 56 285.5t154 236t239 160t302 59.5t301.5 -58.5t238 -158.5t153 -235t55.5 -285v-4q0 -150 -56 -286t-154 -236.5t-239.5 -160t-302.5 -59.5zM872 209q139 0 250.5 67.5t172.5 182.5t61 254v4q0 139 -62 255.5
t-174.5 185.5t-251.5 69t-250.5 -68t-172 -183.5t-60.5 -254.5v-4q0 -139 61.5 -255t174 -184.5t251.5 -68.5zM870 1569q-107 0 -187.5 43t-125.5 121q-16 32 -16 63q0 37 24.5 62.5t61.5 25.5q52 0 78 -47q53 -94 165 -94q116 0 166 94q26 47 78 47q37 0 61.5 -25.5
t24.5 -62.5q0 -31 -16 -63q-45 -79 -125.5 -121.5t-188.5 -42.5z" />
    <glyph glyph-name="obreve" unicode="&#x14f;" horiz-adv-x="1345" 
d="M670 -25q-121 0 -228.5 44.5t-183 120t-119 178.5t-43.5 217v4q0 153 74.5 282.5t208 206t295.5 76.5q122 0 229.5 -44.5t183 -120t119 -178.5t43.5 -218v-4q0 -114 -44 -217.5t-120 -180t-184 -121.5t-231 -45zM674 193q147 0 237 99t90 243v4q0 145 -93.5 246.5
t-237.5 101.5q-146 0 -236 -99.5t-90 -244.5v-4q0 -144 94 -245t236 -101zM672 1214q-107 0 -188.5 43t-125.5 121q-16 32 -16 64q0 37 24.5 62.5t61.5 25.5q52 0 78 -47q53 -94 166 -94q116 0 166 94q26 47 77 47q37 0 61.5 -25.5t24.5 -62.5q0 -32 -16 -64
q-45 -79 -125 -121.5t-188 -42.5z" />
    <glyph glyph-name="Ohungarumlaut" unicode="&#x150;" horiz-adv-x="1740" 
d="M1030 1563q-27 0 -43 11.5t-16 31.5q0 21 16 45l119 180q35 59 94 59q49 0 96 -24.5t47 -53.5t-34 -63l-138 -131q-35 -33 -65.5 -44t-75.5 -11zM655 1563q-27 0 -43 11.5t-16 31.5q0 21 16 45l119 180q35 59 94 59q49 0 96.5 -25t47.5 -53t-35 -63l-137 -131
q-34 -32 -65.5 -43.5t-76.5 -11.5zM868 -25q-215 0 -387 100.5t-266 268.5t-94 369v4q0 150 56 285.5t154 236t239 160t302 59.5t301.5 -58.5t238 -158.5t153 -235t55.5 -285v-4q0 -150 -56 -286t-154 -236.5t-239.5 -160t-302.5 -59.5zM872 209q139 0 250.5 67.5
t172.5 182.5t61 254v4q0 139 -62 255.5t-174.5 185.5t-251.5 69t-250.5 -68t-172 -183.5t-60.5 -254.5v-4q0 -139 61.5 -255t174 -184.5t251.5 -68.5z" />
    <glyph glyph-name="ohungarumlaut" unicode="&#x151;" horiz-adv-x="1345" 
d="M834 1208q-27 0 -43.5 11.5t-16.5 31.5q0 19 17 45l118 181q35 59 95 59q49 0 96 -24.5t47 -53.5q0 -28 -35 -63l-137 -131q-36 -33 -66.5 -44.5t-74.5 -11.5zM459 1208q-27 0 -43.5 11.5t-16.5 31.5q0 19 17 45l119 181q35 59 94 59q49 0 96 -24.5t47 -53.5
q0 -28 -35 -63l-137 -131q-34 -33 -65 -44.5t-76 -11.5zM670 -25q-121 0 -228.5 44.5t-183 120t-119 178.5t-43.5 217v4q0 153 74.5 282.5t208 206t295.5 76.5q122 0 229.5 -44.5t183 -120t119 -178.5t43.5 -218v-4q0 -114 -44 -217.5t-120 -180t-184 -121.5t-231 -45z
M674 193q147 0 237 99t90 243v4q0 145 -93.5 246.5t-237.5 101.5q-146 0 -236 -99.5t-90 -244.5v-4q0 -144 94 -245t236 -101z" />
    <glyph glyph-name="OE" unicode="&#x152;" horiz-adv-x="2248" 
d="M883 0q-166 0 -308.5 54.5t-242 149.5t-155.5 226.5t-56 282.5v4q0 150 56 282t155 228t242 151.5t309 55.5h1138q47 0 81 -33.5t34 -79.5q0 -47 -34 -80t-81 -33h-663v-372h571q47 0 81 -34t34 -81q0 -46 -34 -78.5t-81 -32.5h-571v-385h674q47 0 80.5 -33t33.5 -79
q0 -47 -33.5 -80t-80.5 -33h-1149zM883 229h223v975h-223q-224 0 -361 -135t-137 -348v-4q0 -213 137.5 -350.5t360.5 -137.5z" />
    <glyph glyph-name="oe" unicode="&#x153;" horiz-adv-x="2129" 
d="M1233 616h557q-14 126 -85 205.5t-189 79.5q-114 0 -189.5 -78.5t-93.5 -206.5zM668 193q143 0 231 99t88 243v4q0 145 -92 246.5t-231 101.5q-142 0 -231 -100.5t-89 -243.5v-4q0 -143 92.5 -244.5t231.5 -101.5zM1931 119q-160 -144 -387 -144q-140 0 -256.5 60.5
t-189.5 167.5q-72 -105 -188 -166.5t-253 -61.5q-153 0 -282 75.5t-204 204.5t-75 280v4q0 114 44.5 218.5t120.5 180.5t182.5 121t224.5 45q135 0 248.5 -60t183.5 -163q69 104 178 163.5t240 59.5q99 0 184 -31.5t144.5 -84t101.5 -121.5t62 -144.5t20 -151.5
q0 -52 -33.5 -85t-83.5 -33h-678q21 -130 105.5 -202.5t205.5 -72.5q141 0 256 94q30 23 64 23q43 0 70.5 -28.5t27.5 -71.5q0 -46 -33 -76z" />
    <glyph glyph-name="Racute" unicode="&#x154;" horiz-adv-x="1480" 
d="M184 115v1192q0 54 36.5 90.5t90.5 36.5h512q267 0 414 -144q119 -122 119 -309v-4q0 -166 -87.5 -274t-238.5 -154l275 -346q41 -51 41 -97q0 -51 -36.5 -83.5t-84.5 -32.5q-75 0 -123 65l-348 445h-318v-385q0 -53 -36 -89t-89 -36q-54 0 -90.5 36t-36.5 89zM436 723
h369q135 0 215 65.5t80 174.5v4q0 114 -78 175.5t-219 61.5h-367v-481zM748 1542q-27 0 -44.5 11.5t-17.5 31.5q0 21 16 45l117 180q37 60 99 60q50 0 98.5 -25.5t48.5 -54.5q0 -30 -35 -61l-137 -132q-35 -32 -67.5 -43.5t-77.5 -11.5z" />
    <glyph glyph-name="racute" unicode="&#x155;" horiz-adv-x="845" 
d="M451 1208q-27 0 -44.5 11.5t-17.5 31.5q0 19 17 45l116 181q37 59 99 59q50 0 98.5 -25.5t48.5 -54.5q0 -30 -35 -61l-137 -131q-35 -32 -67.5 -44t-77.5 -12zM156 113v856q0 53 35.5 89t87.5 36t88 -36t36 -89v-111q44 104 118.5 171t154.5 67q57 0 90 -34t33 -89
q0 -48 -28 -79.5t-71 -39.5q-138 -24 -217.5 -130.5t-79.5 -291.5v-319q0 -51 -36 -87t-88 -36q-51 0 -87 35.5t-36 87.5z" />
    <glyph glyph-name="Rcommaaccent" unicode="&#x156;" horiz-adv-x="1480" 
d="M184 115v1192q0 54 36.5 90.5t90.5 36.5h512q267 0 414 -144q119 -122 119 -309v-4q0 -166 -87.5 -274t-238.5 -154l275 -346q41 -51 41 -97q0 -51 -36.5 -83.5t-84.5 -32.5q-75 0 -123 65l-348 445h-318v-385q0 -53 -36 -89t-89 -36q-54 0 -90.5 36t-36.5 89zM436 723
h369q135 0 215 65.5t80 174.5v4q0 114 -78 175.5t-219 61.5h-367v-481zM737 -330q-49 8 -79.5 36t-30.5 73v4q0 47 35 77.5t90 30.5q60 0 95.5 -39t35.5 -104v-6q0 -145 -88 -221q-33 -30 -83 -49t-94 -19q-26 0 -39.5 12t-13.5 31q0 34 43 43q132 29 129 131z" />
    <glyph glyph-name="rcommaaccent" unicode="&#x157;" horiz-adv-x="845" 
d="M276 -340q-49 8 -79.5 36t-30.5 73v4q0 47 35 77.5t90 30.5q60 0 95.5 -39t35.5 -104v-6q0 -145 -88 -221q-33 -30 -83 -49t-93 -19q-26 0 -40 12.5t-14 30.5q0 34 43 43q132 29 129 131zM156 113v856q0 53 35.5 89t87.5 36t88 -36t36 -89v-111q44 104 118.5 171
t154.5 67q57 0 90 -34t33 -89q0 -48 -28 -79.5t-71 -39.5q-138 -24 -217.5 -130.5t-79.5 -291.5v-319q0 -51 -36 -87t-88 -36q-51 0 -87 35.5t-36 87.5z" />
    <glyph glyph-name="Rcaron" unicode="&#x158;" horiz-adv-x="1480" 
d="M184 115v1192q0 54 36.5 90.5t90.5 36.5h512q267 0 414 -144q119 -122 119 -309v-4q0 -166 -87.5 -274t-238.5 -154l275 -346q41 -51 41 -97q0 -51 -36.5 -83.5t-84.5 -32.5q-75 0 -123 65l-348 445h-318v-385q0 -53 -36 -89t-89 -36q-54 0 -90.5 36t-36.5 89zM436 723
h369q135 0 215 65.5t80 174.5v4q0 114 -78 175.5t-219 61.5h-367v-481zM756 1716l106 92q40 32 73.5 44t78.5 12q55 0 55 -41q0 -16 -25 -49l-135 -170q-47 -60 -118 -60h-74q-40 0 -66.5 15t-52.5 45l-135 170q-25 33 -25 49q0 19 17 30t43 11q45 0 79 -12t72 -44z" />
    <glyph glyph-name="rcaron" unicode="&#x159;" horiz-adv-x="845" 
d="M461 1382l106 93q39 32 73 43.5t79 11.5q55 0 55 -41q0 -17 -24 -49l-136 -170q-47 -60 -118 -60h-74q-40 0 -66.5 15t-52.5 45l-135 170q-25 33 -25 49q0 19 17 30t43 11q46 0 79.5 -11.5t71.5 -43.5zM156 113v856q0 53 35.5 89t87.5 36t88 -36t36 -89v-111
q44 104 118.5 171t154.5 67q57 0 90 -34t33 -89q0 -48 -28 -79.5t-71 -39.5q-138 -24 -217.5 -130.5t-79.5 -291.5v-319q0 -51 -36 -87t-88 -36q-51 0 -87 35.5t-36 87.5z" />
    <glyph glyph-name="Sacute" unicode="&#x15a;" horiz-adv-x="1310" 
d="M659 1563q-27 0 -44 11.5t-17 31.5q0 21 16 45l117 180q37 59 98 59q51 0 99.5 -25.5t48.5 -54.5q0 -30 -35 -61l-137 -131q-35 -32 -67.5 -43.5t-78.5 -11.5zM686 -20q-297 0 -539 180q-49 34 -49 96q0 49 34.5 83t84.5 34q43 0 74 -23q186 -147 401 -147q116 0 185 50
t69 130v4q0 54 -25 89.5t-95.5 67.5t-202.5 62q-98 24 -167.5 48t-131.5 58.5t-99.5 78t-58.5 104.5t-21 139v4q0 184 137.5 300t352.5 116q255 0 455 -133q24 -13 39.5 -39t15.5 -61q0 -49 -34.5 -83t-84.5 -34q-35 0 -65 18q-168 109 -330 109q-107 0 -170.5 -48.5
t-63.5 -121.5v-4q0 -58 28.5 -94.5t101 -67.5t212.5 -64q238 -58 348.5 -152.5t110.5 -266.5v-4q0 -198 -141.5 -313t-370.5 -115z" />
    <glyph glyph-name="sacute" unicode="&#x15b;" horiz-adv-x="1026" 
d="M512 1208q-27 0 -44 11.5t-17 31.5q0 21 16 45l117 181q37 59 98 59q50 0 98.5 -25.5t48.5 -54.5q0 -30 -34 -61l-138 -131q-35 -32 -67.5 -44t-77.5 -12zM526 -20q-223 0 -411 129q-47 24 -47 86q0 42 29 71t71 29q28 0 53 -14q156 -105 311 -105q79 0 123.5 31.5
t44.5 85.5v4q0 28 -16.5 50t-49.5 39t-66.5 29t-84.5 27q-16 5 -24 7q-57 16 -97.5 30.5t-89.5 41t-79 57.5t-51 79.5t-21 108.5v4q0 150 109.5 240t275.5 90q174 0 340 -88q59 -30 59 -94q0 -43 -29.5 -72t-72.5 -29q-25 0 -49 12q-145 74 -254 74q-71 0 -111.5 -29.5
t-40.5 -76.5v-4q0 -59 97 -102q34 -16 147 -52q56 -17 96.5 -32.5t89 -43t78.5 -58.5t51 -78t21 -103v-5q0 -164 -112.5 -251.5t-289.5 -87.5z" />
    <glyph glyph-name="Scedilla" unicode="&#x15e;" horiz-adv-x="1310" 
d="M1198 408q0 -180 -117.5 -291.5t-314.5 -132.5l-109 -252q-13 -31 -30.5 -45.5t-48.5 -14.5q-40 0 -92 30t-52 60q0 24 17 48l120 178q-233 28 -424 172q-49 34 -49 96q0 49 34.5 83t84.5 34q43 0 74 -23q186 -147 401 -147q116 0 185 50t69 130v4q0 54 -25 89.5
t-95.5 67.5t-202.5 62q-98 24 -167.5 48t-131.5 58.5t-99.5 78t-58.5 104.5t-21 139v4q0 184 137.5 300t352.5 116q255 0 455 -133q24 -13 39.5 -39t15.5 -61q0 -49 -34.5 -83t-84.5 -34q-35 0 -65 18q-168 109 -330 109q-107 0 -170.5 -48.5t-63.5 -121.5v-4
q0 -58 28.5 -94.5t101 -67.5t212.5 -64q238 -58 348.5 -152.5t110.5 -266.5v-4z" />
    <glyph glyph-name="scedilla" unicode="&#x15f;" horiz-adv-x="1026" 
d="M928 319q0 -146 -90 -231.5t-238 -103.5l-108 -252q-13 -31 -31 -45.5t-49 -14.5q-40 0 -92 30t-52 60q0 24 17 48l123 180q-154 25 -293 119q-47 24 -47 86q0 42 29 71t71 29q28 0 53 -14q156 -105 311 -105q79 0 123.5 31.5t44.5 85.5v4q0 28 -16.5 50t-49.5 39
t-66.5 29t-84.5 27q-16 5 -24 7q-57 16 -97.5 30.5t-89.5 41t-79 57.5t-51 79.5t-21 108.5v4q0 150 109.5 240t275.5 90q174 0 340 -88q59 -30 59 -94q0 -43 -29.5 -72t-72.5 -29q-25 0 -49 12q-145 74 -254 74q-71 0 -111.5 -29.5t-40.5 -76.5v-4q0 -59 97 -102
q34 -16 147 -52q56 -17 96.5 -32.5t89 -43t78.5 -58.5t51 -78t21 -103v-5z" />
    <glyph glyph-name="Scaron" unicode="&#x160;" horiz-adv-x="1310" 
d="M668 1737l106 92q39 32 73 43.5t79 11.5q55 0 55 -41q0 -16 -25 -49l-135 -170q-46 -59 -119 -59h-73q-70 0 -119 59l-135 170q-25 33 -25 49q0 19 17 30t43 11q46 0 79.5 -11.5t71.5 -43.5zM686 -20q-297 0 -539 180q-49 34 -49 96q0 49 34.5 83t84.5 34q43 0 74 -23
q186 -147 401 -147q116 0 185 50t69 130v4q0 54 -25 89.5t-95.5 67.5t-202.5 62q-98 24 -167.5 48t-131.5 58.5t-99.5 78t-58.5 104.5t-21 139v4q0 184 137.5 300t352.5 116q255 0 455 -133q24 -13 39.5 -39t15.5 -61q0 -49 -34.5 -83t-84.5 -34q-35 0 -65 18
q-168 109 -330 109q-107 0 -170.5 -48.5t-63.5 -121.5v-4q0 -58 28.5 -94.5t101 -67.5t212.5 -64q238 -58 348.5 -152.5t110.5 -266.5v-4q0 -198 -141.5 -313t-370.5 -115z" />
    <glyph glyph-name="scaron" unicode="&#x161;" horiz-adv-x="1026" 
d="M520 1382l107 93q39 32 72.5 43.5t78.5 11.5q56 0 56 -41q0 -16 -25 -49l-135 -170q-47 -60 -119 -60h-74q-40 0 -66.5 15t-52.5 45l-135 170q-24 32 -24 49q0 20 16.5 30.5t42.5 10.5q46 0 80 -11.5t72 -43.5zM526 -20q-223 0 -411 129q-47 24 -47 86q0 42 29 71t71 29
q28 0 53 -14q156 -105 311 -105q79 0 123.5 31.5t44.5 85.5v4q0 28 -16.5 50t-49.5 39t-66.5 29t-84.5 27q-16 5 -24 7q-57 16 -97.5 30.5t-89.5 41t-79 57.5t-51 79.5t-21 108.5v4q0 150 109.5 240t275.5 90q174 0 340 -88q59 -30 59 -94q0 -43 -29.5 -72t-72.5 -29
q-25 0 -49 12q-145 74 -254 74q-71 0 -111.5 -29.5t-40.5 -76.5v-4q0 -59 97 -102q34 -16 147 -52q56 -17 96.5 -32.5t89 -43t78.5 -58.5t51 -78t21 -103v-5q0 -164 -112.5 -251.5t-289.5 -87.5z" />
    <glyph glyph-name="Tcommaaccent" unicode="&#x162;" horiz-adv-x="1327" 
d="M645 -340q-49 8 -79.5 36t-30.5 73v4q0 48 34.5 78t89.5 30q60 0 96 -39t36 -104v-6q0 -144 -89 -221q-33 -30 -83 -49t-93 -19q-26 0 -39.5 12t-13.5 31q0 34 43 43q132 29 129 131zM537 115v1085h-349q-49 0 -82.5 34.5t-33.5 82.5t33.5 82.5t82.5 34.5h953
q47 0 80.5 -34.5t33.5 -82.5t-33.5 -82.5t-80.5 -34.5h-350v-1085q0 -52 -37 -88.5t-90 -36.5t-90 36.5t-37 88.5z" />
    <glyph glyph-name="Tcommaaccent" unicode="&#x21a;" horiz-adv-x="1327" 
d="M645 -340q-49 8 -79.5 36t-30.5 73v4q0 48 34.5 78t89.5 30q60 0 96 -39t36 -104v-6q0 -144 -89 -221q-33 -30 -83 -49t-93 -19q-26 0 -39.5 12t-13.5 31q0 34 43 43q132 29 129 131zM537 115v1085h-349q-49 0 -82.5 34.5t-33.5 82.5t33.5 82.5t82.5 34.5h953
q47 0 80.5 -34.5t33.5 -82.5t-33.5 -82.5t-80.5 -34.5h-350v-1085q0 -52 -37 -88.5t-90 -36.5t-90 36.5t-37 88.5z" />
    <glyph glyph-name="tcommaaccent" unicode="&#x163;" horiz-adv-x="841" 
d="M440 -340q-49 8 -79.5 36t-30.5 73v4q0 47 35 77.5t90 30.5q60 0 95.5 -39t35.5 -104v-6q0 -145 -88 -221q-33 -30 -83 -49t-93 -19q-26 0 -40 12.5t-14 30.5q0 34 43 43q132 29 129 131zM518 -18q-311 0 -311 317v569h-41q-44 0 -75.5 31.5t-31.5 75.5t31.5 75t75.5 31
h41v185q0 51 36.5 87t88.5 36q51 0 87 -36t36 -87v-185h194q45 0 77 -31t32 -75t-32.5 -75.5t-76.5 -31.5h-194v-530q0 -135 133 -135q17 0 38.5 3t22.5 3q42 0 73.5 -30.5t31.5 -72.5q0 -32 -19 -58.5t-47 -37.5q-82 -28 -170 -28z" />
    <glyph glyph-name="tcommaaccent" unicode="&#x21b;" horiz-adv-x="841" 
d="M440 -340q-49 8 -79.5 36t-30.5 73v4q0 47 35 77.5t90 30.5q60 0 95.5 -39t35.5 -104v-6q0 -145 -88 -221q-33 -30 -83 -49t-93 -19q-26 0 -40 12.5t-14 30.5q0 34 43 43q132 29 129 131zM518 -18q-311 0 -311 317v569h-41q-44 0 -75.5 31.5t-31.5 75.5t31.5 75t75.5 31
h41v185q0 51 36.5 87t88.5 36q51 0 87 -36t36 -87v-185h194q45 0 77 -31t32 -75t-32.5 -75.5t-76.5 -31.5h-194v-530q0 -135 133 -135q17 0 38.5 3t22.5 3q42 0 73.5 -30.5t31.5 -72.5q0 -32 -19 -58.5t-47 -37.5q-82 -28 -170 -28z" />
    <glyph glyph-name="Tcaron" unicode="&#x164;" horiz-adv-x="1327" 
d="M666 1716l106 92q40 32 73.5 44t78.5 12q55 0 55 -41q0 -16 -25 -49l-135 -170q-47 -60 -119 -60h-73q-40 0 -66.5 15t-52.5 45l-135 170q-25 33 -25 49q0 19 17 30t43 11q45 0 79 -12t72 -44zM537 115v1085h-349q-49 0 -82.5 34.5t-33.5 82.5t33.5 82.5t82.5 34.5h953
q47 0 80.5 -34.5t33.5 -82.5t-33.5 -82.5t-80.5 -34.5h-350v-1085q0 -52 -37 -88.5t-90 -36.5t-90 36.5t-37 88.5z" />
    <glyph glyph-name="tcaron" unicode="&#x165;" horiz-adv-x="841" 
d="M625 1253l6 254q2 39 26.5 64.5t63.5 25.5h37q29 0 46 -15.5t17 -43.5q0 -23 -8 -47l-76 -248q-15 -51 -59 -51q-25 0 -39.5 16t-13.5 45zM518 -18q-311 0 -311 317v569h-41q-44 0 -75.5 31.5t-31.5 75.5t31.5 75t75.5 31h41v185q0 51 36.5 87t88.5 36q51 0 87 -36
t36 -87v-185h194q45 0 77 -31t32 -75t-32.5 -75.5t-76.5 -31.5h-194v-530q0 -135 133 -135q17 0 38.5 3t22.5 3q42 0 73.5 -30.5t31.5 -72.5q0 -32 -19 -58.5t-47 -37.5q-82 -28 -170 -28z" />
    <glyph glyph-name="Umacron" unicode="&#x16a;" horiz-adv-x="1550" 
d="M772 -23q-285 0 -447.5 162t-162.5 469v711q0 53 36.5 89t90.5 36q53 0 89 -36t36 -89v-701q0 -197 95.5 -302t266.5 -105q170 0 265.5 101t95.5 296v711q0 53 36.5 89t90.5 36q52 0 88.5 -36t36.5 -89v-698q0 -314 -164.5 -479t-452.5 -165zM1047 1575h-545
q-37 0 -63.5 26.5t-26.5 63.5t26.5 63.5t63.5 26.5h545q37 0 63.5 -26.5t26.5 -63.5t-26.5 -63.5t-63.5 -26.5z" />
    <glyph glyph-name="umacron" unicode="&#x16b;" horiz-adv-x="1269" 
d="M1116 969v-856q0 -51 -36.5 -87t-88.5 -36t-88.5 35.5t-36.5 87.5v55q-131 -191 -338 -191q-181 0 -283 112.5t-102 303.5v576q0 52 36 88.5t87 36.5q52 0 88.5 -36t36.5 -89v-502q0 -126 60.5 -194t171.5 -68q109 0 176 71t67 195v498q0 53 36 89t89 36q51 0 88 -36.5
t37 -88.5zM899 1241h-545q-37 0 -63.5 26.5t-26.5 63.5t26.5 63.5t63.5 26.5h545q37 0 63.5 -26.5t26.5 -63.5t-26.5 -63.5t-63.5 -26.5z" />
    <glyph glyph-name="Ubreve" unicode="&#x16c;" horiz-adv-x="1550" 
d="M772 -23q-285 0 -447.5 162t-162.5 469v711q0 53 36.5 89t90.5 36q53 0 89 -36t36 -89v-701q0 -197 95.5 -302t266.5 -105q170 0 265.5 101t95.5 296v711q0 53 36.5 89t90.5 36q52 0 88.5 -36t36.5 -89v-698q0 -314 -164.5 -479t-452.5 -165zM774 1540q-107 0 -187.5 43
t-125.5 121q-17 34 -17 63q0 37 24.5 62.5t61.5 25.5q52 0 78 -47q53 -94 166 -94q116 0 166 94q26 47 78 47q37 0 61.5 -25.5t24.5 -62.5q0 -29 -17 -63q-45 -79 -125 -121.5t-188 -42.5z" />
    <glyph glyph-name="ubreve" unicode="&#x16d;" horiz-adv-x="1269" 
d="M1116 969v-856q0 -51 -36.5 -87t-88.5 -36t-88.5 35.5t-36.5 87.5v55q-131 -191 -338 -191q-181 0 -283 112.5t-102 303.5v576q0 52 36 88.5t87 36.5q52 0 88.5 -36t36.5 -89v-502q0 -126 60.5 -194t171.5 -68q109 0 176 71t67 195v498q0 53 36 89t89 36q51 0 88 -36.5
t37 -88.5zM627 1214q-107 0 -188.5 43t-125.5 121q-16 32 -16 64q0 37 24.5 62.5t61.5 25.5q52 0 78 -47q53 -94 166 -94q116 0 166 94q26 47 77 47q37 0 61.5 -25.5t24.5 -62.5q0 -32 -16 -64q-45 -79 -125 -121.5t-188 -42.5z" />
    <glyph glyph-name="Uring" unicode="&#x16e;" horiz-adv-x="1550" 
d="M774 1520q-93 0 -163 66.5t-70 156.5v4q0 91 70 157t163 66t163.5 -66t70.5 -157v-4q0 -90 -70.5 -156.5t-163.5 -66.5zM774 1618q52 0 89.5 37t37.5 88v4q0 51 -37.5 88t-89.5 37t-89.5 -37t-37.5 -88v-4q0 -51 37.5 -88t89.5 -37zM772 -23q-285 0 -447.5 162
t-162.5 469v711q0 53 36.5 89t90.5 36q53 0 89 -36t36 -89v-701q0 -197 95.5 -302t266.5 -105q170 0 265.5 101t95.5 296v711q0 53 36.5 89t90.5 36q52 0 88.5 -36t36.5 -89v-698q0 -314 -164.5 -479t-452.5 -165z" />
    <glyph glyph-name="uring" unicode="&#x16f;" horiz-adv-x="1269" 
d="M627 1212q-93 0 -163.5 67t-70.5 157v4q0 91 70.5 157t163.5 66t163 -66t70 -157v-4q0 -90 -70 -157t-163 -67zM627 1311q52 0 89.5 37t37.5 88v4q0 51 -37.5 88t-89.5 37t-89.5 -37t-37.5 -88v-4q0 -51 37.5 -88t89.5 -37zM1116 969v-856q0 -51 -36.5 -87t-88.5 -36
t-88.5 35.5t-36.5 87.5v55q-131 -191 -338 -191q-181 0 -283 112.5t-102 303.5v576q0 52 36 88.5t87 36.5q52 0 88.5 -36t36.5 -89v-502q0 -126 60.5 -194t171.5 -68q109 0 176 71t67 195v498q0 53 36 89t89 36q51 0 88 -36.5t37 -88.5z" />
    <glyph glyph-name="Uhungarumlaut" unicode="&#x170;" horiz-adv-x="1550" 
d="M772 -23q-285 0 -447.5 162t-162.5 469v711q0 53 36.5 89t90.5 36q53 0 89 -36t36 -89v-701q0 -197 95.5 -302t266.5 -105q170 0 265.5 101t95.5 296v711q0 53 36.5 89t90.5 36q52 0 88.5 -36t36.5 -89v-698q0 -314 -164.5 -479t-452.5 -165zM936 1542q-27 0 -43 11.5
t-16 31.5q0 21 16 45l119 180q35 60 94 60q49 0 96 -24.5t47 -53.5q0 -28 -35 -63l-137 -132q-35 -33 -65.5 -44t-75.5 -11zM561 1542q-27 0 -43 11.5t-16 31.5q0 21 16 45l119 180q35 60 94 60q49 0 96 -24.5t47 -53.5t-34 -63l-138 -132q-34 -32 -65 -43.5t-76 -11.5z" />
    <glyph glyph-name="uhungarumlaut" unicode="&#x171;" horiz-adv-x="1269" 
d="M1116 969v-856q0 -51 -36.5 -87t-88.5 -36t-88.5 35.5t-36.5 87.5v55q-131 -191 -338 -191q-181 0 -283 112.5t-102 303.5v576q0 52 36 88.5t87 36.5q52 0 88.5 -36t36.5 -89v-502q0 -126 60.5 -194t171.5 -68q109 0 176 71t67 195v498q0 53 36 89t89 36q51 0 88 -36.5
t37 -88.5zM788 1208q-27 0 -43 11.5t-16 31.5q0 21 16 45l119 181q35 59 94 59q49 0 96.5 -25t47.5 -53t-35 -63l-137 -131q-36 -33 -67 -44.5t-75 -11.5zM414 1208q-27 0 -43.5 11.5t-16.5 31.5q0 19 17 45l118 181q35 59 95 59q49 0 96 -24.5t47 -53.5q0 -28 -35 -63
l-137 -131q-34 -33 -65 -44.5t-76 -11.5z" />
    <glyph glyph-name="Uogonek" unicode="&#x172;" horiz-adv-x="1550" 
d="M602 -168q0 75 68 152q-240 28 -374 187.5t-134 436.5v711q0 53 36.5 89t90.5 36q53 0 89 -36t36 -89v-701q0 -197 95.5 -302t266.5 -105q170 0 265.5 101t95.5 296v711q0 53 36.5 89t90.5 36q52 0 88.5 -36t36.5 -89v-698q0 -294 -145.5 -457t-403.5 -182
q-49 -54 -49 -111q0 -35 22 -54t68 -30q67 -15 67 -63q0 -30 -21.5 -47t-60.5 -17q-109 0 -186.5 43t-77.5 129z" />
    <glyph glyph-name="uogonek" unicode="&#x173;" horiz-adv-x="1269" 
d="M1116 969v-863q0 -30 -11 -51.5t-38 -46.5q-82 -79 -82 -139q0 -34 21.5 -52.5t66.5 -29.5q68 -15 68 -63q0 -30 -21.5 -47t-60.5 -17q-109 0 -185.5 42t-76.5 124q0 99 108 197q-17 14 -28 59.5t-11 77.5v8q-131 -191 -338 -191q-181 0 -283 112.5t-102 303.5v576
q0 52 36 88.5t87 36.5q52 0 88.5 -36t36.5 -89v-502q0 -126 60.5 -194t171.5 -68q109 0 176 71t67 195v498q0 53 36 89t89 36q51 0 88 -36.5t37 -88.5z" />
    <glyph glyph-name="Wcircumflex" unicode="&#x174;" horiz-adv-x="2250" 
d="M1122 1690l-106 -93q-38 -32 -72 -43.5t-80 -11.5q-24 0 -39.5 10.5t-15.5 30.5q0 16 25 49l135 170q26 31 52 45.5t66 14.5h74q72 0 119 -60l135 -170q25 -33 25 -49q0 -19 -17 -30t-43 -11q-45 0 -78.5 11.5t-72.5 43.5zM520 84l-424 1188q-10 23 -10 49q0 52 38 87.5
t91 35.5q45 0 79 -25.5t46 -66.5l330 -985l323 981q16 46 48.5 73t78.5 27h19q46 0 79.5 -27.5t47.5 -72.5l323 -981l330 987q14 40 46.5 65t76.5 25q51 0 88 -35t37 -86q0 -21 -13 -51l-423 -1188q-18 -48 -52.5 -76t-79.5 -28h-24q-93 0 -129 104l-320 936l-319 -936
q-17 -50 -51 -77t-80 -27h-25q-92 0 -131 104z" />
    <glyph glyph-name="wcircumflex" unicode="&#x175;" horiz-adv-x="1746" 
d="M868 1356l-106 -92q-38 -32 -72.5 -44t-79.5 -12q-24 0 -39.5 10.5t-15.5 30.5q0 16 25 49l135 170q26 30 52.5 45t66.5 15h73q72 0 119 -60l135 -170q25 -33 25 -49q0 -19 -17 -30t-43 -11q-45 0 -78 11.5t-73 44.5zM518 -18q-101 0 -137 110l-291 823q-12 32 -12 64
q0 46 34 80.5t87 34.5q44 0 75 -27t45 -72l209 -655l211 655q14 44 47.5 71.5t79.5 27.5h15q46 0 79.5 -27.5t47.5 -71.5l213 -655l211 657q13 43 43 70t77 27q50 0 83.5 -34t33.5 -81q0 -25 -10 -55l-295 -832q-39 -110 -137 -110h-8q-47 0 -83 27t-53 79l-211 643
l-213 -643q-17 -52 -52 -79t-81 -27h-8z" />
    <glyph glyph-name="Ycircumflex" unicode="&#x176;" horiz-adv-x="1425" 
d="M588 115v442l-494 678q-28 44 -28 88q0 51 36.5 86t90.5 35q70 0 122 -76l400 -575l405 577q52 76 121 76q54 0 88.5 -35.5t34.5 -87.5q0 -41 -35 -90l-489 -670v-448q0 -53 -36.5 -89t-90.5 -36q-53 0 -89 36t-36 89zM711 1690l-107 -93q-38 -32 -71.5 -43.5
t-79.5 -11.5q-24 0 -40 10.5t-16 30.5q0 16 25 49l135 170q26 30 52.5 45t66.5 15h74q71 0 118 -60l136 -170q24 -32 24 -49q0 -20 -16.5 -30.5t-42.5 -10.5q-45 0 -79 11.5t-73 43.5z" />
    <glyph glyph-name="ycircumflex" unicode="&#x177;" horiz-adv-x="1202" 
d="M352 -334q-93 0 -172 31q-32 11 -55 36t-23 66q0 45 30 74t71 29q21 0 45 -8q54 -15 86 -15q55 0 88.5 25.5t64.5 89.5l9 22l-402 897q-14 31 -14 60q0 52 35 86.5t88 34.5q83 0 121 -95l290 -718l271 718q37 95 119 95q50 0 84 -34t34 -83q0 -29 -10 -59l-395 -949
q-69 -166 -151.5 -234.5t-213.5 -68.5zM600 1356l-106 -92q-38 -32 -72.5 -44t-79.5 -12q-24 0 -39.5 10.5t-15.5 30.5q0 17 24 49l135 170q26 30 52.5 45t66.5 15h74q72 0 119 -60l135 -170q25 -33 25 -49q0 -19 -17 -30t-43 -11q-45 0 -78 11.5t-73 44.5z" />
    <glyph glyph-name="Ydieresis" unicode="&#x178;" horiz-adv-x="1425" 
d="M588 115v442l-494 678q-28 44 -28 88q0 51 36.5 86t90.5 35q70 0 122 -76l400 -575l405 577q52 76 121 76q54 0 88.5 -35.5t34.5 -87.5q0 -41 -35 -90l-489 -670v-448q0 -53 -36.5 -89t-90.5 -36q-53 0 -89 36t-36 89zM918 1808q56 0 94.5 -36t38.5 -91v-14
q0 -55 -38.5 -90t-94.5 -35q-58 0 -97 35t-39 90v14q0 55 39 91t97 36zM510 1808q56 0 94.5 -36t38.5 -91v-14q0 -55 -38.5 -90t-94.5 -35q-58 0 -96.5 35t-38.5 90v14q0 55 39 91t96 36z" />
    <glyph glyph-name="Zacute" unicode="&#x179;" horiz-adv-x="1437" 
d="M725 1542q-27 0 -44 11.5t-17 31.5q0 21 16 45l117 180q37 60 98 60q50 0 98.5 -25.5t48.5 -54.5q0 -30 -34 -61l-138 -132q-35 -32 -67.5 -43.5t-77.5 -11.5zM238 0q-44 0 -78.5 33.5t-34.5 77.5v6q0 63 47 116l807 977h-719q-44 0 -77 33t-33 78q0 46 33 79.5t77 33.5
h942q46 0 79.5 -33.5t33.5 -77.5v-6q0 -60 -45 -117l-809 -977h745q46 0 79.5 -33t33.5 -79t-33.5 -78.5t-79.5 -32.5h-968z" />
    <glyph glyph-name="zacute" unicode="&#x17a;" horiz-adv-x="1146" 
d="M571 1208q-27 0 -44 11.5t-17 31.5q0 21 16 45l117 181q37 59 98 59q51 0 99.5 -25.5t48.5 -54.5q0 -30 -35 -61l-137 -131q-35 -32 -68 -44t-78 -12zM221 0q-52 0 -86.5 28.5t-34.5 71.5v4q0 34 13 60.5t43 58.5l575 656h-510q-43 0 -72.5 29.5t-29.5 70.5
q0 43 29.5 72.5t72.5 29.5h713q51 0 85 -27.5t34 -70.5v-6q0 -34 -12.5 -60.5t-41.5 -58.5l-577 -655h532q43 0 73 -30t30 -73q0 -41 -30 -70.5t-73 -29.5h-733z" />
    <glyph glyph-name="Zdotaccent" unicode="&#x17b;" horiz-adv-x="1437" 
d="M238 0q-44 0 -78.5 33.5t-34.5 77.5v6q0 63 47 116l807 977h-719q-44 0 -77 33t-33 78q0 46 33 79.5t77 33.5h942q46 0 79.5 -33.5t33.5 -77.5v-6q0 -60 -45 -117l-809 -977h745q46 0 79.5 -33t33.5 -79t-33.5 -78.5t-79.5 -32.5h-968zM870 1681v-14q0 -56 -40 -90.5
t-99 -34.5q-58 0 -97.5 34.5t-39.5 90.5v14q0 56 39.5 91.5t97.5 35.5t98.5 -35.5t40.5 -91.5z" />
    <glyph glyph-name="zdotaccent" unicode="&#x17c;" horiz-adv-x="1146" 
d="M221 0q-52 0 -86.5 28.5t-34.5 71.5v4q0 34 13 60.5t43 58.5l575 656h-510q-43 0 -72.5 29.5t-29.5 70.5q0 43 29.5 72.5t72.5 29.5h713q51 0 85 -27.5t34 -70.5v-6q0 -34 -12.5 -60.5t-41.5 -58.5l-577 -655h532q43 0 73 -30t30 -73q0 -41 -30 -70.5t-73 -29.5h-733z
M717 1348v-15q0 -56 -40 -90.5t-99 -34.5q-58 0 -98 34.5t-40 90.5v15q0 56 40 91.5t98 35.5t98.5 -35.5t40.5 -91.5z" />
    <glyph glyph-name="Zcaron" unicode="&#x17d;" horiz-adv-x="1437" 
d="M733 1716l107 92q40 33 73 44.5t78 11.5q56 0 56 -41q0 -16 -25 -49l-135 -170q-47 -60 -119 -60h-74q-40 0 -66.5 15t-52.5 45l-135 170q-24 32 -24 49q0 20 16.5 30.5t42.5 10.5q45 0 79.5 -12t72.5 -44zM238 0q-44 0 -78.5 33.5t-34.5 77.5v6q0 63 47 116l807 977
h-719q-44 0 -77 33t-33 78q0 46 33 79.5t77 33.5h942q46 0 79.5 -33.5t33.5 -77.5v-6q0 -60 -45 -117l-809 -977h745q46 0 79.5 -33t33.5 -79t-33.5 -78.5t-79.5 -32.5h-968z" />
    <glyph glyph-name="zcaron" unicode="&#x17e;" horiz-adv-x="1146" 
d="M580 1382l106 93q39 32 73 43.5t79 11.5q55 0 55 -41q0 -16 -25 -49l-135 -170q-47 -60 -119 -60h-73q-40 0 -66.5 15t-52.5 45l-135 170q-25 33 -25 49q0 19 17 30t43 11q46 0 79.5 -11.5t71.5 -43.5zM221 0q-52 0 -86.5 28.5t-34.5 71.5v4q0 34 13 60.5t43 58.5
l575 656h-510q-43 0 -72.5 29.5t-29.5 70.5q0 43 29.5 72.5t72.5 29.5h713q51 0 85 -27.5t34 -70.5v-6q0 -34 -12.5 -60.5t-41.5 -58.5l-577 -655h532q43 0 73 -30t30 -73q0 -41 -30 -70.5t-73 -29.5h-733z" />
    <glyph glyph-name="florin" unicode="&#x192;" horiz-adv-x="1079" 
d="M217 -14q-62 0 -97.5 28t-35.5 76q0 42 28.5 71t73.5 32q56 5 86.5 37.5t42.5 99.5l72 399h-70q-43 0 -73.5 29.5t-30.5 72.5t30.5 74t73.5 31h105l37 192q30 161 113.5 239.5t244.5 78.5q55 0 107 -6q38 -5 65 -34t27 -71q0 -43 -30 -72.5t-73 -29.5q-3 0 -20 2t-29 2
q-72 0 -111.5 -38t-54.5 -122l-24 -141h166q44 0 74 -31t30 -74t-30 -72.5t-74 -29.5h-203l-78 -436q-29 -161 -113.5 -234t-228.5 -73z" />
    <glyph glyph-name="Aringacute" unicode="&#x1fa;" horiz-adv-x="1617" 
d="M803 1858q-27 0 -44.5 11.5t-17.5 31.5q0 19 17 45l116 180q37 59 99 59q50 0 98.5 -25.5t48.5 -54.5t-35 -61l-137 -131q-35 -32 -67.5 -43.5t-77.5 -11.5zM944 1401l555 -1239q14 -25 14 -51q0 -50 -34.5 -85.5t-85.5 -35.5q-81 0 -123 88l-117 268h-696l-119 -276
q-38 -80 -117 -80q-50 0 -84.5 34t-34.5 82q0 14 15 54l557 1241q-45 30 -72 77t-27 101v4q0 90 70.5 156.5t163.5 66.5t163 -66.5t70 -156.5v-4q0 -53 -26.5 -100.5t-71.5 -77.5zM809 1454q52 0 89.5 37t37.5 88v4q0 51 -37.5 88t-89.5 37t-89.5 -37t-37.5 -88v-4
q0 -51 37.5 -88t89.5 -37zM553 569h504l-252 580z" />
    <glyph glyph-name="aringacute" unicode="&#x1fb;" horiz-adv-x="1202" 
d="M467 -23q-104 0 -189.5 37.5t-139.5 114.5t-54 182v4q0 170 121 259.5t325 89.5q148 0 291 -46v27q0 115 -68.5 175.5t-199.5 60.5q-132 0 -240 -43q-24 -7 -39 -7q-43 0 -73.5 30t-30.5 73q0 33 19.5 60t48.5 38q167 64 348 64q240 0 358 -121q117 -114 117 -334v-532
q0 -51 -35 -85t-86 -34q-53 0 -87 31t-34 73v41q-133 -158 -352 -158zM602 1214q-93 0 -163 67t-70 157v4q0 91 70 157t163 66t163.5 -66t70.5 -157v-4q0 -90 -70.5 -157t-163.5 -67zM537 158q124 0 206 64.5t82 166.5v74q-108 43 -245 43q-120 0 -187 -47.5t-67 -132.5v-4
q0 -76 59.5 -120t151.5 -44zM596 1726q-27 0 -44 11.5t-17 31.5q0 22 16 46l117 180q37 59 98 59q50 0 98.5 -25.5t48.5 -54.5q0 -30 -34 -61l-138 -131q-35 -32 -67.5 -44t-77.5 -12zM602 1313q52 0 89.5 37t37.5 88v4q0 51 -37.5 88t-89.5 37t-89.5 -37t-37.5 -88v-4
q0 -51 37.5 -88t89.5 -37z" />
    <glyph glyph-name="AEacute" unicode="&#x1fc;" horiz-adv-x="2140" 
d="M1266 1542q-27 0 -44.5 11.5t-17.5 31.5q0 19 17 45l116 180q37 60 99 60q50 0 98.5 -25.5t48.5 -54.5q0 -30 -35 -61l-137 -132q-35 -32 -67.5 -43.5t-77.5 -11.5zM70 92q0 42 20 72l690 1182q50 88 148 88h985q46 0 79 -33.5t33 -79.5q0 -47 -33 -80t-79 -33h-664v-372
h572q46 0 79 -34t33 -81q0 -46 -33 -78.5t-79 -32.5h-572v-385h674q46 0 79.5 -33t33.5 -79q0 -47 -33.5 -80t-79.5 -33h-799q-54 0 -90.5 36.5t-36.5 90.5v219h-540l-166 -289q-41 -69 -111 -69q-46 0 -78 30t-32 74zM586 569h411v645h-41z" />
    <glyph glyph-name="aeacute" unicode="&#x1fd;" horiz-adv-x="1949" 
d="M961 1208q-27 0 -44.5 11.5t-17.5 31.5q0 21 16 45l117 181q37 59 98 59q51 0 99.5 -25.5t48.5 -54.5q0 -30 -35 -61l-137 -131q-35 -32 -67.5 -44t-77.5 -12zM1053 616h557q-13 126 -84.5 205.5t-190.5 79.5q-112 0 -188 -78.5t-94 -206.5zM532 160q174 0 322 139
q-33 84 -41 166q-112 41 -238 41q-118 0 -183.5 -47.5t-65.5 -132.5v-4q0 -73 59 -117.5t147 -44.5zM1751 119q-160 -144 -389 -144q-125 0 -234.5 49t-183.5 136q-221 -183 -452 -183q-175 0 -291.5 89.5t-116.5 244.5v4q0 170 120 259.5t322 89.5q144 0 287 -46v27
q0 115 -67.5 175.5t-196.5 60.5q-125 0 -236 -43q-24 -7 -39 -7q-43 0 -73.5 30t-30.5 73q0 33 19.5 60t48.5 38q159 64 344 64q280 0 381 -176q66 87 163.5 135.5t214.5 48.5q98 0 182 -31.5t143 -84t101 -121.5t62 -144.5t20 -151.5q0 -52 -33 -85t-83 -33h-676
q20 -130 104 -202.5t205 -72.5q143 0 258 94q26 23 62 23q43 0 71.5 -28.5t28.5 -71.5q0 -45 -35 -76z" />
    <glyph glyph-name="Oslashacute" unicode="&#x1fe;" horiz-adv-x="1740" 
d="M868 -25q-252 0 -446 138l-98 -99q-31 -34 -78 -34q-38 0 -63 23.5t-25 57.5q0 41 35 76l96 101q-168 204 -168 475v4q0 150 56 285.5t154 236t239 160t302 59.5q256 0 447 -139l98 100q35 35 78 35q38 0 63 -23.5t25 -56.5q0 -43 -35 -78l-96 -100q168 -204 168 -475v-4
q0 -150 -56 -286t-154 -236.5t-239.5 -160t-302.5 -59.5zM872 203q139 0 251.5 68.5t174.5 185t62 256.5v4q0 157 -86 293l-686 -717q126 -90 284 -90zM381 717q0 -162 86 -293l684 715q-126 92 -283 92q-105 0 -196 -40.5t-154.5 -109t-100 -162.5t-36.5 -198v-4zM862 1563
q-27 0 -44 11.5t-17 31.5q0 21 16 45l117 180q37 59 98 59q51 0 99.5 -25.5t48.5 -54.5q0 -30 -35 -61l-137 -131q-35 -32 -67.5 -43.5t-78.5 -11.5z" />
    <glyph glyph-name="oslashacute" unicode="&#x1ff;" horiz-adv-x="1345" 
d="M670 -25q-183 0 -332 99l-59 -62q-37 -37 -78 -37q-32 0 -56 22.5t-24 53.5q0 41 35 76l59 61q-119 147 -119 347v4q0 153 74.5 282.5t208 206t295.5 76.5q186 0 332 -100l61 63q37 37 78 37q32 0 56 -21.5t24 -52.5q0 -39 -35 -78l-62 -61q121 -153 121 -348v-4
q0 -114 -44 -217.5t-120 -180t-184 -121.5t-231 -45zM338 539q0 -99 45 -181l469 480q-80 55 -182 55q-148 0 -240 -101.5t-92 -248.5v-4zM674 186q149 0 241.5 101.5t92.5 247.5v4q0 100 -47 180l-469 -479q79 -54 182 -54zM666 1208q-27 0 -44.5 11.5t-17.5 31.5
q0 19 17 45l116 181q37 59 99 59q50 0 98.5 -25.5t48.5 -54.5q0 -30 -35 -61l-137 -131q-35 -32 -67.5 -44t-77.5 -12z" />
    <glyph glyph-name="Scommaaccent" unicode="&#x218;" horiz-adv-x="1310" 
d="M647 -346q-49 8 -79.5 35.5t-30.5 72.5v5q0 47 35 77.5t90 30.5q60 0 95.5 -39t35.5 -104v-6q0 -146 -88 -222q-33 -30 -83 -48.5t-94 -18.5q-26 0 -39.5 12t-13.5 31q0 34 43 43q132 29 129 131zM686 -20q-297 0 -539 180q-49 34 -49 96q0 49 34.5 83t84.5 34
q43 0 74 -23q186 -147 401 -147q116 0 185 50t69 130v4q0 54 -25 89.5t-95.5 67.5t-202.5 62q-98 24 -167.5 48t-131.5 58.5t-99.5 78t-58.5 104.5t-21 139v4q0 184 137.5 300t352.5 116q255 0 455 -133q24 -13 39.5 -39t15.5 -61q0 -49 -34.5 -83t-84.5 -34q-35 0 -65 18
q-168 109 -330 109q-107 0 -170.5 -48.5t-63.5 -121.5v-4q0 -58 28.5 -94.5t101 -67.5t212.5 -64q238 -58 348.5 -152.5t110.5 -266.5v-4q0 -198 -141.5 -313t-370.5 -115z" />
    <glyph glyph-name="scommaaccent" unicode="&#x219;" horiz-adv-x="1026" 
d="M502 -340q-49 8 -80 36t-31 73v4q0 47 35 77.5t90 30.5q60 0 95.5 -39t35.5 -104v-6q0 -145 -88 -221q-33 -30 -83 -49t-93 -19q-26 0 -39.5 12t-13.5 31q0 34 43 43q132 29 129 131zM526 -20q-223 0 -411 129q-47 24 -47 86q0 42 29 71t71 29q28 0 53 -14
q156 -105 311 -105q79 0 123.5 31.5t44.5 85.5v4q0 28 -16.5 50t-49.5 39t-66.5 29t-84.5 27q-16 5 -24 7q-57 16 -97.5 30.5t-89.5 41t-79 57.5t-51 79.5t-21 108.5v4q0 150 109.5 240t275.5 90q174 0 340 -88q59 -30 59 -94q0 -43 -29.5 -72t-72.5 -29q-25 0 -49 12
q-145 74 -254 74q-71 0 -111.5 -29.5t-40.5 -76.5v-4q0 -59 97 -102q34 -16 147 -52q56 -17 96.5 -32.5t89 -43t78.5 -58.5t51 -78t21 -103v-5q0 -164 -112.5 -251.5t-289.5 -87.5z" />
    <glyph glyph-name="schwa" unicode="&#x259;" horiz-adv-x="1236" 
d="M895 465h-555q13 -126 84.5 -205.5t189.5 -79.5q112 0 187.5 78.5t93.5 206.5zM197 963q159 143 389 143q238 0 396.5 -157t158.5 -404v-4q0 -154 -67 -282.5t-189 -205t-273 -76.5q-100 0 -185.5 31.5t-144.5 84t-101.5 121.5t-62.5 144.5t-20 151.5q0 51 34.5 85
t82.5 34h678q-20 130 -104.5 202t-206.5 72q-141 0 -256 -94q-30 -23 -64 -23q-41 0 -69.5 29t-28.5 72t33 76z" />
    <glyph glyph-name="circumflex" unicode="&#x2c6;" horiz-adv-x="1024" 
d="M510 1356l-107 -92q-38 -32 -72 -44t-79 -12q-24 0 -39.5 10.5t-15.5 30.5q0 17 24 49l135 170q26 30 52.5 45t66.5 15h74q72 0 119 -60l135 -170q24 -32 24 -49q0 -20 -16.5 -30.5t-42.5 -10.5q-45 0 -78.5 12t-73.5 44z" />
    <glyph glyph-name="caron" unicode="&#x2c7;" horiz-adv-x="1024" 
d="M514 1382l107 93q39 32 72.5 43.5t78.5 11.5q55 0 55 -41q0 -17 -24 -49l-135 -170q-47 -60 -119 -60h-74q-40 0 -66.5 15t-52.5 45l-135 170q-24 32 -24 49q0 20 16.5 30.5t42.5 10.5q46 0 80 -11.5t72 -43.5z" />
    <glyph glyph-name="breve" unicode="&#x2d8;" horiz-adv-x="1024" 
d="M512 1214q-107 0 -187.5 43t-125.5 121q-17 34 -17 64q0 37 24.5 62.5t61.5 25.5q52 0 78 -47q53 -94 166 -94q116 0 166 94q26 47 78 47q37 0 61.5 -25.5t24.5 -62.5q0 -30 -17 -64q-45 -79 -125 -121.5t-188 -42.5z" />
    <glyph glyph-name="dotaccent" unicode="&#x2d9;" horiz-adv-x="1024" 
d="M651 1348v-15q0 -56 -40 -90.5t-99 -34.5q-58 0 -97.5 34.5t-39.5 90.5v15q0 56 39.5 91.5t97.5 35.5t98.5 -35.5t40.5 -91.5z" />
    <glyph glyph-name="ring" unicode="&#x2da;" horiz-adv-x="1024" 
d="M512 1214q-93 0 -163 67t-70 157v4q0 91 70 157t163 66t163 -66t70 -157v-4q0 -90 -70 -157t-163 -67zM512 1313q52 0 89.5 37t37.5 88v4q0 51 -37.5 88t-89.5 37t-89.5 -37t-37.5 -88v-4q0 -51 37.5 -88t89.5 -37z" />
    <glyph glyph-name="ogonek" unicode="&#x2db;" horiz-adv-x="1024" 
d="M373 -168q0 92 106 193l166 -11q-84 -78 -84 -143q0 -35 22 -54t68 -30q68 -15 68 -63q0 -30 -21.5 -47t-60.5 -17q-109 0 -186.5 43t-77.5 129z" />
    <glyph glyph-name="tilde" unicode="&#x2dc;" horiz-adv-x="1024" 
d="M281 1235q-25 -41 -68 -41q-30 0 -53 20.5t-23 47.5q0 19 8 47q34 94 82.5 140t126.5 46q61 0 162 -41t133 -41q34 0 54 15t40 51q25 41 68 41q30 0 53 -20.5t23 -47.5q0 -19 -8 -47q-34 -94 -82.5 -140t-126.5 -46q-61 0 -162 40.5t-133 40.5q-34 0 -54 -15t-40 -50z
" />
    <glyph glyph-name="hungarumlaut" unicode="&#x2dd;" horiz-adv-x="1024" 
d="M580 1208q-27 0 -43.5 11.5t-16.5 31.5q0 19 17 45l118 181q35 59 95 59q49 0 96 -24.5t47 -53.5q0 -28 -35 -63l-137 -131q-36 -33 -66.5 -44.5t-74.5 -11.5zM205 1208q-27 0 -43.5 11.5t-16.5 31.5q0 19 17 45l119 181q35 59 94 59q49 0 96 -24.5t47 -53.5
q0 -28 -35 -63l-137 -131q-34 -33 -65 -44.5t-76 -11.5z" />
    <glyph glyph-name="commaaccent" unicode="&#x326;" horiz-adv-x="1024" 
d="M496 -340q-49 8 -80 36t-31 73v4q0 47 35 77.5t90 30.5q60 0 95.5 -39t35.5 -104v-6q0 -145 -88 -221q-33 -30 -83 -49t-93 -19q-26 0 -39.5 12t-13.5 31q0 34 43 43q132 29 129 131z" />
    <glyph glyph-name="Wgrave" unicode="&#x1e80;" horiz-adv-x="2250" 
d="M520 84l-424 1188q-10 23 -10 49q0 52 38 87.5t91 35.5q45 0 79 -25.5t46 -66.5l330 -985l323 981q16 46 48.5 73t78.5 27h19q46 0 79.5 -27.5t47.5 -72.5l323 -981l330 987q14 40 46.5 65t76.5 25q51 0 88 -35t37 -86q0 -21 -13 -51l-423 -1188q-18 -48 -52.5 -76
t-79.5 -28h-24q-93 0 -129 104l-320 936l-319 -936q-17 -50 -51 -77t-80 -27h-25q-92 0 -131 104zM1130 1542q-46 0 -77.5 11.5t-65.5 43.5l-139 132q-35 31 -35 61q0 29 48.5 54.5t99.5 25.5q61 0 98 -60l117 -180q18 -27 18 -45q0 -20 -18 -31.5t-46 -11.5z" />
    <glyph glyph-name="wgrave" unicode="&#x1e81;" horiz-adv-x="1746" 
d="M518 -18q-101 0 -137 110l-291 823q-12 32 -12 64q0 46 34 80.5t87 34.5q44 0 75 -27t45 -72l209 -655l211 655q14 44 47.5 71.5t79.5 27.5h15q46 0 79.5 -27.5t47.5 -71.5l213 -655l211 657q13 43 43 70t77 27q50 0 83.5 -34t33.5 -81q0 -25 -10 -55l-295 -832
q-39 -110 -137 -110h-8q-47 0 -83 27t-53 79l-211 643l-213 -643q-17 -52 -52 -79t-81 -27h-8zM877 1208q-45 0 -77.5 12t-66.5 44l-139 131q-35 31 -35 61q0 29 48.5 54.5t99.5 25.5q61 0 98 -59l117 -181q18 -27 18 -45q0 -20 -17.5 -31.5t-45.5 -11.5z" />
    <glyph glyph-name="Wacute" unicode="&#x1e82;" horiz-adv-x="2250" 
d="M1118 1542q-27 0 -44 11.5t-17 31.5q0 21 16 45l117 180q37 60 98 60q51 0 99.5 -25.5t48.5 -54.5q0 -30 -35 -61l-137 -132q-35 -32 -67.5 -43.5t-78.5 -11.5zM520 84l-424 1188q-10 23 -10 49q0 52 38 87.5t91 35.5q45 0 79 -25.5t46 -66.5l330 -985l323 981
q16 46 48.5 73t78.5 27h19q46 0 79.5 -27.5t47.5 -72.5l323 -981l330 987q14 40 46.5 65t76.5 25q51 0 88 -35t37 -86q0 -21 -13 -51l-423 -1188q-18 -48 -52.5 -76t-79.5 -28h-24q-93 0 -129 104l-320 936l-319 -936q-17 -50 -51 -77t-80 -27h-25q-92 0 -131 104z" />
    <glyph glyph-name="wacute" unicode="&#x1e83;" horiz-adv-x="1746" 
d="M864 1208q-27 0 -44 11.5t-17 31.5q0 21 16 45l117 181q37 59 98 59q51 0 99.5 -25.5t48.5 -54.5q0 -30 -35 -61l-137 -131q-35 -32 -68 -44t-78 -12zM518 -18q-101 0 -137 110l-291 823q-12 32 -12 64q0 46 34 80.5t87 34.5q44 0 75 -27t45 -72l209 -655l211 655
q14 44 47.5 71.5t79.5 27.5h15q46 0 79.5 -27.5t47.5 -71.5l213 -655l211 657q13 43 43 70t77 27q50 0 83.5 -34t33.5 -81q0 -25 -10 -55l-295 -832q-39 -110 -137 -110h-8q-47 0 -83 27t-53 79l-211 643l-213 -643q-17 -52 -52 -79t-81 -27h-8z" />
    <glyph glyph-name="Wdieresis" unicode="&#x1e84;" horiz-adv-x="2250" 
d="M1329 1808q56 0 94.5 -36t38.5 -91v-14q0 -55 -38.5 -90t-94.5 -35q-58 0 -96.5 35t-38.5 90v14q0 55 39 91t96 36zM922 1808q56 0 94.5 -36t38.5 -91v-14q0 -55 -38.5 -90t-94.5 -35q-58 0 -97 35t-39 90v14q0 55 39 91t97 36zM520 84l-424 1188q-10 23 -10 49
q0 52 38 87.5t91 35.5q45 0 79 -25.5t46 -66.5l330 -985l323 981q16 46 48.5 73t78.5 27h19q46 0 79.5 -27.5t47.5 -72.5l323 -981l330 987q14 40 46.5 65t76.5 25q51 0 88 -35t37 -86q0 -21 -13 -51l-423 -1188q-18 -48 -52.5 -76t-79.5 -28h-24q-93 0 -129 104l-320 936
l-319 -936q-17 -50 -51 -77t-80 -27h-25q-92 0 -131 104z" />
    <glyph glyph-name="wdieresis" unicode="&#x1e85;" horiz-adv-x="1746" 
d="M1075 1475q56 0 94.5 -36t38.5 -91v-15q0 -55 -38.5 -90t-94.5 -35q-58 0 -96.5 35t-38.5 90v15q0 55 39 91t96 36zM668 1475q56 0 94.5 -36t38.5 -91v-15q0 -55 -38.5 -90t-94.5 -35q-58 0 -97 35t-39 90v15q0 55 39 91t97 36zM518 -18q-101 0 -137 110l-291 823
q-12 32 -12 64q0 46 34 80.5t87 34.5q44 0 75 -27t45 -72l209 -655l211 655q14 44 47.5 71.5t79.5 27.5h15q46 0 79.5 -27.5t47.5 -71.5l213 -655l211 657q13 43 43 70t77 27q50 0 83.5 -34t33.5 -81q0 -25 -10 -55l-295 -832q-39 -110 -137 -110h-8q-47 0 -83 27t-53 79
l-211 643l-213 -643q-17 -52 -52 -79t-81 -27h-8z" />
    <glyph glyph-name="Ygrave" unicode="&#x1ef2;" horiz-adv-x="1425" 
d="M588 115v442l-494 678q-28 44 -28 88q0 51 36.5 86t90.5 35q70 0 122 -76l400 -575l405 577q52 76 121 76q54 0 88.5 -35.5t34.5 -87.5q0 -41 -35 -90l-489 -670v-448q0 -53 -36.5 -89t-90.5 -36q-53 0 -89 36t-36 89zM719 1542q-46 0 -78 11.5t-66 43.5l-139 132
q-35 31 -35 61q0 29 48.5 54.5t99.5 25.5q61 0 98 -60l117 -180q18 -27 18 -45q0 -20 -17.5 -31.5t-45.5 -11.5z" />
    <glyph glyph-name="ygrave" unicode="&#x1ef3;" horiz-adv-x="1202" 
d="M352 -334q-93 0 -172 31q-32 11 -55 36t-23 66q0 45 30 74t71 29q21 0 45 -8q54 -15 86 -15q55 0 88.5 25.5t64.5 89.5l9 22l-402 897q-14 31 -14 60q0 52 35 86.5t88 34.5q83 0 121 -95l290 -718l271 718q37 95 119 95q50 0 84 -34t34 -83q0 -29 -10 -59l-395 -949
q-69 -166 -151.5 -234.5t-213.5 -68.5zM608 1208q-45 0 -77 12t-66 44l-139 131q-35 31 -35 61q0 29 48.5 54.5t98.5 25.5q62 0 99 -59l116 -181q19 -28 19 -45q0 -20 -18 -31.5t-46 -11.5z" />
    <glyph glyph-name="enspace" unicode="&#x2002;" horiz-adv-x="1024" 
 />
    <glyph glyph-name="emspace" unicode="&#x2003;" horiz-adv-x="2048" 
 />
    <glyph glyph-name="threeperemspace" unicode="&#x2004;" horiz-adv-x="681" 
 />
    <glyph glyph-name="fourperemspace" unicode="&#x2005;" horiz-adv-x="512" 
 />
    <glyph glyph-name="thinspace" unicode="&#x2009;" horiz-adv-x="272" 
 />
    <glyph glyph-name="hairspace" unicode="&#x200a;" horiz-adv-x="153" 
 />
    <glyph glyph-name="endash" unicode="&#x2013;" horiz-adv-x="1081" 
d="M221 510q-47 0 -82 35t-35 82q0 49 34.5 83.5t82.5 34.5h639q48 0 82.5 -34.5t34.5 -83.5q0 -47 -35 -82t-82 -35h-639z" />
    <glyph glyph-name="emdash" unicode="&#x2014;" horiz-adv-x="1839" 
d="M221 510q-47 0 -82 35t-35 82q0 49 34.5 83.5t82.5 34.5h1397q48 0 82.5 -34.5t34.5 -83.5q0 -47 -35 -82t-82 -35h-1397z" />
    <glyph glyph-name="quoteleft" unicode="&#x2018;" horiz-adv-x="550" 
d="M481 1384q0 -41 -49 -55q-145 -45 -139 -182q48 -13 82.5 -50t34.5 -89v-17q0 -59 -39 -98t-101 -39q-68 0 -107.5 48.5t-39.5 131.5v21q0 202 102 299q39 40 93 64t100 24q31 0 47 -16t16 -42z" />
    <glyph glyph-name="quoteright" unicode="&#x2019;" horiz-adv-x="550" 
d="M72 913q0 42 47 56q145 45 139 184q-48 11 -82.5 48t-34.5 89v17q0 59 39 98t101 39q68 0 107.5 -48.5t39.5 -131.5v-21q0 -199 -100 -299q-40 -40 -94.5 -64t-98.5 -24q-31 0 -47 15.5t-16 41.5z" />
    <glyph glyph-name="quotesinglbase" unicode="&#x201a;" horiz-adv-x="550" 
d="M61 -240q0 21 13.5 36t34.5 20q145 48 139 184q-48 13 -82.5 50t-34.5 89v17q0 59 38.5 98t100.5 39q69 0 108.5 -48.5t39.5 -131.5v-23q0 -193 -101 -299q-41 -39 -95 -63.5t-97 -24.5q-31 0 -47.5 16t-16.5 41z" />
    <glyph glyph-name="quotedblleft" unicode="&#x201c;" horiz-adv-x="1026" 
d="M956 1384q0 -41 -49 -55q-145 -45 -139 -182q48 -13 82.5 -50t34.5 -89v-17q0 -59 -39 -98t-101 -39q-68 0 -107.5 48.5t-39.5 131.5v21q0 199 100 299q40 40 94.5 64t98.5 24q31 0 48 -16t17 -42zM481 1384q0 -41 -49 -55q-145 -45 -139 -182q48 -13 82.5 -50t34.5 -89
v-17q0 -59 -39 -98t-101 -39q-68 0 -107.5 48.5t-39.5 131.5v21q0 202 102 299q39 40 93 64t100 24q31 0 47 -16t16 -42z" />
    <glyph glyph-name="quotedblright" unicode="&#x201d;" horiz-adv-x="1026" 
d="M72 913q0 42 47 56q145 45 139 184q-48 11 -82.5 48t-34.5 89v17q0 59 39 98t101 39q68 0 107.5 -48.5t39.5 -131.5v-21q0 -199 -100 -299q-40 -40 -94.5 -64t-98.5 -24q-31 0 -47 15.5t-16 41.5zM545 913q0 42 49 56q145 45 139 184q-48 11 -82.5 48t-34.5 89v17
q0 59 39 98t101 39q68 0 107.5 -48.5t39.5 -131.5v-21q0 -202 -102 -299q-39 -40 -93 -64t-100 -24q-31 0 -47 15.5t-16 41.5z" />
    <glyph glyph-name="quotedblbase" unicode="&#x201e;" horiz-adv-x="1026" 
d="M61 -240q0 21 13.5 36t34.5 20q145 48 139 184q-48 13 -82.5 50t-34.5 89v17q0 59 38.5 98t100.5 39q69 0 108.5 -48.5t39.5 -131.5v-23q0 -193 -101 -299q-41 -39 -95 -63.5t-97 -24.5q-31 0 -47.5 16t-16.5 41zM535 -240q0 21 13.5 36t35.5 20q145 48 139 184
q-48 13 -82.5 50t-34.5 89v17q0 59 38.5 98t100.5 39q67 0 107.5 -49t40.5 -131v-23q0 -197 -102 -299q-39 -39 -93.5 -63.5t-99.5 -24.5q-31 0 -47 16t-16 41z" />
    <glyph glyph-name="dagger" unicode="&#x2020;" horiz-adv-x="839" 
d="M348 553l17 498l-185 -15q-32 -3 -54 18t-22 52q0 30 22 50.5t52 17.5l184 -15l-18 201q-3 36 20 60t56 24t56 -24t20 -60l-17 -201l183 15q31 3 52 -17.5t21 -50.5q0 -31 -22 -52t-54 -18l-182 15l15 -496q1 -33 -20 -55.5t-52 -22.5t-52 22t-20 54z" />
    <glyph glyph-name="daggerdbl" unicode="&#x2021;" horiz-adv-x="880" 
d="M365 74l18 200l-184 -14q-30 -3 -52 17.5t-22 50.5q0 31 22 51.5t54 17.5l182 -14l-16 334l16 334l-182 -15q-32 -3 -54 18t-22 52q0 30 22 50.5t52 17.5l184 -15l-18 201q-3 36 19.5 60t55.5 24t56 -24t20 -60l-16 -201l182 15q31 3 52.5 -17.5t21.5 -50.5
q0 -31 -22 -52t-54 -18l-182 15l16 -334l-16 -334l182 14q32 3 54 -17.5t22 -51.5q0 -30 -21.5 -50.5t-52.5 -17.5l-182 14l16 -200q3 -36 -20 -60t-56 -24t-55.5 24t-19.5 60z" />
    <glyph glyph-name="bullet" unicode="&#x2022;" horiz-adv-x="1005" 
d="M504 432q-120 0 -205.5 83.5t-85.5 203.5v4q0 119 86 204t205 85q118 0 203.5 -85t85.5 -204v-4q0 -119 -85 -203t-204 -84z" />
    <glyph glyph-name="ellipsis" unicode="&#x2026;" horiz-adv-x="1622" 
d="M1208 152q0 61 40 101t102 40t101.5 -40t39.5 -101v-21q0 -61 -39.5 -101t-101.5 -40t-102 40t-40 101v21zM670 152q0 61 39.5 101t101.5 40t101.5 -40t39.5 -101v-21q0 -61 -39.5 -101t-101.5 -40t-101.5 40t-39.5 101v21zM131 152q0 61 39.5 101t101.5 40t102 -40
t40 -101v-21q0 -61 -40 -101t-102 -40t-101.5 40t-39.5 101v21z" />
    <glyph glyph-name="perthousand" unicode="&#x2030;" horiz-adv-x="2514" 
d="M434 717q-148 0 -242 105.5t-94 256.5v4q0 154 95.5 260.5t244.5 106.5t242.5 -105.5t93.5 -257.5v-4q0 -153 -95 -259.5t-245 -106.5zM315 70q0 26 19 53l940 1284q21 37 69 37q34 0 58 -23t24 -57q0 -28 -18 -53l-940 -1284q-24 -37 -72 -37q-34 0 -57 23t-23 57z
M2077 -16q-148 0 -242 105.5t-94 256.5v4q0 154 95.5 260.5t244.5 106.5q148 0 242 -106t94 -257v-4q0 -153 -95.5 -259.5t-244.5 -106.5zM1300 -16q-148 0 -241.5 105.5t-93.5 256.5v4q0 154 95.5 260.5t244.5 106.5q147 0 241 -106t94 -257v-4q0 -153 -95.5 -259.5
t-244.5 -106.5zM438 874q70 0 112 59.5t42 145.5v4q0 87 -45 148t-113 61q-70 0 -111.5 -59.5t-41.5 -145.5v-4q0 -89 44.5 -149t112.5 -60zM2081 141q70 0 111.5 59.5t41.5 145.5v4q0 88 -44.5 148.5t-112.5 60.5q-70 0 -112 -59.5t-42 -145.5v-4q0 -89 45 -149t113 -60z
M1305 141q70 0 111.5 59.5t41.5 145.5v4q0 87 -45 148t-113 61q-70 0 -111.5 -59.5t-41.5 -145.5v-4q0 -89 45 -149t113 -60z" />
    <glyph glyph-name="guilsinglleft" unicode="&#x2039;" horiz-adv-x="724" 
d="M485 86q-55 0 -86 43l-264 340q-29 40 -29 72q0 34 29 71l258 334q39 49 94 49q41 0 70 -30t29 -72q0 -35 -27 -70l-217 -280l221 -287q25 -31 25 -68q0 -43 -30 -72.5t-73 -29.5z" />
    <glyph glyph-name="guilsinglright" unicode="&#x203a;" horiz-adv-x="724" 
d="M240 995q54 0 86 -45l264 -338q31 -43 31 -73q0 -29 -31 -72l-258 -332q-34 -49 -92 -49q-42 0 -71.5 30t-29.5 72q0 37 29 70l215 279l-219 286q-27 35 -27 70q2 43 31.5 72.5t71.5 29.5z" />
    <glyph glyph-name="fraction" unicode="&#x2044;" horiz-adv-x="940" 
d="M-82 -117q0 28 14 56l859 1572q27 52 88 52q40 0 69 -28t29 -67q0 -27 -14 -55l-859 -1573q-26 -51 -88 -51q-40 0 -69 27.5t-29 66.5z" />
    <glyph glyph-name="Euro" unicode="&#x20ac;" horiz-adv-x="1474" 
d="M1372 287q0 -44 -24 -72q-90 -116 -199.5 -178t-259.5 -62q-223 0 -378.5 131.5t-215.5 354.5h-111q-37 0 -62.5 25.5t-25.5 62.5q0 36 26 62t62 26h80q-2 25 -2 78q0 63 4 94h-82q-37 0 -62.5 25.5t-25.5 60.5q0 37 25.5 62.5t62.5 25.5h115q62 214 216 344.5t366 130.5
q153 0 260 -54t194 -155q33 -33 33 -84q0 -49 -35.5 -83.5t-85.5 -34.5q-56 0 -88 40q-62 74 -128 110t-157 36q-108 0 -189.5 -66t-125.5 -184h365q35 0 60.5 -25.5t25.5 -62.5q0 -35 -25.5 -60.5t-60.5 -25.5h-404q-4 -29 -4 -90q0 -55 2 -82h406q35 0 60.5 -26.5
t25.5 -61.5q0 -37 -25.5 -62.5t-60.5 -25.5h-369q43 -124 129.5 -192t206.5 -68q87 0 152 38.5t128 116.5q33 41 89 41q46 0 79 -32t33 -78z" />
    <glyph glyph-name="published" unicode="&#x2117;" horiz-adv-x="1699" 
d="M848 -25q-153 0 -290.5 59t-235.5 158.5t-155.5 235.5t-57.5 285v4q0 149 58 285.5t157 236.5t237 159.5t291 59.5t290.5 -59t235.5 -158t155.5 -235t57.5 -285v-4q0 -149 -58 -285.5t-157 -237t-237 -160t-291 -59.5zM848 49q186 0 339 90t239.5 243t86.5 335v4
q0 181 -86 333t-238 241t-337 89q-186 0 -339.5 -90t-240 -242.5t-86.5 -334.5v-4q0 -181 86 -333.5t238.5 -241.5t337.5 -89zM586 408v636q0 31 22.5 53.5t53.5 22.5h237q138 0 219.5 -71t81.5 -191v-4q0 -127 -90.5 -196.5t-226.5 -69.5h-146v-180q0 -32 -22 -54t-53 -22
t-53.5 22t-22.5 54zM737 721h150q73 0 116.5 36t43.5 95v4q0 62 -42.5 95.5t-117.5 33.5h-150v-264z" />
    <glyph glyph-name="servicemark" unicode="&#x2120;" horiz-adv-x="1443" 
d="M729 850v530q0 25 17 42.5t42 17.5h15q34 0 53 -31l191 -303l192 303q19 31 51 31h15q24 0 40.5 -17.5t16.5 -42.5v-530q0 -25 -16 -41t-41 -16t-41.5 16t-16.5 41v369l-151 -230q-21 -31 -49 -31q-32 0 -54 31l-147 228v-367q0 -24 -17.5 -40.5t-42.5 -16.5
q-24 0 -40.5 16.5t-16.5 40.5zM68 918q0 22 14.5 36.5t36.5 14.5q21 0 37 -13q94 -67 194 -67q58 0 90.5 22.5t32.5 59.5q0 36 -31 56t-118 40q-58 14 -96 27.5t-71.5 34.5t-49 51.5t-15.5 72.5v2q0 84 64.5 137.5t169.5 53.5q122 0 211 -60q30 -18 30 -49q0 -23 -15 -38
t-38 -15q-20 0 -33 10q-78 49 -157 49q-54 0 -84.5 -21t-30.5 -54q0 -37 32.5 -58t120.5 -41q113 -26 170.5 -67.5t57.5 -118.5q0 -88 -68.5 -140t-177.5 -52q-139 0 -250 79q-26 20 -26 48z" />
    <glyph glyph-name="trademark" unicode="&#x2122;" horiz-adv-x="1413" 
d="M248 852v471h-152q-22 0 -37.5 16.5t-15.5 38.5q0 23 15.5 39.5t37.5 16.5h424q22 0 37.5 -16.5t15.5 -39.5q0 -22 -15.5 -38.5t-37.5 -16.5h-151v-471q0 -25 -18 -42t-44 -17q-25 0 -42 17t-17 42zM698 850v530q0 25 17.5 42.5t42.5 17.5h14q36 0 55 -31l189 -303
l192 303q19 31 54 31h14q23 0 40 -17.5t17 -42.5v-530q0 -25 -17 -41t-42 -16q-24 0 -40.5 16.5t-16.5 40.5v369l-150 -230q-21 -31 -51 -31q-29 0 -51 31l-150 228v-367q0 -24 -16.5 -40.5t-40.5 -16.5q-25 0 -42.5 16.5t-17.5 40.5z" />
    <glyph glyph-name="minus" unicode="&#x2212;" horiz-adv-x="1298" 
d="M1053 604h-809q-47 0 -81 34t-34 81q0 49 33.5 83t81.5 34h809q49 0 82.5 -33.5t33.5 -83.5q0 -48 -33.5 -81.5t-82.5 -33.5z" />
    <glyph glyph-name="Q.alt" horiz-adv-x="1740" 
d="M1620 717q0 -155 -58 -293t-165 -242l153 -155q54 -57 54 -111q0 -58 -41 -96.5t-97 -38.5q-73 0 -129 65l-176 185q-141 -56 -293 -56q-215 0 -387 100.5t-266 268.5t-94 369v4q0 150 56 285.5t154 236t239 160t302 59.5t301.5 -58.5t238 -158.5t153 -235t55.5 -285v-4z
M1356 713v4q0 139 -62 255.5t-174.5 185.5t-251.5 69t-250.5 -68t-172 -183.5t-60.5 -254.5v-4q0 -139 61.5 -255t174 -184.5t251.5 -68.5t250.5 67.5t172.5 182.5t61 254z" />
    <glyph glyph-name="a.alt" 
d="M971 913v58q0 51 36 87t87 36q52 0 88.5 -36t36.5 -89v-856q0 -52 -36 -87.5t-87 -35.5q-53 0 -89 35.5t-36 87.5v67q-144 -203 -369 -203q-96 0 -185.5 38t-160.5 108t-113.5 178t-42.5 238v4q0 130 42 238t112.5 177.5t160 107.5t187.5 38q223 0 369 -191zM662 889
q-132 0 -222 -94.5t-90 -251.5v-4q0 -153 91 -249.5t221 -96.5q128 0 220.5 97.5t92.5 248.5v4q0 152 -92 249t-221 97z" />
    <glyph glyph-name="aacute.alt" 
d="M692 1208q-27 0 -44 11.5t-17 31.5q0 21 16 45l117 181q37 59 98 59q51 0 99.5 -25.5t48.5 -54.5q0 -30 -35 -61l-137 -131q-35 -32 -68 -44t-78 -12zM971 913v58q0 51 36 87t87 36q52 0 88.5 -36t36.5 -89v-856q0 -52 -36 -87.5t-87 -35.5q-53 0 -89 35.5t-36 87.5v67
q-144 -203 -369 -203q-96 0 -185.5 38t-160.5 108t-113.5 178t-42.5 238v4q0 130 42 238t112.5 177.5t160 107.5t187.5 38q223 0 369 -191zM662 889q-132 0 -222 -94.5t-90 -251.5v-4q0 -153 91 -249.5t221 -96.5q128 0 220.5 97.5t92.5 248.5v4q0 152 -92 249t-221 97z" />
    <glyph glyph-name="abreve.alt" 
d="M971 913v58q0 51 36 87t87 36q52 0 88.5 -36t36.5 -89v-856q0 -52 -36 -87.5t-87 -35.5q-53 0 -89 35.5t-36 87.5v67q-144 -203 -369 -203q-96 0 -185.5 38t-160.5 108t-113.5 178t-42.5 238v4q0 130 42 238t112.5 177.5t160 107.5t187.5 38q223 0 369 -191zM662 889
q-132 0 -222 -94.5t-90 -251.5v-4q0 -153 91 -249.5t221 -96.5q128 0 220.5 97.5t92.5 248.5v4q0 152 -92 249t-221 97zM698 1214q-107 0 -187.5 43t-125.5 121q-16 32 -16 64q0 37 24.5 62.5t61.5 25.5q51 0 77 -47q53 -94 166 -94q116 0 166 94q26 47 78 47
q37 0 61.5 -25.5t24.5 -62.5q0 -32 -16 -64q-45 -79 -125.5 -121.5t-188.5 -42.5z" />
    <glyph glyph-name="acircumflex.alt" 
d="M696 1356l-106 -92q-38 -32 -72.5 -44t-79.5 -12q-24 0 -39.5 10.5t-15.5 30.5q0 16 25 49l135 170q26 30 52.5 45t66.5 15h73q72 0 119 -60l135 -170q25 -33 25 -49q0 -19 -17 -30t-43 -11q-45 0 -78 11.5t-73 44.5zM971 913v58q0 51 36 87t87 36q52 0 88.5 -36
t36.5 -89v-856q0 -52 -36 -87.5t-87 -35.5q-53 0 -89 35.5t-36 87.5v67q-144 -203 -369 -203q-96 0 -185.5 38t-160.5 108t-113.5 178t-42.5 238v4q0 130 42 238t112.5 177.5t160 107.5t187.5 38q223 0 369 -191zM662 889q-132 0 -222 -94.5t-90 -251.5v-4q0 -153 91 -249.5
t221 -96.5q128 0 220.5 97.5t92.5 248.5v4q0 152 -92 249t-221 97z" />
    <glyph glyph-name="adieresis.alt" 
d="M903 1475q56 0 94.5 -36t38.5 -91v-15q0 -55 -38.5 -90t-94.5 -35q-58 0 -96.5 35t-38.5 90v15q0 55 39 91t96 36zM496 1475q56 0 94.5 -36t38.5 -91v-15q0 -55 -38.5 -90t-94.5 -35q-58 0 -97 35t-39 90v15q0 55 39 91t97 36zM971 913v58q0 51 36 87t87 36
q52 0 88.5 -36t36.5 -89v-856q0 -52 -36 -87.5t-87 -35.5q-53 0 -89 35.5t-36 87.5v67q-144 -203 -369 -203q-96 0 -185.5 38t-160.5 108t-113.5 178t-42.5 238v4q0 130 42 238t112.5 177.5t160 107.5t187.5 38q223 0 369 -191zM662 889q-132 0 -222 -94.5t-90 -251.5v-4
q0 -153 91 -249.5t221 -96.5q128 0 220.5 97.5t92.5 248.5v4q0 152 -92 249t-221 97z" />
    <glyph glyph-name="agrave.alt" 
d="M971 913v58q0 51 36 87t87 36q52 0 88.5 -36t36.5 -89v-856q0 -52 -36 -87.5t-87 -35.5q-53 0 -89 35.5t-36 87.5v67q-144 -203 -369 -203q-96 0 -185.5 38t-160.5 108t-113.5 178t-42.5 238v4q0 130 42 238t112.5 177.5t160 107.5t187.5 38q223 0 369 -191zM662 889
q-132 0 -222 -94.5t-90 -251.5v-4q0 -153 91 -249.5t221 -96.5q128 0 220.5 97.5t92.5 248.5v4q0 152 -92 249t-221 97zM705 1208q-45 0 -77.5 12t-66.5 44l-139 131q-35 31 -35 61q0 29 48.5 54.5t99.5 25.5q61 0 98 -59l117 -181q18 -27 18 -45q0 -20 -17.5 -31.5
t-45.5 -11.5z" />
    <glyph glyph-name="amacron.alt" 
d="M971 913v58q0 51 36 87t87 36q52 0 88.5 -36t36.5 -89v-856q0 -52 -36 -87.5t-87 -35.5q-53 0 -89 35.5t-36 87.5v67q-144 -203 -369 -203q-96 0 -185.5 38t-160.5 108t-113.5 178t-42.5 238v4q0 130 42 238t112.5 177.5t160 107.5t187.5 38q223 0 369 -191zM662 889
q-132 0 -222 -94.5t-90 -251.5v-4q0 -153 91 -249.5t221 -96.5q128 0 220.5 97.5t92.5 248.5v4q0 152 -92 249t-221 97zM971 1241h-545q-37 0 -63.5 26.5t-26.5 63.5t26.5 63.5t63.5 26.5h545q37 0 63.5 -26.5t26.5 -63.5t-26.5 -63.5t-63.5 -26.5z" />
    <glyph glyph-name="aogonek.alt" 
d="M662 889q-132 0 -222 -94.5t-90 -251.5v-4q0 -153 91 -249.5t221 -96.5q128 0 220.5 97.5t92.5 248.5v4q0 152 -92 249t-221 97zM971 913v58q0 51 36 87t87 36q52 0 88.5 -36t36.5 -89v-863q0 -30 -11 -51.5t-39 -46.5q-79 -76 -79 -139q0 -34 20.5 -52.5t65.5 -29.5
q67 -15 67 -63q0 -30 -20.5 -47t-59.5 -17q-110 0 -186 42t-76 124q0 103 109 197q-17 13 -28 64t-11 83v10q-144 -203 -369 -203q-96 0 -185.5 38t-160.5 108t-113.5 178t-42.5 238v4q0 130 42 238t112.5 177.5t160 107.5t187.5 38q223 0 369 -191z" />
    <glyph glyph-name="aring.alt" 
d="M698 1214q-93 0 -163 67t-70 157v4q0 91 70 157t163 66t163.5 -66t70.5 -157v-4q0 -90 -70.5 -157t-163.5 -67zM698 1313q52 0 89.5 37t37.5 88v4q0 51 -37.5 88t-89.5 37t-89.5 -37t-37.5 -88v-4q0 -51 37.5 -88t89.5 -37zM971 913v58q0 51 36 87t87 36q52 0 88.5 -36
t36.5 -89v-856q0 -52 -36 -87.5t-87 -35.5q-53 0 -89 35.5t-36 87.5v67q-144 -203 -369 -203q-96 0 -185.5 38t-160.5 108t-113.5 178t-42.5 238v4q0 130 42 238t112.5 177.5t160 107.5t187.5 38q223 0 369 -191zM662 889q-132 0 -222 -94.5t-90 -251.5v-4q0 -153 91 -249.5
t221 -96.5q128 0 220.5 97.5t92.5 248.5v4q0 152 -92 249t-221 97z" />
    <glyph glyph-name="aring.alt2" horiz-adv-x="1202" 
d="M467 -23q-104 0 -189.5 37.5t-139.5 114.5t-54 182v4q0 170 121 259.5t325 89.5q148 0 291 -46v27q0 115 -68.5 175.5t-199.5 60.5q-132 0 -240 -43q-24 -7 -39 -7q-43 0 -73.5 30t-30.5 73q0 33 19.5 60t48.5 38q96 37 186 51q-53 59 -53 140v4q0 91 69.5 157t163.5 66
q93 0 163.5 -66.5t70.5 -156.5v-4q0 -89 -70 -152q110 -27 176 -96q117 -114 117 -334v-532q0 -51 -35 -85t-86 -34q-53 0 -87 31t-34 73v41q-133 -158 -352 -158zM537 158q124 0 206 64.5t82 166.5v74q-108 43 -245 43q-120 0 -187 -47.5t-67 -132.5v-4q0 -76 59.5 -120
t151.5 -44zM604 1098q51 0 89 37t38 88v4q0 51 -37.5 88t-89.5 37t-89.5 -37t-37.5 -88v-4q0 -51 37.5 -88t89.5 -37z" />
    <glyph glyph-name="aringacute.alt" 
d="M692 1726q-27 0 -44 11.5t-17 31.5q0 22 16 46l117 180q37 59 98 59q51 0 99.5 -25.5t48.5 -54.5q0 -30 -35 -61l-137 -131q-35 -32 -68 -44t-78 -12zM698 1214q-93 0 -163 67t-70 157v4q0 91 70 157t163 66t163.5 -66t70.5 -157v-4q0 -90 -70.5 -157t-163.5 -67z
M698 1313q52 0 89.5 37t37.5 88v4q0 51 -37.5 88t-89.5 37t-89.5 -37t-37.5 -88v-4q0 -51 37.5 -88t89.5 -37zM971 913v58q0 51 36 87t87 36q52 0 88.5 -36t36.5 -89v-856q0 -52 -36 -87.5t-87 -35.5q-53 0 -89 35.5t-36 87.5v67q-144 -203 -369 -203q-96 0 -185.5 38
t-160.5 108t-113.5 178t-42.5 238v4q0 130 42 238t112.5 177.5t160 107.5t187.5 38q223 0 369 -191zM662 889q-132 0 -222 -94.5t-90 -251.5v-4q0 -153 91 -249.5t221 -96.5q128 0 220.5 97.5t92.5 248.5v4q0 152 -92 249t-221 97z" />
    <glyph glyph-name="aringacute.alt2" horiz-adv-x="1202" 
d="M467 -23q-104 0 -189.5 37.5t-139.5 114.5t-54 182v4q0 170 121 259.5t325 89.5q148 0 291 -46v27q0 115 -68.5 175.5t-199.5 60.5q-132 0 -240 -43q-24 -7 -39 -7q-43 0 -73.5 30t-30.5 73q0 33 19.5 60t48.5 38q96 37 186 51q-53 59 -53 140v4q0 91 69.5 157t163.5 66
q93 0 163.5 -66.5t70.5 -156.5v-4q0 -89 -70 -152q110 -27 176 -96q117 -114 117 -334v-532q0 -51 -35 -85t-86 -34q-53 0 -87 31t-34 73v41q-133 -158 -352 -158zM537 158q124 0 206 64.5t82 166.5v74q-108 43 -245 43q-120 0 -187 -47.5t-67 -132.5v-4q0 -76 59.5 -120
t151.5 -44zM604 1098q51 0 89 37t38 88v4q0 51 -37.5 88t-89.5 37t-89.5 -37t-37.5 -88v-4q0 -51 37.5 -88t89.5 -37zM596 1511q-27 0 -44 11.5t-17 31.5q0 21 16 45l117 181q37 59 98 59q50 0 98.5 -25.5t48.5 -54.5q0 -30 -34 -61l-138 -131q-35 -32 -67.5 -44t-77.5 -12z
" />
    <glyph glyph-name="atilde.alt" 
d="M971 913v58q0 51 36 87t87 36q52 0 88.5 -36t36.5 -89v-856q0 -52 -36 -87.5t-87 -35.5q-53 0 -89 35.5t-36 87.5v67q-144 -203 -369 -203q-96 0 -185.5 38t-160.5 108t-113.5 178t-42.5 238v4q0 130 42 238t112.5 177.5t160 107.5t187.5 38q223 0 369 -191zM662 889
q-132 0 -222 -94.5t-90 -251.5v-4q0 -153 91 -249.5t221 -96.5q128 0 220.5 97.5t92.5 248.5v4q0 152 -92 249t-221 97zM475 1235q-25 -41 -67 -41q-30 0 -53 20.5t-23 47.5q0 19 8 47q34 94 82.5 140t126.5 46q61 0 162 -41t133 -41q34 0 54 15t40 51q25 41 68 41
q30 0 52.5 -20.5t22.5 -47.5q0 -19 -8 -47q-34 -94 -82.5 -140t-126.5 -46q-61 0 -162 40.5t-133 40.5q-34 0 -54 -15t-40 -50z" />
    <glyph glyph-name="three.alt" horiz-adv-x="1249" 
d="M637 -25q-279 0 -481 179q-47 40 -47 94q0 51 34 85t84 34q46 0 78 -29q145 -135 336 -135q118 0 187 56.5t69 152.5v4q0 96 -82.5 148t-232.5 52h-60q-43 0 -74.5 32t-31.5 75t31.5 74.5t74.5 31.5h66q124 0 197 56t73 149v4q0 86 -67 139.5t-181 53.5q-82 0 -148 -33
t-130 -98q-35 -35 -80 -35q-49 0 -83 33.5t-34 81.5q0 49 35 84q87 95 193.5 144.5t250.5 49.5q221 0 357.5 -108t136.5 -275v-4q0 -232 -213 -336q252 -97 252 -323v-4q0 -188 -138 -310.5t-372 -122.5z" />
    <glyph glyph-name="registered.alt" horiz-adv-x="1699" 
d="M848 -25q-153 0 -290.5 59t-235.5 158.5t-155.5 235.5t-57.5 285v4q0 149 58 285.5t157 236.5t237 159.5t291 59.5t290.5 -59t235.5 -158t155.5 -235t57.5 -285v-4q0 -149 -58 -285.5t-157 -237t-237 -160t-291 -59.5zM848 49q186 0 339 90t239.5 243t86.5 335v4
q0 181 -86 333t-238 241t-337 89q-186 0 -339.5 -90t-240 -242.5t-86.5 -334.5v-4q0 -181 86 -333.5t238.5 -241.5t337.5 -89zM551 412v641q0 31 21.5 52t52.5 21h272q154 0 236 -82q63 -63 63 -163v-4q0 -87 -45.5 -146t-126.5 -86l147 -184q21 -21 21 -51q0 -29 -21 -50.5
t-49 -21.5q-22 0 -35.5 7.5t-27.5 27.5l-195 245h-166v-206q0 -30 -22 -52t-51 -22q-31 0 -52.5 21.5t-21.5 52.5zM698 748h193q72 0 112.5 32t40.5 88v4q0 58 -40.5 89.5t-112.5 31.5h-193v-245z" />
    <glyph glyph-name="NUL" horiz-adv-x="0" 
 />
    <glyph glyph-name="hcoslug" horiz-adv-x="1421" 
d="M559 37h-53q0 -25 20 -25q16 0 19 15h14q-7 -29 -37 -29q-20 0 -31.5 11t-11.5 30t12 31t29 12q42 0 39 -45zM520 72q-14 0 -14 -25h29q0 25 -15 25zM399 160q17 0 17 33q0 30 -17 30q-16 0 -16 -30q0 -33 16 -33zM430 8q16 0 16 33q0 31 -16 31t-16 -31q0 -33 16 -33z
M430 -2q-19 0 -31 11.5t-12 31.5q0 19 12 30t31 11t31 -11t12 -30t-12 -31t-31 -12zM1118 8q17 0 17 33q0 31 -17 31q-16 0 -16 -31q0 -33 16 -33zM1118 -2q-19 0 -31 11.5t-12 31.5q0 19 12 30t31 11t31 -11t12 -30t-12 -31t-31 -12zM256 152v14h14v84h-14v14h104v-41h-16
q-3 17 -7 22t-15 5h-25v-37h8q7 0 8.5 2.5t3.5 13.5h15v-47h-15q-7 16 -12 17h-8v-33h20v-14h-61zM399 150q-19 0 -31 11.5t-12 31.5q0 18 12 29t31 11t31 -11t12 -29q0 -19 -12 -31t-31 -12zM1319 -205v1639h-1217v-1639h1217zM1020 -2q-28 0 -43.5 15.5t-15.5 41.5
q0 27 16.5 44.5t38.5 17.5q18 0 33 -15l2 13h16v-45h-16q-6 19 -12.5 25.5t-18.5 6.5q-29 0 -29 -45t33 -45q25 0 29 33h16q-3 -47 -49 -47zM762 164q14 0 14 26q0 27 -14 27q-17 0 -17 -27q0 -26 17 -26zM565 0v14h13v52h-15v14h15v2q0 19 11 29t27 10q11 0 19 -4l20 4
v-107h13v-14h-47v14h10v52h-29v-52h10v-14h-47zM754 0v14h12v52h-12v14h37v-21q9 23 24 23q16 0 16 -16q0 -15 -14 -15q-12 0 -12 12v3q-6 0 -14 -19v-33h16v-14h-53zM721 150v106h-12v14h36v-55q6 18 27 18q14 0 22.5 -11t8.5 -29q0 -16 -8 -29.5t-25 -13.5q-19 0 -29 16
l-8 -16h-12zM819 154q10 0 12.5 -8t-2.5 -13q14 0 17 17l-33 67h-10v14h51v-14h-12l18 -41l17 41h-11v14h35v-14h-10l-27 -63q-13 -33 -37 -33q-22 0 -22 18q0 15 14 15zM506 877q0 26 15 42.5t40 16.5q26 0 43 -21.5t17 -56.5q0 -46 -37 -102q-30 29 -42.5 42.5t-24 35
t-11.5 43.5zM618 152v28h15q12 -18 24 -18q11 0 11 8q0 6 -25 13t-25 26q0 10 8 17t21 7q16 0 23 -10l4 10h12v-26h-14q-10 14 -21 14q-10 0 -10 -8q0 -6 24.5 -12t24.5 -25q0 -11 -7.5 -18.5t-20.5 -7.5q-12 0 -27 10l-2 -8h-15zM535 449q-46 0 -76.5 31.5t-30.5 78.5
q0 49 33 82q72 -68 151 -168q-31 -24 -77 -24zM561 250l25 4v-23h26v-14h-26v-41q0 -10 8 -10q7 0 10 14l10 -4q-6 -26 -28 -26q-25 0 -25 26v41h-14v14h14v19zM877 627q-53 -31 -95 -86q39 -45 68 -64.5t59 -19.5q54 0 88 59l15 -4q-3 -87 -49.5 -140t-114.5 -53
q-46 0 -84.5 20.5t-89.5 72.5q-84 -93 -213 -93q-93 0 -158 55t-65 136q0 129 168 186q-34 35 -49 67t-15 75q0 69 62 121.5t161 52.5q90 0 142.5 -46.5t52.5 -105.5q0 -37 -19 -69q43 2 70.5 -17t30.5 -59q53 78 123 78q43 0 72.5 -30t29.5 -77t-29.5 -79t-72.5 -32
q-58 0 -88 52zM449 152v14h12v51h-12v14h34v-20q9 22 29 22q25 0 25 -28v-39h12v-14h-45v14h8v37q0 14 -12 14q-15 0 -15 -20v-31h9v-14h-45zM913 68h37v-15h-10q-6 -12 -18 -28q7 -11 12 -11t8 11l10 -2q-7 -25 -26 -25q-15 0 -25 12q-12 -12 -31 -12q-36 0 -36 29
q0 23 26 30q-12 12 -12 25q0 11 10.5 20t24.5 9q13 0 20.5 -7.5t7.5 -17.5q0 -16 -22 -25q5 -5 12.5 -13.5t11.5 -12.5q11 11 13 18h-13v15zM879 12q7 0 16 6q-20 24 -29 33q-8 -8 -8 -18q0 -9 6 -15t15 -6zM602 86v-6h29v10q-13 0 -13 12l3 7q-3 2 -7 2q-12 0 -12 -25z
M870 88q0 -7 13 -20q10 7 10 18q0 12 -12 12q-11 0 -11 -10zM639 700q61 42 86 70q23 -23 29 -49t-2 -52.5t-29 -62.5q-68 78 -84 94zM750 37h-54q0 -25 21 -25q15 0 18 15h15q-7 -29 -37 -29q-20 0 -31.5 11t-11.5 30t12 31t29 12q42 0 39 -45zM711 72q-15 0 -15 -25h29
q0 25 -14 25zM254 0v14h16v84h-16v15h59v-15h-16v-32h45v32h-16v15h59v-15h-16v-84h16v-14h-59v14h16v37h-45v-37h16v-14h-59zM1180 27q14 0 14 -15q0 -14 -14 -14q-15 0 -15 14q0 6 4.5 10.5t10.5 4.5z" />
    <glyph glyph-name="i.dot" horiz-adv-x="585" 
d="M152 1360v12q0 55 40 88t101 33t101 -33t40 -88v-12q0 -55 -40 -89t-101 -34t-101 34t-40 89zM170 113v856q0 53 35.5 89t87.5 36q53 0 89 -36t36 -89v-856q0 -52 -36 -87.5t-89 -35.5q-51 0 -87 35.5t-36 87.5z" />
    <glyph glyph-name="caron.alt" horiz-adv-x="1024" 
d="M420 1155l6 254q2 39 26.5 64.5t63.5 25.5h37q29 0 46 -15.5t17 -43.5q0 -23 -8 -47l-76 -248q-15 -51 -59 -51q-25 0 -39.5 16t-13.5 45z" />
    </font>
</defs>
</svg>
