<?xml version="1.0" standalone="no"?>
<!DOCTYPE svg PUBLIC "-//W3C//DTD SVG 1.1//EN" "http://www.w3.org/Graphics/SVG/1.1/DTD/svg11.dtd" >
<svg xmlns="http://www.w3.org/2000/svg" xmlns:xlink="http://www.w3.org/1999/xlink" version="1.1">
<metadata>
Created by FontForge 20201107 at Thu Jul 24 16:04:24 2025
 By 
Copyright (c) 2018 Commercial Type, Inc.. All rights reserved.
</metadata>
<defs>
<font id="GraphikWide-Bold" horiz-adv-x="1669" >
  <font-face 
    font-family="Graphik Wide Bold Trial"
    font-weight="700"
    font-stretch="expanded"
    units-per-em="2048"
    panose-1="0 0 0 0 0 0 0 0 0 0"
    ascent="1638"
    descent="-410"
    x-height="1071"
    cap-height="1464"
    bbox="-57 -385 2572 1546"
    underline-thickness="135"
    underline-position="-187"
    unicode-range="U+0020-201D"
  />
<missing-glyph horiz-adv-x="1411" 
 />
    <glyph glyph-name=".notdef" horiz-adv-x="1411" 
 />
    <glyph glyph-name=".null" horiz-adv-x="0" 
 />
    <glyph glyph-name="nonmarkingreturn" horiz-adv-x="682" 
 />
    <glyph glyph-name="space" unicode=" " horiz-adv-x="485" 
 />
    <glyph glyph-name="exclam" unicode="!" horiz-adv-x="784" 
d="M215 479l-65 985h485l-66 -985h-354zM391 -23q-109 0 -177.5 59t-68.5 148q0 88 69 147.5t177 59.5q110 0 179 -59.5t69 -147.5q0 -89 -68.5 -148t-179.5 -59z" />
    <glyph glyph-name="quotedbl" unicode="&#x22;" horiz-adv-x="1103" 
d="M133 905l-51 559h412l-54 -559h-307zM664 905l-54 559h412l-53 -559h-305z" />
    <glyph glyph-name="quotesingle" unicode="'" horiz-adv-x="591" 
d="M133 905l-51 559h428l-53 -559h-324z" />
    <glyph glyph-name="comma" unicode="," horiz-adv-x="716" 
d="M299 -250l-258 96l197 523l387 -121z" />
    <glyph glyph-name="hyphen" unicode="-" horiz-adv-x="921" 
d="M106 444v281h709v-281h-709z" />
    <glyph glyph-name="period" unicode="." horiz-adv-x="694" 
d="M346 -23q-109 0 -177.5 59t-68.5 148q0 88 69 147.5t177 59.5q110 0 179 -59.5t69 -147.5q0 -89 -68.5 -148t-179.5 -59z" />
    <glyph glyph-name="zero" unicode="0" horiz-adv-x="1884" 
d="M936 -25q-417 0 -640.5 190t-223.5 515v102q0 331 231.5 517t636.5 186t636.5 -186t231.5 -508v-99q0 -333 -226 -525t-646 -192zM948 293q391 0 391 385v106q0 189 -100.5 290.5t-296.5 101.5q-198 0 -297.5 -100t-99.5 -292v-102q0 -192 101 -290.5t302 -98.5z" />
    <glyph glyph-name="one" unicode="1" horiz-adv-x="1110" 
d="M440 0v1055l-381 -267v365l447 311h405v-1464h-471z" />
    <glyph glyph-name="two" unicode="2" horiz-adv-x="1558" 
d="M6 0v88l680 520q181 138 254.5 220.5t73.5 164.5q0 89 -63 137t-183 48q-263 0 -305 -269h-428q22 273 220 424.5t533 151.5q339 0 516 -126t177 -337q0 -74 -26.5 -142.5t-79.5 -132t-115.5 -118t-149.5 -117.5l-291 -207h676v-305h-1489z" />
    <glyph glyph-name="three" unicode="3" horiz-adv-x="1658" 
d="M829 -25q-379 0 -572.5 133.5t-205.5 370.5h422q24 -211 336 -211q149 0 224 47.5t75 135.5q0 153 -283 153h-170v285h160q275 0 275 153q0 70 -68 111t-199 41q-130 0 -208 -50.5t-97 -142.5h-416q19 221 211.5 352.5t530.5 131.5q322 0 506 -107t184 -291
q0 -121 -76.5 -202t-216.5 -117q163 -28 253.5 -113.5t90.5 -214.5q0 -215 -199 -340t-557 -125z" />
    <glyph glyph-name="four" unicode="4" horiz-adv-x="1730" 
d="M985 0v283h-965v139l844 1042h576v-880h254v-301h-254v-283h-455zM545 584h448v592z" />
    <glyph glyph-name="five" unicode="5" horiz-adv-x="1607" 
d="M782 -25q-180 0 -320 37t-227.5 103t-134.5 152t-53 190h430q19 -84 86 -129t213 -45q143 0 216 58.5t73 156.5q0 103 -82.5 158t-234.5 55q-245 0 -381 -113h-258l34 866h1291v-299h-947l-10 -325q64 66 179.5 106.5t283.5 40.5q182 0 315.5 -54t209 -166.5t75.5 -274.5
q0 -235 -203.5 -376t-554.5 -141z" />
    <glyph glyph-name="six" unicode="6" horiz-adv-x="1726" 
d="M897 -25q-219 0 -380.5 52.5t-257 149t-140.5 222t-45 283.5v66q0 228 109.5 396.5t299.5 254.5t435 86q305 0 488.5 -110t217.5 -318h-436q-38 127 -264 127q-177 0 -280 -103t-103 -299v-8q141 180 477 180q189 0 333.5 -52t229 -158.5t84.5 -256.5q0 -232 -206 -372
t-562 -140zM885 264q152 0 235.5 58.5t83.5 154.5q0 93 -84 149t-237 56q-148 0 -238 -55.5t-90 -145.5q0 -100 85 -158.5t245 -58.5z" />
    <glyph glyph-name="seven" unicode="7" horiz-adv-x="1458" 
d="M285 0l579 1124h-833v340h1435v-100l-692 -1364h-489z" />
    <glyph glyph-name="eight" unicode="8" horiz-adv-x="1679" 
d="M840 -25q-236 0 -411.5 50t-273.5 150t-98 239q0 131 90.5 223t258.5 137q-125 40 -196 117.5t-71 187.5q0 127 95.5 220.5t253.5 139.5t356 46q201 0 358.5 -46t250.5 -138t93 -218q0 -112 -71.5 -189.5t-196.5 -117.5q168 -43 256 -132.5t88 -217.5q0 -141 -97 -243
t-273 -155t-412 -53zM846 887q126 0 198 43t72 117q0 70 -73 111.5t-199 41.5t-200.5 -42.5t-74.5 -113.5t77.5 -114t199.5 -43zM840 266q153 0 235 47.5t82 132.5q0 86 -82 133.5t-231 47.5q-150 0 -236 -46.5t-86 -131.5q0 -86 84.5 -134.5t233.5 -48.5z" />
    <glyph glyph-name="nine" unicode="9" horiz-adv-x="1724" 
d="M829 1485q219 0 380.5 -52.5t256.5 -149t140 -222t45 -283.5v-65q0 -229 -104 -396.5t-291.5 -254.5t-438.5 -87q-317 0 -507.5 111.5t-223.5 325.5h438q18 -68 83.5 -102t197.5 -34q185 0 282 101.5t97 302.5v6q-141 -180 -479 -180q-189 0 -333 51.5t-228.5 157.5
t-84.5 256q0 232 207.5 373t562.5 141zM842 1196q-153 0 -237.5 -59.5t-84.5 -155.5q0 -93 83.5 -148t238.5 -55q148 0 237.5 55.5t89.5 145.5q0 100 -84.5 158.5t-242.5 58.5z" />
    <glyph glyph-name="question" unicode="?" horiz-adv-x="1411" 
d="M436 479v35q0 114 62 189t200 157q111 65 143 94q54 47 54 99q0 131 -199 131q-105 0 -171 -48t-79 -137h-421q22 232 210 359t496 127q303 0 468 -103t165 -286q0 -202 -211 -342q-32 -21 -89.5 -55.5t-87 -54t-64.5 -47.5t-50.5 -55t-15.5 -57v-6h-410zM637 -23
q-109 0 -177.5 59t-68.5 148q0 88 69 147.5t177 59.5q110 0 179 -59.5t69 -147.5q0 -89 -68.5 -148t-179.5 -59z" />
    <glyph glyph-name="A" unicode="A" horiz-adv-x="1914" 
d="M8 0l645 1464h613l639 -1464h-500l-113 274h-727l-116 -274h-441zM932 1145l-244 -580h483z" />
    <glyph glyph-name="B" unicode="B" horiz-adv-x="1736" 
d="M150 0v1464h864q294 0 447 -100t153 -283v-8q0 -121 -75.5 -202.5t-213.5 -110.5q167 -24 262.5 -110.5t95.5 -233.5v-8q0 -198 -166 -303t-479 -105h-888zM608 897h346q112 0 163.5 33.5t51.5 107.5v9q0 127 -217 127h-344v-277zM608 291h373q118 0 178 41.5t60 116.5v8
q0 153 -234 153h-377v-319z" />
    <glyph glyph-name="C" unicode="C" horiz-adv-x="1992" 
d="M1059 -25q-480 0 -739 202t-259 546v16q0 220 129.5 391t352.5 263t501 92q257 0 446 -58.5t306.5 -184.5t142.5 -314h-487q-45 235 -405 235q-224 0 -357 -112.5t-133 -309.5v-16q0 -198 131 -310t365 -112q189 0 302.5 61t139.5 183h467q-35 -278 -275 -425t-628 -147z
" />
    <glyph glyph-name="D" unicode="D" horiz-adv-x="1968" 
d="M150 0v1464h753q497 0 751.5 -185t254.5 -529v-17q0 -346 -257 -539.5t-751 -193.5h-751zM623 315h262q276 0 404 101.5t128 310.5v16q0 213 -126.5 310.5t-407.5 97.5h-260v-836z" />
    <glyph glyph-name="E" unicode="E" horiz-adv-x="1673" 
d="M150 0v1464h1402v-309h-934v-260h799v-309h-799v-277h977v-309h-1445z" />
    <glyph glyph-name="F" unicode="F" horiz-adv-x="1593" 
d="M150 0v1464h1376v-315h-903v-318h780v-315h-780v-516h-473z" />
    <glyph glyph-name="G" unicode="G" horiz-adv-x="2066" 
d="M1063 -25q-239 0 -430 55t-316 154.5t-191.5 236.5t-66.5 302v16q0 164 76 304t209 237t318.5 152t398.5 55q176 0 328 -30.5t276 -92.5t202.5 -166t94.5 -240h-469q-26 102 -136 155.5t-292 53.5q-238 0 -376 -116.5t-138 -317.5v-16q0 -198 130 -315t402 -117
q214 0 326.5 59.5t134.5 161.5h-418v313h881v-190q0 -304 -241.5 -479t-702.5 -175z" />
    <glyph glyph-name="H" unicode="H" horiz-adv-x="1998" 
d="M150 0v1464h473v-563h753v563h473v-1464h-473v580h-753v-580h-473z" />
    <glyph glyph-name="I" unicode="I" horiz-adv-x="792" 
d="M158 0v1464h477v-1464h-477z" />
    <glyph glyph-name="J" unicode="J" horiz-adv-x="1181" 
d="M393 -18q-216 0 -338 49v305q128 -31 242 -31q135 0 208 51.5t73 171.5v936h473v-938q0 -271 -168.5 -407.5t-489.5 -136.5z" />
    <glyph glyph-name="K" unicode="K" horiz-adv-x="1828" 
d="M150 0v1464h473v-639l680 639h512l-728 -684l750 -780h-559l-655 680v-680h-473z" />
    <glyph glyph-name="L" unicode="L" horiz-adv-x="1470" 
d="M150 0v1464h473v-1147h784v-317h-1257z" />
    <glyph glyph-name="M" unicode="M" horiz-adv-x="2383" 
d="M150 0v1464h600l450 -800l440 800h594v-1464h-456v981l-533 -981h-153l-531 981v-981h-411z" />
    <glyph glyph-name="N" unicode="N" horiz-adv-x="1980" 
d="M150 0v1464h555l720 -897v897h406v-1464h-479l-795 1001v-1001h-407z" />
    <glyph glyph-name="O" unicode="O" horiz-adv-x="2152" 
d="M1071 -25q-234 0 -425.5 55.5t-319.5 155t-197.5 237t-69.5 300.5v16q0 164 75.5 303.5t209 236.5t322.5 151.5t409 54.5q301 0 531 -88.5t358.5 -256t128.5 -390.5v-17q0 -166 -72 -306.5t-202.5 -240t-323 -155.5t-424.5 -56zM1079 295q241 0 382 117.5t141 314.5v16
q0 193 -141 307.5t-386 114.5t-383.5 -113t-138.5 -311v-16q0 -199 143 -314.5t383 -115.5z" />
    <glyph glyph-name="P" unicode="P" horiz-adv-x="1677" 
d="M152 0v1464h763q725 0 725 -493v-8q0 -245 -184.5 -383t-519.5 -138h-313v-442h-471zM623 741h276q135 0 206 53t71 156v8q0 199 -275 199h-278v-416z" />
    <glyph glyph-name="Q" unicode="Q" horiz-adv-x="2152" 
d="M1071 -25q-234 0 -425.5 55.5t-319.5 155t-197.5 237t-69.5 300.5v16q0 164 75.5 303.5t209 236.5t322.5 151.5t409 54.5q301 0 531 -88.5t358.5 -256t128.5 -390.5v-17q0 -156 -62.5 -288.5t-181.5 -231.5l172 -154l-241 -243l-254 225q-204 -66 -455 -66zM1081 281
q85 0 158 12l-141 125l250 246l196 -177q58 98 58 240v16q0 193 -141 307.5t-386 114.5t-383.5 -113t-138.5 -311v-16q0 -208 143 -326t385 -118z" />
    <glyph glyph-name="R" unicode="R" horiz-adv-x="1785" 
d="M152 0v1464h809q337 0 516.5 -117.5t179.5 -349.5v-8q0 -84 -22.5 -151t-66 -116.5t-98 -84.5t-129.5 -64l437 -573h-521l-350 455h-284v-455h-471zM623 772h309q260 0 260 191v8q0 186 -256 186h-313v-385z" />
    <glyph glyph-name="S" unicode="S" horiz-adv-x="1718" 
d="M881 -25q-401 0 -612 124t-228 362h461q9 -42 31 -73.5t63.5 -58.5t111.5 -41t166 -14q156 0 241 38t85 110q0 24 -8.5 42t-30 32t-49 24t-74.5 18.5t-97 15t-126 13.5q-392 34 -557.5 138t-165.5 319q0 207 197.5 334t541.5 127q717 0 771 -451h-453q-44 152 -313 152
q-289 0 -289 -127q0 -41 31.5 -64t106 -38t224.5 -29q151 -12 263 -31.5t208 -54.5t155.5 -84.5t92.5 -122.5t33 -170q0 -224 -203 -357t-577 -133z" />
    <glyph glyph-name="T" unicode="T" horiz-adv-x="1597" 
d="M561 0v1145h-526v319h1530v-319h-529v-1145h-475z" />
    <glyph glyph-name="U" unicode="U" horiz-adv-x="1941" 
d="M969 -25q-403 0 -617.5 167.5t-214.5 498.5v823h473v-811q0 -180 86.5 -268t278.5 -88q187 0 272.5 88.5t85.5 278.5v800h473v-817q0 -338 -217 -505t-620 -167z" />
    <glyph glyph-name="V" unicode="V" horiz-adv-x="1851" 
d="M659 0l-659 1464h508l450 -1054l451 1054h442l-651 -1464h-541z" />
    <glyph glyph-name="W" unicode="W" horiz-adv-x="2578" 
d="M487 0l-481 1464h475l295 -975l346 975h385l332 -977l303 977h430l-479 -1464h-471l-326 926l-333 -926h-476z" />
    <glyph glyph-name="X" unicode="X" horiz-adv-x="1908" 
d="M1346 0l-420 520l-420 -520h-488l625 756l-575 708h544l363 -452l356 452h484l-549 -698l624 -766h-544z" />
    <glyph glyph-name="Y" unicode="Y" horiz-adv-x="1718" 
d="M637 0v621l-645 843h522l381 -499l371 499h460l-614 -843v-621h-475z" />
    <glyph glyph-name="Z" unicode="Z" horiz-adv-x="1640" 
d="M25 0v96l882 1059h-805v309h1504v-94l-881 -1061h850v-309h-1550z" />
    <glyph glyph-name="a" unicode="a" horiz-adv-x="1501" 
d="M535 -25q-102 0 -189 20t-156.5 60t-109 106t-39.5 152q0 181 157.5 262.5t487.5 81.5h285v21q0 83 -52 121.5t-178 38.5q-209 0 -237 -119h-408q12 126 101.5 213t233.5 127.5t335 40.5q147 0 262 -24t199.5 -73t129 -128.5t44.5 -186.5v-688h-422v129
q-58 -74 -163 -114t-281 -40zM680 227q125 0 208 40t83 112v49h-279q-118 0 -169.5 -22.5t-51.5 -75.5q0 -103 209 -103z" />
    <glyph glyph-name="b" unicode="b" 
d="M1008 -25q-167 0 -285.5 53t-175.5 146v-174h-432v1522h432v-621q66 89 185.5 144t279.5 55q173 0 310 -61t220.5 -188.5t83.5 -305.5v-17q0 -136 -47.5 -242.5t-132 -173.5t-196 -102t-242.5 -35zM864 260q150 0 235 70.5t85 197.5v17q0 132 -88.5 204t-233.5 72
q-146 0 -235.5 -73t-89.5 -201v-17q0 -128 88.5 -199t238.5 -71z" />
    <glyph glyph-name="c" unicode="c" horiz-adv-x="1513" 
d="M778 -25q-212 0 -376 60.5t-261.5 186t-97.5 300.5v17q0 173 100.5 302t268 194t376.5 65q109 0 204 -14.5t180 -48t148 -84t103.5 -126t49.5 -170.5h-408q-45 154 -268 154q-147 0 -229.5 -68.5t-82.5 -199.5v-17q0 -137 81.5 -207.5t236.5 -70.5q127 0 200.5 44
t88.5 130h391q-18 -209 -194.5 -328t-510.5 -119z" />
    <glyph glyph-name="d" unicode="d" horiz-adv-x="1671" 
d="M662 -25q-129 0 -239.5 34.5t-195 101t-132.5 173.5t-48 242v17q0 134 47 241t130 175.5t194 104.5t241 36q331 0 465 -191v613h432v-1522h-432v180q-58 -92 -179.5 -148.5t-282.5 -56.5zM809 260q146 0 236 71t90 199v17q0 129 -89 201.5t-237 72.5q-153 0 -236.5 -70.5
t-83.5 -203.5v-17q0 -127 88 -198.5t232 -71.5z" />
    <glyph glyph-name="e" unicode="e" horiz-adv-x="1536" 
d="M1493 354q-34 -183 -211.5 -281t-484.5 -98q-223 0 -392 63t-265.5 187.5t-96.5 296.5v17q0 168 98 297t266.5 196.5t380.5 67.5q120 0 224.5 -20t194 -64t153 -108t99.5 -156t36 -205v-105h-1016q42 -211 332 -211q119 0 187.5 33.5t86.5 89.5h408zM788 848
q-244 0 -301 -182h588q-16 182 -287 182z" />
    <glyph glyph-name="f" unicode="f" horiz-adv-x="995" 
d="M211 0v807h-186v264h186v51q0 139 68.5 233t187 136.5t281.5 42.5q116 0 204 -18v-275q-66 12 -129 12q-180 0 -180 -137v-45h309v-264h-309v-807h-432z" />
    <glyph glyph-name="g" unicode="g" 
d="M801 -385q-685 0 -738 399h429q16 -69 87.5 -104t217.5 -35q327 0 327 248v127q-58 -86 -179.5 -139.5t-282.5 -53.5q-103 0 -194.5 20t-168.5 61.5t-132.5 101t-86.5 143.5t-31 184v17q0 157 81.5 275.5t219.5 179.5t312 61q328 0 462 -191v162h432v-948
q0 -252 -195.5 -380t-559.5 -128zM811 324q145 0 234.5 65.5t89.5 177.5v17q0 110 -88.5 173.5t-237.5 63.5q-150 0 -233.5 -63t-83.5 -176v-17q0 -110 88 -175.5t231 -65.5z" />
    <glyph glyph-name="h" unicode="h" horiz-adv-x="1601" 
d="M115 0v1522h432v-637q61 97 183.5 156t295.5 59q217 0 345 -105.5t128 -312.5v-682h-434v598q0 102 -58.5 151.5t-179.5 49.5q-126 0 -203 -57t-77 -167v-575h-432z" />
    <glyph glyph-name="i" unicode="i" horiz-adv-x="671" 
d="M334 1169q-105 0 -172.5 51t-67.5 138t67.5 137.5t172.5 50.5q106 0 173.5 -50.5t67.5 -137.5t-68 -138t-173 -51zM119 0v1071h434v-1071h-434z" />
    <glyph glyph-name="j" unicode="j" horiz-adv-x="673" 
d="M336 1169q-106 0 -173 50.5t-67 138.5q0 87 66.5 137.5t173.5 50.5q105 0 173.5 -50.5t68.5 -137.5t-69 -138t-173 -51zM-57 -377v268q98 4 138 37.5t40 108.5v1034h434v-1044q0 -77 -17.5 -137t-60 -111.5t-111.5 -84.5t-175 -52t-248 -19z" />
    <glyph glyph-name="k" unicode="k" horiz-adv-x="1470" 
d="M115 0v1522h432v-889l436 438h465l-510 -479l549 -592h-500l-440 485v-485h-432z" />
    <glyph glyph-name="l" unicode="l" horiz-adv-x="675" 
d="M121 0v1522h432v-1522h-432z" />
    <glyph glyph-name="m" unicode="m" horiz-adv-x="2445" 
d="M115 0v1071h432v-180q61 93 177 151t275 58q297 0 398 -195q83 99 208 147t271 48q211 0 339 -106t128 -310v-684h-432v608q0 191 -213 191q-112 0 -183 -55.5t-71 -155.5v-588h-430v608q0 191 -209 191q-114 0 -186 -55.5t-72 -155.5v-588h-432z" />
    <glyph glyph-name="n" unicode="n" horiz-adv-x="1601" 
d="M115 0v1071h432v-186q61 97 183.5 156t295.5 59q217 0 345 -105.5t128 -312.5v-682h-434v598q0 102 -58.5 151.5t-179.5 49.5q-126 0 -203 -57t-77 -167v-575h-432z" />
    <glyph glyph-name="o" unicode="o" horiz-adv-x="1622" 
d="M809 -25q-217 0 -389 63.5t-274.5 189t-102.5 294.5v17q0 168 102.5 297t277 196.5t390.5 67.5t389 -66t275 -192.5t102 -292.5v-17q0 -128 -60 -233.5t-164 -176t-244.5 -109t-301.5 -38.5zM813 250q149 0 235.5 74.5t86.5 203.5v17q0 130 -86 203t-236 73
q-151 0 -239.5 -71.5t-88.5 -200.5v-17q0 -132 87 -207t241 -75z" />
    <glyph glyph-name="p" unicode="p" 
d="M115 -352v1423h432v-170q66 89 185.5 144t279.5 55q173 0 310 -61t220.5 -188.5t83.5 -305.5v-17q0 -136 -47.5 -242.5t-132 -173.5t-196 -102t-242.5 -35q-165 0 -284.5 51.5t-176.5 139.5v-518h-432zM864 260q150 0 235 70.5t85 197.5v17q0 132 -88.5 204t-233.5 72
q-146 0 -235.5 -73t-89.5 -201v-17q0 -128 88.5 -199t238.5 -71z" />
    <glyph glyph-name="q" unicode="q" horiz-adv-x="1671" 
d="M1124 -352v526q-58 -88 -180 -143.5t-282 -55.5q-129 0 -239.5 34.5t-195 101t-132.5 173.5t-48 242v17q0 134 47 241t130 175.5t194 104.5t241 36q331 0 465 -191v162h432v-1423h-432zM809 260q146 0 236 71t90 199v17q0 129 -89 201.5t-237 72.5q-153 0 -236.5 -70.5
t-83.5 -203.5v-17q0 -127 88 -198.5t232 -71.5z" />
    <glyph glyph-name="r" unicode="r" horiz-adv-x="1062" 
d="M115 0v1071h432v-225q64 127 181.5 183.5t291.5 53.5v-354q-220 11 -346.5 -49.5t-126.5 -185.5v-494h-432z" />
    <glyph glyph-name="s" unicode="s" horiz-adv-x="1349" 
d="M678 -25q-302 -1 -472 95.5t-181 273.5h407q13 -63 69 -94t175 -31q213 0 213 90q0 48 -58.5 64t-242.5 33q-291 27 -415 99.5t-124 231.5q0 92 47 163t131 114t191 64.5t235 21.5q133 0 238 -18t188 -57.5t133 -107t64 -161.5h-399q-17 54 -70 78t-154 24
q-194 0 -194 -74q0 -40 55 -55.5t211 -30.5q127 -10 216.5 -25t164.5 -40.5t119 -63t68 -91t24 -126.5q0 -186 -168 -280.5t-471 -96.5z" />
    <glyph glyph-name="t" unicode="t" horiz-adv-x="989" 
d="M678 -25q-479 0 -479 392v440h-179v264h179v244h434v-244h297v-264h-297v-408q0 -66 39.5 -94.5t118.5 -28.5q70 0 141 19v-289q-152 -31 -254 -31z" />
    <glyph glyph-name="u" unicode="u" horiz-adv-x="1597" 
d="M584 -25q-219 0 -350.5 106.5t-131.5 313.5v676h435v-600q0 -102 56.5 -151.5t174.5 -49.5q128 0 204.5 57t76.5 169v575h434v-1071h-434v180q-57 -96 -173 -150.5t-292 -54.5z" />
    <glyph glyph-name="v" unicode="v" horiz-adv-x="1511" 
d="M518 0l-528 1071h465l325 -698l326 698h416l-529 -1071h-475z" />
    <glyph glyph-name="w" unicode="w" horiz-adv-x="2158" 
d="M418 0l-418 1071h440l228 -659l266 659h342l244 -659l247 659h392l-435 -1071h-401l-240 621l-252 -621h-413z" />
    <glyph glyph-name="x" unicode="x" horiz-adv-x="1513" 
d="M-6 0l479 553l-448 518h499l254 -291l246 291h446l-448 -496l496 -575h-500l-289 340l-291 -340h-444z" />
    <glyph glyph-name="y" unicode="y" horiz-adv-x="1490" 
d="M317 -352l238 463l-567 960h471l323 -569l305 569h416l-770 -1423h-416z" />
    <glyph glyph-name="z" unicode="z" horiz-adv-x="1351" 
d="M29 0v86l637 705h-578v280h1225v-88l-649 -702h624v-281h-1259z" />
    <glyph glyph-name="quoteleft" unicode="&#x2018;" horiz-adv-x="712" 
d="M440 872l-383 113l328 506l246 -84z" />
    <glyph glyph-name="quoteright" unicode="&#x2019;" horiz-adv-x="712" 
d="M326 872l-244 84l190 535l383 -111z" />
    <glyph glyph-name="quotedblleft" unicode="&#x201c;" horiz-adv-x="1259" 
d="M440 872l-383 113l328 506l246 -84zM985 872l-381 113l328 506l246 -84z" />
    <glyph glyph-name="quotedblright" unicode="&#x201d;" horiz-adv-x="1259" 
d="M819 1491l383 -111l-330 -508l-243 84zM272 1491l383 -111l-329 -508l-244 84z" />
    </font>
</defs>
</svg>
