<?xml version="1.0" standalone="no"?>
<!DOCTYPE svg PUBLIC "-//W3C//DTD SVG 1.1//EN" "http://www.w3.org/Graphics/SVG/1.1/DTD/svg11.dtd" >
<svg xmlns="http://www.w3.org/2000/svg" xmlns:xlink="http://www.w3.org/1999/xlink" version="1.1">
<metadata>
Created by FontForge 20201107 at Fri Mar 15 17:23:47 2024
 By 
Copyright 2023 The Jaro Project Authors (https://github.com/agyeiarcher/Jaro)
</metadata>
<defs>
<font id="Jaro-Regular" horiz-adv-x="1043" vert-adv-y="2000" >
  <font-face 
    font-family="Jaro"
    font-weight="400"
    font-stretch="normal"
    units-per-em="2000"
    panose-1="0 0 0 0 0 0 0 0 0 0"
    ascent="1600"
    descent="-400"
    x-height="1100"
    cap-height="1333"
    bbox="-291.333 -500 2020 1960"
    underline-thickness="83"
    underline-position="-207"
    unicode-range="U+0020-FB02"
  />
<missing-glyph horiz-adv-x="1057" vert-adv-y="0" 
d="M0 -333v1666h1057v-1666h-1057zM233 -198h592l-295 558zM165 -47l290 549l-290 546v-1095zM892 -43v1088l-289 -543zM530 642l293 556h-588z" />
    <glyph glyph-name="fi" unicode="fi" horiz-adv-x="1252" vert-adv-y="0" 
d="M172 0q-25 0 -25 25v1052q0 23 16 40l200 200q17 16 40 16h215q25 0 25 -25v-233q0 -25 -25 -25h-155v-1025q0 -25 -25 -25h-266zM85 625q-25 0 -25 25v183q0 25 25 25h533q25 0 25 -25v-183q0 -25 -25 -25h-533zM848 0q-25 0 -25 25v1050q0 25 25 25h266q25 0 25 -25
v-1050q0 -25 -25 -25h-266zM843 1183q-20 0 -20 20v127q0 20 20 20h278q18 0 18 -20v-127q0 -20 -18 -20h-278z" />
    <glyph glyph-name="fl" unicode="fl" horiz-adv-x="1229" vert-adv-y="0" 
d="M172 0q-25 0 -25 25v1052q0 23 16 40l200 200q17 16 40 16h215q25 0 25 -25v-233q0 -25 -25 -25h-155v-1025q0 -25 -25 -25h-266zM85 625q-25 0 -25 25v183q0 25 25 25h533q25 0 25 -25v-183q0 -25 -25 -25h-533zM836 0q-25 0 -25 25v1283q0 25 25 25h267q25 0 25 -25
v-1283q0 -25 -25 -25h-267z" />
    <glyph glyph-name=".notdef" horiz-adv-x="1057" vert-adv-y="0" 
d="M0 -333v1666h1057v-1666h-1057zM233 -198h592l-295 558zM165 -47l290 549l-290 546v-1095zM892 -43v1088l-289 -543zM530 642l293 556h-588z" />
    <glyph glyph-name=".null" horiz-adv-x="0" vert-adv-y="0" 
 />
    <glyph glyph-name="nonmarkingreturn" horiz-adv-x="666" 
 />
    <glyph glyph-name="space" unicode=" " horiz-adv-x="318" vert-adv-y="0" 
 />
    <glyph glyph-name="exclam" unicode="!" horiz-adv-x="583" vert-adv-y="0" 
d="M158 508q-22 0 -25 24l-53 775q-3 26 25 26h373q28 0 25 -26l-53 -775q-3 -24 -25 -24h-267zM132 8q-25 0 -25 27v318q0 27 25 27h320q25 0 25 -27v-318q0 -27 -25 -27h-320z" />
    <glyph glyph-name="quotedbl" unicode="&#x22;" horiz-adv-x="768" vert-adv-y="0" 
d="M135 850q-22 0 -25 23l-30 434q-3 26 25 26h230q28 0 25 -26l-30 -434q-3 -23 -25 -23h-170zM463 850q-22 0 -25 23l-30 434q-3 26 25 26h230q28 0 25 -26l-30 -434q-3 -23 -25 -23h-170z" />
    <glyph glyph-name="numbersign" unicode="#" horiz-adv-x="1357" vert-adv-y="0" 
d="M608 0l300 1188h250l-300 -1188h-250zM28 272l54 220l1166 3l-36 -223h-1184zM193 0l297 1183h250l-297 -1183h-250zM110 702l53 218l1169 3l-39 -221h-1183z" />
    <glyph glyph-name="dollar" unicode="$" horiz-adv-x="950" vert-adv-y="0" 
d="M583 0v1333h300q25 0 25 -25v-163q0 -18 -15 -30l-238 -182v-185l205 -216q6 -7 10.5 -14.5t4.5 -17.5v-302q0 -19 -13 -30l-230 -156q-7 -4 -15 -8t-17 -4h-17zM67 0q-25 0 -25 25v148q0 13 1.5 20t11.5 14l230 188v185l-193 175q-17 14 -17 30v317q0 16 2 23.5t15 16.5
l231 178q9 6 18 9.5t22 3.5h4v-1333h-300zM458 -147q-25 0 -25 25v1570q0 25 25 25h34q25 0 25 -25v-1570q0 -25 -25 -25h-34z" />
    <glyph glyph-name="percent" unicode="%" horiz-adv-x="970" vert-adv-y="0" 
d="M43 0l784 1333h100l-784 -1333h-100zM572 0q-25 0 -25 25v562q0 25 25 25l331 1q25 0 25 -25v-563q0 -25 -25 -25h-331zM687 142h101v330h-101v-330zM67 722q-25 0 -25 25v561q0 25 25 25l331 2q25 0 25 -25v-563q0 -25 -25 -25h-331zM182 863h101v330h-101v-330z" />
    <glyph glyph-name="ampersand" unicode="&#x26;" horiz-adv-x="1107" vert-adv-y="0" 
d="M298 0q-23 0 -40 17l-200 200q-16 16 -16 40v216q0 21 10 30l113 132v63l-113 132q-10 9 -10 30v217q0 23 16 40l200 200q17 16 40 16h480q25 0 25 -25v-233q0 -25 -25 -25h-403v-350h283v158q0 25 25 25h234q25 0 25 -25v-158h120q25 0 25 -25v-83q0 -25 -25 -25h-104
v-542q0 -25 -25 -25h-635zM533 162q94 0 123 52.5t29 140.5t-29 140.5t-123 52.5t-122.5 -52.5t-28.5 -140.5t28.5 -140.5t122.5 -52.5z" />
    <glyph glyph-name="quotesingle" unicode="'" horiz-adv-x="440" vert-adv-y="0" 
d="M135 850q-22 0 -25 23l-30 434q-3 26 25 26h230q28 0 25 -26l-30 -434q-3 -23 -25 -23h-170z" />
    <glyph glyph-name="parenleft" unicode="(" horiz-adv-x="745" vert-adv-y="0" 
d="M415 -417q-26 0 -40 14l-300 300q-11 11 -14 17.5t-3 22.5v1410q0 16 3 22.5t14 17.5l300 300q14 13 40 13h180q25 0 25 -25v-143q0 -9 -2 -16.5t-10 -15.5l-236 -237v-1243l236 -237q8 -7 10 -15t2 -16v-144q0 -25 -25 -25h-180z" />
    <glyph glyph-name="parenright" unicode=")" horiz-adv-x="745" vert-adv-y="0" 
d="M330 -417h-180q-25 0 -25 25v144q0 8 2.5 16t9.5 15l236 237v1243l-236 237q-7 8 -9.5 15.5t-2.5 16.5v143q0 25 25 25h180q26 0 40 -13l300 -300q11 -11 14 -17.5t3 -22.5v-1410q0 -16 -3 -22.5t-14 -17.5l-300 -300q-14 -14 -40 -14z" />
    <glyph glyph-name="asterisk" unicode="*" horiz-adv-x="977" vert-adv-y="0" 
d="M298 697l-28 16q-23 12 -10 34l155 270h-310q-25 0 -25 25v33q0 25 25 25h310l-155 270q-13 22 10 33l28 17q23 13 35 -8l155 -269l155 269q14 21 35 8l29 -17q22 -10 10 -33l-155 -270h310q25 0 25 -25v-33q0 -25 -25 -25h-310l155 -270q11 -23 -10 -34l-29 -16
q-22 -15 -35 8l-155 268l-155 -268q-12 -23 -35 -8z" />
    <glyph glyph-name="plus" unicode="+" horiz-adv-x="710" vert-adv-y="0" 
d="M263 353q-25 0 -25 25v577q0 25 25 25h184q25 0 25 -25v-577q0 -25 -25 -25h-184zM67 550q-25 0 -25 25v183q0 25 25 25h576q25 0 25 -25v-183q0 -25 -25 -25h-576z" />
    <glyph glyph-name="comma" unicode="," horiz-adv-x="530" vert-adv-y="0" 
d="M130 -180q-27 0 -27 27v140q0 26 27 26h73q30 0 30 25v30h-128q-25 0 -25 27l2 253q0 27 26 27h317q25 0 25 -27v-306q0 -112 -53 -167t-142 -55h-125z" />
    <glyph glyph-name="hyphen" unicode="-" horiz-adv-x="600" vert-adv-y="0" 
d="M45 508q-25 0 -25 25v267q0 25 25 25h510q25 0 25 -25v-267q0 -25 -25 -25h-510z" />
    <glyph glyph-name="period" unicode="." horiz-adv-x="530" vert-adv-y="0" 
d="M105 8q-25 0 -25 27v318q0 27 25 27h320q25 0 25 -27v-318q0 -27 -25 -27h-320z" />
    <glyph glyph-name="slash" unicode="/" horiz-adv-x="782" vert-adv-y="0" 
d="M65 -167q-29 0 -22 27l392 1617q5 23 27 23h255q28 0 21 -27l-391 -1616q-6 -24 -27 -24h-255z" />
    <glyph glyph-name="zero" unicode="0" horiz-adv-x="1123" vert-adv-y="0" 
d="M218 0q-57 0 -77.5 23.5t-20.5 68.5v1148q0 45 20.5 68.5t77.5 23.5l687 3q58 0 78 -23.5t20 -68.5v-1151q0 -45 -20 -68.5t-78 -23.5h-687zM453 250h217v835h-217v-835z" />
    <glyph glyph-name="one" unicode="1" horiz-adv-x="640" vert-adv-y="0" 
d="M212 0q-25 0 -25 25v1047l-134 -5q-25 0 -25 25v216q0 25 25 25h442q25 0 25 -25v-1283q0 -25 -25 -25h-283z" />
    <glyph glyph-name="two" unicode="2" horiz-adv-x="830" vert-adv-y="0" 
d="M98 0q-25 0 -25 25l-1 325q0 10 4 16.5t11 15.5l316 385v203l-316 122q-15 5 -15 30v186q0 25 25 25h253q14 0 22 -4l18 -9l330 -145q13 -5 15 -14t2 -26v-432q0 -10 -4.5 -14.5t-12.5 -15.5l-313 -381v-40h358q25 0 25 -25v-202q0 -25 -25 -25h-667z" />
    <glyph glyph-name="three" unicode="3" horiz-adv-x="1018" vert-adv-y="0" 
d="M145 0q-25 0 -25 25v200q0 25 25 25h420v300h-337q-25 0 -25 25v200q0 25 25 25h337v267h-420q-25 0 -25 25v216q0 25 25 25h497q23 0 40 -16l200 -200q16 -17 16 -40v-200q0 -21 -10 -30l-130 -149v-63l130 -148q10 -10 10 -30v-200q0 -24 -16 -40l-200 -200
q-17 -17 -40 -17h-497z" />
    <glyph glyph-name="four" unicode="4" horiz-adv-x="1123" vert-adv-y="0" 
d="M695 0q-25 0 -25 25v392h-525q-25 0 -25 25v866q0 25 25 25h283q25 0 25 -25v-625h217v625q0 25 25 25h283q25 0 25 -25v-1283q0 -25 -25 -25h-283z" />
    <glyph glyph-name="five" unicode="5" horiz-adv-x="888" vert-adv-y="0" 
d="M67 0q-25 0 -25 25v200q0 25 25 25h446v283h-446q-25 0 -25 25l1 750q0 25 25 25h754q25 0 25 -25v-200q0 -25 -25 -25h-445v-283h445q25 0 25 -25v-520q0 -18 -12 -32l-212 -211q-11 -12 -31 -12h-525z" />
    <glyph glyph-name="six" unicode="6" horiz-adv-x="1157" vert-adv-y="0" 
d="M377 0q-24 0 -40 17l-200 200q-17 16 -17 40v748q0 18 15 30l365 288q11 10 30 10h250q25 0 25 -25v-126q0 -18 -15 -30l-333 -247v-55h356q24 0 40 -17l167 -166q17 -17 17 -40v-370q0 -24 -17 -40l-200 -200q-17 -17 -40 -17h-403zM578 257q88 0 119 38.5t31 147.5
t-31 148t-119 39q-87 0 -118.5 -39t-31.5 -148t31.5 -147.5t118.5 -38.5z" />
    <glyph glyph-name="seven" unicode="7" horiz-adv-x="905" vert-adv-y="0" 
d="M182 0q-29 0 -22 27l303 961v29h-398q-25 0 -25 25v266q0 25 25 25h587q19 0 30 -15l135 -186q11 -19 6 -34l-306 -1076q-6 -22 -27 -22h-308z" />
    <glyph glyph-name="eight" unicode="8" horiz-adv-x="1155" vert-adv-y="0" 
d="M377 0q-24 0 -40 17l-200 200q-17 16 -17 40v216q0 20 10 30l113 132v63l-113 132q-10 10 -10 30v217q0 23 17 40l200 200q16 16 40 16h401q24 0 40 -16l200 -200q17 -17 17 -40v-217q0 -20 -10 -30l-113 -132v-63l113 -132q10 -10 10 -30v-216q0 -24 -17 -40l-200 -200
q-16 -17 -40 -17h-401zM578 212q88 0 119 38.5t31 147.5t-31 148t-119 39q-87 0 -118.5 -39t-31.5 -148t31.5 -147.5t118.5 -38.5zM578 748q88 0 119 39t31 148t-31 148t-119 39q-87 0 -118.5 -39t-31.5 -148t31.5 -148t118.5 -39z" />
    <glyph glyph-name="nine" unicode="9" horiz-adv-x="1157" vert-adv-y="0" 
d="M780 1333q24 0 40 -17l200 -200q17 -16 17 -40v-748q0 -18 -15 -30l-365 -288q-11 -10 -30 -10h-250q-25 0 -25 25v126q0 18 15 30l333 247v55h-356q-24 0 -40 17l-167 166q-17 17 -17 40v370q0 24 17 40l200 200q17 17 40 17h403zM579 1076q-88 0 -119 -38.5t-31 -147.5
t31 -148t119 -39q87 0 118.5 39t31.5 148t-31.5 147.5t-118.5 38.5z" />
    <glyph glyph-name="colon" unicode=":" horiz-adv-x="530" vert-adv-y="0" 
d="M105 1q-25 0 -25 27v318q0 27 25 27h320q25 0 25 -27v-318q0 -27 -25 -27h-320zM105 691q-25 0 -25 27v318q0 27 25 27h320q25 0 25 -27v-318q0 -27 -25 -27h-320z" />
    <glyph glyph-name="semicolon" unicode=";" horiz-adv-x="530" vert-adv-y="0" 
d="M105 695q-25 0 -25 27v318q0 27 25 27h320q25 0 25 -27v-318q0 -27 -25 -27h-320zM130 -180q-27 0 -27 27v140q0 26 27 26h73q30 0 30 25v30h-128q-25 0 -25 27l2 253q0 27 26 27h317q25 0 25 -27v-306q0 -112 -53 -167t-142 -55h-125z" />
    <glyph glyph-name="less" unicode="&#x3c;" horiz-adv-x="677" vert-adv-y="0" 
d="M472 308q-18 0 -28.5 0.5t-25.5 13.5l-355 288q-15 13 -18 18.5t-3 21.5v33q0 17 3 22.5t18 17.5l355 289q15 12 25.5 12.5t28.5 0.5h78q35 0 35 -25v-178q0 -9 -2 -18t-15 -14l-226 -88v-70l226 -89q13 -4 15 -13.5t2 -17.5v-179q0 -25 -35 -25h-78z" />
    <glyph glyph-name="equal" unicode="=" horiz-adv-x="710" vert-adv-y="0" 
d="M67 747q-25 0 -25 25v183q0 25 25 25h576q25 0 25 -25v-183q0 -25 -25 -25h-576zM67 353q-25 0 -25 25v184q0 25 25 25h576q25 0 25 -25v-184q0 -25 -25 -25h-576z" />
    <glyph glyph-name="greater" unicode="&#x3e;" horiz-adv-x="677" vert-adv-y="0" 
d="M205 308h-78q-35 0 -35 25v179q0 8 2 17.5t15 13.5l226 89v70l-226 88q-13 5 -15 14t-2 18v178q0 25 35 25h78q18 0 28.5 -0.5t25.5 -12.5l355 -289q15 -12 18 -17.5t3 -22.5v-33q0 -16 -3 -21.5t-18 -18.5l-355 -288q-15 -13 -25.5 -13.5t-28.5 -0.5z" />
    <glyph glyph-name="question" unicode="?" horiz-adv-x="750" vert-adv-y="0" 
d="M135 472q-25 0 -25 25v175q0 11 5 16.5t13 11.5l212 132v71l-245 180q-15 11 -15 30v195q0 25 25 25h287q19 0 30 -10l233 -221q15 -13 15 -30v-309q0 -19 -17 -33l-268 -247q-11 -11 -32 -11h-218zM125 8q-25 0 -25 27v318q0 27 25 27h320q25 0 25 -27v-318
q0 -27 -25 -27h-320z" />
    <glyph glyph-name="at" unicode="@" horiz-adv-x="1440" vert-adv-y="0" 
d="M340 -193q-26 0 -47 20l-233 231q-11 11 -14.5 22.5t-3.5 24.5v903q0 14 3.5 25.5t14.5 21.5l233 232q23 20 47 20h743q24 0 47 -20l233 -232q19 -16 19 -47v-983q0 -25 -25 -25h-499q-12 0 -18.5 5t-14.5 12l-50 50l-50 -50q-17 -17 -40 -17h-153q-24 0 -40 17l-200 200
q-17 16 -17 40v553q0 23 17 40l200 200q16 17 40 17h535q25 0 25 -25v-934q0 -25 25 -25h156q25 0 25 25v859q0 23 -16 40l-200 200q-17 16 -40 16h-660q-24 0 -40 -16l-200 -200q-17 -17 -17 -40v-820q0 -24 17 -40l200 -200q16 -17 40 -17h628v-83h-670zM648 233h70
q33 0 45 13t12 46v541h-127q-32 0 -44 -13t-12 -45v-483q0 -33 12 -46t44 -13z" />
    <glyph glyph-name="A" unicode="A" horiz-adv-x="1117" vert-adv-y="0" 
d="M138 0q-25 0 -25 25v927q0 13 10 30l237 336q11 15 32 15h331q22 0 32 -15l238 -336q10 -14 10 -30v-927q0 -25 -25 -25h-283q-25 0 -25 25v425h-223v-425q0 -25 -25 -25h-284zM558 665q92 0 124.5 40.5t32.5 154.5t-32.5 154.5t-124.5 40.5q-91 0 -123.5 -40.5
t-32.5 -154.5t32.5 -154.5t123.5 -40.5z" />
    <glyph glyph-name="B" unicode="B" horiz-adv-x="1133" vert-adv-y="0" 
d="M150 0q-25 0 -25 25v1283q0 25 25 25h602q23 0 40 -16l200 -200q16 -17 16 -40v-210q0 -10 -4 -16t-12 -14l-157 -140l-15 -37l15 -27l157 -140q8 -8 12 -13.5t4 -16.5v-206q0 -24 -16 -40l-200 -200q-17 -17 -40 -17h-602zM548 225q83 0 113.5 33t30.5 125
q0 93 -30.5 126t-113.5 33q-82 0 -112.5 -33t-30.5 -126q0 -92 30.5 -125t112.5 -33zM548 792q83 0 113.5 33t30.5 125t-30.5 125t-113.5 33q-82 0 -112.5 -33t-30.5 -125t30.5 -125t112.5 -33z" />
    <glyph glyph-name="C" unicode="C" horiz-adv-x="843" vert-adv-y="0" 
d="M498 0q-23 0 -40 13l-163 149l-165 215q-11 14 -14 17.5t-3 17.5v510q0 14 3.5 18t13.5 17l153 198l175 165q11 9 17.5 11t22.5 2h247q25 0 25 -25v-160q0 -8 -1.5 -16.5t-10.5 -14.5l-188 -129l-123 -158v-327l125 -158l186 -128q8 -5 10 -12t2 -15v-165q0 -25 -25 -25
h-247z" />
    <glyph glyph-name="D" unicode="D" horiz-adv-x="1118" vert-adv-y="0" 
d="M138 0q-25 0 -25 25v1283q0 25 25 25h610q24 0 40 -16l200 -200q17 -17 17 -40v-820q0 -24 -17 -40l-200 -200q-16 -17 -40 -17h-610zM447 267h183q42 0 42 56v687q0 57 -42 57h-183v-800z" />
    <glyph glyph-name="E" unicode="E" horiz-adv-x="987" vert-adv-y="0" 
d="M145 0q-25 0 -25 25v1283q0 25 25 25h697q25 0 25 -25v-216q0 -25 -25 -25h-389v-284h355q25 0 25 -25v-183q0 -25 -25 -25h-355v-283h389q25 0 25 -25v-217q0 -25 -25 -25h-697z" />
    <glyph glyph-name="F" unicode="F" horiz-adv-x="895" vert-adv-y="0" 
d="M145 0q-25 0 -25 25v1283q0 25 25 25h685q25 0 25 -25v-216q0 -25 -25 -25h-377v-334h327q25 0 25 -25v-216q0 -25 -25 -25h-327v-442q0 -25 -25 -25h-283z" />
    <glyph glyph-name="G" unicode="G" horiz-adv-x="1100" vert-adv-y="0" 
d="M377 0q-24 0 -40 17l-200 200q-17 16 -17 40v820q0 23 17 40l200 200q16 16 40 16h591q25 0 25 -25v-216q0 -25 -25 -25h-481q-14 0 -24 -10t-10 -24v-731q0 -14 10 -24t24 -10h216v267h-128q-25 0 -25 25v215q0 25 25 25h410q25 0 25 -25v-518q0 -24 -17 -40l-200 -200
q-16 -17 -40 -17h-376z" />
    <glyph glyph-name="H" unicode="H" horiz-adv-x="1153" vert-adv-y="0" 
d="M145 0q-25 0 -25 25v1283q0 25 25 25h283q25 0 25 -25v-475h247v475q0 25 25 25h283q25 0 25 -25v-1283q0 -25 -25 -25h-283q-25 0 -25 25v542h-247v-542q0 -25 -25 -25h-283z" />
    <glyph glyph-name="I" unicode="I" horiz-adv-x="573" vert-adv-y="0" 
d="M145 0q-25 0 -25 25v1283q0 25 25 25h283q25 0 25 -25v-1283q0 -25 -25 -25h-283z" />
    <glyph glyph-name="J" unicode="J" horiz-adv-x="663" vert-adv-y="0" 
d="M65 -167q-25 0 -25 25v159q0 19 10 30l148 148q12 11 12 32v1081q0 25 25 25h283q25 0 25 -25v-1221q0 -9 -1.5 -16.5t-9.5 -15.5l-207 -207q-15 -15 -30 -15h-230z" />
    <glyph glyph-name="K" unicode="K" horiz-adv-x="1155" vert-adv-y="0" 
d="M145 0q-25 0 -25 25v1283q0 25 25 25h283q25 0 25 -25v-530h124l66 249l60 293q2 6 9.5 9.5t22.5 3.5h288q25 0 25 -25v-125q0 -11 -3 -21.5t-5 -18.5l-122 -293l-85 -160l87 -158l147 -334q4 -7 6 -15t2 -23v-135q0 -25 -25 -25h-298q-7 0 -17.5 2.5t-12.5 12.5l-74 317
l-55 181h-140v-488q0 -25 -25 -25h-283z" />
    <glyph glyph-name="L" unicode="L" horiz-adv-x="770" vert-adv-y="0" 
d="M145 0q-25 0 -25 25v1283q0 25 25 25h283q25 0 25 -25v-1041h252q25 0 25 -25v-217q0 -25 -25 -25h-560z" />
    <glyph glyph-name="M" unicode="M" horiz-adv-x="1607" vert-adv-y="0" 
d="M145 0q-25 0 -25 25v1085q0 23 17 40l166 167q17 16 40 16h229q23 0 40 -16l168 -169h47l168 169q17 16 40 16h228q24 0 40 -16l167 -167q17 -17 17 -40v-1085q0 -25 -25 -25h-284q-25 0 -25 25v1042h-183v-1042q0 -25 -25 -25h-283q-25 0 -25 25v1042h-184v-1042
q0 -25 -25 -25h-283z" />
    <glyph glyph-name="N" unicode="N" horiz-adv-x="1090" vert-adv-y="0" 
d="M145 0q-25 0 -25 25v1283q0 25 25 25h568q24 0 40 -16l200 -200q17 -17 17 -40v-1052q0 -25 -25 -25h-283q-25 0 -25 25v1042h-184v-1042q0 -25 -25 -25h-283z" />
    <glyph glyph-name="O" unicode="O" horiz-adv-x="1147" vert-adv-y="0" 
d="M377 0q-23 0 -40 17l-200 200q-17 16 -17 40v820q0 23 17 40l200 200q17 16 40 16h393q24 0 40 -16l200 -200q17 -17 17 -40v-820q0 -24 -17 -40l-200 -200q-16 -17 -40 -17h-393zM495 267h157q42 0 42 56v687q0 57 -42 57h-157q-41 0 -41 -57v-687q0 -56 41 -56z" />
    <glyph glyph-name="P" unicode="P" horiz-adv-x="997" vert-adv-y="0" 
d="M145 0q-25 0 -25 25v1283q0 25 25 25h553q24 0 40 -16l200 -200q17 -17 17 -40v-345q0 -24 -17 -40l-200 -200q-16 -17 -40 -17h-245v-450q0 -25 -25 -25h-283zM528 747q83 0 113.5 33t30.5 125t-30.5 125t-113.5 33q-82 0 -112.5 -33t-30.5 -125t30.5 -125t112.5 -33z
" />
    <glyph glyph-name="Q" unicode="Q" horiz-adv-x="1157" vert-adv-y="0" 
d="M377 0q-24 0 -40 17l-200 200q-17 16 -17 40v820q0 23 17 40l200 200q16 16 40 16h403q23 0 40 -16l200 -200q17 -17 17 -40v-820q0 -24 -17 -40l-200 -200q-17 -17 -40 -17h-403zM483 -167q-25 0 -25 25v142h255l44 -128q5 -15 -4.5 -27t-24.5 -12h-245zM508 267h140
q42 0 42 56v687q0 57 -42 57h-140q-41 0 -41 -57v-687q0 -56 41 -56z" />
    <glyph glyph-name="R" unicode="R" horiz-adv-x="1032" vert-adv-y="0" 
d="M145 0q-25 0 -25 25v1283q0 25 25 25h542q24 0 40 -13l230 -228q11 -10 13.5 -17t2.5 -23v-274q0 -13 -10 -23l-110 -107l-93 -80l110 -146l113 -242q4 -9 6.5 -17.5t2.5 -20.5v-117q0 -25 -25 -25h-264q-22 0 -30 20l-161 468h-75v-463q0 -25 -25 -25h-267zM547 733
q83 0 113 34.5t30 129.5q0 96 -30 130.5t-113 34.5q-82 0 -113 -34.5t-31 -130.5q0 -95 31 -129.5t113 -34.5z" />
    <glyph glyph-name="S" unicode="S" horiz-adv-x="795" vert-adv-y="0" 
d="M115 0q-25 0 -25 25v188q0 13 1.5 21t11.5 13l262 120v178l-258 160q-17 10 -17 30v367q0 16 2 23.5t15 16.5l263 178q10 6 18.5 9.5t21.5 3.5h270q25 0 25 -25v-170q0 -22 -15 -30l-262 -108v-185l262 -150q15 -7 15 -32v-435q0 -8 -2.5 -17t-10.5 -13l-314 -156
q-6 -3 -14.5 -7.5t-16.5 -4.5h-232z" />
    <glyph glyph-name="T" unicode="T" horiz-adv-x="973" vert-adv-y="0" 
d="M345 0q-25 0 -25 25v1042h-175q-25 0 -25 25v216q0 25 25 25h683q25 0 25 -25v-216q0 -25 -25 -25h-175v-1042q0 -25 -25 -25h-283z" />
    <glyph glyph-name="U" unicode="U" horiz-adv-x="1090" vert-adv-y="0" 
d="M377 0q-24 0 -40 17l-200 200q-17 16 -17 40v1051q0 25 25 25h283q25 0 25 -25v-1021q0 -20 20 -20h164v1041q0 25 25 25h283q25 0 25 -25v-1283q0 -25 -25 -25h-568z" />
    <glyph glyph-name="V" unicode="V" horiz-adv-x="1130" vert-adv-y="0" 
d="M377 0q-24 0 -40 17l-200 200q-17 16 -17 40v1051q0 25 25 25h283q25 0 25 -25v-1040h224v1040q0 25 25 25h283q25 0 25 -25v-1051q0 -24 -17 -40l-200 -200q-16 -17 -40 -17h-376z" />
    <glyph glyph-name="W" unicode="W" horiz-adv-x="1687" vert-adv-y="0" 
d="M377 0q-24 0 -40 17l-200 200q-17 16 -17 40v1051q0 25 25 25h283q25 0 25 -25v-1040h224v1040q0 25 25 25h283q25 0 25 -25v-1040h223v1040q0 25 25 25h284q25 0 25 -25v-1051q0 -24 -17 -40l-200 -200q-17 -17 -40 -17h-235q-23 0 -40 17l-168 168h-47l-168 -168
q-17 -17 -40 -17h-235z" />
    <glyph glyph-name="X" unicode="X" horiz-adv-x="1130" vert-adv-y="0" 
d="M148 0q-25 0 -25 25v480q0 9 1.5 16t8.5 14l130 130v35l-133 133q-7 8 -8.5 15t-1.5 15v445q0 25 25 25h283q25 0 25 -25v-490h224v490q0 25 25 25h283q25 0 25 -25v-445q0 -8 -1 -15t-9 -15l-133 -133v-35l130 -130q8 -7 9 -14t1 -16v-480q0 -25 -25 -25h-284
q-25 0 -25 25v527h-216v-527q0 -25 -25 -25h-284z" />
    <glyph glyph-name="Y" unicode="Y" horiz-adv-x="1050" vert-adv-y="0" 
d="M383 0q-25 0 -25 25v390l-268 267q-7 8 -8.5 14.5t-1.5 15.5v596q0 25 25 25h283q25 0 25 -25v-605h224v605q0 25 25 25h283q25 0 25 -25v-596q0 -9 -1 -15.5t-9 -14.5l-267 -267v-390q0 -25 -25 -25h-285z" />
    <glyph glyph-name="Z" unicode="Z" horiz-adv-x="827" vert-adv-y="0" 
d="M222 0q-21 0 -30 17l-125 211q-11 18 -4 35l339 797l-9 -33v58l10 -18h-301q-25 0 -25 25v216q0 25 25 25h485q20 0 30 -15l143 -201q12 -15 3 -35l-343 -804l8 57v-95l-16 27h315q25 0 25 -25v-217q0 -25 -25 -25h-505z" />
    <glyph glyph-name="bracketleft" unicode="[" horiz-adv-x="703" vert-adv-y="0" 
d="M67 -417q-25 0 -25 25v2067q0 25 25 25h570q25 0 25 -25v-133q0 -25 -25 -25h-282v-1750h282q25 0 25 -25v-134q0 -25 -25 -25h-570z" />
    <glyph glyph-name="backslash" unicode="\" horiz-adv-x="782" vert-adv-y="0" 
d="M717 -167h-255q-21 0 -27 24l-391 1616q-7 27 21 27h255q22 0 27 -23l392 -1617q8 -27 -22 -27z" />
    <glyph glyph-name="bracketright" unicode="]" horiz-adv-x="703" vert-adv-y="0" 
d="M636 -417h-570q-25 0 -25 25v134q0 25 25 25h282v1750h-282q-25 0 -25 25v133q0 25 25 25h570q25 0 25 -25v-2067q0 -25 -25 -25z" />
    <glyph glyph-name="asciicircum" unicode="^" horiz-adv-x="833" vert-adv-y="0" 
d="M83 807q-25 0 -25 35v61q0 24 2.5 33.5t11.5 20.5l255 355q12 16 18 18.5t22 2.5h66q17 0 22.5 -3t17.5 -18l289 -355q10 -11 11.5 -19.5t1.5 -34.5v-61q0 -35 -25 -35h-162q-22 0 -31 16l-132 227h-31l-117 -227q-7 -12 -11 -14t-21 -2h-162z" />
    <glyph glyph-name="underscore" unicode="_" horiz-adv-x="900" vert-adv-y="0" 
d="M67 -83q-25 0 -25 25v33q0 25 25 25h766q25 0 25 -25v-33q0 -25 -25 -25h-766z" />
    <glyph glyph-name="grave" unicode="`" horiz-adv-x="487" vert-adv-y="0" 
d="M368 1378l-313 130q-21 8 -12 34l50 128q11 27 34 15l303 -185q23 -14 12 -35l-42 -75q-11 -20 -32 -12z" />
    <glyph glyph-name="a" unicode="a" vert-adv-y="0" 
d="M370 0q-23 0 -40 17l-200 200q-17 16 -17 40v586q0 24 17 40l200 200q17 17 40 17h535q25 0 25 -25v-1050q0 -25 -25 -25h-208q-13 0 -19.5 5t-14.5 12l-50 50l-50 -50q-16 -17 -40 -17h-153zM487 233h70q32 0 44 13t12 46v575h-126q-33 0 -45 -13t-12 -46v-516
q0 -33 12 -46t45 -13z" />
    <glyph glyph-name="b" unicode="b" horiz-adv-x="1050" vert-adv-y="0" 
d="M145 0q-25 0 -25 25v1283q0 25 25 25h267q25 0 25 -25v-275l50 50q16 17 40 17h153q23 0 40 -17l200 -200q17 -16 17 -40v-586q0 -24 -17 -40l-200 -200q-17 -17 -40 -17h-535zM437 233h126q33 0 45 13t12 46v516q0 33 -12 46t-45 13h-70q-32 0 -44 -13t-12 -46v-575z
" />
    <glyph glyph-name="c" unicode="c" horiz-adv-x="723" vert-adv-y="0" 
d="M445 0q-20 0 -40 13l-163 110l-112 180q-7 13 -12 17.5t-5 19.5v420q0 15 4 20t13 18l102 170l173 119q9 6 18 9.5t22 3.5h173q25 0 25 -25v-187q0 -8 -1.5 -17t-9.5 -14l-114 -57l-88 -115v-267l93 -106l109 -69q10 -6 10.5 -14.5t0.5 -16.5v-187q0 -25 -25 -25h-173z
" />
    <glyph glyph-name="d" unicode="d" vert-adv-y="0" 
d="M370 0q-23 0 -40 17l-200 200q-17 16 -17 40v586q0 24 17 40l200 200q17 17 40 17h153q24 0 40 -17l50 -50v275q0 25 25 25h267q25 0 25 -25v-1283q0 -25 -25 -25h-208q-13 0 -19.5 5t-14.5 12l-50 50l-50 -50q-16 -17 -40 -17h-153zM487 233h70q32 0 44 13t12 46v575
h-126q-33 0 -45 -13t-12 -46v-516q0 -33 12 -46t45 -13z" />
    <glyph glyph-name="e" unicode="e" horiz-adv-x="1036" vert-adv-y="0" 
d="M568 0q-10 0 -21.5 3t-21.5 5l-178 44l-204 68q-30 10 -30 58v665q0 24 17 40l200 200q17 17 40 17h320q23 0 40 -17l200 -200q17 -16 17 -40v-410h-537l-7 -133l142 -47l255 -18q17 -3 17 -23v-187q0 -25 -25 -25h-224zM528 590h19q49 0 78.5 37t29.5 100v20
q0 62 -29.5 99t-78.5 37h-20q-48 0 -76.5 -37t-28.5 -99v-20q0 -63 28.5 -100t77.5 -37z" />
    <glyph glyph-name="f" unicode="f" horiz-adv-x="703" vert-adv-y="0" 
d="M172 0q-25 0 -25 25v1052q0 23 16 40l200 200q17 16 40 16h215q25 0 25 -25v-233q0 -25 -25 -25h-155v-1025q0 -25 -25 -25h-266zM85 625q-25 0 -25 25v183q0 25 25 25h533q25 0 25 -25v-183q0 -25 -25 -25h-533z" />
    <glyph glyph-name="g" unicode="g" vert-adv-y="0" 
d="M402 -333q-25 0 -25 25v156q0 20 15 22l146 37l104 55q15 8 15 31v164l-94 -87q-17 -17 -40 -17l-170 -6q-23 0 -40 16l-183 184q-17 16 -17 40v556q0 24 17 40l200 200q17 17 40 17h535q25 0 25 -25v-1202q0 -27 -17 -40l-133 -85l-168 -70q-15 -6 -22.5 -8.5
t-24.5 -2.5h-163zM487 263h70q32 0 44 13t12 46v545h-126q-33 0 -45 -13t-12 -46v-486q0 -33 12 -46t45 -13z" />
    <glyph glyph-name="h" unicode="h" horiz-adv-x="1050" vert-adv-y="0" 
d="M145 0q-25 0 -25 25v1283q0 25 25 25h267q25 0 25 -25v-208h243q23 0 40 -17l200 -200q17 -16 17 -40v-818q0 -25 -25 -25h-267q-25 0 -25 25v783q0 42 -42 42h-141v-825q0 -25 -25 -25h-267z" />
    <glyph glyph-name="i" unicode="i" horiz-adv-x="549" vert-adv-y="0" 
d="M145 0q-25 0 -25 25v1050q0 25 25 25h266q25 0 25 -25v-1050q0 -25 -25 -25h-266zM140 1183q-20 0 -20 20v127q0 20 20 20h278q18 0 18 -20v-127q0 -20 -18 -20h-278z" />
    <glyph glyph-name="j" unicode="j" horiz-adv-x="533" vert-adv-y="0" 
d="M-37 -333q-23 0 -23 25v156q0 18 15 22l80 28l55 62q9 9 11 16t2 17v1082q0 25 25 25h267q25 0 25 -25v-1150q0 -25 -17 -43l-118 -129l-127 -71q-25 -15 -50 -15h-145zM123 1183q-20 0 -20 20v127q0 20 20 20h278q18 0 18 -20v-127q0 -20 -18 -20h-278z" />
    <glyph glyph-name="k" unicode="k" horiz-adv-x="1022" vert-adv-y="0" 
d="M675 0q-13 0 -20.5 4t-9.5 11l-115 453h-93v240h93l115 375q2 8 9.5 11.5t20.5 3.5h253q25 0 25 -25v-106q0 -14 -2 -22t-6 -17l-148 -341v-34l156 -383q5 -11 7 -19.5t2 -18.5v-107q0 -25 -25 -25h-262zM145 0q-25 0 -25 25v1283q0 25 25 25h267q25 0 25 -25v-1283
q0 -25 -25 -25h-267z" />
    <glyph glyph-name="l" unicode="l" horiz-adv-x="526" vert-adv-y="0" 
d="M133 0q-25 0 -25 25v1283q0 25 25 25h267q25 0 25 -25v-1283q0 -25 -25 -25h-267z" />
    <glyph glyph-name="m" unicode="m" horiz-adv-x="1550" vert-adv-y="0" 
d="M145 0q-25 0 -25 25v1050q0 25 25 25h455q23 0 40 -17l123 -123h37l123 123q17 17 40 17h217q23 0 40 -17l200 -200q17 -16 17 -40v-818q0 -25 -25 -25h-267q-25 0 -25 25v783q0 42 -42 42h-141v-825q0 -25 -25 -25h-267q-25 0 -25 25v783q0 42 -42 42h-141v-825
q0 -25 -25 -25h-267z" />
    <glyph glyph-name="n" unicode="n" horiz-adv-x="1050" vert-adv-y="0" 
d="M145 0q-25 0 -25 25v1050q0 25 25 25h535q23 0 40 -17l200 -200q17 -16 17 -40v-818q0 -25 -25 -25h-267q-25 0 -25 25v778q0 47 -47 47h-136v-825q0 -25 -25 -25h-267z" />
    <glyph glyph-name="o" unicode="o" vert-adv-y="0" 
d="M370 0q-23 0 -40 17l-200 200q-17 16 -17 40v586q0 24 17 40l200 200q17 17 40 17h303q24 0 40 -17l200 -200q17 -16 17 -40v-586q0 -24 -17 -40l-200 -200q-16 -17 -40 -17h-303zM487 233h70q32 0 44 13t12 46v516q0 33 -12 46t-44 13h-70q-33 0 -45 -13t-12 -46v-516
q0 -33 12 -46t45 -13z" />
    <glyph glyph-name="p" unicode="p" horiz-adv-x="1050" vert-adv-y="0" 
d="M145 -300q-25 0 -25 25v1350q0 25 25 25h207q18 0 35 -17l50 -50l50 50q16 17 40 17h153q23 0 40 -17l200 -200q17 -16 17 -40v-586q0 -24 -17 -40l-200 -200q-17 -17 -40 -17h-153q-24 0 -40 17l-50 50v-342q0 -25 -25 -25h-267zM437 233h126q33 0 45 13t12 46v516
q0 33 -12 46t-45 13h-70q-32 0 -44 -13t-12 -46v-575z" />
    <glyph glyph-name="q" unicode="q" horiz-adv-x="1050" vert-adv-y="0" 
d="M645 -300q-25 0 -25 25v342l-50 -50q-17 -17 -40 -17h-153q-24 0 -40 17l-200 200q-17 16 -17 40v586q0 24 17 40l200 200q16 17 40 17h535q25 0 25 -25v-1350q0 -25 -25 -25h-267zM493 233h70q33 0 45 13t12 46v575h-127q-32 0 -44 -13t-12 -46v-516q0 -33 12 -46
t44 -13z" />
    <glyph glyph-name="r" unicode="r" horiz-adv-x="698" vert-adv-y="0" 
d="M145 0q-25 0 -25 25v1050q0 25 25 25h152q19 0 33 -17l98 -113l109 118q11 12 28 12h108q25 0 25 -25v-215q0 -16 -2 -21.5t-11 -11.5l-248 -183v-619q0 -25 -25 -25h-267z" />
    <glyph glyph-name="s" unicode="s" horiz-adv-x="722" vert-adv-y="0" 
d="M114 0q-25 0 -25 25v162q0 23 15 30l204 121v104l-204 110q-15 9 -15 31v319q0 11 3.5 18t10.5 12l213 156q11 8 18 10t14 2h243q25 0 25 -25v-157q0 -17 -2.5 -23t-10.5 -10l-189 -102v-116l202 -100q17 -7 17 -30v-307q0 -25 -17 -40l-213 -177q-16 -13 -40 -13h-249z
" />
    <glyph glyph-name="t" unicode="t" horiz-adv-x="625" vert-adv-y="0" 
d="M350 0q-23 0 -40 17l-167 166q-16 17 -16 40v644h-42q-25 0 -25 25v183q0 25 25 25h42v125q0 25 25 25h266q25 0 25 -25v-125h97q25 0 25 -25v-183q0 -25 -25 -25h-97v-534q0 -19 12 -31l98 -99q10 -9 10 -30v-148q0 -25 -25 -25h-188z" />
    <glyph glyph-name="u" unicode="u" horiz-adv-x="1050" vert-adv-y="0" 
d="M377 0q-24 0 -40 17l-200 200q-17 16 -17 40v818q0 25 25 25h267q25 0 25 -25v-778q0 -47 46 -47h137v825q0 25 25 25h267q25 0 25 -25v-1050q0 -25 -25 -25h-535z" />
    <glyph glyph-name="v" unicode="v" vert-adv-y="0" 
d="M370 0q-23 0 -40 17l-200 200q-17 16 -17 40v818q0 25 25 25h267q25 0 25 -25v-825h183v825q0 25 25 25h267q25 0 25 -25v-818q0 -24 -17 -40l-200 -200q-16 -17 -40 -17h-303z" />
    <glyph glyph-name="w" unicode="w" horiz-adv-x="1510" vert-adv-y="0" 
d="M370 0q-23 0 -40 17l-200 200q-17 16 -17 40v818q0 25 25 25h267q25 0 25 -25v-825h167v825q0 25 25 25h266q25 0 25 -25v-825h167v825q0 25 25 25h267q25 0 25 -25v-818q0 -24 -17 -40l-200 -200q-17 -17 -40 -17h-228q-24 0 -40 17l-135 135h36l-135 -135
q-16 -17 -40 -17h-228z" />
    <glyph glyph-name="x" unicode="x" horiz-adv-x="1045" vert-adv-y="0" 
d="M142 0q-25 0 -25 25v380q0 9 1.5 16.5t8.5 13.5l130 105v35l-134 107q-7 6 -8.5 13.5t-1.5 16.5v363q0 25 25 25h267q25 0 25 -25v-393h182v393q0 25 25 25h266q25 0 25 -25v-363q0 -9 -1 -16.5t-9 -13.5l-133 -107v-35l137 -105q8 -5 9 -13t1 -17v-380q0 -25 -25 -25
h-267q-25 0 -25 25v410h-182v-410q0 -25 -25 -25h-266z" />
    <glyph glyph-name="y" unicode="y" horiz-adv-x="1050" vert-adv-y="0" 
d="M408 -333q-25 0 -25 25v156q0 19 15 22l147 37l103 55q15 8 15 31v164l-93 -87q-17 -17 -40 -17l-170 -6q-23 0 -40 16l-183 184q-17 16 -17 40v788q0 25 25 25h267q25 0 25 -25v-753q0 -33 12 -46t44 -13h127v812q0 25 25 25h267q25 0 25 -25v-1202q0 -30 -17 -40
l-133 -85l-169 -70q-15 -6 -22.5 -8.5t-23.5 -2.5h-164z" />
    <glyph glyph-name="z" unicode="z" horiz-adv-x="763" vert-adv-y="0" 
d="M217 0q-16 0 -25.5 4t-14.5 13l-117 200q-12 22 -12 33q0 16 12 35l320 504v61h-325q-25 0 -25 25v200q0 25 25 25h492q16 0 25.5 -4t14.5 -13l116 -200q5 -8 8.5 -17t3.5 -18q0 -17 -15 -40l-322 -499v-59h330q25 0 25 -25v-200q0 -25 -25 -25h-491z" />
    <glyph glyph-name="braceleft" unicode="{" horiz-adv-x="853" vert-adv-y="0" 
d="M505 743l-300 312q-13 13 -13 32v260q0 16 2.5 22.5t13.5 17.5l300 300q14 13 40 13h197q25 0 25 -25v-110q0 -9 -2 -16.5t-10 -15.5l-253 -236v-554zM548 -417q-26 0 -40 14l-300 300q-11 11 -13.5 17.5t-2.5 22.5v260q0 18 13 31l300 312v-553l253 -237q8 -7 10 -15
t2 -17v-110q0 -25 -25 -25h-197zM87 488q-22 0 -22 22v263q0 22 22 22h263q22 0 22 -22v-263q0 -22 -22 -22h-263z" />
    <glyph glyph-name="bar" unicode="|" horiz-adv-x="393" vert-adv-y="0" 
d="M105 -250q-25 0 -25 25v1750q0 25 25 25h183q25 0 25 -25v-1750q0 -25 -25 -25h-183z" />
    <glyph glyph-name="braceright" unicode="}" horiz-adv-x="853" vert-adv-y="0" 
d="M348 743v554l-253 236q-7 8 -9.5 15.5t-2.5 16.5v110q0 25 25 25h197q26 0 40 -13l300 -300q11 -11 13.5 -17.5t2.5 -22.5v-260q0 -19 -13 -32zM305 -417h-197q-25 0 -25 25v110q0 9 2.5 17t9.5 15l253 237v553l300 -312q13 -13 13 -31v-260q0 -16 -2.5 -22.5
t-13.5 -17.5l-300 -300q-14 -14 -40 -14zM766 488h-263q-22 0 -22 22v263q0 22 22 22h263q22 0 22 -22v-263q0 -22 -22 -22z" />
    <glyph glyph-name="asciitilde" unicode="~" horiz-adv-x="1178" vert-adv-y="0" 
d="M57 492q-10 0 -14.5 7t2.5 18l192 305q5 8 11.5 14t19.5 6h329q23 0 35 -25l60 -139h101l52 145q7 19 28 19h249q10 0 14 -7t-3 -18l-191 -305q-5 -9 -11.5 -14.5t-20.5 -5.5h-328q-25 0 -35 25l-60 136h-102l-52 -143q-5 -18 -28 -18h-248z" />
    <glyph glyph-name="uni00A0" unicode="&#xa0;" horiz-adv-x="318" vert-adv-y="0" 
 />
    <glyph glyph-name="exclamdown" unicode="&#xa1;" horiz-adv-x="583" vert-adv-y="0" 
d="M425 834q22 0 25 -24l53 -775q3 -26 -25 -26h-373q-28 0 -25 26l53 775q3 24 25 24h267zM451 1334q25 0 25 -27v-318q0 -27 -25 -27h-320q-25 0 -25 27v318q0 27 25 27h320z" />
    <glyph glyph-name="cent" unicode="&#xa2;" horiz-adv-x="848" vert-adv-y="0" 
d="M332 0q-27 0 -40 13l-234 234q-11 11 -13.5 17.5t-2.5 22.5v526q0 17 2.5 23t13.5 17l234 234q13 13 40 13h128v-345l-92 -75v-260l92 -75v-345h-128zM677 0v333h105q25 0 25 -25v-283q0 -25 -25 -25h-105zM552 -147q-25 0 -25 25v1284q0 25 25 25h33q25 0 25 -25v-1284
q0 -25 -25 -25h-33zM677 765v333h105q25 0 25 -25v-283q0 -25 -25 -25h-105z" />
    <glyph glyph-name="sterling" unicode="&#xa3;" horiz-adv-x="827" vert-adv-y="0" 
d="M67 0q-25 0 -25 25v217q0 25 25 25h91v291h334v-291h268q25 0 25 -25v-217q0 -25 -25 -25h-693zM67 625q-25 0 -25 25v33q0 25 25 25h693q25 0 25 -25v-33q0 -25 -25 -25h-693zM158 775v272q0 16 4 22t13 18l183 233q8 11 17.5 12t22.5 1h362q25 0 25 -25v-216
q0 -25 -25 -25h-268v-292h-334z" />
    <glyph glyph-name="currency" unicode="&#xa4;" horiz-adv-x="1058" vert-adv-y="0" 
d="M158 310l-83 85l168 168q-31 44 -48 98.5t-17 115.5q0 125 69 221l-172 174l83 85l174 -174q41 29 90.5 45.5t104.5 16.5t106 -15.5t94 -42.5l173 171l83 -85l-168 -168q32 -43 51 -97.5t19 -115.5q0 -63 -20 -120t-55 -104l170 -170l-83 -85l-172 172q-43 -28 -93 -45
t-105 -17t-104.5 15.5t-92.5 41.5zM527 525q124 0 183.5 76t59.5 181q0 70 -33.5 129.5t-89.5 95.5t-124 36q-78 0 -131 -37.5t-80 -97.5t-27 -130t32.5 -127.5t87.5 -91.5t122 -34z" />
    <glyph glyph-name="yen" unicode="&#xa5;" horiz-adv-x="950" vert-adv-y="0" 
d="M180 533l-140 139q-7 8 -8.5 14.5t-1.5 15.5v606q0 25 25 25h283q25 0 25 -25v-586h224v586q0 25 25 25h283q25 0 25 -25v-606q0 -9 -1 -15.5t-9 -14.5l-138 -139h-592zM333 0q-25 0 -25 25v158h335v-158q0 -25 -25 -25h-285zM135 250q-25 0 -25 25v33q0 25 25 25h680
q25 0 25 -25v-33q0 -25 -25 -25h-680zM135 383q-25 0 -25 25v34q0 25 25 25h680q25 0 25 -25v-34q0 -25 -25 -25h-680z" />
    <glyph glyph-name="brokenbar" unicode="&#xa6;" horiz-adv-x="393" vert-adv-y="0" 
d="M80 792v733q0 25 25 25h183q25 0 25 -25v-733h-233zM105 -250q-25 0 -25 25v733h233v-733q0 -25 -25 -25h-183z" />
    <glyph glyph-name="section" unicode="&#xa7;" horiz-adv-x="950" vert-adv-y="0" 
d="M118 -163q-28 0 -28 25v128q0 22 17 30l263 105v52l-263 110q-17 9 -17 31v330q0 26 23 39l257 136v35l-263 77q-17 5 -17 32v168q0 23 15 30l292 157q20 11 35 11h400q28 0 28 -25v-140q0 -27 -15 -33l-243 -102v-50l240 -100q18 -8 18 -30v-381q0 -26 -15 -34
l-243 -135v-35l240 -50q18 -5 18 -30v-121q0 -19 -3 -25.5t-15 -14.5l-272 -177q-19 -13 -47 -13h-405zM475 405q83 0 113 33.5t30 124.5q0 92 -30 125.5t-113 33.5q-82 0 -112.5 -33.5t-30.5 -125.5q0 -91 30.5 -124.5t112.5 -33.5z" />
    <glyph glyph-name="dieresis" unicode="&#xa8;" horiz-adv-x="718" vert-adv-y="0" 
d="M60 1418q-18 0 -18 20v250q0 22 18 22h252q20 0 20 -22v-250q0 -20 -20 -20h-252zM405 1418q-18 0 -18 20v250q0 22 18 22h252q20 0 20 -22v-250q0 -20 -20 -20h-252z" />
    <glyph glyph-name="copyright" unicode="&#xa9;" horiz-adv-x="1167" vert-adv-y="0" 
d="M340 -2q-24 0 -47 20l-233 232q-10 9 -14 20t-4 27v738q0 17 4 27.5t14 19.5l233 231q23 20 47 20h487q25 0 46 -20l234 -231q10 -9 14 -19.5t4 -27.5v-738q0 -16 -4 -27t-14 -20l-234 -232q-12 -11 -22 -15.5t-24 -4.5h-487zM607 225q-27 0 -40 13l-267 234
q-11 9 -14 15.5t-3 24.5v311q0 19 3 25t14 15l267 234q13 13 40 13h166q25 0 25 -25v-137q0 -11 -2 -17.5t-9 -13.5l-262 -227v-45l262 -227q7 -7 9 -13.5t2 -17.5v-137q0 -25 -25 -25h-166zM382 82h403q23 0 40 16l200 200q17 17 17 40v655q0 24 -17 40l-200 200
q-17 17 -40 17h-403q-24 0 -40 -17l-200 -200q-17 -16 -17 -40v-655q0 -23 17 -40l200 -200q16 -16 40 -16z" />
    <glyph glyph-name="ordfeminine" unicode="&#xaa;" horiz-adv-x="840" vert-adv-y="0" 
d="M307 608q-19 0 -30 14l-150 150q-14 12 -14 30v440q0 14 14 30l150 150q11 11 30 11h401q19 0 19 -18v-788q0 -19 -19 -19h-156q-16 0 -25 14l-39 36l-36 -36q-13 -14 -30 -14h-115zM393 783h54q41 0 41 44v431h-95q-41 0 -41 -43v-388q0 -44 41 -44z" />
    <glyph glyph-name="guillemotleft" unicode="&#xab;" horiz-adv-x="1053" vert-adv-y="0" 
d="M368 97q-13 0 -21 1.5t-19 11.5l-351 367q-11 11 -14 17.5t-3 22.5v66q0 17 3 23t14 17l351 367q11 10 19 11.5t21 1.5h34q25 0 25 -25v-156q0 -9 -1.5 -16t-10.5 -16l-227 -222v-35l227 -223q9 -9 10.5 -16t1.5 -16v-156q0 -25 -25 -25h-34zM914 97q-13 0 -21 1.5
t-19 11.5l-351 367q-11 11 -14 17.5t-3 22.5v66q0 17 3 23t14 17l351 367q11 10 19 11.5t21 1.5h34q25 0 25 -25v-156q0 -9 -1.5 -16t-10.5 -16l-227 -222v-35l227 -223q9 -9 10.5 -16t1.5 -16v-156q0 -25 -25 -25h-34z" />
    <glyph glyph-name="logicalnot" unicode="&#xac;" horiz-adv-x="710" vert-adv-y="0" 
d="M460 337q-25 0 -25 25v255h-368q-25 0 -25 25v183q0 25 25 25h576q25 0 25 -25v-463q0 -25 -25 -25h-183z" />
    <glyph glyph-name="registered" unicode="&#xae;" horiz-adv-x="1167" vert-adv-y="0" 
d="M340 -2q-24 0 -47 20l-233 232q-11 10 -14.5 21.5t-3.5 25.5v738q0 14 3.5 25.5t14.5 21.5l233 231q21 20 47 20h487q25 0 46 -20l234 -231q11 -10 14.5 -21.5t3.5 -25.5v-738q0 -14 -3.5 -25.5t-14.5 -21.5l-234 -232q-11 -10 -21 -15t-25 -5h-487zM382 82h403
q23 0 40 16l200 200q17 17 17 40v655q0 24 -17 40l-200 200q-17 17 -40 17h-403q-24 0 -40 -17l-200 -200q-17 -16 -17 -40v-655q0 -23 17 -40l200 -200q16 -16 40 -16zM302 253q-17 0 -17 19v820q0 18 17 18h408q9 0 14.5 -2.5t12.5 -7.5l153 -152q12 -12 12 -26v-100
q0 -16 -2 -21.5t-10 -13.5l-127 -127v-23l144 -212q6 -10 6 -27v-126q0 -19 -16 -19h-179q-14 0 -20 15l-90 234h-78v-230q0 -19 -17 -19h-211zM567 702q64 0 85 26t21 97t-21 97t-85 26q-63 0 -84 -26t-21 -97t21 -97t84 -26z" />
    <glyph glyph-name="macron" unicode="&#xaf;" horiz-adv-x="485" vert-adv-y="0" 
d="M67 1418q-25 0 -25 25v154q0 25 25 25h351q25 0 25 -25v-154q0 -25 -25 -25h-351z" />
    <glyph glyph-name="degree" unicode="&#xb0;" horiz-adv-x="483" vert-adv-y="0" 
d="M242 933q-89 0 -144.5 56.5t-55.5 143.5q0 88 55.5 144t144.5 56t144.5 -56t55.5 -144q0 -87 -55.5 -143.5t-144.5 -56.5zM242 1015q53 0 84.5 33.5t31.5 84.5q0 52 -31.5 85.5t-84.5 33.5q-52 0 -84.5 -33.5t-32.5 -85.5q0 -51 32.5 -84.5t84.5 -33.5z" />
    <glyph glyph-name="plusminus" unicode="&#xb1;" horiz-adv-x="710" vert-adv-y="0" 
d="M67 0q-25 0 -25 25v183q0 25 25 25h576q25 0 25 -25v-183q0 -25 -25 -25h-576zM263 415q-25 0 -25 25v577q0 25 25 25h184q25 0 25 -25v-577q0 -25 -25 -25h-184zM67 612q-25 0 -25 25v183q0 25 25 25h576q25 0 25 -25v-183q0 -25 -25 -25h-576z" />
    <glyph glyph-name="uni00B2" unicode="&#xb2;" horiz-adv-x="548" vert-adv-y="0" 
d="M65 513q-17 0 -17 17v214q0 6 2.5 10.5t6.5 10.5l209 254v134l-209 81q-9 3 -9 20v122q0 17 16 17h167q9 0 14.5 -2.5t11.5 -6.5l218 -95q9 -4 10 -10t1 -17v-285q0 -6 -3 -9.5t-8 -10.5l-206 -251v-27h236q16 0 16 -16v-133q0 -17 -16 -17h-440z" />
    <glyph glyph-name="uni00B3" unicode="&#xb3;" horiz-adv-x="672" vert-adv-y="0" 
d="M96 513q-17 0 -17 17v132q0 16 17 16h277v198h-223q-16 0 -16 17v132q0 16 16 16h223v176h-277q-17 0 -17 17v142q0 17 17 17h328q15 0 26 -11l132 -132q11 -11 11 -26v-132q0 -14 -7 -20l-86 -98v-42l86 -98q7 -6 7 -19v-132q0 -16 -11 -27l-132 -132q-11 -11 -26 -11
h-328z" />
    <glyph glyph-name="acute" unicode="&#xb4;" horiz-adv-x="487" vert-adv-y="0" 
d="M118 1378q-20 -8 -31 12l-42 75q-12 22 12 35l303 185q23 12 33 -15l50 -128q9 -26 -11 -34z" />
    <glyph glyph-name="uni00B5" unicode="&#xb5;" horiz-adv-x="1050" vert-adv-y="0" 
d="M145 -300q-25 0 -25 25v1350q0 25 25 25h267q25 0 25 -25v-783q0 -42 41 -42h142v825q0 25 25 25h267q25 0 25 -25v-1050q0 -25 -25 -25h-385q-24 0 -40 17l-50 50v-342q0 -25 -25 -25h-267z" />
    <glyph glyph-name="paragraph" unicode="&#xb6;" horiz-adv-x="1020" vert-adv-y="0" 
d="M587 -417q-25 0 -25 25v825h-230q-27 0 -40 14l-234 233q-11 11 -13.5 17.5t-2.5 22.5v327q0 16 2.5 22.5t13.5 17.5l234 233q12 13 40 13h371q25 0 25 -25v-1700q0 -25 -25 -25h-116zM837 -417q-25 0 -25 25v1700q0 25 25 25h116q25 0 25 -25v-1700q0 -25 -25 -25h-116z
" />
    <glyph glyph-name="periodcentered" unicode="&#xb7;" horiz-adv-x="530" vert-adv-y="0" 
d="M105 440q-25 0 -25 27v318q0 27 25 27h320q25 0 25 -27v-318q0 -27 -25 -27h-320z" />
    <glyph glyph-name="cedilla" unicode="&#xb8;" horiz-adv-x="333" vert-adv-y="0" 
d="M67 -323q-25 0 -25 21v34q0 20 25 20h113v81h-88q-25 0 -25 25v65l51 77h135l-51 -77h65q25 0 25 -25v-158q0 -18 -14 -32l-20 -20q-7 -7 -15 -9t-16 -2h-160z" />
    <glyph glyph-name="uni00B9" unicode="&#xb9;" horiz-adv-x="422" vert-adv-y="0" 
d="M140 513q-17 0 -17 17v691l-88 -4q-17 0 -17 17v142q0 17 17 17h292q16 0 16 -17v-846q0 -17 -16 -17h-187z" />
    <glyph glyph-name="ordmasculine" unicode="&#xba;" horiz-adv-x="840" vert-adv-y="0" 
d="M307 608q-19 0 -30 14l-150 150q-14 12 -14 30v440q0 14 14 30l150 150q11 11 30 11h226q19 0 30 -11l150 -150q14 -14 14 -30v-440q0 -19 -14 -30l-150 -150q-11 -14 -30 -14h-226zM393 783h54q41 0 41 44v388q0 43 -41 43h-54q-41 0 -41 -43v-388q0 -44 41 -44z" />
    <glyph glyph-name="guillemotright" unicode="&#xbb;" horiz-adv-x="1173" vert-adv-y="0" 
d="M685 97h-34q-25 0 -25 25v156q0 9 1.5 16t10.5 16l227 223v35l-227 222q-9 9 -10.5 16t-1.5 16v156q0 25 25 25h34q14 0 22 -1.5t18 -11.5l351 -367q11 -11 14 -17t3 -23v-66q0 -16 -3 -22.5t-14 -17.5l-351 -367q-10 -10 -18 -11.5t-22 -1.5zM139 97h-34q-25 0 -25 25
v156q0 9 1.5 16t10.5 16l227 223v35l-227 222q-9 9 -10.5 16t-1.5 16v156q0 25 25 25h34q14 0 22 -1.5t18 -11.5l351 -367q11 -11 14 -17t3 -23v-66q0 -16 -3 -22.5t-14 -17.5l-351 -367q-10 -10 -18 -11.5t-22 -1.5z" />
    <glyph glyph-name="onequarter" unicode="&#xbc;" horiz-adv-x="1230" vert-adv-y="0" 
d="M163 667q-16 0 -16 17v690l-89 -4q-16 0 -16 17v143q0 17 16 17h292q17 0 17 -17v-846q0 -17 -17 -17h-187zM226 92h-51l603 1441h52zM985 0q-17 0 -17 17v258h-347q-16 0 -16 17v571q0 17 16 17h187q17 0 17 -17v-411h143v411q0 17 17 17h186q17 0 17 -17v-846
q0 -17 -17 -17h-186z" />
    <glyph glyph-name="onehalf" unicode="&#xbd;" horiz-adv-x="1121" vert-adv-y="0" 
d="M163 667q-16 0 -16 17v690l-89 -4q-16 0 -16 17v143q0 17 16 17h292q17 0 17 -17v-846q0 -17 -17 -17h-187zM226 92h-51l603 1441h52zM623 0q-17 0 -17 17l-1 215q0 6 3 10.5t7 9.5l210 255v133l-210 80q-10 4 -10 20v123q0 17 16 17h167q10 0 15 -3t12 -5l218 -97
q12 -3 12 -27v-283q0 -7 -3.5 -10.5t-8.5 -9.5l-207 -252v-26h237q17 0 17 -17v-133q0 -17 -17 -17h-440z" />
    <glyph glyph-name="threequarters" unicode="&#xbe;" horiz-adv-x="1420" vert-adv-y="0" 
d="M58 667q-16 0 -16 17v131q0 17 16 17h279v198h-224q-16 0 -16 17v132q0 16 16 16h224v175h-279q-16 0 -16 17v143q0 17 16 17h329q15 0 26 -12l132 -131q12 -10 12 -27v-132q0 -10 -7 -20l-87 -96v-44l87 -96q7 -10 7 -20v-132q0 -16 -12 -27l-132 -131q-11 -12 -26 -12
h-329zM416 92h-51l603 1441h52zM1175 0q-17 0 -17 17v258h-347q-16 0 -16 17v571q0 17 16 17h187q17 0 17 -17v-411h143v411q0 17 17 17h186q17 0 17 -17v-846q0 -17 -17 -17h-186z" />
    <glyph glyph-name="questiondown" unicode="&#xbf;" horiz-adv-x="750" vert-adv-y="0" 
d="M615 861q25 0 25 -25v-175q0 -11 -5 -16.5t-13 -11.5l-212 -132v-71l245 -180q15 -10 15 -30v-195q0 -25 -25 -25h-287q-19 0 -30 10l-233 221q-15 14 -15 30v309q0 19 17 33l268 247q11 11 32 11h218zM625 1325q25 0 25 -27v-318q0 -27 -25 -27h-320q-25 0 -25 27v318
q0 27 25 27h320z" />
    <glyph glyph-name="Agrave" unicode="&#xc0;" horiz-adv-x="1117" vert-adv-y="0" 
d="M138 0q-25 0 -25 25v927q0 13 10 30l237 336q11 15 32 15h331q22 0 32 -15l238 -336q10 -14 10 -30v-927q0 -25 -25 -25h-283q-25 0 -25 25v425h-223v-425q0 -25 -25 -25h-284zM558 665q92 0 124.5 40.5t32.5 154.5t-32.5 154.5t-124.5 40.5q-91 0 -123.5 -40.5
t-32.5 -154.5t32.5 -154.5t123.5 -40.5zM661 1382l-258 108q-19 10 -11 27l57 119q9 24 27 13l236 -153q18 -12 11 -30l-35 -75q-7 -18 -27 -9z" />
    <glyph glyph-name="Aacute" unicode="&#xc1;" horiz-adv-x="1117" vert-adv-y="0" 
d="M138 0q-25 0 -25 25v927q0 13 10 30l237 336q11 15 32 15h331q22 0 32 -15l238 -336q10 -14 10 -30v-927q0 -25 -25 -25h-283q-25 0 -25 25v425h-223v-425q0 -25 -25 -25h-284zM558 665q92 0 124.5 40.5t32.5 154.5t-32.5 154.5t-124.5 40.5q-91 0 -123.5 -40.5
t-32.5 -154.5t32.5 -154.5t123.5 -40.5zM455 1382q-19 -9 -27 9l-35 75q-7 18 11 30l236 153q18 11 27 -13l57 -119q8 -17 -11 -27z" />
    <glyph glyph-name="Acircumflex" unicode="&#xc2;" horiz-adv-x="1117" vert-adv-y="0" 
d="M138 0q-25 0 -25 25v927q0 13 10 30l237 336q11 15 32 15h331q22 0 32 -15l238 -336q10 -14 10 -30v-927q0 -25 -25 -25h-283q-25 0 -25 25v425h-223v-425q0 -25 -25 -25h-284zM558 665q92 0 124.5 40.5t32.5 154.5t-32.5 154.5t-124.5 40.5q-91 0 -123.5 -40.5
t-32.5 -154.5t32.5 -154.5t123.5 -40.5zM351 1383q-13 0 -18 8t1 20l89 172q8 17 30 17h206q22 0 30 -17l90 -172q7 -12 1.5 -20t-17.5 -8h-142q-15 0 -27 20l-26 53l-5 22h-14l-3 -22l-27 -53q-11 -20 -26 -20h-142z" />
    <glyph glyph-name="Atilde" unicode="&#xc3;" horiz-adv-x="1117" vert-adv-y="0" 
d="M138 0q-25 0 -25 25v927q0 13 10 30l237 336q11 15 32 15h331q22 0 32 -15l238 -336q10 -14 10 -30v-927q0 -25 -25 -25h-283q-25 0 -25 25v425h-223v-425q0 -25 -25 -25h-284zM558 665q92 0 124.5 40.5t32.5 154.5t-32.5 154.5t-124.5 40.5q-91 0 -123.5 -40.5
t-32.5 -154.5t32.5 -154.5t123.5 -40.5zM359 1383q-22 0 -13 27l65 156q11 17 20 17h140q11 0 17 -17l26 -71l27 71q8 17 35 17h80q22 0 13 -28l-61 -155q-6 -17 -20 -17h-139q-10 0 -16 17l-19 76l-48 -76q-10 -17 -35 -17h-72z" />
    <glyph glyph-name="Adieresis" unicode="&#xc4;" horiz-adv-x="1117" vert-adv-y="0" 
d="M138 0q-25 0 -25 25v927q0 13 10 30l237 336q11 15 32 15h331q22 0 32 -15l238 -336q10 -14 10 -30v-927q0 -25 -25 -25h-283q-25 0 -25 25v425h-223v-425q0 -25 -25 -25h-284zM558 665q92 0 124.5 40.5t32.5 154.5t-32.5 154.5t-124.5 40.5q-91 0 -123.5 -40.5
t-32.5 -154.5t32.5 -154.5t123.5 -40.5zM267 1416q-20 0 -20 20v127q0 20 20 20h238q18 0 18 -20v-127q0 -20 -18 -20h-238zM612 1416q-20 0 -20 20v127q0 20 20 20h238q18 0 18 -20v-127q0 -20 -18 -20h-238z" />
    <glyph glyph-name="Aring" unicode="&#xc5;" horiz-adv-x="1117" vert-adv-y="0" 
d="M138 0q-25 0 -25 25v927q0 13 10 30l237 336q11 15 32 15h331q22 0 32 -15l238 -336q10 -14 10 -30v-927q0 -25 -25 -25h-283q-25 0 -25 25v425h-223v-425q0 -25 -25 -25h-284zM558 665q92 0 124.5 40.5t32.5 154.5t-32.5 154.5t-124.5 40.5q-91 0 -123.5 -40.5
t-32.5 -154.5t32.5 -154.5t123.5 -40.5zM387 1383q-25 0 -25 25v150q0 25 25 25h343q25 0 25 -25v-150q0 -25 -25 -25h-343zM560 1410q30 0 51.5 22t21.5 53q0 32 -20.5 52.5t-52.5 20.5q-31 0 -53 -21.5t-22 -51.5t22.5 -52.5t52.5 -22.5z" />
    <glyph glyph-name="AE" unicode="&#xc6;" horiz-adv-x="1538" vert-adv-y="0" 
d="M138 0q-25 0 -25 25v927q0 13 10 30l237 336q11 15 32 15h1001q25 0 25 -25v-216q0 -25 -25 -25h-388v-284h355q25 0 25 -25v-183q0 -25 -25 -25h-355v-283h388q25 0 25 -25v-217q0 -25 -25 -25h-698q-25 0 -25 25v425h-223v-425q0 -25 -25 -25h-284zM558 665
q92 0 124.5 40.5t32.5 154.5t-32.5 154.5t-124.5 40.5q-91 0 -123.5 -40.5t-32.5 -154.5t32.5 -154.5t123.5 -40.5z" />
    <glyph glyph-name="Ccedilla" unicode="&#xc7;" horiz-adv-x="843" vert-adv-y="0" 
d="M498 0q-23 0 -40 13l-163 149l-165 215q-11 14 -14 17.5t-3 17.5v510q0 14 3.5 18t13.5 17l153 198l175 165q11 9 17.5 11t22.5 2h247q25 0 25 -25v-160q0 -8 -1.5 -16.5t-10.5 -14.5l-188 -129l-123 -158v-327l125 -158l186 -128q8 -5 10 -12t2 -15v-165q0 -25 -25 -25
h-247zM522 -323q-25 0 -25 21v34q0 20 25 20h113v81h-88q-25 0 -25 25v65l51 77h135l-51 -77h65q25 0 25 -25v-158q0 -18 -14 -32l-20 -20q-7 -7 -15 -9t-16 -2h-160z" />
    <glyph glyph-name="Egrave" unicode="&#xc8;" horiz-adv-x="987" vert-adv-y="0" 
d="M145 0q-25 0 -25 25v1283q0 25 25 25h697q25 0 25 -25v-216q0 -25 -25 -25h-389v-284h355q25 0 25 -25v-183q0 -25 -25 -25h-355v-283h389q25 0 25 -25v-217q0 -25 -25 -25h-697zM611 1382l-258 108q-19 10 -11 27l57 119q9 24 27 13l236 -153q18 -12 11 -30l-35 -75
q-7 -18 -27 -9z" />
    <glyph glyph-name="Eacute" unicode="&#xc9;" horiz-adv-x="987" vert-adv-y="0" 
d="M145 0q-25 0 -25 25v1283q0 25 25 25h697q25 0 25 -25v-216q0 -25 -25 -25h-389v-284h355q25 0 25 -25v-183q0 -25 -25 -25h-355v-283h389q25 0 25 -25v-217q0 -25 -25 -25h-697zM405 1382q-19 -9 -27 9l-35 75q-7 18 11 30l236 153q18 11 27 -13l57 -119q8 -17 -11 -27z
" />
    <glyph glyph-name="Ecircumflex" unicode="&#xca;" horiz-adv-x="987" vert-adv-y="0" 
d="M145 0q-25 0 -25 25v1283q0 25 25 25h697q25 0 25 -25v-216q0 -25 -25 -25h-389v-284h355q25 0 25 -25v-183q0 -25 -25 -25h-355v-283h389q25 0 25 -25v-217q0 -25 -25 -25h-697zM301 1383q-13 0 -18 8t1 20l89 172q8 17 30 17h206q22 0 30 -17l90 -172q7 -12 1.5 -20
t-17.5 -8h-142q-15 0 -27 20l-26 53l-5 22h-14l-3 -22l-27 -53q-11 -20 -26 -20h-142z" />
    <glyph glyph-name="Edieresis" unicode="&#xcb;" horiz-adv-x="987" vert-adv-y="0" 
d="M145 0q-25 0 -25 25v1283q0 25 25 25h697q25 0 25 -25v-216q0 -25 -25 -25h-389v-284h355q25 0 25 -25v-183q0 -25 -25 -25h-355v-283h389q25 0 25 -25v-217q0 -25 -25 -25h-697zM217 1416q-20 0 -20 20v127q0 20 20 20h238q18 0 18 -20v-127q0 -20 -18 -20h-238z
M562 1416q-20 0 -20 20v127q0 20 20 20h238q18 0 18 -20v-127q0 -20 -18 -20h-238z" />
    <glyph glyph-name="Igrave" unicode="&#xcc;" horiz-adv-x="573" vert-adv-y="0" 
d="M145 0q-25 0 -25 25v1283q0 25 25 25h283q25 0 25 -25v-1283q0 -25 -25 -25h-283zM395 1382l-258 108q-19 10 -11 27l57 119q9 24 27 13l236 -153q18 -12 11 -30l-35 -75q-7 -18 -27 -9z" />
    <glyph glyph-name="Iacute" unicode="&#xcd;" horiz-adv-x="573" vert-adv-y="0" 
d="M145 0q-25 0 -25 25v1283q0 25 25 25h283q25 0 25 -25v-1283q0 -25 -25 -25h-283zM189 1382q-19 -9 -27 9l-35 75q-7 18 11 30l236 153q18 11 27 -13l57 -119q8 -17 -11 -27z" />
    <glyph glyph-name="Icircumflex" unicode="&#xce;" horiz-adv-x="573" vert-adv-y="0" 
d="M145 0q-25 0 -25 25v1283q0 25 25 25h283q25 0 25 -25v-1283q0 -25 -25 -25h-283zM85 1383q-13 0 -18 8t1 20l89 172q8 17 30 17h206q22 0 30 -17l90 -172q7 -12 1.5 -20t-17.5 -8h-142q-15 0 -27 20l-26 53l-5 22h-14l-3 -22l-27 -53q-11 -20 -26 -20h-142z" />
    <glyph glyph-name="Idieresis" unicode="&#xcf;" horiz-adv-x="573" vert-adv-y="0" 
d="M145 0q-25 0 -25 25v1283q0 25 25 25h283q25 0 25 -25v-1283q0 -25 -25 -25h-283zM1 1416q-20 0 -20 20v127q0 20 20 20h238q18 0 18 -20v-127q0 -20 -18 -20h-238zM346 1416q-20 0 -20 20v127q0 20 20 20h238q18 0 18 -20v-127q0 -20 -18 -20h-238z" />
    <glyph glyph-name="Eth" unicode="&#xd0;" horiz-adv-x="1214" vert-adv-y="0" 
d="M113 575q-25 0 -25 25v133q0 25 25 25h560q25 0 25 -25v-133q0 -25 -25 -25h-560zM234 0q-25 0 -25 25v1283q0 25 25 25h610q24 0 40 -16l200 -200q17 -17 17 -40v-820q0 -24 -17 -40l-200 -200q-16 -17 -40 -17h-610zM543 267h183q42 0 42 56v687q0 57 -42 57h-183v-800
z" />
    <glyph glyph-name="Ntilde" unicode="&#xd1;" horiz-adv-x="1090" vert-adv-y="0" 
d="M145 0q-25 0 -25 25v1283q0 25 25 25h568q24 0 40 -16l200 -200q17 -17 17 -40v-1052q0 -25 -25 -25h-283q-25 0 -25 25v1042h-184v-1042q0 -25 -25 -25h-283zM346 1383q-22 0 -13 27l65 156q11 17 20 17h140q11 0 17 -17l26 -71l27 71q8 17 35 17h80q22 0 13 -28
l-61 -155q-6 -17 -20 -17h-139q-10 0 -16 17l-19 76l-48 -76q-10 -17 -35 -17h-72z" />
    <glyph glyph-name="Ograve" unicode="&#xd2;" horiz-adv-x="1147" vert-adv-y="0" 
d="M377 0q-23 0 -40 17l-200 200q-17 16 -17 40v820q0 23 17 40l200 200q17 16 40 16h393q24 0 40 -16l200 -200q17 -17 17 -40v-820q0 -24 -17 -40l-200 -200q-16 -17 -40 -17h-393zM495 267h157q42 0 42 56v687q0 57 -42 57h-157q-41 0 -41 -57v-687q0 -56 41 -56z
M678 1382l-258 108q-19 10 -11 27l57 119q9 24 27 13l236 -153q18 -12 11 -30l-35 -75q-7 -18 -27 -9z" />
    <glyph glyph-name="Oacute" unicode="&#xd3;" horiz-adv-x="1147" vert-adv-y="0" 
d="M377 0q-23 0 -40 17l-200 200q-17 16 -17 40v820q0 23 17 40l200 200q17 16 40 16h393q24 0 40 -16l200 -200q17 -17 17 -40v-820q0 -24 -17 -40l-200 -200q-16 -17 -40 -17h-393zM495 267h157q42 0 42 56v687q0 57 -42 57h-157q-41 0 -41 -57v-687q0 -56 41 -56z
M472 1382q-19 -9 -27 9l-35 75q-7 18 11 30l236 153q18 11 27 -13l57 -119q8 -17 -11 -27z" />
    <glyph glyph-name="Ocircumflex" unicode="&#xd4;" horiz-adv-x="1147" vert-adv-y="0" 
d="M377 0q-23 0 -40 17l-200 200q-17 16 -17 40v820q0 23 17 40l200 200q17 16 40 16h393q24 0 40 -16l200 -200q17 -17 17 -40v-820q0 -24 -17 -40l-200 -200q-16 -17 -40 -17h-393zM495 267h157q42 0 42 56v687q0 57 -42 57h-157q-41 0 -41 -57v-687q0 -56 41 -56z
M368 1383q-13 0 -18 8t1 20l89 172q8 17 30 17h206q22 0 30 -17l90 -172q7 -12 1.5 -20t-17.5 -8h-142q-15 0 -27 20l-26 53l-5 22h-14l-3 -22l-27 -53q-11 -20 -26 -20h-142z" />
    <glyph glyph-name="Otilde" unicode="&#xd5;" horiz-adv-x="1147" vert-adv-y="0" 
d="M377 0q-23 0 -40 17l-200 200q-17 16 -17 40v820q0 23 17 40l200 200q17 16 40 16h393q24 0 40 -16l200 -200q17 -17 17 -40v-820q0 -24 -17 -40l-200 -200q-16 -17 -40 -17h-393zM495 267h157q42 0 42 56v687q0 57 -42 57h-157q-41 0 -41 -57v-687q0 -56 41 -56z
M376 1383q-22 0 -13 27l65 156q11 17 20 17h140q11 0 17 -17l26 -71l27 71q8 17 35 17h80q22 0 13 -28l-61 -155q-6 -17 -20 -17h-139q-10 0 -16 17l-19 76l-48 -76q-10 -17 -35 -17h-72z" />
    <glyph glyph-name="Odieresis" unicode="&#xd6;" horiz-adv-x="1147" vert-adv-y="0" 
d="M377 0q-23 0 -40 17l-200 200q-17 16 -17 40v820q0 23 17 40l200 200q17 16 40 16h393q24 0 40 -16l200 -200q17 -17 17 -40v-820q0 -24 -17 -40l-200 -200q-16 -17 -40 -17h-393zM495 267h157q42 0 42 56v687q0 57 -42 57h-157q-41 0 -41 -57v-687q0 -56 41 -56z
M284 1416q-20 0 -20 20v127q0 20 20 20h238q18 0 18 -20v-127q0 -20 -18 -20h-238zM629 1416q-20 0 -20 20v127q0 20 20 20h238q18 0 18 -20v-127q0 -20 -18 -20h-238z" />
    <glyph glyph-name="multiply" unicode="&#xd7;" horiz-adv-x="707" vert-adv-y="0" 
d="M187 363l-137 137q-20 20 0 38l128 129l-128 128q-20 20 0 38l137 137q18 20 38 0l128 -128l129 128q18 20 38 0l137 -137q18 -18 0 -38l-129 -128l129 -129q18 -18 0 -38l-137 -137q-20 -18 -38 0l-129 129l-128 -129q-20 -18 -38 0z" />
    <glyph glyph-name="Oslash" unicode="&#xd8;" horiz-adv-x="1147" vert-adv-y="0" 
d="M38 -4q-13 0 -22 7t0 20l318 482l65 99l331 501l41 62l94 143q9 15 14 19t13 4h195q15 0 21.5 -8t-0.5 -19l-257 -390l-44 -67l-393 -595l-41 -62l-113 -172q-7 -11 -11.5 -17.5t-15.5 -6.5h-195zM377 0q-23 0 -40 17l-200 200q-17 16 -17 40v820q0 23 17 40l200 200
q17 16 40 16h393q24 0 40 -16l200 -200q17 -17 17 -40v-820q0 -24 -17 -40l-200 -200q-16 -17 -40 -17h-393zM495 267h157q42 0 42 56v687q0 57 -42 57h-157q-41 0 -41 -57v-687q0 -56 41 -56z" />
    <glyph glyph-name="Ugrave" unicode="&#xd9;" horiz-adv-x="1090" vert-adv-y="0" 
d="M377 0q-24 0 -40 17l-200 200q-17 16 -17 40v1051q0 25 25 25h283q25 0 25 -25v-1021q0 -20 20 -20h164v1041q0 25 25 25h283q25 0 25 -25v-1283q0 -25 -25 -25h-568zM648 1382l-258 108q-19 10 -11 27l57 119q9 24 27 13l236 -153q18 -12 11 -30l-35 -75q-7 -18 -27 -9z
" />
    <glyph glyph-name="Ugrave" unicode="&#xf9;" horiz-adv-x="1090" vert-adv-y="0" 
d="M377 0q-24 0 -40 17l-200 200q-17 16 -17 40v1051q0 25 25 25h283q25 0 25 -25v-1021q0 -20 20 -20h164v1041q0 25 25 25h283q25 0 25 -25v-1283q0 -25 -25 -25h-568zM648 1382l-258 108q-19 10 -11 27l57 119q9 24 27 13l236 -153q18 -12 11 -30l-35 -75q-7 -18 -27 -9z
" />
    <glyph glyph-name="Uacute" unicode="&#xda;" horiz-adv-x="1090" vert-adv-y="0" 
d="M377 0q-24 0 -40 17l-200 200q-17 16 -17 40v1051q0 25 25 25h283q25 0 25 -25v-1021q0 -20 20 -20h164v1041q0 25 25 25h283q25 0 25 -25v-1283q0 -25 -25 -25h-568zM442 1382q-19 -9 -27 9l-35 75q-7 18 11 30l236 153q18 11 27 -13l57 -119q8 -17 -11 -27z" />
    <glyph glyph-name="Ucircumflex" unicode="&#xdb;" horiz-adv-x="1090" vert-adv-y="0" 
d="M377 0q-24 0 -40 17l-200 200q-17 16 -17 40v1051q0 25 25 25h283q25 0 25 -25v-1021q0 -20 20 -20h164v1041q0 25 25 25h283q25 0 25 -25v-1283q0 -25 -25 -25h-568zM338 1383q-13 0 -18 8t1 20l89 172q8 17 30 17h206q22 0 30 -17l90 -172q7 -12 1.5 -20t-17.5 -8h-142
q-15 0 -27 20l-26 53l-5 22h-14l-3 -22l-27 -53q-11 -20 -26 -20h-142z" />
    <glyph glyph-name="Ucircumflex" unicode="&#xfb;" horiz-adv-x="1090" vert-adv-y="0" 
d="M377 0q-24 0 -40 17l-200 200q-17 16 -17 40v1051q0 25 25 25h283q25 0 25 -25v-1021q0 -20 20 -20h164v1041q0 25 25 25h283q25 0 25 -25v-1283q0 -25 -25 -25h-568zM338 1383q-13 0 -18 8t1 20l89 172q8 17 30 17h206q22 0 30 -17l90 -172q7 -12 1.5 -20t-17.5 -8h-142
q-15 0 -27 20l-26 53l-5 22h-14l-3 -22l-27 -53q-11 -20 -26 -20h-142z" />
    <glyph glyph-name="Udieresis" unicode="&#xdc;" horiz-adv-x="1090" vert-adv-y="0" 
d="M377 0q-24 0 -40 17l-200 200q-17 16 -17 40v1051q0 25 25 25h283q25 0 25 -25v-1021q0 -20 20 -20h164v1041q0 25 25 25h283q25 0 25 -25v-1283q0 -25 -25 -25h-568zM254 1416q-20 0 -20 20v127q0 20 20 20h238q18 0 18 -20v-127q0 -20 -18 -20h-238zM599 1416
q-20 0 -20 20v127q0 20 20 20h238q18 0 18 -20v-127q0 -20 -18 -20h-238z" />
    <glyph glyph-name="Udieresis" unicode="&#xfc;" horiz-adv-x="1090" vert-adv-y="0" 
d="M377 0q-24 0 -40 17l-200 200q-17 16 -17 40v1051q0 25 25 25h283q25 0 25 -25v-1021q0 -20 20 -20h164v1041q0 25 25 25h283q25 0 25 -25v-1283q0 -25 -25 -25h-568zM254 1416q-20 0 -20 20v127q0 20 20 20h238q18 0 18 -20v-127q0 -20 -18 -20h-238zM599 1416
q-20 0 -20 20v127q0 20 20 20h238q18 0 18 -20v-127q0 -20 -18 -20h-238z" />
    <glyph glyph-name="Yacute" unicode="&#xdd;" horiz-adv-x="1050" vert-adv-y="0" 
d="M383 0q-25 0 -25 25v390l-268 267q-7 8 -8.5 14.5t-1.5 15.5v596q0 25 25 25h283q25 0 25 -25v-605h224v605q0 25 25 25h283q25 0 25 -25v-596q0 -9 -1 -15.5t-9 -14.5l-267 -267v-390q0 -25 -25 -25h-285zM422 1382q-19 -9 -27 9l-35 75q-7 18 11 30l236 153
q18 11 27 -13l57 -119q8 -17 -11 -27z" />
    <glyph glyph-name="Thorn" unicode="&#xde;" horiz-adv-x="944" vert-adv-y="0" 
d="M147 0q-27 0 -27 27v1280q0 26 27 26h280q26 0 26 -26v-324l-66 67h331q20 0 30 -12l145 -150q9 -8 9 -26v-419q0 -18 -9 -26l-145 -150q-10 -12 -30 -12h-331l66 67v-295q0 -27 -26 -27h-280zM485 508q83 0 113 33t30 126q0 92 -30 125t-113 33q-82 0 -112.5 -33
t-30.5 -125q0 -93 30.5 -126t112.5 -33z" />
    <glyph glyph-name="germandbls" unicode="&#xdf;" horiz-adv-x="1142" vert-adv-y="0" 
d="M145 0q-25 0 -25 25v1283q0 25 25 25h685q24 0 37 -10l101 -90q7 -4 8.5 -12t0.5 -14l-80 -350v-30h95q25 0 25 -25v-455l-177 -337q-4 -10 -18 -10h-230q-25 0 -25 25v253l120 292v43h-107q-13 0 -22 9.5t-5 22.5l85 352h-185v-972q0 -25 -25 -25h-283z" />
    <glyph glyph-name="agrave" unicode="&#xe0;" vert-adv-y="0" 
d="M370 0q-23 0 -40 17l-200 200q-17 16 -17 40v586q0 24 17 40l200 200q17 17 40 17h535q25 0 25 -25v-1050q0 -25 -25 -25h-208q-13 0 -19.5 5t-14.5 12l-50 50l-50 -50q-16 -17 -40 -17h-153zM487 233h70q32 0 44 13t12 46v575h-126q-33 0 -45 -13t-12 -46v-516
q0 -33 12 -46t45 -13zM733 1149l-258 108q-19 10 -11 27l57 119q9 24 27 13l236 -153q18 -12 11 -30l-35 -75q-7 -18 -27 -9z" />
    <glyph glyph-name="aacute" unicode="&#xe1;" vert-adv-y="0" 
d="M370 0q-23 0 -40 17l-200 200q-17 16 -17 40v586q0 24 17 40l200 200q17 17 40 17h535q25 0 25 -25v-1050q0 -25 -25 -25h-208q-13 0 -19.5 5t-14.5 12l-50 50l-50 -50q-16 -17 -40 -17h-153zM487 233h70q32 0 44 13t12 46v575h-126q-33 0 -45 -13t-12 -46v-516
q0 -33 12 -46t45 -13zM527 1149q-19 -9 -27 9l-35 75q-7 18 11 30l236 153q18 11 27 -13l57 -119q8 -17 -11 -27z" />
    <glyph glyph-name="acircumflex" unicode="&#xe2;" vert-adv-y="0" 
d="M370 0q-23 0 -40 17l-200 200q-17 16 -17 40v586q0 24 17 40l200 200q17 17 40 17h535q25 0 25 -25v-1050q0 -25 -25 -25h-208q-13 0 -19.5 5t-14.5 12l-50 50l-50 -50q-16 -17 -40 -17h-153zM487 233h70q32 0 44 13t12 46v575h-126q-33 0 -45 -13t-12 -46v-516
q0 -33 12 -46t45 -13zM423 1150q-13 0 -18 8t1 20l89 172q8 17 30 17h206q22 0 30 -17l90 -172q7 -12 1.5 -20t-17.5 -8h-142q-15 0 -27 20l-26 53l-5 22h-14l-3 -22l-27 -53q-11 -20 -26 -20h-142z" />
    <glyph glyph-name="atilde" unicode="&#xe3;" vert-adv-y="0" 
d="M370 0q-23 0 -40 17l-200 200q-17 16 -17 40v586q0 24 17 40l200 200q17 17 40 17h535q25 0 25 -25v-1050q0 -25 -25 -25h-208q-13 0 -19.5 5t-14.5 12l-50 50l-50 -50q-16 -17 -40 -17h-153zM487 233h70q32 0 44 13t12 46v575h-126q-33 0 -45 -13t-12 -46v-516
q0 -33 12 -46t45 -13zM431 1150q-22 0 -13 27l65 156q11 17 20 17h140q11 0 17 -17l26 -71l27 71q8 17 35 17h80q22 0 13 -28l-61 -155q-6 -17 -20 -17h-139q-10 0 -16 17l-19 76l-48 -76q-10 -17 -35 -17h-72z" />
    <glyph glyph-name="adieresis" unicode="&#xe4;" vert-adv-y="0" 
d="M370 0q-23 0 -40 17l-200 200q-17 16 -17 40v586q0 24 17 40l200 200q17 17 40 17h535q25 0 25 -25v-1050q0 -25 -25 -25h-208q-13 0 -19.5 5t-14.5 12l-50 50l-50 -50q-16 -17 -40 -17h-153zM487 233h70q32 0 44 13t12 46v575h-126q-33 0 -45 -13t-12 -46v-516
q0 -33 12 -46t45 -13zM339 1183q-20 0 -20 20v127q0 20 20 20h238q18 0 18 -20v-127q0 -20 -18 -20h-238zM684 1183q-20 0 -20 20v127q0 20 20 20h238q18 0 18 -20v-127q0 -20 -18 -20h-238z" />
    <glyph glyph-name="aring" unicode="&#xe5;" vert-adv-y="0" 
d="M370 0q-23 0 -40 17l-200 200q-17 16 -17 40v586q0 24 17 40l200 200q17 17 40 17h535q25 0 25 -25v-1050q0 -25 -25 -25h-208q-13 0 -19.5 5t-14.5 12l-50 50l-50 -50q-16 -17 -40 -17h-153zM487 233h70q32 0 44 13t12 46v575h-126q-33 0 -45 -13t-12 -46v-516
q0 -33 12 -46t45 -13zM459 1150q-25 0 -25 25v150q0 25 25 25h343q25 0 25 -25v-150q0 -25 -25 -25h-343zM632 1177q30 0 51.5 22t21.5 53q0 32 -20.5 52.5t-52.5 20.5q-31 0 -53 -21.5t-22 -51.5t22.5 -52.5t52.5 -22.5z" />
    <glyph glyph-name="ae" unicode="&#xe6;" horiz-adv-x="1579" vert-adv-y="0" 
d="M1111 0q-10 0 -21.5 3t-21.5 5l-178 44l-204 68q-30 10 -30 58v665q0 24 17 40l200 200q17 17 40 17h320q23 0 40 -17l200 -200q17 -16 17 -40v-410h-537l-7 -133l142 -47l255 -18q17 -3 17 -23v-187q0 -25 -25 -25h-224zM370 0q-23 0 -40 17l-200 200q-17 16 -17 40v410
h537l7 133l-142 47l-255 18q-17 3 -17 23v187q0 25 25 25h224q10 0 21.5 -3t21.5 -5l178 -44l204 -68q30 -10 30 -58v-665q0 -24 -17 -40l-200 -200q-17 -17 -40 -17h-320zM513 217h20q48 0 76.5 37t28.5 99v20q0 63 -28.5 100t-77.5 37h-19q-49 0 -78.5 -37t-29.5 -100v-20
q0 -62 29.5 -99t78.5 -37zM1071 590h19q49 0 78.5 37t29.5 100v20q0 62 -29.5 99t-78.5 37h-20q-48 0 -76.5 -37t-28.5 -99v-20q0 -63 28.5 -100t77.5 -37z" />
    <glyph glyph-name="ccedilla" unicode="&#xe7;" horiz-adv-x="723" vert-adv-y="0" 
d="M445 0q-20 0 -40 13l-163 110l-112 180q-7 13 -12 17.5t-5 19.5v420q0 15 4 20t13 18l102 170l173 119q9 6 18 9.5t22 3.5h173q25 0 25 -25v-187q0 -8 -1.5 -17t-9.5 -14l-114 -57l-88 -115v-267l93 -106l109 -69q10 -6 10.5 -14.5t0.5 -16.5v-187q0 -25 -25 -25h-173z
M423 -323q-25 0 -25 21v34q0 20 25 20h113v81h-88q-25 0 -25 25v65l51 77h135l-51 -77h65q25 0 25 -25v-158q0 -18 -14 -32l-20 -20q-7 -7 -15 -9t-16 -2h-160z" />
    <glyph glyph-name="egrave" unicode="&#xe8;" horiz-adv-x="1036" vert-adv-y="0" 
d="M568 0q-10 0 -21.5 3t-21.5 5l-178 44l-204 68q-30 10 -30 58v665q0 24 17 40l200 200q17 17 40 17h320q23 0 40 -17l200 -200q17 -16 17 -40v-410h-537l-7 -133l142 -47l255 -18q17 -3 17 -23v-187q0 -25 -25 -25h-224zM528 590h19q49 0 78.5 37t29.5 100v20
q0 62 -29.5 99t-78.5 37h-20q-48 0 -76.5 -37t-28.5 -99v-20q0 -63 28.5 -100t77.5 -37zM641 1149l-258 108q-19 10 -11 27l57 119q9 24 27 13l236 -153q18 -12 11 -30l-35 -75q-7 -18 -27 -9z" />
    <glyph glyph-name="eacute" unicode="&#xe9;" horiz-adv-x="1036" vert-adv-y="0" 
d="M568 0q-10 0 -21.5 3t-21.5 5l-178 44l-204 68q-30 10 -30 58v665q0 24 17 40l200 200q17 17 40 17h320q23 0 40 -17l200 -200q17 -16 17 -40v-410h-537l-7 -133l142 -47l255 -18q17 -3 17 -23v-187q0 -25 -25 -25h-224zM528 590h19q49 0 78.5 37t29.5 100v20
q0 62 -29.5 99t-78.5 37h-20q-48 0 -76.5 -37t-28.5 -99v-20q0 -63 28.5 -100t77.5 -37zM435 1149q-19 -9 -27 9l-35 75q-7 18 11 30l236 153q18 11 27 -13l57 -119q8 -17 -11 -27z" />
    <glyph glyph-name="ecircumflex" unicode="&#xea;" horiz-adv-x="1036" vert-adv-y="0" 
d="M568 0q-10 0 -21.5 3t-21.5 5l-178 44l-204 68q-30 10 -30 58v665q0 24 17 40l200 200q17 17 40 17h320q23 0 40 -17l200 -200q17 -16 17 -40v-410h-537l-7 -133l142 -47l255 -18q17 -3 17 -23v-187q0 -25 -25 -25h-224zM528 590h19q49 0 78.5 37t29.5 100v20
q0 62 -29.5 99t-78.5 37h-20q-48 0 -76.5 -37t-28.5 -99v-20q0 -63 28.5 -100t77.5 -37zM331 1150q-13 0 -18 8t1 20l89 172q8 17 30 17h206q22 0 30 -17l90 -172q7 -12 1.5 -20t-17.5 -8h-142q-15 0 -27 20l-26 53l-5 22h-14l-3 -22l-27 -53q-11 -20 -26 -20h-142z" />
    <glyph glyph-name="edieresis" unicode="&#xeb;" horiz-adv-x="1036" vert-adv-y="0" 
d="M568 0q-10 0 -21.5 3t-21.5 5l-178 44l-204 68q-30 10 -30 58v665q0 24 17 40l200 200q17 17 40 17h320q23 0 40 -17l200 -200q17 -16 17 -40v-410h-537l-7 -133l142 -47l255 -18q17 -3 17 -23v-187q0 -25 -25 -25h-224zM528 590h19q49 0 78.5 37t29.5 100v20
q0 62 -29.5 99t-78.5 37h-20q-48 0 -76.5 -37t-28.5 -99v-20q0 -63 28.5 -100t77.5 -37zM247 1183q-20 0 -20 20v127q0 20 20 20h238q18 0 18 -20v-127q0 -20 -18 -20h-238zM592 1183q-20 0 -20 20v127q0 20 20 20h238q18 0 18 -20v-127q0 -20 -18 -20h-238z" />
    <glyph glyph-name="igrave" unicode="&#xec;" horiz-adv-x="400" vert-adv-y="0" 
d="M67 0q-25 0 -25 25v1050q0 25 25 25h266q25 0 25 -25v-1050q0 -25 -25 -25h-266zM303 1149l-258 108q-19 10 -11 27l57 119q9 24 27 13l236 -153q18 -12 11 -30l-35 -75q-7 -18 -27 -9z" />
    <glyph glyph-name="iacute" unicode="&#xed;" horiz-adv-x="400" vert-adv-y="0" 
d="M67 0q-25 0 -25 25v1050q0 25 25 25h266q25 0 25 -25v-1050q0 -25 -25 -25h-266zM97 1149q-19 -9 -27 9l-35 75q-7 18 11 30l236 153q18 11 27 -13l57 -119q8 -17 -11 -27z" />
    <glyph glyph-name="icircumflex" unicode="&#xee;" horiz-adv-x="400" vert-adv-y="0" 
d="M67 0q-25 0 -25 25v1050q0 25 25 25h266q25 0 25 -25v-1050q0 -25 -25 -25h-266zM-7 1150q-13 0 -18 8t1 20l89 172q8 17 30 17h206q22 0 30 -17l90 -172q7 -12 1.5 -20t-17.5 -8h-142q-15 0 -27 20l-26 53l-5 22h-14l-3 -22l-27 -53q-11 -20 -26 -20h-142z" />
    <glyph glyph-name="idieresis" unicode="&#xef;" horiz-adv-x="400" vert-adv-y="0" 
d="M67 0q-25 0 -25 25v1050q0 25 25 25h266q25 0 25 -25v-1050q0 -25 -25 -25h-266zM-91 1183q-20 0 -20 20v127q0 20 20 20h238q18 0 18 -20v-127q0 -20 -18 -20h-238zM254 1183q-20 0 -20 20v127q0 20 20 20h238q18 0 18 -20v-127q0 -20 -18 -20h-238z" />
    <glyph glyph-name="eth" unicode="&#xf0;" horiz-adv-x="1157" vert-adv-y="0" 
d="M448 917q-10 0 -15.5 7t4.5 19l310 367q8 9 14 16t16 7h83q10 0 16 -7t-4 -19l-310 -367q-7 -9 -13.5 -16t-16.5 -7h-84zM780 0h-403q-23 0 -40 17l-200 200q-17 16 -17 40v370q0 23 17 40l167 166q16 17 40 17h356v55l-333 247q-15 12 -15 30v126q0 25 25 25h250
q19 0 30 -10l365 -288q15 -12 15 -30v-748q0 -24 -17 -40l-200 -200q-16 -17 -40 -17zM579 257q87 0 118.5 38.5t31.5 147.5t-31.5 148t-118.5 39q-88 0 -119 -39t-31 -148t31 -147.5t119 -38.5z" />
    <glyph glyph-name="ntilde" unicode="&#xf1;" horiz-adv-x="1050" vert-adv-y="0" 
d="M145 0q-25 0 -25 25v1050q0 25 25 25h535q23 0 40 -17l200 -200q17 -16 17 -40v-818q0 -25 -25 -25h-267q-25 0 -25 25v778q0 47 -47 47h-136v-825q0 -25 -25 -25h-267zM329 1150q-22 0 -13 27l65 156q11 17 20 17h140q11 0 17 -17l26 -71l27 71q8 17 35 17h80
q22 0 13 -28l-61 -155q-6 -17 -20 -17h-139q-10 0 -16 17l-19 76l-48 -76q-10 -17 -35 -17h-72z" />
    <glyph glyph-name="ograve" unicode="&#xf2;" vert-adv-y="0" 
d="M370 0q-23 0 -40 17l-200 200q-17 16 -17 40v586q0 24 17 40l200 200q17 17 40 17h303q24 0 40 -17l200 -200q17 -16 17 -40v-586q0 -24 -17 -40l-200 -200q-16 -17 -40 -17h-303zM487 233h70q32 0 44 13t12 46v516q0 33 -12 46t-44 13h-70q-33 0 -45 -13t-12 -46v-516
q0 -33 12 -46t45 -13zM625 1149l-258 108q-19 10 -11 27l57 119q9 24 27 13l236 -153q18 -12 11 -30l-35 -75q-7 -18 -27 -9z" />
    <glyph glyph-name="oacute" unicode="&#xf3;" vert-adv-y="0" 
d="M370 0q-23 0 -40 17l-200 200q-17 16 -17 40v586q0 24 17 40l200 200q17 17 40 17h303q24 0 40 -17l200 -200q17 -16 17 -40v-586q0 -24 -17 -40l-200 -200q-16 -17 -40 -17h-303zM487 233h70q32 0 44 13t12 46v516q0 33 -12 46t-44 13h-70q-33 0 -45 -13t-12 -46v-516
q0 -33 12 -46t45 -13zM419 1149q-19 -9 -27 9l-35 75q-7 18 11 30l236 153q18 11 27 -13l57 -119q8 -17 -11 -27z" />
    <glyph glyph-name="ocircumflex" unicode="&#xf4;" vert-adv-y="0" 
d="M370 0q-23 0 -40 17l-200 200q-17 16 -17 40v586q0 24 17 40l200 200q17 17 40 17h303q24 0 40 -17l200 -200q17 -16 17 -40v-586q0 -24 -17 -40l-200 -200q-16 -17 -40 -17h-303zM487 233h70q32 0 44 13t12 46v516q0 33 -12 46t-44 13h-70q-33 0 -45 -13t-12 -46v-516
q0 -33 12 -46t45 -13zM315 1150q-13 0 -18 8t1 20l89 172q8 17 30 17h206q22 0 30 -17l90 -172q7 -12 1.5 -20t-17.5 -8h-142q-15 0 -27 20l-26 53l-5 22h-14l-3 -22l-27 -53q-11 -20 -26 -20h-142z" />
    <glyph glyph-name="otilde" unicode="&#xf5;" vert-adv-y="0" 
d="M370 0q-23 0 -40 17l-200 200q-17 16 -17 40v586q0 24 17 40l200 200q17 17 40 17h303q24 0 40 -17l200 -200q17 -16 17 -40v-586q0 -24 -17 -40l-200 -200q-16 -17 -40 -17h-303zM487 233h70q32 0 44 13t12 46v516q0 33 -12 46t-44 13h-70q-33 0 -45 -13t-12 -46v-516
q0 -33 12 -46t45 -13zM323 1150q-22 0 -13 27l65 156q11 17 20 17h140q11 0 17 -17l26 -71l27 71q8 17 35 17h80q22 0 13 -28l-61 -155q-6 -17 -20 -17h-139q-10 0 -16 17l-19 76l-48 -76q-10 -17 -35 -17h-72z" />
    <glyph glyph-name="odieresis" unicode="&#xf6;" vert-adv-y="0" 
d="M370 0q-23 0 -40 17l-200 200q-17 16 -17 40v586q0 24 17 40l200 200q17 17 40 17h303q24 0 40 -17l200 -200q17 -16 17 -40v-586q0 -24 -17 -40l-200 -200q-16 -17 -40 -17h-303zM487 233h70q32 0 44 13t12 46v516q0 33 -12 46t-44 13h-70q-33 0 -45 -13t-12 -46v-516
q0 -33 12 -46t45 -13zM231 1183q-20 0 -20 20v127q0 20 20 20h238q18 0 18 -20v-127q0 -20 -18 -20h-238zM576 1183q-20 0 -20 20v127q0 20 20 20h238q18 0 18 -20v-127q0 -20 -18 -20h-238z" />
    <glyph glyph-name="divide" unicode="&#xf7;" horiz-adv-x="710" vert-adv-y="0" 
d="M67 550q-25 0 -25 25v183q0 25 25 25h576q25 0 25 -25v-183q0 -25 -25 -25h-576zM355 251q-46 0 -74.5 28t-28.5 74q0 47 28.5 75t74.5 28q47 0 75 -28t28 -75q0 -46 -28 -74t-75 -28zM355 877q-46 0 -74.5 28.5t-28.5 74.5q0 47 28.5 75t74.5 28q47 0 75 -28t28 -75
q0 -46 -28 -74.5t-75 -28.5z" />
    <glyph glyph-name="oslash" unicode="&#xf8;" vert-adv-y="0" 
d="M112 0q-15 0 -21.5 8.5t-0.5 18.5l725 1050q17 23 43 23h72q15 0 21.5 -8t0.5 -19l-725 -1050q-15 -23 -44 -23h-71zM370 0q-23 0 -40 17l-200 200q-17 16 -17 40v586q0 24 17 40l200 200q17 17 40 17h303q24 0 40 -17l200 -200q17 -16 17 -40v-586q0 -24 -17 -40
l-200 -200q-16 -17 -40 -17h-303zM487 233h70q32 0 44 13t12 46v516q0 33 -12 46t-44 13h-70q-33 0 -45 -13t-12 -46v-516q0 -33 12 -46t45 -13z" />
    <glyph glyph-name="uacute" unicode="&#xfa;" horiz-adv-x="1050" vert-adv-y="0" 
d="M377 0q-24 0 -40 17l-200 200q-17 16 -17 40v818q0 25 25 25h267q25 0 25 -25v-778q0 -47 46 -47h137v825q0 25 25 25h267q25 0 25 -25v-1050q0 -25 -25 -25h-535zM425 1149q-19 -9 -27 9l-35 75q-7 18 11 30l236 153q18 11 27 -13l57 -119q8 -17 -11 -27z" />
    <glyph glyph-name="yacute" unicode="&#xfd;" horiz-adv-x="1050" vert-adv-y="0" 
d="M408 -333q-25 0 -25 25v156q0 19 15 22l147 37l103 55q15 8 15 31v164l-93 -87q-17 -17 -40 -17l-170 -6q-23 0 -40 16l-183 184q-17 16 -17 40v788q0 25 25 25h267q25 0 25 -25v-753q0 -33 12 -46t44 -13h127v812q0 25 25 25h267q25 0 25 -25v-1202q0 -30 -17 -40
l-133 -85l-169 -70q-15 -6 -22.5 -8.5t-23.5 -2.5h-164zM425 1149q-19 -9 -27 9l-35 75q-7 18 11 30l236 153q18 11 27 -13l57 -119q8 -17 -11 -27z" />
    <glyph glyph-name="thorn" unicode="&#xfe;" horiz-adv-x="1050" vert-adv-y="0" 
d="M145 -300q-25 0 -25 25v1583q0 25 25 25h272q20 0 20 -20v-280l50 50q16 17 40 17h153q23 0 40 -17l200 -200q17 -16 17 -40v-586q0 -24 -17 -40l-200 -200q-17 -17 -40 -17h-153q-24 0 -40 17l-50 50v-342q0 -25 -25 -25h-267zM437 233h126q33 0 45 13t12 46v516
q0 33 -12 46t-45 13h-70q-32 0 -44 -13t-12 -46v-575z" />
    <glyph glyph-name="ydieresis" unicode="&#xff;" horiz-adv-x="1050" vert-adv-y="0" 
d="M408 -333q-25 0 -25 25v156q0 19 15 22l147 37l103 55q15 8 15 31v164l-93 -87q-17 -17 -40 -17l-170 -6q-23 0 -40 16l-183 184q-17 16 -17 40v788q0 25 25 25h267q25 0 25 -25v-753q0 -33 12 -46t44 -13h127v812q0 25 25 25h267q25 0 25 -25v-1202q0 -30 -17 -40
l-133 -85l-169 -70q-15 -6 -22.5 -8.5t-23.5 -2.5h-164zM237 1183q-20 0 -20 20v127q0 20 20 20h238q18 0 18 -20v-127q0 -20 -18 -20h-238zM582 1183q-20 0 -20 20v127q0 20 20 20h238q18 0 18 -20v-127q0 -20 -18 -20h-238z" />
    <glyph glyph-name="Amacron" unicode="&#x100;" horiz-adv-x="1117" vert-adv-y="0" 
d="M138 0q-25 0 -25 25v927q0 13 10 30l237 336q11 15 32 15h331q22 0 32 -15l238 -336q10 -14 10 -30v-927q0 -25 -25 -25h-283q-25 0 -25 25v425h-223v-425q0 -25 -25 -25h-284zM558 665q92 0 124.5 40.5t32.5 154.5t-32.5 154.5t-124.5 40.5q-91 0 -123.5 -40.5
t-32.5 -154.5t32.5 -154.5t123.5 -40.5zM380 1450q-25 0 -25 25v50q0 25 25 25h351q25 0 25 -25v-50q0 -25 -25 -25h-351z" />
    <glyph glyph-name="amacron" unicode="&#x101;" vert-adv-y="0" 
d="M370 0q-23 0 -40 17l-200 200q-17 16 -17 40v586q0 24 17 40l200 200q17 17 40 17h535q25 0 25 -25v-1050q0 -25 -25 -25h-208q-13 0 -19.5 5t-14.5 12l-50 50l-50 -50q-16 -17 -40 -17h-153zM487 233h70q32 0 44 13t12 46v575h-126q-33 0 -45 -13t-12 -46v-516
q0 -33 12 -46t45 -13zM452 1217q-25 0 -25 25v50q0 25 25 25h351q25 0 25 -25v-50q0 -25 -25 -25h-351z" />
    <glyph glyph-name="Abreve" unicode="&#x102;" horiz-adv-x="1117" vert-adv-y="0" 
d="M138 0q-25 0 -25 25v927q0 13 10 30l237 336q11 15 32 15h331q22 0 32 -15l238 -336q10 -14 10 -30v-927q0 -25 -25 -25h-283q-25 0 -25 25v425h-223v-425q0 -25 -25 -25h-284zM558 665q92 0 124.5 40.5t32.5 154.5t-32.5 154.5t-124.5 40.5q-91 0 -123.5 -40.5
t-32.5 -154.5t32.5 -154.5t123.5 -40.5zM436 1383q-19 0 -30 15l-41 57q-10 14 -10 30v73q0 25 25 25h106q25 0 25 -25v-62h94v62q0 25 25 25h106q25 0 25 -25v-73q0 -16 -10 -30l-41 -57q-11 -15 -30 -15h-244z" />
    <glyph glyph-name="abreve" unicode="&#x103;" vert-adv-y="0" 
d="M370 0q-23 0 -40 17l-200 200q-17 16 -17 40v586q0 24 17 40l200 200q17 17 40 17h535q25 0 25 -25v-1050q0 -25 -25 -25h-208q-13 0 -19.5 5t-14.5 12l-50 50l-50 -50q-16 -17 -40 -17h-153zM487 233h70q32 0 44 13t12 46v575h-126q-33 0 -45 -13t-12 -46v-516
q0 -33 12 -46t45 -13zM508 1150q-19 0 -30 15l-41 57q-10 14 -10 30v73q0 25 25 25h106q25 0 25 -25v-62h94v62q0 25 25 25h106q25 0 25 -25v-73q0 -16 -10 -30l-41 -57q-11 -15 -30 -15h-244z" />
    <glyph glyph-name="Aogonek" unicode="&#x104;" horiz-adv-x="1117" vert-adv-y="0" 
d="M138 0q-25 0 -25 25v927q0 13 10 30l237 336q11 15 32 15h331q22 0 32 -15l238 -336q10 -14 10 -30v-927q0 -25 -25 -25h-283q-25 0 -25 25v425h-223v-425q0 -25 -25 -25h-284zM558 665q92 0 124.5 40.5t32.5 154.5t-32.5 154.5t-124.5 40.5q-91 0 -123.5 -40.5
t-32.5 -154.5t32.5 -154.5t123.5 -40.5zM870 -299q-7 0 -10 2l-92 45q-5 3 -5 10v173q0 8 5 10l92 65q3 2 10 2h100q8 0 8 -8v-84q0 -5 -6 -10l-72 -33q-5 -3 -5 -8v-25q0 -6 5 -9l72 -28q6 -2 6 -10v-83q0 -9 -8 -9h-100z" />
    <glyph glyph-name="aogonek" unicode="&#x105;" vert-adv-y="0" 
d="M370 0q-23 0 -40 17l-200 200q-17 16 -17 40v586q0 24 17 40l200 200q17 17 40 17h535q25 0 25 -25v-1050q0 -25 -25 -25h-208q-13 0 -19.5 5t-14.5 12l-50 50l-50 -50q-16 -17 -40 -17h-153zM487 233h70q32 0 44 13t12 46v575h-126q-33 0 -45 -13t-12 -46v-516
q0 -33 12 -46t45 -13zM802 -282q-7 0 -10 2l-92 45q-5 3 -5 10v173q0 8 5 10l92 65q3 2 10 2h100q8 0 8 -8v-84q0 -5 -6 -10l-72 -33q-5 -3 -5 -8v-25q0 -6 5 -9l72 -28q6 -2 6 -10v-83q0 -9 -8 -9h-100z" />
    <glyph glyph-name="Cacute" unicode="&#x106;" horiz-adv-x="843" vert-adv-y="0" 
d="M498 0q-23 0 -40 13l-163 149l-165 215q-11 14 -14 17.5t-3 17.5v510q0 14 3.5 18t13.5 17l153 198l175 165q11 9 17.5 11t22.5 2h247q25 0 25 -25v-160q0 -8 -1.5 -16.5t-10.5 -14.5l-188 -129l-123 -158v-327l125 -158l186 -128q8 -5 10 -12t2 -15v-165q0 -25 -25 -25
h-247zM492 1382q-19 -9 -27 9l-35 75q-7 18 11 30l236 153q18 11 27 -13l57 -119q8 -17 -11 -27z" />
    <glyph glyph-name="cacute" unicode="&#x107;" horiz-adv-x="723" vert-adv-y="0" 
d="M445 0q-20 0 -40 13l-163 110l-112 180q-7 13 -12 17.5t-5 19.5v420q0 15 4 20t13 18l102 170l173 119q9 6 18 9.5t22 3.5h173q25 0 25 -25v-187q0 -8 -1.5 -17t-9.5 -14l-114 -57l-88 -115v-267l93 -106l109 -69q10 -6 10.5 -14.5t0.5 -16.5v-187q0 -25 -25 -25h-173z
M401 1149q-19 -9 -27 9l-35 75q-7 18 11 30l236 153q18 11 27 -13l57 -119q8 -17 -11 -27z" />
    <glyph glyph-name="Ccircumflex" unicode="&#x108;" horiz-adv-x="843" vert-adv-y="0" 
d="M498 0q-23 0 -40 13l-163 149l-165 215q-11 14 -14 17.5t-3 17.5v510q0 14 3.5 18t13.5 17l153 198l175 165q11 9 17.5 11t22.5 2h247q25 0 25 -25v-160q0 -8 -1.5 -16.5t-10.5 -14.5l-188 -129l-123 -158v-327l125 -158l186 -128q8 -5 10 -12t2 -15v-165q0 -25 -25 -25
h-247zM388 1383q-13 0 -18 8t1 20l89 172q8 17 30 17h206q22 0 30 -17l90 -172q7 -12 1.5 -20t-17.5 -8h-142q-15 0 -27 20l-26 53l-5 22h-14l-3 -22l-27 -53q-11 -20 -26 -20h-142z" />
    <glyph glyph-name="ccircumflex" unicode="&#x109;" horiz-adv-x="723" vert-adv-y="0" 
d="M445 0q-20 0 -40 13l-163 110l-112 180q-7 13 -12 17.5t-5 19.5v420q0 15 4 20t13 18l102 170l173 119q9 6 18 9.5t22 3.5h173q25 0 25 -25v-187q0 -8 -1.5 -17t-9.5 -14l-114 -57l-88 -115v-267l93 -106l109 -69q10 -6 10.5 -14.5t0.5 -16.5v-187q0 -25 -25 -25h-173z
M297 1150q-13 0 -18 8t1 20l89 172q8 17 30 17h206q22 0 30 -17l90 -172q7 -12 1.5 -20t-17.5 -8h-142q-15 0 -27 20l-26 53l-5 22h-14l-3 -22l-27 -53q-11 -20 -26 -20h-142z" />
    <glyph glyph-name="Cdotaccent" unicode="&#x10a;" horiz-adv-x="843" vert-adv-y="0" 
d="M498 0q-23 0 -40 13l-163 149l-165 215q-11 14 -14 17.5t-3 17.5v510q0 14 3.5 18t13.5 17l153 198l175 165q11 9 17.5 11t22.5 2h247q25 0 25 -25v-160q0 -8 -1.5 -16.5t-10.5 -14.5l-188 -129l-123 -158v-327l125 -158l186 -128q8 -5 10 -12t2 -15v-165q0 -25 -25 -25
h-247zM595 1387q-43 0 -71.5 28.5t-28.5 71.5q0 44 28.5 73t71.5 29q44 0 72 -29t28 -73q0 -43 -28 -71.5t-72 -28.5z" />
    <glyph glyph-name="cdotaccent" unicode="&#x10b;" horiz-adv-x="723" vert-adv-y="0" 
d="M445 0q-20 0 -40 13l-163 110l-112 180q-7 13 -12 17.5t-5 19.5v420q0 15 4 20t13 18l102 170l173 119q9 6 18 9.5t22 3.5h173q25 0 25 -25v-187q0 -8 -1.5 -17t-9.5 -14l-114 -57l-88 -115v-267l93 -106l109 -69q10 -6 10.5 -14.5t0.5 -16.5v-187q0 -25 -25 -25h-173z
M504 1154q-43 0 -71.5 28.5t-28.5 71.5q0 44 28.5 73t71.5 29q44 0 72 -29t28 -73q0 -43 -28 -71.5t-72 -28.5z" />
    <glyph glyph-name="Ccaron" unicode="&#x10c;" horiz-adv-x="843" vert-adv-y="0" 
d="M498 0q-23 0 -40 13l-163 149l-165 215q-11 14 -14 17.5t-3 17.5v510q0 14 3.5 18t13.5 17l153 198l175 165q11 9 17.5 11t22.5 2h247q25 0 25 -25v-160q0 -8 -1.5 -16.5t-10.5 -14.5l-188 -129l-123 -158v-327l125 -158l186 -128q8 -5 10 -12t2 -15v-165q0 -25 -25 -25
h-247zM498 1383q-22 0 -28 15l-82 158q-6 11 -1 19t18 8h130q13 0 25 -18l26 -50l4 -20h6l5 20l27 50q11 18 25 18h130q13 0 18 -8t-1 -19l-84 -158q-6 -15 -28 -15h-190z" />
    <glyph glyph-name="ccaron" unicode="&#x10d;" horiz-adv-x="723" vert-adv-y="0" 
d="M445 0q-20 0 -40 13l-163 110l-112 180q-7 13 -12 17.5t-5 19.5v420q0 15 4 20t13 18l102 170l173 119q9 6 18 9.5t22 3.5h173q25 0 25 -25v-187q0 -8 -1.5 -17t-9.5 -14l-114 -57l-88 -115v-267l93 -106l109 -69q10 -6 10.5 -14.5t0.5 -16.5v-187q0 -25 -25 -25h-173z
M407 1150q-22 0 -28 15l-82 158q-6 11 -1 19t18 8h130q13 0 25 -18l26 -50l4 -20h6l5 20l27 50q11 18 25 18h130q13 0 18 -8t-1 -19l-84 -158q-6 -15 -28 -15h-190z" />
    <glyph glyph-name="Dcaron" unicode="&#x10e;" horiz-adv-x="1118" vert-adv-y="0" 
d="M138 0q-25 0 -25 25v1283q0 25 25 25h610q24 0 40 -16l200 -200q17 -17 17 -40v-820q0 -24 -17 -40l-200 -200q-16 -17 -40 -17h-610zM447 267h183q42 0 42 56v687q0 57 -42 57h-183v-800zM396 1383q-22 0 -28 15l-82 158q-6 11 -1 19t18 8h130q13 0 25 -18l26 -50l4 -20
h6l5 20l27 50q11 18 25 18h130q13 0 18 -8t-1 -19l-84 -158q-6 -15 -28 -15h-190z" />
    <glyph glyph-name="dcaron" unicode="&#x10f;" vert-adv-y="0" 
d="M370 0q-23 0 -40 17l-200 200q-17 16 -17 40v586q0 24 17 40l200 200q17 17 40 17h153q24 0 40 -17l50 -50v275q0 25 25 25h267q25 0 25 -25v-1283q0 -25 -25 -25h-208q-13 0 -19.5 5t-14.5 12l-50 50l-50 -50q-16 -17 -40 -17h-153zM487 233h70q32 0 44 13t12 46v575
h-126q-33 0 -45 -13t-12 -46v-516q0 -33 12 -46t45 -13zM1037 950q-25 0 -25 23v334q0 26 25 26h133q28 0 25 -26l-30 -334q-3 -23 -25 -23h-103z" />
    <glyph glyph-name="Dcroat" unicode="&#x110;" horiz-adv-x="1214" vert-adv-y="0" 
d="M113 575q-25 0 -25 25v133q0 25 25 25h560q25 0 25 -25v-133q0 -25 -25 -25h-560zM234 0q-25 0 -25 25v1283q0 25 25 25h610q24 0 40 -16l200 -200q17 -17 17 -40v-820q0 -24 -17 -40l-200 -200q-16 -17 -40 -17h-610zM543 267h183q42 0 42 56v687q0 57 -42 57h-183v-800
z" />
    <glyph glyph-name="dcroat" unicode="&#x111;" vert-adv-y="0" 
d="M370 0q-23 0 -40 17l-200 200q-17 16 -17 40v586q0 24 17 40l200 200q17 17 40 17h153q24 0 40 -17l50 -50v275q0 25 25 25h267q25 0 25 -25v-1283q0 -25 -25 -25h-208q-13 0 -19.5 5t-14.5 12l-50 50l-50 -50q-16 -17 -40 -17h-153zM487 233h70q32 0 44 13t12 46v575
h-126q-33 0 -45 -13t-12 -46v-516q0 -33 12 -46t45 -13zM481 1151q-25 0 -25 25v33q0 25 25 25h548q25 0 25 -25v-33q0 -25 -25 -25h-548z" />
    <glyph glyph-name="Emacron" unicode="&#x112;" horiz-adv-x="987" vert-adv-y="0" 
d="M145 0q-25 0 -25 25v1283q0 25 25 25h697q25 0 25 -25v-216q0 -25 -25 -25h-389v-284h355q25 0 25 -25v-183q0 -25 -25 -25h-355v-283h389q25 0 25 -25v-217q0 -25 -25 -25h-697zM330 1450q-25 0 -25 25v50q0 25 25 25h351q25 0 25 -25v-50q0 -25 -25 -25h-351z" />
    <glyph glyph-name="emacron" unicode="&#x113;" horiz-adv-x="1036" vert-adv-y="0" 
d="M568 0q-10 0 -21.5 3t-21.5 5l-178 44l-204 68q-30 10 -30 58v665q0 24 17 40l200 200q17 17 40 17h320q23 0 40 -17l200 -200q17 -16 17 -40v-410h-537l-7 -133l142 -47l255 -18q17 -3 17 -23v-187q0 -25 -25 -25h-224zM528 590h19q49 0 78.5 37t29.5 100v20
q0 62 -29.5 99t-78.5 37h-20q-48 0 -76.5 -37t-28.5 -99v-20q0 -63 28.5 -100t77.5 -37zM360 1217q-25 0 -25 25v50q0 25 25 25h351q25 0 25 -25v-50q0 -25 -25 -25h-351z" />
    <glyph glyph-name="Ebreve" unicode="&#x114;" horiz-adv-x="987" vert-adv-y="0" 
d="M145 0q-25 0 -25 25v1283q0 25 25 25h697q25 0 25 -25v-216q0 -25 -25 -25h-389v-284h355q25 0 25 -25v-183q0 -25 -25 -25h-355v-283h389q25 0 25 -25v-217q0 -25 -25 -25h-697zM386 1383q-19 0 -30 15l-41 57q-10 14 -10 30v73q0 25 25 25h106q25 0 25 -25v-62h94v62
q0 25 25 25h106q25 0 25 -25v-73q0 -16 -10 -30l-41 -57q-11 -15 -30 -15h-244z" />
    <glyph glyph-name="ebreve" unicode="&#x115;" horiz-adv-x="1036" vert-adv-y="0" 
d="M568 0q-10 0 -21.5 3t-21.5 5l-178 44l-204 68q-30 10 -30 58v665q0 24 17 40l200 200q17 17 40 17h320q23 0 40 -17l200 -200q17 -16 17 -40v-410h-537l-7 -133l142 -47l255 -18q17 -3 17 -23v-187q0 -25 -25 -25h-224zM528 590h19q49 0 78.5 37t29.5 100v20
q0 62 -29.5 99t-78.5 37h-20q-48 0 -76.5 -37t-28.5 -99v-20q0 -63 28.5 -100t77.5 -37zM416 1150q-19 0 -30 15l-41 57q-10 14 -10 30v73q0 25 25 25h106q25 0 25 -25v-62h94v62q0 25 25 25h106q25 0 25 -25v-73q0 -16 -10 -30l-41 -57q-11 -15 -30 -15h-244z" />
    <glyph glyph-name="Edotaccent" unicode="&#x116;" horiz-adv-x="987" vert-adv-y="0" 
d="M145 0q-25 0 -25 25v1283q0 25 25 25h697q25 0 25 -25v-216q0 -25 -25 -25h-389v-284h355q25 0 25 -25v-183q0 -25 -25 -25h-355v-283h389q25 0 25 -25v-217q0 -25 -25 -25h-697zM508 1387q-43 0 -71.5 28.5t-28.5 71.5q0 44 28.5 73t71.5 29q44 0 72 -29t28 -73
q0 -43 -28 -71.5t-72 -28.5z" />
    <glyph glyph-name="edotaccent" unicode="&#x117;" horiz-adv-x="1036" vert-adv-y="0" 
d="M568 0q-10 0 -21.5 3t-21.5 5l-178 44l-204 68q-30 10 -30 58v665q0 24 17 40l200 200q17 17 40 17h320q23 0 40 -17l200 -200q17 -16 17 -40v-410h-537l-7 -133l142 -47l255 -18q17 -3 17 -23v-187q0 -25 -25 -25h-224zM528 590h19q49 0 78.5 37t29.5 100v20
q0 62 -29.5 99t-78.5 37h-20q-48 0 -76.5 -37t-28.5 -99v-20q0 -63 28.5 -100t77.5 -37zM538 1154q-43 0 -71.5 28.5t-28.5 71.5q0 44 28.5 73t71.5 29q44 0 72 -29t28 -73q0 -43 -28 -71.5t-72 -28.5z" />
    <glyph glyph-name="Eogonek" unicode="&#x118;" horiz-adv-x="987" vert-adv-y="0" 
d="M145 0q-25 0 -25 25v1283q0 25 25 25h697q25 0 25 -25v-216q0 -25 -25 -25h-389v-284h355q25 0 25 -25v-183q0 -25 -25 -25h-355v-283h389q25 0 25 -25v-217q0 -25 -25 -25h-697zM734 -299q-7 0 -10 2l-92 45q-5 3 -5 10v173q0 8 5 10l92 65q3 2 10 2h100q8 0 8 -8v-84
q0 -5 -6 -10l-72 -33q-5 -3 -5 -8v-25q0 -6 5 -9l72 -28q6 -2 6 -10v-83q0 -9 -8 -9h-100z" />
    <glyph glyph-name="eogonek" unicode="&#x119;" horiz-adv-x="1036" vert-adv-y="0" 
d="M568 0q-10 0 -21.5 3t-21.5 5l-178 44l-204 68q-30 10 -30 58v665q0 24 17 40l200 200q17 17 40 17h320q23 0 40 -17l200 -200q17 -16 17 -40v-410h-537l-7 -133l142 -47l255 -18q17 -3 17 -23v-187q0 -25 -25 -25h-224zM528 590h19q49 0 78.5 37t29.5 100v20
q0 62 -29.5 99t-78.5 37h-20q-48 0 -76.5 -37t-28.5 -99v-20q0 -63 28.5 -100t77.5 -37zM684 -299q-7 0 -10 2l-92 45q-5 3 -5 10v173q0 8 5 10l92 65q3 2 10 2h100q8 0 8 -8v-84q0 -5 -6 -10l-72 -33q-5 -3 -5 -8v-25q0 -6 5 -9l72 -28q6 -2 6 -10v-83q0 -9 -8 -9h-100z
" />
    <glyph glyph-name="Ecaron" unicode="&#x11a;" horiz-adv-x="987" vert-adv-y="0" 
d="M145 0q-25 0 -25 25v1283q0 25 25 25h697q25 0 25 -25v-216q0 -25 -25 -25h-389v-284h355q25 0 25 -25v-183q0 -25 -25 -25h-355v-283h389q25 0 25 -25v-217q0 -25 -25 -25h-697zM411 1383q-22 0 -28 15l-82 158q-6 11 -1 19t18 8h130q13 0 25 -18l26 -50l4 -20h6l5 20
l27 50q11 18 25 18h130q13 0 18 -8t-1 -19l-84 -158q-6 -15 -28 -15h-190z" />
    <glyph glyph-name="ecaron" unicode="&#x11b;" horiz-adv-x="1036" vert-adv-y="0" 
d="M568 0q-10 0 -21.5 3t-21.5 5l-178 44l-204 68q-30 10 -30 58v665q0 24 17 40l200 200q17 17 40 17h320q23 0 40 -17l200 -200q17 -16 17 -40v-410h-537l-7 -133l142 -47l255 -18q17 -3 17 -23v-187q0 -25 -25 -25h-224zM528 590h19q49 0 78.5 37t29.5 100v20
q0 62 -29.5 99t-78.5 37h-20q-48 0 -76.5 -37t-28.5 -99v-20q0 -63 28.5 -100t77.5 -37zM441 1150q-22 0 -28 15l-82 158q-6 11 -1 19t18 8h130q13 0 25 -18l26 -50l4 -20h6l5 20l27 50q11 18 25 18h130q13 0 18 -8t-1 -19l-84 -158q-6 -15 -28 -15h-190z" />
    <glyph glyph-name="Gcircumflex" unicode="&#x11c;" horiz-adv-x="1100" vert-adv-y="0" 
d="M377 0q-24 0 -40 17l-200 200q-17 16 -17 40v820q0 23 17 40l200 200q16 16 40 16h591q25 0 25 -25v-216q0 -25 -25 -25h-481q-14 0 -24 -10t-10 -24v-731q0 -14 10 -24t24 -10h216v267h-128q-25 0 -25 25v215q0 25 25 25h410q25 0 25 -25v-518q0 -24 -17 -40l-200 -200
q-16 -17 -40 -17h-376zM400 1383q-13 0 -18 8t1 20l89 172q8 17 30 17h206q22 0 30 -17l90 -172q7 -12 1.5 -20t-17.5 -8h-142q-15 0 -27 20l-26 53l-5 22h-14l-3 -22l-27 -53q-11 -20 -26 -20h-142z" />
    <glyph glyph-name="gcircumflex" unicode="&#x11d;" vert-adv-y="0" 
d="M402 -333q-25 0 -25 25v156q0 20 15 22l146 37l104 55q15 8 15 31v164l-94 -87q-17 -17 -40 -17l-170 -6q-23 0 -40 16l-183 184q-17 16 -17 40v556q0 24 17 40l200 200q17 17 40 17h535q25 0 25 -25v-1202q0 -27 -17 -40l-133 -85l-168 -70q-15 -6 -22.5 -8.5
t-24.5 -2.5h-163zM487 263h70q32 0 44 13t12 46v545h-126q-33 0 -45 -13t-12 -46v-486q0 -33 12 -46t45 -13zM391 1150q-13 0 -18 8t1 20l89 172q8 17 30 17h206q22 0 30 -17l90 -172q7 -12 1.5 -20t-17.5 -8h-142q-15 0 -27 20l-26 53l-5 22h-14l-3 -22l-27 -53
q-11 -20 -26 -20h-142z" />
    <glyph glyph-name="Gbreve" unicode="&#x11e;" horiz-adv-x="1100" vert-adv-y="0" 
d="M377 0q-24 0 -40 17l-200 200q-17 16 -17 40v820q0 23 17 40l200 200q16 16 40 16h591q25 0 25 -25v-216q0 -25 -25 -25h-481q-14 0 -24 -10t-10 -24v-731q0 -14 10 -24t24 -10h216v267h-128q-25 0 -25 25v215q0 25 25 25h410q25 0 25 -25v-518q0 -24 -17 -40l-200 -200
q-16 -17 -40 -17h-376zM485 1383q-19 0 -30 15l-41 57q-10 14 -10 30v73q0 25 25 25h106q25 0 25 -25v-62h94v62q0 25 25 25h106q25 0 25 -25v-73q0 -16 -10 -30l-41 -57q-11 -15 -30 -15h-244z" />
    <glyph glyph-name="gbreve" unicode="&#x11f;" vert-adv-y="0" 
d="M402 -333q-25 0 -25 25v156q0 20 15 22l146 37l104 55q15 8 15 31v164l-94 -87q-17 -17 -40 -17l-170 -6q-23 0 -40 16l-183 184q-17 16 -17 40v556q0 24 17 40l200 200q17 17 40 17h535q25 0 25 -25v-1202q0 -27 -17 -40l-133 -85l-168 -70q-15 -6 -22.5 -8.5
t-24.5 -2.5h-163zM487 263h70q32 0 44 13t12 46v545h-126q-33 0 -45 -13t-12 -46v-486q0 -33 12 -46t45 -13zM476 1150q-19 0 -30 15l-41 57q-10 14 -10 30v73q0 25 25 25h106q25 0 25 -25v-62h94v62q0 25 25 25h106q25 0 25 -25v-73q0 -16 -10 -30l-41 -57q-11 -15 -30 -15
h-244z" />
    <glyph glyph-name="Gdotaccent" unicode="&#x120;" horiz-adv-x="1100" vert-adv-y="0" 
d="M377 0q-24 0 -40 17l-200 200q-17 16 -17 40v820q0 23 17 40l200 200q16 16 40 16h591q25 0 25 -25v-216q0 -25 -25 -25h-481q-14 0 -24 -10t-10 -24v-731q0 -14 10 -24t24 -10h216v267h-128q-25 0 -25 25v215q0 25 25 25h410q25 0 25 -25v-518q0 -24 -17 -40l-200 -200
q-16 -17 -40 -17h-376zM607 1387q-43 0 -71.5 28.5t-28.5 71.5q0 44 28.5 73t71.5 29q44 0 72 -29t28 -73q0 -43 -28 -71.5t-72 -28.5z" />
    <glyph glyph-name="gdotaccent" unicode="&#x121;" vert-adv-y="0" 
d="M402 -333q-25 0 -25 25v156q0 20 15 22l146 37l104 55q15 8 15 31v164l-94 -87q-17 -17 -40 -17l-170 -6q-23 0 -40 16l-183 184q-17 16 -17 40v556q0 24 17 40l200 200q17 17 40 17h535q25 0 25 -25v-1202q0 -27 -17 -40l-133 -85l-168 -70q-15 -6 -22.5 -8.5
t-24.5 -2.5h-163zM487 263h70q32 0 44 13t12 46v545h-126q-33 0 -45 -13t-12 -46v-486q0 -33 12 -46t45 -13zM598 1154q-43 0 -71.5 28.5t-28.5 71.5q0 44 28.5 73t71.5 29q44 0 72 -29t28 -73q0 -43 -28 -71.5t-72 -28.5z" />
    <glyph glyph-name="uni0122" unicode="&#x122;" horiz-adv-x="1100" vert-adv-y="0" 
d="M377 0q-24 0 -40 17l-200 200q-17 16 -17 40v820q0 23 17 40l200 200q16 16 40 16h591q25 0 25 -25v-216q0 -25 -25 -25h-481q-14 0 -24 -10t-10 -24v-731q0 -14 10 -24t24 -10h216v267h-128q-25 0 -25 25v215q0 25 25 25h410q25 0 25 -25v-518q0 -24 -17 -40l-200 -200
q-16 -17 -40 -17h-376zM522 -300q-13 0 -13 13v72q0 13 13 13h54q16 0 16 14v31h-83q-13 4 -13 15l1 79q0 13 14 13h195q13 0 13 -13v-124q0 -57 -27.5 -85t-72.5 -28h-97z" />
    <glyph glyph-name="uni0123" unicode="&#x123;" vert-adv-y="0" 
d="M402 -333q-25 0 -25 25v156q0 20 15 22l146 37l104 55q15 8 15 31v164l-94 -87q-17 -17 -40 -17l-170 -6q-23 0 -40 16l-183 184q-17 16 -17 40v556q0 24 17 40l200 200q17 17 40 17h535q25 0 25 -25v-1202q0 -27 -17 -40l-133 -85l-168 -70q-15 -6 -22.5 -8.5
t-24.5 -2.5h-163zM487 263h70q32 0 44 13t12 46v545h-126q-33 0 -45 -13t-12 -46v-486q0 -33 12 -46t45 -13zM475 1150q-20 0 -20 18v220q0 80 38.5 119.5t102.5 39.5h89q18 0 18 -19v-100q0 -18 -18 -18h-87q-20 0 -20 -20v-40h123q20 0 20 -18l-1 -164q0 -18 -19 -18h-226
z" />
    <glyph glyph-name="Hcircumflex" unicode="&#x124;" horiz-adv-x="1153" vert-adv-y="0" 
d="M145 0q-25 0 -25 25v1283q0 25 25 25h283q25 0 25 -25v-475h247v475q0 25 25 25h283q25 0 25 -25v-1283q0 -25 -25 -25h-283q-25 0 -25 25v542h-247v-542q0 -25 -25 -25h-283zM370 1383q-13 0 -18 8t1 20l89 172q8 17 30 17h206q22 0 30 -17l90 -172q7 -12 1.5 -20
t-17.5 -8h-142q-15 0 -27 20l-26 53l-5 22h-14l-3 -22l-27 -53q-11 -20 -26 -20h-142z" />
    <glyph glyph-name="hcircumflex" unicode="&#x125;" horiz-adv-x="1050" vert-adv-y="0" 
d="M145 0q-25 0 -25 25v1283q0 25 25 25h267q25 0 25 -25v-208h243q23 0 40 -17l200 -200q17 -16 17 -40v-818q0 -25 -25 -25h-267q-25 0 -25 25v783q0 42 -42 42h-141v-825q0 -25 -25 -25h-267zM321 1383q-13 0 -18 8t1 20l89 172q8 17 30 17h206q22 0 30 -17l90 -172
q7 -12 1.5 -20t-17.5 -8h-142q-15 0 -27 20l-26 53l-5 22h-14l-3 -22l-27 -53q-11 -20 -26 -20h-142z" />
    <glyph glyph-name="Hbar" unicode="&#x126;" horiz-adv-x="1153" vert-adv-y="0" 
d="M145 0q-25 0 -25 25v1283q0 25 25 25h283q25 0 25 -25v-475h247v475q0 25 25 25h283q25 0 25 -25v-1283q0 -25 -25 -25h-283q-25 0 -25 25v542h-247v-542q0 -25 -25 -25h-283zM52 939q-25 0 -25 25v33q0 25 25 25h1048q25 0 25 -25v-33q0 -25 -25 -25h-1048z" />
    <glyph glyph-name="hbar" unicode="&#x127;" horiz-adv-x="1050" vert-adv-y="0" 
d="M145 0q-25 0 -25 25v1283q0 25 25 25h267q25 0 25 -25v-208h243q23 0 40 -17l200 -200q17 -16 17 -40v-818q0 -25 -25 -25h-267q-25 0 -25 25v783q0 42 -42 42h-141v-825q0 -25 -25 -25h-267zM16 1160q-25 0 -25 25v33q0 25 25 25h548q25 0 25 -25v-33q0 -25 -25 -25
h-548z" />
    <glyph glyph-name="Itilde" unicode="&#x128;" horiz-adv-x="573" vert-adv-y="0" 
d="M145 0q-25 0 -25 25v1283q0 25 25 25h283q25 0 25 -25v-1283q0 -25 -25 -25h-283zM93 1383q-22 0 -13 27l65 156q11 17 20 17h140q11 0 17 -17l26 -71l27 71q8 17 35 17h80q22 0 13 -28l-61 -155q-6 -17 -20 -17h-139q-10 0 -16 17l-19 76l-48 -76q-10 -17 -35 -17h-72z
" />
    <glyph glyph-name="itilde" unicode="&#x129;" horiz-adv-x="400" vert-adv-y="0" 
d="M67 0q-25 0 -25 25v1050q0 25 25 25h266q25 0 25 -25v-1050q0 -25 -25 -25h-266zM1 1150q-22 0 -13 27l65 156q11 17 20 17h140q11 0 17 -17l26 -71l27 71q8 17 35 17h80q22 0 13 -28l-61 -155q-6 -17 -20 -17h-139q-10 0 -16 17l-19 76l-48 -76q-10 -17 -35 -17h-72z
" />
    <glyph glyph-name="Imacron" unicode="&#x12a;" horiz-adv-x="573" vert-adv-y="0" 
d="M145 0q-25 0 -25 25v1283q0 25 25 25h283q25 0 25 -25v-1283q0 -25 -25 -25h-283zM114 1450q-25 0 -25 25v50q0 25 25 25h351q25 0 25 -25v-50q0 -25 -25 -25h-351z" />
    <glyph glyph-name="imacron" unicode="&#x12b;" horiz-adv-x="400" vert-adv-y="0" 
d="M67 0q-25 0 -25 25v1050q0 25 25 25h266q25 0 25 -25v-1050q0 -25 -25 -25h-266zM22 1217q-25 0 -25 25v50q0 25 25 25h351q25 0 25 -25v-50q0 -25 -25 -25h-351z" />
    <glyph glyph-name="Ibreve" unicode="&#x12c;" horiz-adv-x="573" vert-adv-y="0" 
d="M145 0q-25 0 -25 25v1283q0 25 25 25h283q25 0 25 -25v-1283q0 -25 -25 -25h-283zM170 1383q-19 0 -30 15l-41 57q-10 14 -10 30v73q0 25 25 25h106q25 0 25 -25v-62h94v62q0 25 25 25h106q25 0 25 -25v-73q0 -16 -10 -30l-41 -57q-11 -15 -30 -15h-244z" />
    <glyph glyph-name="ibreve" unicode="&#x12d;" horiz-adv-x="400" vert-adv-y="0" 
d="M67 0q-25 0 -25 25v1050q0 25 25 25h266q25 0 25 -25v-1050q0 -25 -25 -25h-266zM78 1150q-19 0 -30 15l-41 57q-10 14 -10 30v73q0 25 25 25h106q25 0 25 -25v-62h94v62q0 25 25 25h106q25 0 25 -25v-73q0 -16 -10 -30l-41 -57q-11 -15 -30 -15h-244z" />
    <glyph glyph-name="Iogonek" unicode="&#x12e;" horiz-adv-x="573" vert-adv-y="0" 
d="M145 0q-25 0 -25 25v1283q0 25 25 25h283q25 0 25 -25v-1283q0 -25 -25 -25h-283zM345 -274q-7 0 -10 2l-92 45q-5 3 -5 10v173q0 8 5 10l92 65q3 2 10 2h100q8 0 8 -8v-84q0 -5 -6 -10l-72 -33q-5 -3 -5 -8v-25q0 -6 5 -9l72 -28q6 -2 6 -10v-83q0 -9 -8 -9h-100z" />
    <glyph glyph-name="iogonek" unicode="&#x12f;" horiz-adv-x="549" vert-adv-y="0" 
d="M145 0q-25 0 -25 25v1050q0 25 25 25h266q25 0 25 -25v-1050q0 -25 -25 -25h-266zM140 1183q-20 0 -20 20v127q0 20 20 20h278q18 0 18 -20v-127q0 -20 -18 -20h-278zM328 -274q-7 0 -10 2l-92 45q-5 3 -5 10v173q0 8 5 10l92 65q3 2 10 2h100q8 0 8 -8v-84q0 -5 -6 -10
l-72 -33q-5 -3 -5 -8v-25q0 -6 5 -9l72 -28q6 -2 6 -10v-83q0 -9 -8 -9h-100z" />
    <glyph glyph-name="Idotaccent" unicode="&#x130;" horiz-adv-x="573" vert-adv-y="0" 
d="M145 0q-25 0 -25 25v1283q0 25 25 25h283q25 0 25 -25v-1283q0 -25 -25 -25h-283zM292 1387q-43 0 -71.5 28.5t-28.5 71.5q0 44 28.5 73t71.5 29q44 0 72 -29t28 -73q0 -43 -28 -71.5t-72 -28.5z" />
    <glyph glyph-name="dotlessi" unicode="&#x131;" horiz-adv-x="400" vert-adv-y="0" 
d="M67 0q-25 0 -25 25v1050q0 25 25 25h266q25 0 25 -25v-1050q0 -25 -25 -25h-266z" />
    <glyph glyph-name="IJ" unicode="&#x132;" horiz-adv-x="1236" vert-adv-y="0" 
d="M145 0q-25 0 -25 25v1283q0 25 25 25h283q25 0 25 -25v-1283q0 -25 -25 -25h-283zM638 -167q-25 0 -25 25v159q0 19 10 30l148 148q12 11 12 32v1081q0 25 25 25h283q25 0 25 -25v-1221q0 -9 -1.5 -16.5t-9.5 -15.5l-207 -207q-15 -15 -30 -15h-230z" />
    <glyph glyph-name="ij" unicode="&#x133;" horiz-adv-x="1082" vert-adv-y="0" 
d="M145 0q-25 0 -25 25v1050q0 25 25 25h266q25 0 25 -25v-1050q0 -25 -25 -25h-266zM140 1183q-20 0 -20 20v127q0 20 20 20h278q18 0 18 -20v-127q0 -20 -18 -20h-278zM512 -333q-23 0 -23 25v156q0 18 15 22l80 28l55 62q9 9 11 16t2 17v1082q0 25 25 25h267q25 0 25 -25
v-1150q0 -25 -17 -43l-118 -129l-127 -71q-25 -15 -50 -15h-145zM672 1183q-20 0 -20 20v127q0 20 20 20h278q18 0 18 -20v-127q0 -20 -18 -20h-278z" />
    <glyph glyph-name="Jcircumflex" unicode="&#x134;" horiz-adv-x="663" vert-adv-y="0" 
d="M65 -167q-25 0 -25 25v159q0 19 10 30l148 148q12 11 12 32v1081q0 25 25 25h283q25 0 25 -25v-1221q0 -9 -1.5 -16.5t-9.5 -15.5l-207 -207q-15 -15 -30 -15h-230zM170 1383q-13 0 -18 8t1 20l89 172q8 17 30 17h206q22 0 30 -17l90 -172q7 -12 1.5 -20t-17.5 -8h-142
q-15 0 -27 20l-26 53l-5 22h-14l-3 -22l-27 -53q-11 -20 -26 -20h-142z" />
    <glyph glyph-name="jcircumflex" unicode="&#x135;" horiz-adv-x="533" vert-adv-y="0" 
d="M-37 -333q-23 0 -23 25v156q0 18 15 22l80 28l55 62q9 9 11 16t2 17v1082q0 25 25 25h267q25 0 25 -25v-1150q0 -25 -17 -43l-118 -129l-127 -71q-25 -15 -50 -15h-145zM51 1150q-13 0 -18 8t1 20l89 172q8 17 30 17h206q22 0 30 -17l90 -172q7 -12 1.5 -20t-17.5 -8
h-142q-15 0 -27 20l-26 53l-5 22h-14l-3 -22l-27 -53q-11 -20 -26 -20h-142z" />
    <glyph glyph-name="uni0136" unicode="&#x136;" horiz-adv-x="1155" vert-adv-y="0" 
d="M145 0q-25 0 -25 25v1283q0 25 25 25h283q25 0 25 -25v-530h124l66 249l60 293q2 6 9.5 9.5t22.5 3.5h288q25 0 25 -25v-125q0 -11 -3 -21.5t-5 -18.5l-122 -293l-85 -160l87 -158l147 -334q4 -7 6 -15t2 -23v-135q0 -25 -25 -25h-298q-7 0 -17.5 2.5t-12.5 12.5l-74 317
l-55 181h-140v-488q0 -25 -25 -25h-283zM482 -300q-13 0 -13 13v72q0 13 13 13h54q16 0 16 14v31h-83q-13 4 -13 15l1 79q0 13 14 13h195q13 0 13 -13v-124q0 -57 -27.5 -85t-72.5 -28h-97z" />
    <glyph glyph-name="uni0137" unicode="&#x137;" horiz-adv-x="1022" vert-adv-y="0" 
d="M675 0q-13 0 -20.5 4t-9.5 11l-115 453h-93v240h93l115 375q2 8 9.5 11.5t20.5 3.5h253q25 0 25 -25v-106q0 -14 -2 -22t-6 -17l-148 -341v-34l156 -383q5 -11 7 -19.5t2 -18.5v-107q0 -25 -25 -25h-262zM145 0q-25 0 -25 25v1283q0 25 25 25h267q25 0 25 -25v-1283
q0 -25 -25 -25h-267zM449 -300q-13 0 -13 13v72q0 13 13 13h54q16 0 16 14v31h-83q-13 4 -13 15l1 79q0 13 14 13h195q13 0 13 -13v-124q0 -57 -27.5 -85t-72.5 -28h-97z" />
    <glyph glyph-name="kgreenlandic" unicode="&#x138;" horiz-adv-x="1155" vert-adv-y="0" 
d="M145 0q-25 0 -25 25v1050q0 25 25 25h283q25 0 25 -25v-413h124l66 131l60 294q2 6 9.5 9.5t22.5 3.5h288q25 0 25 -25v-125q0 -24 -8 -40l-122 -215l-85 -122l87 -103l147 -272q4 -7 6 -15t2 -23v-135q0 -25 -25 -25h-298q-7 0 -17.5 2.5t-12.5 12.5l-74 317l-55 65
h-140v-372q0 -25 -25 -25h-283z" />
    <glyph glyph-name="Lacute" unicode="&#x139;" horiz-adv-x="770" vert-adv-y="0" 
d="M145 0q-25 0 -25 25v1283q0 25 25 25h283q25 0 25 -25v-1041h252q25 0 25 -25v-217q0 -25 -25 -25h-560zM192 1382q-19 -9 -27 9l-35 75q-7 18 11 30l236 153q18 11 27 -13l57 -119q8 -17 -11 -27z" />
    <glyph glyph-name="lacute" unicode="&#x13a;" horiz-adv-x="526" vert-adv-y="0" 
d="M133 0q-25 0 -25 25v1283q0 25 25 25h267q25 0 25 -25v-1283q0 -25 -25 -25h-267zM163 1382q-19 -9 -27 9l-35 75q-7 18 11 30l236 153q18 11 27 -13l57 -119q8 -17 -11 -27z" />
    <glyph glyph-name="uni013B" unicode="&#x13b;" horiz-adv-x="770" vert-adv-y="0" 
d="M145 0q-25 0 -25 25v1283q0 25 25 25h283q25 0 25 -25v-1041h252q25 0 25 -25v-217q0 -25 -25 -25h-560zM340 -300q-13 0 -13 13v72q0 13 13 13h54q16 0 16 14v31h-83q-13 4 -13 15l1 79q0 13 14 13h195q13 0 13 -13v-124q0 -57 -27.5 -85t-72.5 -28h-97z" />
    <glyph glyph-name="uni013C" unicode="&#x13c;" horiz-adv-x="526" vert-adv-y="0" 
d="M133 0q-25 0 -25 25v1283q0 25 25 25h267q25 0 25 -25v-1283q0 -25 -25 -25h-267zM181 -300q-13 0 -13 13v72q0 13 13 13h54q16 0 16 14v31h-83q-13 4 -13 15l1 79q0 13 14 13h195q13 0 13 -13v-124q0 -57 -27.5 -85t-72.5 -28h-97z" />
    <glyph glyph-name="Lcaron" unicode="&#x13d;" horiz-adv-x="770" vert-adv-y="0" 
d="M145 0q-25 0 -25 25v1283q0 25 25 25h283q25 0 25 -25v-1041h252q25 0 25 -25v-217q0 -25 -25 -25h-560zM586 945q-25 0 -25 23v334q0 26 25 26h133q28 0 25 -26l-30 -334q-3 -23 -25 -23h-103z" />
    <glyph glyph-name="lcaron" unicode="&#x13e;" horiz-adv-x="526" vert-adv-y="0" 
d="M133 0q-25 0 -25 25v1283q0 25 25 25h267q25 0 25 -25v-1283q0 -25 -25 -25h-267zM445 283q-25 0 -25 23v334q0 26 25 26h133q28 0 25 -26l-30 -334q-3 -23 -25 -23h-103z" />
    <glyph glyph-name="Ldot" unicode="&#x13f;" horiz-adv-x="770" vert-adv-y="0" 
d="M569 587q-18 0 -18 19v230q0 20 18 20h231q19 0 19 -20v-230q0 -19 -19 -19h-231zM145 0q-25 0 -25 25v1283q0 25 25 25h283q25 0 25 -25v-1041h252q25 0 25 -25v-217q0 -25 -25 -25h-560z" />
    <glyph glyph-name="ldot" unicode="&#x140;" horiz-adv-x="790" vert-adv-y="0" 
d="M133 0q-25 0 -25 25v1283q0 25 25 25h267q25 0 25 -25v-1283q0 -25 -25 -25h-267zM602 538q-56 0 -92 36.5t-36 92.5t36 93t92 37t92 -37t36 -93t-36 -92.5t-92 -36.5z" />
    <glyph glyph-name="Lslash" unicode="&#x141;" horiz-adv-x="770" vert-adv-y="0" 
d="M10 543q-13 -6 -21.5 -0.5t-8.5 19.5v148q0 18 18 28l557 277q13 6 21.5 1t8.5 -19v-149q0 -17 -18 -28zM145 0q-25 0 -25 25v1283q0 25 25 25h283q25 0 25 -25v-1041h252q25 0 25 -25v-217q0 -25 -25 -25h-560z" />
    <glyph glyph-name="lslash" unicode="&#x142;" horiz-adv-x="526" vert-adv-y="0" 
d="M133 0q-25 0 -25 25v1283q0 25 25 25h267q25 0 25 -25v-1283q0 -25 -25 -25h-267zM-9 649q-25 0 -25 25v33q0 25 25 25h548q25 0 25 -25v-33q0 -25 -25 -25h-548z" />
    <glyph glyph-name="Nacute" unicode="&#x143;" horiz-adv-x="1090" vert-adv-y="0" 
d="M145 0q-25 0 -25 25v1283q0 25 25 25h568q24 0 40 -16l200 -200q17 -17 17 -40v-1052q0 -25 -25 -25h-283q-25 0 -25 25v1042h-184v-1042q0 -25 -25 -25h-283zM442 1382q-19 -9 -27 9l-35 75q-7 18 11 30l236 153q18 11 27 -13l57 -119q8 -17 -11 -27z" />
    <glyph glyph-name="nacute" unicode="&#x144;" horiz-adv-x="1050" vert-adv-y="0" 
d="M145 0q-25 0 -25 25v1050q0 25 25 25h535q23 0 40 -17l200 -200q17 -16 17 -40v-818q0 -25 -25 -25h-267q-25 0 -25 25v778q0 47 -47 47h-136v-825q0 -25 -25 -25h-267zM425 1149q-19 -9 -27 9l-35 75q-7 18 11 30l236 153q18 11 27 -13l57 -119q8 -17 -11 -27z" />
    <glyph glyph-name="uni0145" unicode="&#x145;" horiz-adv-x="1090" vert-adv-y="0" 
d="M145 0q-25 0 -25 25v1283q0 25 25 25h568q24 0 40 -16l200 -200q17 -17 17 -40v-1052q0 -25 -25 -25h-283q-25 0 -25 25v1042h-184v-1042q0 -25 -25 -25h-283zM460 -300q-13 0 -13 13v72q0 13 13 13h54q16 0 16 14v31h-83q-13 4 -13 15l1 79q0 13 14 13h195q13 0 13 -13
v-124q0 -57 -27.5 -85t-72.5 -28h-97z" />
    <glyph glyph-name="uni0146" unicode="&#x146;" horiz-adv-x="1050" vert-adv-y="0" 
d="M145 0q-25 0 -25 25v1050q0 25 25 25h535q23 0 40 -17l200 -200q17 -16 17 -40v-818q0 -25 -25 -25h-267q-25 0 -25 25v778q0 47 -47 47h-136v-825q0 -25 -25 -25h-267zM443 -300q-13 0 -13 13v72q0 13 13 13h54q16 0 16 14v31h-83q-13 4 -13 15l1 79q0 13 14 13h195
q13 0 13 -13v-124q0 -57 -27.5 -85t-72.5 -28h-97z" />
    <glyph glyph-name="Ncaron" unicode="&#x147;" horiz-adv-x="1090" vert-adv-y="0" 
d="M145 0q-25 0 -25 25v1283q0 25 25 25h568q24 0 40 -16l200 -200q17 -17 17 -40v-1052q0 -25 -25 -25h-283q-25 0 -25 25v1042h-184v-1042q0 -25 -25 -25h-283zM448 1383q-22 0 -28 15l-82 158q-6 11 -1 19t18 8h130q13 0 25 -18l26 -50l4 -20h6l5 20l27 50q11 18 25 18
h130q13 0 18 -8t-1 -19l-84 -158q-6 -15 -28 -15h-190z" />
    <glyph glyph-name="ncaron" unicode="&#x148;" horiz-adv-x="1050" vert-adv-y="0" 
d="M145 0q-25 0 -25 25v1050q0 25 25 25h535q23 0 40 -17l200 -200q17 -16 17 -40v-818q0 -25 -25 -25h-267q-25 0 -25 25v778q0 47 -47 47h-136v-825q0 -25 -25 -25h-267zM431 1150q-22 0 -28 15l-82 158q-6 11 -1 19t18 8h130q13 0 25 -18l26 -50l4 -20h6l5 20l27 50
q11 18 25 18h130q13 0 18 -8t-1 -19l-84 -158q-6 -15 -28 -15h-190z" />
    <glyph glyph-name="Eng" unicode="&#x14a;" horiz-adv-x="1083" vert-adv-y="0" 
d="M505 -373q-50 0 -50 50v140q0 50 50 50h132v1200h-184v-1042q0 -25 -25 -25h-283q-25 0 -25 25v1283q0 25 25 25h568q24 0 40 -16l200 -200q17 -17 17 -40v-1252q0 -35 -28 -60l-120 -115q-23 -23 -65 -23h-252z" />
    <glyph glyph-name="eng" unicode="&#x14b;" horiz-adv-x="1050" vert-adv-y="0" 
d="M480 -333q-23 0 -23 25v156q0 18 15 22l80 28l55 62q13 14 13 33v810q0 47 -47 47h-136v-825q0 -25 -25 -25h-267q-25 0 -25 25v1050q0 25 25 25h535q23 0 40 -17l200 -200q17 -16 17 -40v-918q0 -25 -17 -43l-118 -129l-127 -71q-25 -15 -50 -15h-145z" />
    <glyph glyph-name="Omacron" unicode="&#x14c;" horiz-adv-x="1147" vert-adv-y="0" 
d="M377 0q-23 0 -40 17l-200 200q-17 16 -17 40v820q0 23 17 40l200 200q17 16 40 16h393q24 0 40 -16l200 -200q17 -17 17 -40v-820q0 -24 -17 -40l-200 -200q-16 -17 -40 -17h-393zM495 267h157q42 0 42 56v687q0 57 -42 57h-157q-41 0 -41 -57v-687q0 -56 41 -56z
M397 1450q-25 0 -25 25v50q0 25 25 25h351q25 0 25 -25v-50q0 -25 -25 -25h-351z" />
    <glyph glyph-name="omacron" unicode="&#x14d;" vert-adv-y="0" 
d="M370 0q-23 0 -40 17l-200 200q-17 16 -17 40v586q0 24 17 40l200 200q17 17 40 17h303q24 0 40 -17l200 -200q17 -16 17 -40v-586q0 -24 -17 -40l-200 -200q-16 -17 -40 -17h-303zM487 233h70q32 0 44 13t12 46v516q0 33 -12 46t-44 13h-70q-33 0 -45 -13t-12 -46v-516
q0 -33 12 -46t45 -13zM344 1217q-25 0 -25 25v50q0 25 25 25h351q25 0 25 -25v-50q0 -25 -25 -25h-351z" />
    <glyph glyph-name="Obreve" unicode="&#x14e;" horiz-adv-x="1147" vert-adv-y="0" 
d="M377 0q-23 0 -40 17l-200 200q-17 16 -17 40v820q0 23 17 40l200 200q17 16 40 16h393q24 0 40 -16l200 -200q17 -17 17 -40v-820q0 -24 -17 -40l-200 -200q-16 -17 -40 -17h-393zM495 267h157q42 0 42 56v687q0 57 -42 57h-157q-41 0 -41 -57v-687q0 -56 41 -56z
M453 1383q-19 0 -30 15l-41 57q-10 14 -10 30v73q0 25 25 25h106q25 0 25 -25v-62h94v62q0 25 25 25h106q25 0 25 -25v-73q0 -16 -10 -30l-41 -57q-11 -15 -30 -15h-244z" />
    <glyph glyph-name="obreve" unicode="&#x14f;" vert-adv-y="0" 
d="M370 0q-23 0 -40 17l-200 200q-17 16 -17 40v586q0 24 17 40l200 200q17 17 40 17h303q24 0 40 -17l200 -200q17 -16 17 -40v-586q0 -24 -17 -40l-200 -200q-16 -17 -40 -17h-303zM487 233h70q32 0 44 13t12 46v516q0 33 -12 46t-44 13h-70q-33 0 -45 -13t-12 -46v-516
q0 -33 12 -46t45 -13zM400 1150q-19 0 -30 15l-41 57q-10 14 -10 30v73q0 25 25 25h106q25 0 25 -25v-62h94v62q0 25 25 25h106q25 0 25 -25v-73q0 -16 -10 -30l-41 -57q-11 -15 -30 -15h-244z" />
    <glyph glyph-name="Ohungarumlaut" unicode="&#x150;" horiz-adv-x="1147" vert-adv-y="0" 
d="M377 0q-23 0 -40 17l-200 200q-17 16 -17 40v820q0 23 17 40l200 200q17 16 40 16h393q24 0 40 -16l200 -200q17 -17 17 -40v-820q0 -24 -17 -40l-200 -200q-16 -17 -40 -17h-393zM495 267h157q42 0 42 56v687q0 57 -42 57h-157q-41 0 -41 -57v-687q0 -56 41 -56z
M633 1416q-13 0 -21.5 7.5t-3.5 16.5l65 116q16 27 42 27h150q16 0 24.5 -9t0.5 -18l-112 -116q-21 -24 -50 -24h-95zM425 1416q-25 0 -25 24v116q0 27 25 27h166q15 0 22.5 -8t2.5 -19l-63 -116q-14 -24 -42 -24h-86z" />
    <glyph glyph-name="ohungarumlaut" unicode="&#x151;" vert-adv-y="0" 
d="M370 0q-23 0 -40 17l-200 200q-17 16 -17 40v586q0 24 17 40l200 200q17 17 40 17h303q24 0 40 -17l200 -200q17 -16 17 -40v-586q0 -24 -17 -40l-200 -200q-16 -17 -40 -17h-303zM487 233h70q32 0 44 13t12 46v516q0 33 -12 46t-44 13h-70q-33 0 -45 -13t-12 -46v-516
q0 -33 12 -46t45 -13zM580 1183q-13 0 -21.5 7.5t-3.5 16.5l65 116q16 27 42 27h150q16 0 24.5 -9t0.5 -18l-112 -116q-21 -24 -50 -24h-95zM372 1183q-25 0 -25 24v116q0 27 25 27h166q15 0 22.5 -8t2.5 -19l-63 -116q-14 -24 -42 -24h-86z" />
    <glyph glyph-name="OE" unicode="&#x152;" horiz-adv-x="1560" vert-adv-y="0" 
d="M377 0q-23 0 -40 17l-200 200q-17 16 -17 40v820q0 23 17 40l200 200q17 16 40 16h1038q25 0 25 -25v-216q0 -25 -25 -25h-388v-284h355q25 0 25 -25v-183q0 -25 -25 -25h-355v-283h388q25 0 25 -25v-217q0 -25 -25 -25h-1038zM495 267h157q42 0 42 56v687q0 57 -42 57
h-157q-41 0 -41 -57v-687q0 -56 41 -56z" />
    <glyph glyph-name="oe" unicode="&#x153;" horiz-adv-x="1563" vert-adv-y="0" 
d="M370 0q-23 0 -40 17l-200 200q-17 16 -17 40v586q0 24 17 40l200 200q17 17 40 17h303q24 0 40 -17l200 -200q17 -16 17 -40v-586q0 -24 -17 -40l-200 -200q-16 -17 -40 -17h-303zM487 233h70q32 0 44 13t12 46v516q0 33 -12 46t-44 13h-70q-33 0 -45 -13t-12 -46v-516
q0 -33 12 -46t45 -13zM1095 0q-10 0 -21.5 3t-21.5 5l-178 44l-204 68q-30 10 -30 58v665q0 24 17 40l200 200q17 17 40 17h320q23 0 40 -17l200 -200q17 -16 17 -40v-410h-537l-7 -133l142 -47l255 -18q17 -3 17 -23v-187q0 -25 -25 -25h-224zM1055 590h19q49 0 78.5 37
t29.5 100v20q0 62 -29.5 99t-78.5 37h-20q-48 0 -76.5 -37t-28.5 -99v-20q0 -63 28.5 -100t77.5 -37z" />
    <glyph glyph-name="Racute" unicode="&#x154;" horiz-adv-x="1032" vert-adv-y="0" 
d="M145 0q-25 0 -25 25v1283q0 25 25 25h542q24 0 40 -13l230 -228q11 -10 13.5 -17t2.5 -23v-274q0 -13 -10 -23l-110 -107l-93 -80l110 -146l113 -242q4 -9 6.5 -17.5t2.5 -20.5v-117q0 -25 -25 -25h-264q-22 0 -30 20l-161 468h-75v-463q0 -25 -25 -25h-267zM547 733
q83 0 113 34.5t30 129.5q0 96 -30 130.5t-113 34.5q-82 0 -113 -34.5t-31 -130.5q0 -95 31 -129.5t113 -34.5zM389 1382q-19 -9 -27 9l-35 75q-7 18 11 30l236 153q18 11 27 -13l57 -119q8 -17 -11 -27z" />
    <glyph glyph-name="racute" unicode="&#x155;" horiz-adv-x="698" vert-adv-y="0" 
d="M145 0q-25 0 -25 25v1050q0 25 25 25h152q19 0 33 -17l98 -113l109 118q11 12 28 12h108q25 0 25 -25v-215q0 -16 -2 -21.5t-11 -11.5l-248 -183v-619q0 -25 -25 -25h-267zM325 1149q-19 -9 -27 9l-35 75q-7 18 11 30l236 153q18 11 27 -13l57 -119q8 -17 -11 -27z" />
    <glyph glyph-name="uni0156" unicode="&#x156;" horiz-adv-x="1032" vert-adv-y="0" 
d="M145 0q-25 0 -25 25v1283q0 25 25 25h542q24 0 40 -13l230 -228q11 -10 13.5 -17t2.5 -23v-274q0 -13 -10 -23l-110 -107l-93 -80l110 -146l113 -242q4 -9 6.5 -17.5t2.5 -20.5v-117q0 -25 -25 -25h-264q-22 0 -30 20l-161 468h-75v-463q0 -25 -25 -25h-267zM547 733
q83 0 113 34.5t30 129.5q0 96 -30 130.5t-113 34.5q-82 0 -113 -34.5t-31 -130.5q0 -95 31 -129.5t113 -34.5zM464 -300q-13 0 -13 13v72q0 13 13 13h54q16 0 16 14v31h-83q-13 4 -13 15l1 79q0 13 14 13h195q13 0 13 -13v-124q0 -57 -27.5 -85t-72.5 -28h-97z" />
    <glyph glyph-name="uni0157" unicode="&#x157;" horiz-adv-x="698" vert-adv-y="0" 
d="M145 0q-25 0 -25 25v1050q0 25 25 25h152q19 0 33 -17l98 -113l109 118q11 12 28 12h108q25 0 25 -25v-215q0 -16 -2 -21.5t-11 -11.5l-248 -183v-619q0 -25 -25 -25h-267zM193 -300q-13 0 -13 13v72q0 13 13 13h54q16 0 16 14v31h-83q-13 4 -13 15l1 79q0 13 14 13h195
q13 0 13 -13v-124q0 -57 -27.5 -85t-72.5 -28h-97z" />
    <glyph glyph-name="Rcaron" unicode="&#x158;" horiz-adv-x="1032" vert-adv-y="0" 
d="M145 0q-25 0 -25 25v1283q0 25 25 25h542q24 0 40 -13l230 -228q11 -10 13.5 -17t2.5 -23v-274q0 -13 -10 -23l-110 -107l-93 -80l110 -146l113 -242q4 -9 6.5 -17.5t2.5 -20.5v-117q0 -25 -25 -25h-264q-22 0 -30 20l-161 468h-75v-463q0 -25 -25 -25h-267zM547 733
q83 0 113 34.5t30 129.5q0 96 -30 130.5t-113 34.5q-82 0 -113 -34.5t-31 -130.5q0 -95 31 -129.5t113 -34.5zM395 1383q-22 0 -28 15l-82 158q-6 11 -1 19t18 8h130q13 0 25 -18l26 -50l4 -20h6l5 20l27 50q11 18 25 18h130q13 0 18 -8t-1 -19l-84 -158q-6 -15 -28 -15
h-190z" />
    <glyph glyph-name="Rcaron" unicode="&#x159;" horiz-adv-x="1032" vert-adv-y="0" 
d="M145 0q-25 0 -25 25v1283q0 25 25 25h542q24 0 40 -13l230 -228q11 -10 13.5 -17t2.5 -23v-274q0 -13 -10 -23l-110 -107l-93 -80l110 -146l113 -242q4 -9 6.5 -17.5t2.5 -20.5v-117q0 -25 -25 -25h-264q-22 0 -30 20l-161 468h-75v-463q0 -25 -25 -25h-267zM547 733
q83 0 113 34.5t30 129.5q0 96 -30 130.5t-113 34.5q-82 0 -113 -34.5t-31 -130.5q0 -95 31 -129.5t113 -34.5zM395 1383q-22 0 -28 15l-82 158q-6 11 -1 19t18 8h130q13 0 25 -18l26 -50l4 -20h6l5 20l27 50q11 18 25 18h130q13 0 18 -8t-1 -19l-84 -158q-6 -15 -28 -15
h-190z" />
    <glyph glyph-name="Sacute" unicode="&#x15a;" horiz-adv-x="795" vert-adv-y="0" 
d="M115 0q-25 0 -25 25v188q0 13 1.5 21t11.5 13l262 120v178l-258 160q-17 10 -17 30v367q0 16 2 23.5t15 16.5l263 178q10 6 18.5 9.5t21.5 3.5h270q25 0 25 -25v-170q0 -22 -15 -30l-262 -108v-185l262 -150q15 -7 15 -32v-435q0 -8 -2.5 -17t-10.5 -13l-314 -156
q-6 -3 -14.5 -7.5t-16.5 -4.5h-232zM370 1382q-19 -9 -27 9l-35 75q-7 18 11 30l236 153q18 11 27 -13l57 -119q8 -17 -11 -27z" />
    <glyph glyph-name="sacute" unicode="&#x15b;" horiz-adv-x="722" vert-adv-y="0" 
d="M114 0q-25 0 -25 25v162q0 23 15 30l204 121v104l-204 110q-15 9 -15 31v319q0 11 3.5 18t10.5 12l213 156q11 8 18 10t14 2h243q25 0 25 -25v-157q0 -17 -2.5 -23t-10.5 -10l-189 -102v-116l202 -100q17 -7 17 -30v-307q0 -25 -17 -40l-213 -177q-16 -13 -40 -13h-249z
M258 1149q-19 -9 -27 9l-35 75q-7 18 11 30l236 153q18 11 27 -13l57 -119q8 -17 -11 -27z" />
    <glyph glyph-name="Scircumflex" unicode="&#x15c;" horiz-adv-x="795" vert-adv-y="0" 
d="M115 0q-25 0 -25 25v188q0 13 1.5 21t11.5 13l262 120v178l-258 160q-17 10 -17 30v367q0 16 2 23.5t15 16.5l263 178q10 6 18.5 9.5t21.5 3.5h270q25 0 25 -25v-170q0 -22 -15 -30l-262 -108v-185l262 -150q15 -7 15 -32v-435q0 -8 -2.5 -17t-10.5 -13l-314 -156
q-6 -3 -14.5 -7.5t-16.5 -4.5h-232zM266 1383q-13 0 -18 8t1 20l89 172q8 17 30 17h206q22 0 30 -17l90 -172q7 -12 1.5 -20t-17.5 -8h-142q-15 0 -27 20l-26 53l-5 22h-14l-3 -22l-27 -53q-11 -20 -26 -20h-142z" />
    <glyph glyph-name="scircumflex" unicode="&#x15d;" horiz-adv-x="722" vert-adv-y="0" 
d="M114 0q-25 0 -25 25v162q0 23 15 30l204 121v104l-204 110q-15 9 -15 31v319q0 11 3.5 18t10.5 12l213 156q11 8 18 10t14 2h243q25 0 25 -25v-157q0 -17 -2.5 -23t-10.5 -10l-189 -102v-116l202 -100q17 -7 17 -30v-307q0 -25 -17 -40l-213 -177q-16 -13 -40 -13h-249z
M154 1150q-13 0 -18 8t1 20l89 172q8 17 30 17h206q22 0 30 -17l90 -172q7 -12 1.5 -20t-17.5 -8h-142q-15 0 -27 20l-26 53l-5 22h-14l-3 -22l-27 -53q-11 -20 -26 -20h-142z" />
    <glyph glyph-name="Scedilla" unicode="&#x15e;" horiz-adv-x="795" vert-adv-y="0" 
d="M115 0q-25 0 -25 25v188q0 13 1.5 21t11.5 13l262 120v178l-258 160q-17 10 -17 30v367q0 16 2 23.5t15 16.5l263 178q10 6 18.5 9.5t21.5 3.5h270q25 0 25 -25v-170q0 -22 -15 -30l-262 -108v-185l262 -150q15 -7 15 -32v-435q0 -8 -2.5 -17t-10.5 -13l-314 -156
q-6 -3 -14.5 -7.5t-16.5 -4.5h-232zM131 -323q-25 0 -25 21v34q0 20 25 20h113v81h-88q-25 0 -25 25v65l51 77h135l-51 -77h65q25 0 25 -25v-158q0 -18 -14 -32l-20 -20q-7 -7 -15 -9t-16 -2h-160z" />
    <glyph glyph-name="scedilla" unicode="&#x15f;" horiz-adv-x="722" vert-adv-y="0" 
d="M114 0q-25 0 -25 25v162q0 23 15 30l204 121v104l-204 110q-15 9 -15 31v319q0 11 3.5 18t10.5 12l213 156q11 8 18 10t14 2h243q25 0 25 -25v-157q0 -17 -2.5 -23t-10.5 -10l-189 -102v-116l202 -100q17 -7 17 -30v-307q0 -25 -17 -40l-213 -177q-16 -13 -40 -13h-249z
M261 -323q-25 0 -25 21v34q0 20 25 20h113v81h-88q-25 0 -25 25v65l51 77h135l-51 -77h65q25 0 25 -25v-158q0 -18 -14 -32l-20 -20q-7 -7 -15 -9t-16 -2h-160z" />
    <glyph glyph-name="Scaron" unicode="&#x160;" horiz-adv-x="795" vert-adv-y="0" 
d="M115 0q-25 0 -25 25v188q0 13 1.5 21t11.5 13l262 120v178l-258 160q-17 10 -17 30v367q0 16 2 23.5t15 16.5l263 178q10 6 18.5 9.5t21.5 3.5h270q25 0 25 -25v-170q0 -22 -15 -30l-262 -108v-185l262 -150q15 -7 15 -32v-435q0 -8 -2.5 -17t-10.5 -13l-314 -156
q-6 -3 -14.5 -7.5t-16.5 -4.5h-232zM376 1383q-22 0 -28 15l-82 158q-6 11 -1 19t18 8h130q13 0 25 -18l26 -50l4 -20h6l5 20l27 50q11 18 25 18h130q13 0 18 -8t-1 -19l-84 -158q-6 -15 -28 -15h-190z" />
    <glyph glyph-name="scaron" unicode="&#x161;" horiz-adv-x="722" vert-adv-y="0" 
d="M114 0q-25 0 -25 25v162q0 23 15 30l204 121v104l-204 110q-15 9 -15 31v319q0 11 3.5 18t10.5 12l213 156q11 8 18 10t14 2h243q25 0 25 -25v-157q0 -17 -2.5 -23t-10.5 -10l-189 -102v-116l202 -100q17 -7 17 -30v-307q0 -25 -17 -40l-213 -177q-16 -13 -40 -13h-249z
M264 1150q-22 0 -28 15l-82 158q-6 11 -1 19t18 8h130q13 0 25 -18l26 -50l4 -20h6l5 20l27 50q11 18 25 18h130q13 0 18 -8t-1 -19l-84 -158q-6 -15 -28 -15h-190z" />
    <glyph glyph-name="uni0162" unicode="&#x162;" horiz-adv-x="973" vert-adv-y="0" 
d="M345 0q-25 0 -25 25v1042h-175q-25 0 -25 25v216q0 25 25 25h683q25 0 25 -25v-216q0 -25 -25 -25h-175v-1042q0 -25 -25 -25h-283zM382 -323q-25 0 -25 21v34q0 20 25 20h113v81h-88q-25 0 -25 25v65l51 77h135l-51 -77h65q25 0 25 -25v-158q0 -18 -14 -32l-20 -20
q-7 -7 -15 -9t-16 -2h-160z" />
    <glyph glyph-name="uni0163" unicode="&#x163;" horiz-adv-x="625" vert-adv-y="0" 
d="M350 0q-23 0 -40 17l-167 166q-16 17 -16 40v644h-42q-25 0 -25 25v183q0 25 25 25h42v125q0 25 25 25h266q25 0 25 -25v-125h97q25 0 25 -25v-183q0 -25 -25 -25h-97v-534q0 -19 12 -31l98 -99q10 -9 10 -30v-148q0 -25 -25 -25h-188zM338 -323q-25 0 -25 21v34
q0 20 25 20h113v81h-88q-25 0 -25 25v65l51 77h135l-51 -77h65q25 0 25 -25v-158q0 -18 -14 -32l-20 -20q-7 -7 -15 -9t-16 -2h-160z" />
    <glyph glyph-name="Tcaron" unicode="&#x164;" horiz-adv-x="973" vert-adv-y="0" 
d="M345 0q-25 0 -25 25v1042h-175q-25 0 -25 25v216q0 25 25 25h683q25 0 25 -25v-216q0 -25 -25 -25h-175v-1042q0 -25 -25 -25h-283zM385 1383q-22 0 -28 15l-82 158q-6 11 -1 19t18 8h130q13 0 25 -18l26 -50l4 -20h6l5 20l27 50q11 18 25 18h130q13 0 18 -8t-1 -19
l-84 -158q-6 -15 -28 -15h-190z" />
    <glyph glyph-name="tcaron" unicode="&#x165;" horiz-adv-x="625" vert-adv-y="0" 
d="M350 0q-23 0 -40 17l-167 166q-16 17 -16 40v644h-42q-25 0 -25 25v183q0 25 25 25h42v125q0 25 25 25h266q25 0 25 -25v-125h97q25 0 25 -25v-183q0 -25 -25 -25h-97v-534q0 -19 12 -31l98 -99q10 -9 10 -30v-148q0 -25 -25 -25h-188zM569 1119q-25 0 -25 23v334
q0 26 25 26h133q28 0 25 -26l-30 -334q-3 -23 -25 -23h-103z" />
    <glyph glyph-name="Tbar" unicode="&#x166;" horiz-adv-x="973" vert-adv-y="0" 
d="M226 566q-25 0 -25 25v152q0 25 25 25h522q25 0 25 -25v-152q0 -25 -25 -25h-522zM345 0q-25 0 -25 25v1042h-175q-25 0 -25 25v216q0 25 25 25h683q25 0 25 -25v-216q0 -25 -25 -25h-175v-1042q0 -25 -25 -25h-283z" />
    <glyph glyph-name="tbar" unicode="&#x167;" horiz-adv-x="625" vert-adv-y="0" 
d="M350 0q-23 0 -40 17l-167 166q-16 17 -16 40v644h-42q-25 0 -25 25v183q0 25 25 25h42v125q0 25 25 25h266q25 0 25 -25v-125h97q25 0 25 -25v-183q0 -25 -25 -25h-97v-534q0 -19 12 -31l98 -99q10 -9 10 -30v-148q0 -25 -25 -25h-188zM5 584q-25 0 -25 25v33q0 25 25 25
h548q25 0 25 -25v-33q0 -25 -25 -25h-548z" />
    <glyph glyph-name="Utilde" unicode="&#x168;" horiz-adv-x="1090" vert-adv-y="0" 
d="M377 0q-24 0 -40 17l-200 200q-17 16 -17 40v1051q0 25 25 25h283q25 0 25 -25v-1021q0 -20 20 -20h164v1041q0 25 25 25h283q25 0 25 -25v-1283q0 -25 -25 -25h-568zM346 1383q-22 0 -13 27l65 156q11 17 20 17h140q11 0 17 -17l26 -71l27 71q8 17 35 17h80q22 0 13 -28
l-61 -155q-6 -17 -20 -17h-139q-10 0 -16 17l-19 76l-48 -76q-10 -17 -35 -17h-72z" />
    <glyph glyph-name="utilde" unicode="&#x169;" horiz-adv-x="1050" vert-adv-y="0" 
d="M377 0q-24 0 -40 17l-200 200q-17 16 -17 40v818q0 25 25 25h267q25 0 25 -25v-778q0 -47 46 -47h137v825q0 25 25 25h267q25 0 25 -25v-1050q0 -25 -25 -25h-535zM329 1150q-22 0 -13 27l65 156q11 17 20 17h140q11 0 17 -17l26 -71l27 71q8 17 35 17h80q22 0 13 -28
l-61 -155q-6 -17 -20 -17h-139q-10 0 -16 17l-19 76l-48 -76q-10 -17 -35 -17h-72z" />
    <glyph glyph-name="Umacron" unicode="&#x16a;" horiz-adv-x="1090" vert-adv-y="0" 
d="M377 0q-24 0 -40 17l-200 200q-17 16 -17 40v1051q0 25 25 25h283q25 0 25 -25v-1021q0 -20 20 -20h164v1041q0 25 25 25h283q25 0 25 -25v-1283q0 -25 -25 -25h-568zM367 1450q-25 0 -25 25v50q0 25 25 25h351q25 0 25 -25v-50q0 -25 -25 -25h-351z" />
    <glyph glyph-name="umacron" unicode="&#x16b;" horiz-adv-x="1050" vert-adv-y="0" 
d="M377 0q-24 0 -40 17l-200 200q-17 16 -17 40v818q0 25 25 25h267q25 0 25 -25v-778q0 -47 46 -47h137v825q0 25 25 25h267q25 0 25 -25v-1050q0 -25 -25 -25h-535zM350 1217q-25 0 -25 25v50q0 25 25 25h351q25 0 25 -25v-50q0 -25 -25 -25h-351z" />
    <glyph glyph-name="Ubreve" unicode="&#x16c;" horiz-adv-x="1090" vert-adv-y="0" 
d="M377 0q-24 0 -40 17l-200 200q-17 16 -17 40v1051q0 25 25 25h283q25 0 25 -25v-1021q0 -20 20 -20h164v1041q0 25 25 25h283q25 0 25 -25v-1283q0 -25 -25 -25h-568zM423 1383q-19 0 -30 15l-41 57q-10 14 -10 30v73q0 25 25 25h106q25 0 25 -25v-62h94v62q0 25 25 25
h106q25 0 25 -25v-73q0 -16 -10 -30l-41 -57q-11 -15 -30 -15h-244z" />
    <glyph glyph-name="ubreve" unicode="&#x16d;" horiz-adv-x="1050" vert-adv-y="0" 
d="M377 0q-24 0 -40 17l-200 200q-17 16 -17 40v818q0 25 25 25h267q25 0 25 -25v-778q0 -47 46 -47h137v825q0 25 25 25h267q25 0 25 -25v-1050q0 -25 -25 -25h-535zM406 1150q-19 0 -30 15l-41 57q-10 14 -10 30v73q0 25 25 25h106q25 0 25 -25v-62h94v62q0 25 25 25h106
q25 0 25 -25v-73q0 -16 -10 -30l-41 -57q-11 -15 -30 -15h-244z" />
    <glyph glyph-name="Uring" unicode="&#x16e;" horiz-adv-x="1090" vert-adv-y="0" 
d="M377 0q-24 0 -40 17l-200 200q-17 16 -17 40v1051q0 25 25 25h283q25 0 25 -25v-1021q0 -20 20 -20h164v1041q0 25 25 25h283q25 0 25 -25v-1283q0 -25 -25 -25h-568zM374 1383q-25 0 -25 25v150q0 25 25 25h343q25 0 25 -25v-150q0 -25 -25 -25h-343zM547 1410
q30 0 51.5 22t21.5 53q0 32 -20.5 52.5t-52.5 20.5q-31 0 -53 -21.5t-22 -51.5t22.5 -52.5t52.5 -22.5z" />
    <glyph glyph-name="uring" unicode="&#x16f;" horiz-adv-x="1050" vert-adv-y="0" 
d="M377 0q-24 0 -40 17l-200 200q-17 16 -17 40v818q0 25 25 25h267q25 0 25 -25v-778q0 -47 46 -47h137v825q0 25 25 25h267q25 0 25 -25v-1050q0 -25 -25 -25h-535zM357 1150q-25 0 -25 25v150q0 25 25 25h343q25 0 25 -25v-150q0 -25 -25 -25h-343zM530 1177
q30 0 51.5 22t21.5 53q0 32 -20.5 52.5t-52.5 20.5q-31 0 -53 -21.5t-22 -51.5t22.5 -52.5t52.5 -22.5z" />
    <glyph glyph-name="Uhungarumlaut" unicode="&#x170;" horiz-adv-x="1090" vert-adv-y="0" 
d="M377 0q-24 0 -40 17l-200 200q-17 16 -17 40v1051q0 25 25 25h283q25 0 25 -25v-1021q0 -20 20 -20h164v1041q0 25 25 25h283q25 0 25 -25v-1283q0 -25 -25 -25h-568zM603 1416q-13 0 -21.5 7.5t-3.5 16.5l65 116q16 27 42 27h150q16 0 24.5 -9t0.5 -18l-112 -116
q-21 -24 -50 -24h-95zM395 1416q-25 0 -25 24v116q0 27 25 27h166q15 0 22.5 -8t2.5 -19l-63 -116q-14 -24 -42 -24h-86z" />
    <glyph glyph-name="uhungarumlaut" unicode="&#x171;" horiz-adv-x="1050" vert-adv-y="0" 
d="M377 0q-24 0 -40 17l-200 200q-17 16 -17 40v818q0 25 25 25h267q25 0 25 -25v-778q0 -47 46 -47h137v825q0 25 25 25h267q25 0 25 -25v-1050q0 -25 -25 -25h-535zM586 1183q-13 0 -21.5 7.5t-3.5 16.5l65 116q16 27 42 27h150q16 0 24.5 -9t0.5 -18l-112 -116
q-21 -24 -50 -24h-95zM378 1183q-25 0 -25 24v116q0 27 25 27h166q15 0 22.5 -8t2.5 -19l-63 -116q-14 -24 -42 -24h-86z" />
    <glyph glyph-name="Uogonek" unicode="&#x172;" horiz-adv-x="1090" vert-adv-y="0" 
d="M377 0q-24 0 -40 17l-200 200q-17 16 -17 40v1051q0 25 25 25h283q25 0 25 -25v-1021q0 -20 20 -20h164v1041q0 25 25 25h283q25 0 25 -25v-1283q0 -25 -25 -25h-568zM837 -299q-7 0 -10 2l-92 45q-5 3 -5 10v173q0 8 5 10l92 65q3 2 10 2h100q8 0 8 -8v-84q0 -5 -6 -10
l-72 -33q-5 -3 -5 -8v-25q0 -6 5 -9l72 -28q6 -2 6 -10v-83q0 -9 -8 -9h-100z" />
    <glyph glyph-name="uogonek" unicode="&#x173;" horiz-adv-x="1050" vert-adv-y="0" 
d="M377 0q-24 0 -40 17l-200 200q-17 16 -17 40v818q0 25 25 25h267q25 0 25 -25v-778q0 -47 46 -47h137v825q0 25 25 25h267q25 0 25 -25v-1050q0 -25 -25 -25h-535zM829 -274q-7 0 -10 2l-92 45q-5 3 -5 10v173q0 8 5 10l92 65q3 2 10 2h100q8 0 8 -8v-84q0 -5 -6 -10
l-72 -33q-5 -3 -5 -8v-25q0 -6 5 -9l72 -28q6 -2 6 -10v-83q0 -9 -8 -9h-100z" />
    <glyph glyph-name="Wcircumflex" unicode="&#x174;" horiz-adv-x="1687" vert-adv-y="0" 
d="M377 0q-24 0 -40 17l-200 200q-17 16 -17 40v1051q0 25 25 25h283q25 0 25 -25v-1040h224v1040q0 25 25 25h283q25 0 25 -25v-1040h223v1040q0 25 25 25h284q25 0 25 -25v-1051q0 -24 -17 -40l-200 -200q-17 -17 -40 -17h-235q-23 0 -40 17l-168 168h-47l-168 -168
q-17 -17 -40 -17h-235zM636 1383q-13 0 -18 8t1 20l89 172q8 17 30 17h206q22 0 30 -17l90 -172q7 -12 1.5 -20t-17.5 -8h-142q-15 0 -27 20l-26 53l-5 22h-14l-3 -22l-27 -53q-11 -20 -26 -20h-142z" />
    <glyph glyph-name="wcircumflex" unicode="&#x175;" horiz-adv-x="1510" vert-adv-y="0" 
d="M370 0q-23 0 -40 17l-200 200q-17 16 -17 40v818q0 25 25 25h267q25 0 25 -25v-825h167v825q0 25 25 25h266q25 0 25 -25v-825h167v825q0 25 25 25h267q25 0 25 -25v-818q0 -24 -17 -40l-200 -200q-17 -17 -40 -17h-228q-24 0 -40 17l-135 135h36l-135 -135
q-16 -17 -40 -17h-228zM548 1150q-13 0 -18 8t1 20l89 172q8 17 30 17h206q22 0 30 -17l90 -172q7 -12 1.5 -20t-17.5 -8h-142q-15 0 -27 20l-26 53l-5 22h-14l-3 -22l-27 -53q-11 -20 -26 -20h-142z" />
    <glyph glyph-name="Ycircumflex" unicode="&#x176;" horiz-adv-x="1050" vert-adv-y="0" 
d="M383 0q-25 0 -25 25v390l-268 267q-7 8 -8.5 14.5t-1.5 15.5v596q0 25 25 25h283q25 0 25 -25v-605h224v605q0 25 25 25h283q25 0 25 -25v-596q0 -9 -1 -15.5t-9 -14.5l-267 -267v-390q0 -25 -25 -25h-285zM318 1383q-13 0 -18 8t1 20l89 172q8 17 30 17h206q22 0 30 -17
l90 -172q7 -12 1.5 -20t-17.5 -8h-142q-15 0 -27 20l-26 53l-5 22h-14l-3 -22l-27 -53q-11 -20 -26 -20h-142z" />
    <glyph glyph-name="ycircumflex" unicode="&#x177;" horiz-adv-x="1050" vert-adv-y="0" 
d="M408 -333q-25 0 -25 25v156q0 19 15 22l147 37l103 55q15 8 15 31v164l-93 -87q-17 -17 -40 -17l-170 -6q-23 0 -40 16l-183 184q-17 16 -17 40v788q0 25 25 25h267q25 0 25 -25v-753q0 -33 12 -46t44 -13h127v812q0 25 25 25h267q25 0 25 -25v-1202q0 -30 -17 -40
l-133 -85l-169 -70q-15 -6 -22.5 -8.5t-23.5 -2.5h-164zM321 1150q-13 0 -18 8t1 20l89 172q8 17 30 17h206q22 0 30 -17l90 -172q7 -12 1.5 -20t-17.5 -8h-142q-15 0 -27 20l-26 53l-5 22h-14l-3 -22l-27 -53q-11 -20 -26 -20h-142z" />
    <glyph glyph-name="Ydieresis" unicode="&#x178;" horiz-adv-x="1050" vert-adv-y="0" 
d="M383 0q-25 0 -25 25v390l-268 267q-7 8 -8.5 14.5t-1.5 15.5v596q0 25 25 25h283q25 0 25 -25v-605h224v605q0 25 25 25h283q25 0 25 -25v-596q0 -9 -1 -15.5t-9 -14.5l-267 -267v-390q0 -25 -25 -25h-285zM234 1416q-20 0 -20 20v127q0 20 20 20h238q18 0 18 -20v-127
q0 -20 -18 -20h-238zM579 1416q-20 0 -20 20v127q0 20 20 20h238q18 0 18 -20v-127q0 -20 -18 -20h-238z" />
    <glyph glyph-name="Zacute" unicode="&#x179;" horiz-adv-x="827" vert-adv-y="0" 
d="M222 0q-21 0 -30 17l-125 211q-11 18 -4 35l339 797l-9 -33v58l10 -18h-301q-25 0 -25 25v216q0 25 25 25h485q20 0 30 -15l143 -201q12 -15 3 -35l-343 -804l8 57v-95l-16 27h315q25 0 25 -25v-217q0 -25 -25 -25h-505zM310 1382q-19 -9 -27 9l-35 75q-7 18 11 30
l236 153q18 11 27 -13l57 -119q8 -17 -11 -27z" />
    <glyph glyph-name="zacute" unicode="&#x17a;" horiz-adv-x="763" vert-adv-y="0" 
d="M217 0q-16 0 -25.5 4t-14.5 13l-117 200q-12 22 -12 33q0 16 12 35l320 504v61h-325q-25 0 -25 25v200q0 25 25 25h492q16 0 25.5 -4t14.5 -13l116 -200q5 -8 8.5 -17t3.5 -18q0 -17 -15 -40l-322 -499v-59h330q25 0 25 -25v-200q0 -25 -25 -25h-491zM249 1149
q-19 -9 -27 9l-35 75q-7 18 11 30l236 153q18 11 27 -13l57 -119q8 -17 -11 -27z" />
    <glyph glyph-name="Zdotaccent" unicode="&#x17b;" horiz-adv-x="827" vert-adv-y="0" 
d="M222 0q-21 0 -30 17l-125 211q-11 18 -4 35l339 797l-9 -33v58l10 -18h-301q-25 0 -25 25v216q0 25 25 25h485q20 0 30 -15l143 -201q12 -15 3 -35l-343 -804l8 57v-95l-16 27h315q25 0 25 -25v-217q0 -25 -25 -25h-505zM413 1387q-43 0 -71.5 28.5t-28.5 71.5
q0 44 28.5 73t71.5 29q44 0 72 -29t28 -73q0 -43 -28 -71.5t-72 -28.5z" />
    <glyph glyph-name="zdotaccent" unicode="&#x17c;" horiz-adv-x="763" vert-adv-y="0" 
d="M217 0q-16 0 -25.5 4t-14.5 13l-117 200q-12 22 -12 33q0 16 12 35l320 504v61h-325q-25 0 -25 25v200q0 25 25 25h492q16 0 25.5 -4t14.5 -13l116 -200q5 -8 8.5 -17t3.5 -18q0 -17 -15 -40l-322 -499v-59h330q25 0 25 -25v-200q0 -25 -25 -25h-491zM352 1154
q-43 0 -71.5 28.5t-28.5 71.5q0 44 28.5 73t71.5 29q44 0 72 -29t28 -73q0 -43 -28 -71.5t-72 -28.5z" />
    <glyph glyph-name="Zcaron" unicode="&#x17d;" horiz-adv-x="827" vert-adv-y="0" 
d="M222 0q-21 0 -30 17l-125 211q-11 18 -4 35l339 797l-9 -33v58l10 -18h-301q-25 0 -25 25v216q0 25 25 25h485q20 0 30 -15l143 -201q12 -15 3 -35l-343 -804l8 57v-95l-16 27h315q25 0 25 -25v-217q0 -25 -25 -25h-505zM316 1383q-22 0 -28 15l-82 158q-6 11 -1 19t18 8
h130q13 0 25 -18l26 -50l4 -20h6l5 20l27 50q11 18 25 18h130q13 0 18 -8t-1 -19l-84 -158q-6 -15 -28 -15h-190z" />
    <glyph glyph-name="zcaron" unicode="&#x17e;" horiz-adv-x="763" vert-adv-y="0" 
d="M217 0q-16 0 -25.5 4t-14.5 13l-117 200q-12 22 -12 33q0 16 12 35l320 504v61h-325q-25 0 -25 25v200q0 25 25 25h492q16 0 25.5 -4t14.5 -13l116 -200q5 -8 8.5 -17t3.5 -18q0 -17 -15 -40l-322 -499v-59h330q25 0 25 -25v-200q0 -25 -25 -25h-491zM255 1150
q-22 0 -28 15l-82 158q-6 11 -1 19t18 8h130q13 0 25 -18l26 -50l4 -20h6l5 20l27 50q11 18 25 18h130q13 0 18 -8t-1 -19l-84 -158q-6 -15 -28 -15h-190z" />
    <glyph glyph-name="uni0180" unicode="&#x180;" horiz-adv-x="1050" vert-adv-y="0" 
d="M145 0q-25 0 -25 25v1283q0 25 25 25h267q25 0 25 -25v-275l50 50q16 17 40 17h153q23 0 40 -17l200 -200q17 -16 17 -40v-586q0 -24 -17 -40l-200 -200q-17 -17 -40 -17h-535zM437 233h126q33 0 45 13t12 46v516q0 33 -12 46t-45 13h-70q-32 0 -44 -13t-12 -46v-575z
M5 1150q-25 0 -25 25v33q0 25 25 25h548q25 0 25 -25v-33q0 -25 -25 -25h-548z" />
    <glyph glyph-name="uni0181" unicode="&#x181;" horiz-adv-x="1520" vert-adv-y="0" 
d="M150 925q-30 0 -30 32v246q0 26 13 40l70 74q15 16 39 16h295v-211h-199v-165q0 -32 -31 -32h-157zM537 0q-25 0 -25 25v1283q0 25 25 25h602q23 0 40 -16l200 -200q16 -17 16 -40v-210q0 -10 -4 -16t-12 -14l-157 -140l-15 -37l15 -27l157 -140q8 -8 12 -13.5t4 -16.5
v-206q0 -24 -16 -40l-200 -200q-17 -17 -40 -17h-602zM935 225q83 0 113.5 33t30.5 125q0 93 -30.5 126t-113.5 33q-82 0 -112.5 -33t-30.5 -126q0 -92 30.5 -125t112.5 -33zM935 792q83 0 113.5 33t30.5 125t-30.5 125t-113.5 33q-82 0 -112.5 -33t-30.5 -125t30.5 -125
t112.5 -33z" />
    <glyph glyph-name="uni0186" unicode="&#x186;" horiz-adv-x="843" vert-adv-y="0" 
d="M345 0h-247q-25 0 -25 25v165q0 8 2.5 15t9.5 12l186 128l125 158v327l-123 158l-188 129q-9 6 -10.5 14.5t-1.5 16.5v160q0 25 25 25h247q16 0 23 -2t17 -11l175 -165l153 -198q10 -13 13.5 -17t3.5 -18v-510q0 -14 -3 -17.5t-14 -17.5l-165 -215l-163 -149
q-17 -13 -40 -13z" />
    <glyph glyph-name="uni0187" unicode="&#x187;" horiz-adv-x="843" vert-adv-y="0" 
d="M594 1283q-25 0 -25 25v175q0 20 11 32l57 60q10 13 30 13h183q30 0 47 -15t17 -37v-121q0 -25 -25 -25h-119v-82q0 -25 -25 -25h-151zM498 0q-23 0 -40 13l-163 149l-165 215q-11 14 -14 17.5t-3 17.5v510q0 14 3.5 18t13.5 17l153 198l175 165q11 9 17.5 11t22.5 2h247
q25 0 25 -25v-160q0 -8 -1.5 -16.5t-10.5 -14.5l-188 -129l-123 -158v-327l125 -158l186 -128q8 -5 10 -12t2 -15v-165q0 -25 -25 -25h-247z" />
    <glyph glyph-name="uni0188" unicode="&#x188;" horiz-adv-x="723" vert-adv-y="0" 
d="M327 891v312q0 24 16 38l74 70q15 14 40 14h351q32 0 32 -30v-157q0 -32 -32 -32h-165v-31zM445 0q-20 0 -40 13l-163 110l-112 180q-7 13 -12 17.5t-5 19.5v420q0 15 4 20t13 18l102 170l173 119q9 6 18 9.5t22 3.5h173q25 0 25 -25v-187q0 -8 -1.5 -17t-9.5 -14
l-114 -57l-88 -115v-267l93 -106l109 -69q10 -6 10.5 -14.5t0.5 -16.5v-187q0 -25 -25 -25h-173z" />
    <glyph glyph-name="uni0189" unicode="&#x189;" horiz-adv-x="1214" vert-adv-y="0" 
d="M113 575q-25 0 -25 25v133q0 25 25 25h560q25 0 25 -25v-133q0 -25 -25 -25h-560zM234 0q-25 0 -25 25v1283q0 25 25 25h610q24 0 40 -16l200 -200q17 -17 17 -40v-820q0 -24 -17 -40l-200 -200q-16 -17 -40 -17h-610zM543 267h183q42 0 42 56v687q0 57 -42 57h-183v-800
z" />
    <glyph glyph-name="uni018A" unicode="&#x18a;" horiz-adv-x="1527" vert-adv-y="0" 
d="M150 925q-30 0 -30 32v246q0 26 13 40l70 74q15 16 39 16h295v-211h-199v-165q0 -32 -31 -32h-157zM547 0q-25 0 -25 25v1283q0 25 25 25h610q24 0 40 -16l200 -200q17 -17 17 -40v-820q0 -24 -17 -40l-200 -200q-16 -17 -40 -17h-610zM856 267h183q42 0 42 56v687
q0 57 -42 57h-183v-800z" />
    <glyph glyph-name="uni018B" unicode="&#x18b;" horiz-adv-x="1086" vert-adv-y="0" 
d="M340 0q-21 0 -32 13l-183 190q-12 15 -12 32v545h544v287h-529v266h845v-1098q0 -18 -11 -32l-184 -190q-10 -13 -31 -13h-407zM543 267q60 0 87 20t27 66v189h-227v-189q0 -47 25.5 -66.5t87.5 -19.5z" />
    <glyph glyph-name="uni018C" unicode="&#x18c;" horiz-adv-x="1086" vert-adv-y="0" 
d="M340 0q-21 0 -32 13l-183 190q-12 15 -12 32v545h544v287h-529v266h845v-1098q0 -18 -11 -32l-184 -190q-10 -13 -31 -13h-407zM543 267q60 0 87 20t27 66v189h-227v-189q0 -47 25.5 -66.5t87.5 -19.5z" />
    <glyph glyph-name="uni018E" unicode="&#x18e;" horiz-adv-x="987" vert-adv-y="0" 
d="M842 0h-697q-25 0 -25 25v217q0 25 25 25h389v283h-355q-25 0 -25 25v183q0 25 25 25h355v284h-389q-25 0 -25 25v216q0 25 25 25h697q25 0 25 -25v-1283q0 -25 -25 -25z" />
    <glyph glyph-name="uni018F" unicode="&#x18f;" horiz-adv-x="1090" vert-adv-y="0" 
d="M342 0q-21 0 -32 13l-183 190q-12 13 -12 32v507h317v-389q0 -47 25.5 -66.5t87.5 -19.5q60 0 86.5 20t26.5 66v557q0 17 -14 28.5t-37 11.5h-477v267h618q20 0 32 -12l182 -158q13 -15 13 -30v-782q0 -19 -12 -32l-183 -190q-11 -13 -32 -13h-406zM115 542v238h617v-238
h-617z" />
    <glyph glyph-name="uni0190" unicode="&#x190;" horiz-adv-x="728" vert-adv-y="0" 
d="M370 0q-9 0 -15.5 2t-14.5 8l-218 212q-15 15 -23.5 27.5t-8.5 22.5v220q0 17 15 30l138 105v55l-120 86q-17 13 -25 16.5t-8 13.5v290q0 11 4 17.5t11 12.5l248 205q8 7 15 8.5t15 1.5h230q25 0 25 -25v-188q0 -10 -3.5 -17t-11.5 -13l-195 -140v-142l142 -98
q18 -13 18 -32v-36q0 -11 -4.5 -18.5t-13.5 -13.5l-145 -115v-125l198 -137q8 -4 11.5 -11.5t3.5 -18.5v-178q0 -25 -25 -25h-243z" />
    <glyph glyph-name="uni0191" unicode="&#x191;" horiz-adv-x="895" vert-adv-y="0" 
d="M43 -322q-50 0 -50 50v137q0 23 14 37.5t36 14.5h77v108h333v-148q0 -35 -28 -60l-120 -115q-24 -24 -65 -24h-197zM145 0q-25 0 -25 25v1283q0 25 25 25h685q25 0 25 -25v-216q0 -25 -25 -25h-377v-334h327q25 0 25 -25v-216q0 -25 -25 -25h-327v-442q0 -25 -25 -25
h-283z" />
    <glyph glyph-name="florin" unicode="&#x192;" horiz-adv-x="700" vert-adv-y="0" 
d="M193 772l49 305q2 12 5 21.5t11 18.5l184 200q15 16 40 16h168q25 0 25 -25v-283q0 -25 -25 -25h-75l-32 -228h-350zM50 0q-25 0 -25 25v283q0 25 25 25h75l32 222h350l-49 -298q-2 -13 -5 -22t-11 -18l-184 -200q-16 -17 -40 -17h-168zM50 622q-25 0 -25 25v33
q0 25 25 25h600q25 0 25 -25v-33q0 -25 -25 -25h-600z" />
    <glyph glyph-name="uni0193" unicode="&#x193;" horiz-adv-x="1100" vert-adv-y="0" 
d="M817 1283q-25 0 -25 25v175q0 20 11 32l57 60q10 13 30 13h183q30 0 47 -15t17 -37v-121q0 -25 -25 -25h-119v-82q0 -25 -25 -25h-151zM377 0q-24 0 -40 17l-200 200q-17 16 -17 40v820q0 23 17 40l200 200q16 16 40 16h591q25 0 25 -25v-216q0 -25 -25 -25h-481
q-14 0 -24 -10t-10 -24v-731q0 -14 10 -24t24 -10h216v267h-128q-25 0 -25 25v215q0 25 25 25h410q25 0 25 -25v-518q0 -24 -17 -40l-200 -200q-16 -17 -40 -17h-376z" />
    <glyph glyph-name="uni0194" unicode="&#x194;" horiz-adv-x="1128" vert-adv-y="0" 
d="M370 -165q-19 0 -32 13l-80 77q-13 13 -13 32v261q0 18 17 32l76 63v7l-208 183q-7 7 -8.5 14.5t-1.5 15.5v775q0 25 25 25h290q25 0 25 -25v-818h208v818q0 25 25 25h290q25 0 25 -25v-775q0 -8 -1 -15.5t-9 -14.5l-205 -183v-7l74 -60q16 -13 16 -30v-266
q0 -19 -13 -32l-77 -77q-13 -13 -31 -13h-392zM565 -23q49 0 85.5 34.5t36.5 81.5q0 54 -36.5 89.5t-85.5 35.5q-50 0 -86.5 -35.5t-36.5 -89.5q0 -47 36.5 -81.5t86.5 -34.5z" />
    <glyph glyph-name="uni0194" unicode="&#x263;" horiz-adv-x="1128" vert-adv-y="0" 
d="M370 -165q-19 0 -32 13l-80 77q-13 13 -13 32v261q0 18 17 32l76 63v7l-208 183q-7 7 -8.5 14.5t-1.5 15.5v775q0 25 25 25h290q25 0 25 -25v-818h208v818q0 25 25 25h290q25 0 25 -25v-775q0 -8 -1 -15.5t-9 -14.5l-205 -183v-7l74 -60q16 -13 16 -30v-266
q0 -19 -13 -32l-77 -77q-13 -13 -31 -13h-392zM565 -23q49 0 85.5 34.5t36.5 81.5q0 54 -36.5 89.5t-85.5 35.5q-50 0 -86.5 -35.5t-36.5 -89.5q0 -47 36.5 -81.5t86.5 -34.5z" />
    <glyph glyph-name="uni0196" unicode="&#x196;" horiz-adv-x="647" vert-adv-y="0" 
d="M145 0q-25 0 -25 25v258q0 20 10 30l15 15q12 14 12 32v613q0 20 -12 32l-15 15q-10 10 -10 30v258q0 25 25 25h357q25 0 25 -25v-258q0 -20 -10 -30l-15 -15q-12 -11 -12 -32v-613q0 -20 12 -32l15 -15q10 -10 10 -30v-258q0 -25 -25 -25h-357z" />
    <glyph glyph-name="uni0197" unicode="&#x197;" horiz-adv-x="818" vert-adv-y="0" 
d="M253 0q-25 0 -25 25v1283q0 25 25 25h283q25 0 25 -25v-1283q0 -25 -25 -25h-283zM135 625q-25 0 -25 25v33q0 25 25 25h548q25 0 25 -25v-33q0 -25 -25 -25h-548z" />
    <glyph glyph-name="uni0198" unicode="&#x198;" horiz-adv-x="1290" vert-adv-y="0" 
d="M787 1050l88 283h270q25 0 25 -25v-233q0 -25 -25 -25h-358zM145 0q-25 0 -25 25v1283q0 25 25 25h283q25 0 25 -25v-530h124l66 249l60 293q2 6 9.5 9.5t22.5 3.5h288q25 0 25 -25v-125q0 -11 -3 -21.5t-5 -18.5l-122 -293l-85 -160l87 -158l147 -334q4 -7 6 -15t2 -23
v-135q0 -25 -25 -25h-298q-7 0 -17.5 2.5t-12.5 12.5l-74 317l-55 181h-140v-488q0 -25 -25 -25h-283z" />
    <glyph glyph-name="uni0199" unicode="&#x199;" horiz-adv-x="1000" vert-adv-y="0" 
d="M67 0q-25 0 -25 25v1135q0 23 16 40l200 200q17 17 40 17h202q25 0 25 -25v-184q0 -25 -25 -25h-142v-1158q0 -25 -25 -25h-266zM597 0q-13 0 -20.5 4t-9.5 11l-115 453h-94v240h94l115 375q2 8 9.5 11.5t20.5 3.5h253q25 0 25 -25v-106q0 -14 -2 -22t-6 -17l-149 -341
v-34l157 -383q5 -11 6.5 -19.5t1.5 -18.5v-107q0 -25 -25 -25h-261z" />
    <glyph glyph-name="uni019A" unicode="&#x19a;" horiz-adv-x="526" vert-adv-y="0" 
d="M133 0q-25 0 -25 25v1283q0 25 25 25h267q25 0 25 -25v-1283q0 -25 -25 -25h-267zM-9 649q-25 0 -25 25v33q0 25 25 25h548q25 0 25 -25v-33q0 -25 -25 -25h-548z" />
    <glyph glyph-name="uni019B" unicode="&#x19b;" horiz-adv-x="1094" vert-adv-y="0" 
d="M737 0q-12 0 -25 6t-18 22l-313 1077l96 -38h-255q-25 0 -25 25v216q0 25 25 25h175q24 0 40 -16l199 -200q8 -9 12 -18.5t8 -21.5l211 -760h89q25 0 25 -25v-267q0 -25 -25 -25h-219zM142 0q-17 0 -25 13t-1 29l321 880l35 -25l129 -237l-210 -647q-5 -13 -20 -13h-229z
M137 780v83l810 289v-84z" />
    <glyph glyph-name="uni019C" unicode="&#x19c;" horiz-adv-x="1607" vert-adv-y="0" 
d="M145 1333h283q25 0 25 -25v-1042h184v1042q0 25 25 25h283q25 0 25 -25v-1042h183v1042q0 25 25 25h284q25 0 25 -25v-1085q0 -23 -17 -40l-167 -167q-16 -16 -40 -16h-228q-23 0 -40 16l-168 169h-47l-168 -169q-17 -16 -40 -16h-229q-23 0 -40 16l-166 167
q-17 17 -17 40v1085q0 25 25 25z" />
    <glyph glyph-name="uni019D" unicode="&#x19d;" horiz-adv-x="1090" vert-adv-y="0" 
d="M43 -322q-50 0 -50 50v137q0 23 14 37.5t36 14.5h77v108h333v-148q0 -35 -28 -60l-120 -115q-24 -24 -65 -24h-197zM145 0q-25 0 -25 25v1283q0 25 25 25h568q24 0 40 -16l200 -200q17 -17 17 -40v-1052q0 -25 -25 -25h-283q-25 0 -25 25v1042h-184v-1042q0 -25 -25 -25
h-283z" />
    <glyph glyph-name="uni019E" unicode="&#x19e;" horiz-adv-x="1057" vert-adv-y="0" 
d="M145 0q-25 0 -25 25v1050q0 25 25 25h535q23 0 40 -17l200 -200q17 -16 17 -40v-1251q0 -25 -25 -25h-267q-25 0 -25 25v1211q0 47 -47 47h-136v-825q0 -25 -25 -25h-267z" />
    <glyph glyph-name="uni019F" unicode="&#x19f;" horiz-adv-x="1147" vert-adv-y="0" 
d="M303 597v139h541v-139h-541zM377 0q-23 0 -40 17l-200 200q-17 16 -17 40v820q0 23 17 40l200 200q17 16 40 16h393q24 0 40 -16l200 -200q17 -17 17 -40v-820q0 -24 -17 -40l-200 -200q-16 -17 -40 -17h-393zM495 267h157q42 0 42 56v687q0 57 -42 57h-157
q-41 0 -41 -57v-687q0 -56 41 -56z" />
    <glyph glyph-name="Ohorn" unicode="&#x1a0;" horiz-adv-x="1147" vert-adv-y="0" 
d="M377 0q-23 0 -40 17l-200 200q-17 16 -17 40v820q0 23 17 40l200 200q17 16 40 16h393q24 0 40 -16l200 -200q17 -17 17 -40v-820q0 -24 -17 -40l-200 -200q-16 -17 -40 -17h-393zM495 267h157q42 0 42 56v687q0 57 -42 57h-157q-41 0 -41 -57v-687q0 -56 41 -56z
M808 1168q-30 0 -46.5 15.5t-16.5 36.5v88q0 25 25 25h235v99q0 25 25 25h135q25 0 25 -25v-159q0 -19 -12 -31l-57 -60q-11 -14 -30 -14h-283z" />
    <glyph glyph-name="ohorn" unicode="&#x1a1;" vert-adv-y="0" 
d="M370 0q-23 0 -40 17l-200 200q-17 16 -17 40v586q0 24 17 40l200 200q17 17 40 17h303q24 0 40 -17l200 -200q17 -16 17 -40v-586q0 -24 -17 -40l-200 -200q-16 -17 -40 -17h-303zM487 233h70q32 0 44 13t12 46v516q0 33 -12 46t-44 13h-70q-33 0 -45 -13t-12 -46v-516
q0 -33 12 -46t45 -13zM711 935q-30 0 -46.5 15.5t-16.5 36.5v88q0 25 25 25h235v99q0 25 25 25h135q25 0 25 -25v-159q0 -19 -12 -31l-57 -60q-11 -14 -30 -14h-283z" />
    <glyph glyph-name="uni01A4" unicode="&#x1a4;" horiz-adv-x="1389" vert-adv-y="0" 
d="M150 925q-30 0 -30 32v246q0 26 13 40l70 74q15 16 39 16h295v-211h-199v-165q0 -32 -31 -32h-157zM537 0q-25 0 -25 25v1283q0 25 25 25h553q24 0 40 -16l200 -200q17 -17 17 -40v-345q0 -24 -17 -40l-200 -200q-16 -17 -40 -17h-245v-450q0 -25 -25 -25h-283zM920 747
q83 0 113.5 33t30.5 125t-30.5 125t-113.5 33q-82 0 -112.5 -33t-30.5 -125t30.5 -125t112.5 -33z" />
    <glyph glyph-name="uni01A5" unicode="&#x1a5;" horiz-adv-x="1050" vert-adv-y="0" 
d="M145 -300q-25 0 -25 25v1712q0 23 17 38l73 70q16 13 40 13h368q32 0 32 -30v-156q0 -32 -32 -32h-181v-307l50 50q16 17 40 17h153q23 0 40 -17l200 -200q17 -16 17 -40v-586q0 -24 -17 -40l-200 -200q-17 -17 -40 -17h-153q-24 0 -40 17l-50 50v-342q0 -25 -25 -25
h-267zM437 233h126q33 0 45 13t12 46v516q0 33 -12 46t-45 13h-70q-32 0 -44 -13t-12 -46v-575z" />
    <glyph glyph-name="uni01A9" unicode="&#x1a9;" horiz-adv-x="855" vert-adv-y="0" 
d="M115 0q-25 0 -25 25v217q0 25 25 25h145v1041q0 25 25 25h455q25 0 25 -25v-216q0 -25 -25 -25h-147v-1042q0 -25 -25 -25h-453z" />
    <glyph glyph-name="uni01AC" unicode="&#x1ac;" horiz-adv-x="1143" vert-adv-y="0" 
d="M515 0q-25 0 -25 25v1042h-148v-134q0 -22 -14.5 -36t-37.5 -14h-120q-50 0 -50 50v209q0 41 24 65l98 98q28 28 60 28h696q25 0 25 -25v-216q0 -25 -25 -25h-175v-1042q0 -25 -25 -25h-283z" />
    <glyph glyph-name="uni01AD" unicode="&#x1ad;" horiz-adv-x="625" vert-adv-y="0" 
d="M350 0q-23 0 -40 17l-167 166q-16 17 -16 40v644h-42q-25 0 -25 25v183q0 25 25 25h42v235q0 23 16 40l167 167q17 16 40 16h188q25 0 25 -25v-148q0 -20 -10 -30l-98 -98q-12 -13 -12 -32v-125h97q25 0 25 -25v-183q0 -25 -25 -25h-97v-534q0 -19 12 -31l98 -99
q10 -9 10 -30v-148q0 -25 -25 -25h-188z" />
    <glyph glyph-name="uni01AE" unicode="&#x1ae;" horiz-adv-x="973" vert-adv-y="0" 
d="M533 -375q-41 0 -65 23l-120 115q-28 27 -28 60v1244h-175q-25 0 -25 25v216q0 25 25 25h683q25 0 25 -25v-216q0 -25 -25 -25h-175v-1170h77q23 0 36.5 -14.5t13.5 -37.5v-170q0 -50 -50 -50h-197z" />
    <glyph glyph-name="Uhorn" unicode="&#x1af;" horiz-adv-x="1090" vert-adv-y="0" 
d="M377 0q-24 0 -40 17l-200 200q-17 16 -17 40v1051q0 25 25 25h283q25 0 25 -25v-1021q0 -20 20 -20h164v1041q0 25 25 25h283q25 0 25 -25v-1283q0 -25 -25 -25h-568zM858 1168q-30 0 -46.5 15.5t-16.5 36.5v88q0 25 25 25h235v99q0 25 25 25h135q25 0 25 -25v-159
q0 -19 -12 -31l-57 -60q-11 -14 -30 -14h-283z" />
    <glyph glyph-name="uhorn" unicode="&#x1b0;" horiz-adv-x="1050" vert-adv-y="0" 
d="M377 0q-24 0 -40 17l-200 200q-17 16 -17 40v818q0 25 25 25h267q25 0 25 -25v-778q0 -47 46 -47h137v825q0 25 25 25h267q25 0 25 -25v-1050q0 -25 -25 -25h-535zM950 935q-30 0 -46.5 15.5t-16.5 36.5v88q0 25 25 25h235v99q0 25 25 25h135q25 0 25 -25v-159
q0 -19 -12 -31l-57 -60q-11 -14 -30 -14h-283z" />
    <glyph glyph-name="uni01B1" unicode="&#x1b1;" horiz-adv-x="1242" vert-adv-y="0" 
d="M467 0q-19 0 -32 12l-248 225q-14 11 -14 30v613q0 9 1.5 18t10.5 14l90 56v100h-130q-25 0 -25 25v215q0 25 25 25h337q25 0 25 -25v-938q0 -90 115 -90t115 90v938q0 25 25 25h335q25 0 25 -25v-215q0 -25 -25 -25h-132v-100l90 -56q9 -5 10.5 -14t1.5 -18v-613
q0 -19 -14 -30l-248 -225q-13 -12 -32 -12h-306z" />
    <glyph glyph-name="uni01B2" unicode="&#x1b2;" horiz-adv-x="1124" vert-adv-y="0" 
d="M330 0q-21 0 -30 17l-172 305q-8 16 -8 31v939q0 25 25 25h283q25 0 25 -25v-1027h225v892l-55 166q-9 29 20 29h272q20 0 28 -20l64 -154q5 -17 5 -30v-783q0 -14 -9 -32l-186 -318q-7 -15 -32 -15h-455z" />
    <glyph glyph-name="uni01B3" unicode="&#x1b3;" horiz-adv-x="1353" vert-adv-y="0" 
d="M383 0q-25 0 -25 25v390l-268 267q-7 8 -8.5 14.5t-1.5 15.5v596q0 25 25 25h283q25 0 25 -25v-605h224v635q0 18 6 25l44 47q2 2 6.5 4.5t14.5 2.5h237q25 0 25 -25v-680q0 -9 -1 -15.5t-9 -14.5l-267 -267v-390q0 -25 -25 -25h-285zM1132 1057q-25 0 -25 25v83h-160
q-25 0 -25 25v202q0 25 25 25h281q20 0 32 -12l60 -57q13 -10 13 -30v-198q0 -30 -15 -46.5t-36 -16.5h-150z" />
    <glyph glyph-name="uni01B4" unicode="&#x1b4;" horiz-adv-x="1050" vert-adv-y="0" 
d="M621 891v312q0 24 16 38l74 70q15 14 40 14h351q32 0 32 -30v-157q0 -32 -32 -32h-165v-31zM408 -333q-25 0 -25 25v156q0 19 15 22l147 37l103 55q15 8 15 31v164l-93 -87q-17 -17 -40 -17l-170 -6q-23 0 -40 16l-183 184q-17 16 -17 40v788q0 25 25 25h267q25 0 25 -25
v-753q0 -33 12 -46t44 -13h127v812q0 25 25 25h267q25 0 25 -25v-1202q0 -30 -17 -40l-133 -85l-169 -70q-15 -6 -22.5 -8.5t-23.5 -2.5h-164z" />
    <glyph glyph-name="uni01B5" unicode="&#x1b5;" horiz-adv-x="827" vert-adv-y="0" 
d="M222 0q-21 0 -30 17l-125 211q-11 18 -4 35l339 797l-9 -33v58l10 -18h-301q-25 0 -25 25v216q0 25 25 25h485q20 0 30 -15l143 -201q12 -15 3 -35l-343 -804l8 57v-95l-16 27h315q25 0 25 -25v-217q0 -25 -25 -25h-505zM138 626q-25 0 -25 25v33q0 25 25 25h548
q25 0 25 -25v-33q0 -25 -25 -25h-548z" />
    <glyph glyph-name="uni01B6" unicode="&#x1b6;" horiz-adv-x="763" vert-adv-y="0" 
d="M217 0q-16 0 -25.5 4t-14.5 13l-117 200q-12 22 -12 33q0 16 12 35l320 504v61h-325q-25 0 -25 25v200q0 25 25 25h492q16 0 25.5 -4t14.5 -13l116 -200q5 -8 8.5 -17t3.5 -18q0 -17 -15 -40l-322 -499v-59h330q25 0 25 -25v-200q0 -25 -25 -25h-491zM107 509
q-25 0 -25 25v33q0 25 25 25h548q25 0 25 -25v-33q0 -25 -25 -25h-548z" />
    <glyph glyph-name="uni01B7" unicode="&#x1b7;" horiz-adv-x="899" vert-adv-y="0" 
d="M145 8q-25 0 -25 25v270q0 25 25 25h269v17l-165 308v37l165 310v17h-269q-25 0 -25 25v266q0 25 25 25h609q25 0 25 -25v-291l-184 -327v-37l184 -336v-284q0 -25 -25 -25h-609z" />
    <glyph glyph-name="uni01B8" unicode="&#x1b8;" horiz-adv-x="899" vert-adv-y="0" 
d="M754 8h-609q-25 0 -25 25v284l184 336v37l-184 327v291q0 25 25 25h609q25 0 25 -25v-266q0 -25 -25 -25h-269v-17l165 -310v-37l-165 -308v-17h269q25 0 25 -25v-270q0 -25 -25 -25z" />
    <glyph glyph-name="uni01B9" unicode="&#x1b9;" horiz-adv-x="885" vert-adv-y="0" 
d="M138 -300q-25 0 -25 25v300l234 360v37l-234 345v308q0 25 25 25h609q25 0 25 -25v-217q0 -25 -25 -25h-280v-50l231 -361v-37l-231 -368v-50h280q25 0 25 -25v-217q0 -25 -25 -25h-609z" />
    <glyph glyph-name="uni01C0" unicode="&#x1c0;" horiz-adv-x="557" vert-adv-y="0" 
d="M120 0v1333h317v-1333h-317z" />
    <glyph glyph-name="uni01C1" unicode="&#x1c1;" horiz-adv-x="1114" vert-adv-y="0" 
d="M120 0v1333h317v-1333h-317zM677 0v1333h317v-1333h-317z" />
    <glyph glyph-name="uni01C2" unicode="&#x1c2;" horiz-adv-x="838" vert-adv-y="0" 
d="M261 0v1333h317v-1333h-317zM145 840q-25 0 -25 25v33q0 25 25 25h548q25 0 25 -25v-33q0 -25 -25 -25h-548zM145 637q-25 0 -25 25v33q0 25 25 25h548q25 0 25 -25v-33q0 -25 -25 -25h-548z" />
    <glyph glyph-name="uni01C3" unicode="&#x1c3;" horiz-adv-x="663" vert-adv-y="0" 
d="M198 508q-22 0 -25 24l-53 775q-3 26 25 26h373q28 0 25 -26l-53 -775q-3 -24 -25 -24h-267zM172 8q-25 0 -25 27v318q0 27 25 27h320q25 0 25 -27v-318q0 -27 -25 -27h-320z" />
    <glyph glyph-name="uni01C4" unicode="&#x1c4;" horiz-adv-x="1945" vert-adv-y="0" 
d="M138 0q-25 0 -25 25v1283q0 25 25 25h610q24 0 40 -16l200 -200q17 -17 17 -40v-820q0 -24 -17 -40l-200 -200q-16 -17 -40 -17h-610zM447 267h183q42 0 42 56v687q0 57 -42 57h-183v-800zM1340 0q-21 0 -30 17l-125 211q-11 18 -4 35l339 797l-9 -33v58l10 -18h-301
q-25 0 -25 25v216q0 25 25 25h485q20 0 30 -15l143 -201q12 -15 3 -35l-343 -804l8 57v-95l-16 27h315q25 0 25 -25v-217q0 -25 -25 -25h-505zM1434 1383q-22 0 -28 15l-82 158q-6 11 -1 19t18 8h130q13 0 25 -18l26 -50l4 -20h6l5 20l27 50q11 18 25 18h130q13 0 18 -8
t-1 -19l-84 -158q-6 -15 -28 -15h-190z" />
    <glyph glyph-name="uni01C6" unicode="&#x1c6;" horiz-adv-x="1806" vert-adv-y="0" 
d="M370 0q-23 0 -40 17l-200 200q-17 16 -17 40v586q0 24 17 40l200 200q17 17 40 17h153q24 0 40 -17l50 -50v275q0 25 25 25h267q25 0 25 -25v-1283q0 -25 -25 -25h-208q-13 0 -19.5 5t-14.5 12l-50 50l-50 -50q-16 -17 -40 -17h-153zM487 233h70q32 0 44 13t12 46v575
h-126q-33 0 -45 -13t-12 -46v-516q0 -33 12 -46t45 -13zM1260 0q-16 0 -25.5 4t-14.5 13l-117 200q-12 22 -12 33q0 16 12 35l320 504v61h-325q-25 0 -25 25v200q0 25 25 25h492q16 0 25.5 -4t14.5 -13l116 -200q5 -8 8.5 -17t3.5 -18q0 -17 -15 -40l-322 -499v-59h330
q25 0 25 -25v-200q0 -25 -25 -25h-491zM1298 1150q-22 0 -28 15l-82 158q-6 11 -1 19t18 8h130q13 0 25 -18l26 -50l4 -20h6l5 20l27 50q11 18 25 18h130q13 0 18 -8t-1 -19l-84 -158q-6 -15 -28 -15h-190z" />
    <glyph glyph-name="uni01C7" unicode="&#x1c7;" horiz-adv-x="1433" vert-adv-y="0" 
d="M145 0q-25 0 -25 25v1283q0 25 25 25h283q25 0 25 -25v-1041h252q25 0 25 -25v-217q0 -25 -25 -25h-560zM835 -167q-25 0 -25 25v159q0 19 10 30l148 148q12 11 12 32v1081q0 25 25 25h283q25 0 25 -25v-1221q0 -9 -1.5 -16.5t-9.5 -15.5l-207 -207q-15 -15 -30 -15h-230
z" />
    <glyph glyph-name="uni01C8" unicode="&#x1c8;" horiz-adv-x="1303" vert-adv-y="0" 
d="M145 0q-25 0 -25 25v1283q0 25 25 25h283q25 0 25 -25v-1041h252q25 0 25 -25v-217q0 -25 -25 -25h-560zM733 -333q-23 0 -23 25v156q0 18 15 22l80 28l55 62q9 9 11 16t2 17v1082q0 25 25 25h267q25 0 25 -25v-1150q0 -25 -17 -43l-118 -129l-127 -71q-25 -15 -50 -15
h-145zM893 1183q-20 0 -20 20v127q0 20 20 20h278q18 0 18 -20v-127q0 -20 -18 -20h-278z" />
    <glyph glyph-name="uni01C9" unicode="&#x1c9;" horiz-adv-x="1059" vert-adv-y="0" 
d="M133 0q-25 0 -25 25v1283q0 25 25 25h267q25 0 25 -25v-1283q0 -25 -25 -25h-267zM489 -333q-23 0 -23 25v156q0 18 15 22l80 28l55 62q9 9 11 16t2 17v1082q0 25 25 25h267q25 0 25 -25v-1150q0 -25 -17 -43l-118 -129l-127 -71q-25 -15 -50 -15h-145zM649 1183
q-20 0 -20 20v127q0 20 20 20h278q18 0 18 -20v-127q0 -20 -18 -20h-278z" />
    <glyph glyph-name="uni01CA" unicode="&#x1ca;" horiz-adv-x="1753" vert-adv-y="0" 
d="M145 0q-25 0 -25 25v1283q0 25 25 25h568q24 0 40 -16l200 -200q17 -17 17 -40v-1052q0 -25 -25 -25h-283q-25 0 -25 25v1042h-184v-1042q0 -25 -25 -25h-283zM1155 -167q-25 0 -25 25v159q0 19 10 30l148 148q12 11 12 32v1081q0 25 25 25h283q25 0 25 -25v-1221
q0 -9 -1.5 -16.5t-9.5 -15.5l-207 -207q-15 -15 -30 -15h-230z" />
    <glyph glyph-name="uni01CB" unicode="&#x1cb;" horiz-adv-x="1623" vert-adv-y="0" 
d="M145 0q-25 0 -25 25v1283q0 25 25 25h568q24 0 40 -16l200 -200q17 -17 17 -40v-1052q0 -25 -25 -25h-283q-25 0 -25 25v1042h-184v-1042q0 -25 -25 -25h-283zM1053 -333q-23 0 -23 25v156q0 18 15 22l80 28l55 62q9 9 11 16t2 17v1082q0 25 25 25h267q25 0 25 -25v-1150
q0 -25 -17 -43l-118 -129l-127 -71q-25 -15 -50 -15h-145zM1213 1183q-20 0 -20 20v127q0 20 20 20h278q18 0 18 -20v-127q0 -20 -18 -20h-278z" />
    <glyph glyph-name="uni01CC" unicode="&#x1cc;" horiz-adv-x="1583" vert-adv-y="0" 
d="M145 0q-25 0 -25 25v1050q0 25 25 25h535q23 0 40 -17l200 -200q17 -16 17 -40v-818q0 -25 -25 -25h-267q-25 0 -25 25v778q0 47 -47 47h-136v-825q0 -25 -25 -25h-267zM1013 -333q-23 0 -23 25v156q0 18 15 22l80 28l55 62q9 9 11 16t2 17v1082q0 25 25 25h267
q25 0 25 -25v-1150q0 -25 -17 -43l-118 -129l-127 -71q-25 -15 -50 -15h-145zM1173 1183q-20 0 -20 20v127q0 20 20 20h278q18 0 18 -20v-127q0 -20 -18 -20h-278z" />
    <glyph glyph-name="uni01CD" unicode="&#x1cd;" horiz-adv-x="1117" vert-adv-y="0" 
d="M138 0q-25 0 -25 25v927q0 13 10 30l237 336q11 15 32 15h331q22 0 32 -15l238 -336q10 -14 10 -30v-927q0 -25 -25 -25h-283q-25 0 -25 25v425h-223v-425q0 -25 -25 -25h-284zM558 665q92 0 124.5 40.5t32.5 154.5t-32.5 154.5t-124.5 40.5q-91 0 -123.5 -40.5
t-32.5 -154.5t32.5 -154.5t123.5 -40.5zM461 1383q-22 0 -28 15l-82 158q-6 11 -1 19t18 8h130q13 0 25 -18l26 -50l4 -20h6l5 20l27 50q11 18 25 18h130q13 0 18 -8t-1 -19l-84 -158q-6 -15 -28 -15h-190z" />
    <glyph glyph-name="uni01CE" unicode="&#x1ce;" vert-adv-y="0" 
d="M370 0q-23 0 -40 17l-200 200q-17 16 -17 40v586q0 24 17 40l200 200q17 17 40 17h535q25 0 25 -25v-1050q0 -25 -25 -25h-208q-13 0 -19.5 5t-14.5 12l-50 50l-50 -50q-16 -17 -40 -17h-153zM487 233h70q32 0 44 13t12 46v575h-126q-33 0 -45 -13t-12 -46v-516
q0 -33 12 -46t45 -13zM533 1150q-22 0 -28 15l-82 158q-6 11 -1 19t18 8h130q13 0 25 -18l26 -50l4 -20h6l5 20l27 50q11 18 25 18h130q13 0 18 -8t-1 -19l-84 -158q-6 -15 -28 -15h-190z" />
    <glyph glyph-name="uni01CF" unicode="&#x1cf;" horiz-adv-x="573" vert-adv-y="0" 
d="M145 0q-25 0 -25 25v1283q0 25 25 25h283q25 0 25 -25v-1283q0 -25 -25 -25h-283zM195 1383q-22 0 -28 15l-82 158q-6 11 -1 19t18 8h130q13 0 25 -18l26 -50l4 -20h6l5 20l27 50q11 18 25 18h130q13 0 18 -8t-1 -19l-84 -158q-6 -15 -28 -15h-190z" />
    <glyph glyph-name="uni01D0" unicode="&#x1d0;" horiz-adv-x="400" vert-adv-y="0" 
d="M67 0q-25 0 -25 25v1050q0 25 25 25h266q25 0 25 -25v-1050q0 -25 -25 -25h-266zM103 1150q-22 0 -28 15l-82 158q-6 11 -1 19t18 8h130q13 0 25 -18l26 -50l4 -20h6l5 20l27 50q11 18 25 18h130q13 0 18 -8t-1 -19l-84 -158q-6 -15 -28 -15h-190z" />
    <glyph glyph-name="uni01D1" unicode="&#x1d1;" horiz-adv-x="1147" vert-adv-y="0" 
d="M377 0q-23 0 -40 17l-200 200q-17 16 -17 40v820q0 23 17 40l200 200q17 16 40 16h393q24 0 40 -16l200 -200q17 -17 17 -40v-820q0 -24 -17 -40l-200 -200q-16 -17 -40 -17h-393zM495 267h157q42 0 42 56v687q0 57 -42 57h-157q-41 0 -41 -57v-687q0 -56 41 -56z
M672 1383h-190q-22 0 -28 15l-84 158q-6 11 -1 19t18 8h130q14 0 25 -18l27 -50l5 -20h6l4 20l26 50q12 18 25 18h130q13 0 18 -8t-1 -19l-82 -158q-6 -15 -28 -15z" />
    <glyph glyph-name="uni01D2" unicode="&#x1d2;" vert-adv-y="0" 
d="M370 0q-23 0 -40 17l-200 200q-17 16 -17 40v586q0 24 17 40l200 200q17 17 40 17h303q24 0 40 -17l200 -200q17 -16 17 -40v-586q0 -24 -17 -40l-200 -200q-16 -17 -40 -17h-303zM487 233h70q32 0 44 13t12 46v516q0 33 -12 46t-44 13h-70q-33 0 -45 -13t-12 -46v-516
q0 -33 12 -46t45 -13zM425 1150q-22 0 -28 15l-82 158q-6 11 -1 19t18 8h130q13 0 25 -18l26 -50l4 -20h6l5 20l27 50q11 18 25 18h130q13 0 18 -8t-1 -19l-84 -158q-6 -15 -28 -15h-190z" />
    <glyph glyph-name="uni01D3" unicode="&#x1d3;" horiz-adv-x="1090" vert-adv-y="0" 
d="M377 0q-24 0 -40 17l-200 200q-17 16 -17 40v1051q0 25 25 25h283q25 0 25 -25v-1021q0 -20 20 -20h164v1041q0 25 25 25h283q25 0 25 -25v-1283q0 -25 -25 -25h-568zM448 1383q-22 0 -28 15l-82 158q-6 11 -1 19t18 8h130q13 0 25 -18l26 -50l4 -20h6l5 20l27 50
q11 18 25 18h130q13 0 18 -8t-1 -19l-84 -158q-6 -15 -28 -15h-190z" />
    <glyph glyph-name="uni01D3" unicode="&#x1d4;" horiz-adv-x="1090" vert-adv-y="0" 
d="M377 0q-24 0 -40 17l-200 200q-17 16 -17 40v1051q0 25 25 25h283q25 0 25 -25v-1021q0 -20 20 -20h164v1041q0 25 25 25h283q25 0 25 -25v-1283q0 -25 -25 -25h-568zM448 1383q-22 0 -28 15l-82 158q-6 11 -1 19t18 8h130q13 0 25 -18l26 -50l4 -20h6l5 20l27 50
q11 18 25 18h130q13 0 18 -8t-1 -19l-84 -158q-6 -15 -28 -15h-190z" />
    <glyph glyph-name="uni01D5" unicode="&#x1d5;" horiz-adv-x="1090" vert-adv-y="0" 
d="M377 0q-24 0 -40 17l-200 200q-17 16 -17 40v1051q0 25 25 25h283q25 0 25 -25v-1021q0 -20 20 -20h164v1041q0 25 25 25h283q25 0 25 -25v-1283q0 -25 -25 -25h-568zM254 1416q-20 0 -20 20v127q0 20 20 20h238q18 0 18 -20v-127q0 -20 -18 -20h-238zM599 1416
q-20 0 -20 20v127q0 20 20 20h238q18 0 18 -20v-127q0 -20 -18 -20h-238zM367 1700q-25 0 -25 25v50q0 25 25 25h351q25 0 25 -25v-50q0 -25 -25 -25h-351z" />
    <glyph glyph-name="uni01D5" unicode="&#x1d6;" horiz-adv-x="1090" vert-adv-y="0" 
d="M377 0q-24 0 -40 17l-200 200q-17 16 -17 40v1051q0 25 25 25h283q25 0 25 -25v-1021q0 -20 20 -20h164v1041q0 25 25 25h283q25 0 25 -25v-1283q0 -25 -25 -25h-568zM254 1416q-20 0 -20 20v127q0 20 20 20h238q18 0 18 -20v-127q0 -20 -18 -20h-238zM599 1416
q-20 0 -20 20v127q0 20 20 20h238q18 0 18 -20v-127q0 -20 -18 -20h-238zM367 1700q-25 0 -25 25v50q0 25 25 25h351q25 0 25 -25v-50q0 -25 -25 -25h-351z" />
    <glyph glyph-name="uni01D7" unicode="&#x1d7;" horiz-adv-x="1090" vert-adv-y="0" 
d="M377 0q-24 0 -40 17l-200 200q-17 16 -17 40v1051q0 25 25 25h283q25 0 25 -25v-1021q0 -20 20 -20h164v1041q0 25 25 25h283q25 0 25 -25v-1283q0 -25 -25 -25h-568zM254 1416q-20 0 -20 20v127q0 20 20 20h238q18 0 18 -20v-127q0 -20 -18 -20h-238zM599 1416
q-20 0 -20 20v127q0 20 20 20h238q18 0 18 -20v-127q0 -20 -18 -20h-238zM442 1632q-19 -9 -27 9l-35 75q-7 18 11 30l236 153q18 11 27 -13l57 -119q8 -17 -11 -27z" />
    <glyph glyph-name="uni01D7" unicode="&#x1d8;" horiz-adv-x="1090" vert-adv-y="0" 
d="M377 0q-24 0 -40 17l-200 200q-17 16 -17 40v1051q0 25 25 25h283q25 0 25 -25v-1021q0 -20 20 -20h164v1041q0 25 25 25h283q25 0 25 -25v-1283q0 -25 -25 -25h-568zM254 1416q-20 0 -20 20v127q0 20 20 20h238q18 0 18 -20v-127q0 -20 -18 -20h-238zM599 1416
q-20 0 -20 20v127q0 20 20 20h238q18 0 18 -20v-127q0 -20 -18 -20h-238zM442 1632q-19 -9 -27 9l-35 75q-7 18 11 30l236 153q18 11 27 -13l57 -119q8 -17 -11 -27z" />
    <glyph glyph-name="uni01D9" unicode="&#x1d9;" horiz-adv-x="1090" vert-adv-y="0" 
d="M377 0q-24 0 -40 17l-200 200q-17 16 -17 40v1051q0 25 25 25h283q25 0 25 -25v-1021q0 -20 20 -20h164v1041q0 25 25 25h283q25 0 25 -25v-1283q0 -25 -25 -25h-568zM254 1416q-20 0 -20 20v127q0 20 20 20h238q18 0 18 -20v-127q0 -20 -18 -20h-238zM599 1416
q-20 0 -20 20v127q0 20 20 20h238q18 0 18 -20v-127q0 -20 -18 -20h-238zM448 1633q-22 0 -28 15l-82 158q-6 11 -1 19t18 8h130q13 0 25 -18l26 -50l4 -20h6l5 20l27 50q11 18 25 18h130q13 0 18 -8t-1 -19l-84 -158q-6 -15 -28 -15h-190z" />
    <glyph glyph-name="uni01D9" unicode="&#x1da;" horiz-adv-x="1090" vert-adv-y="0" 
d="M377 0q-24 0 -40 17l-200 200q-17 16 -17 40v1051q0 25 25 25h283q25 0 25 -25v-1021q0 -20 20 -20h164v1041q0 25 25 25h283q25 0 25 -25v-1283q0 -25 -25 -25h-568zM254 1416q-20 0 -20 20v127q0 20 20 20h238q18 0 18 -20v-127q0 -20 -18 -20h-238zM599 1416
q-20 0 -20 20v127q0 20 20 20h238q18 0 18 -20v-127q0 -20 -18 -20h-238zM448 1633q-22 0 -28 15l-82 158q-6 11 -1 19t18 8h130q13 0 25 -18l26 -50l4 -20h6l5 20l27 50q11 18 25 18h130q13 0 18 -8t-1 -19l-84 -158q-6 -15 -28 -15h-190z" />
    <glyph glyph-name="uni01DB" unicode="&#x1db;" horiz-adv-x="1090" vert-adv-y="0" 
d="M377 0q-24 0 -40 17l-200 200q-17 16 -17 40v1051q0 25 25 25h283q25 0 25 -25v-1021q0 -20 20 -20h164v1041q0 25 25 25h283q25 0 25 -25v-1283q0 -25 -25 -25h-568zM254 1416q-20 0 -20 20v127q0 20 20 20h238q18 0 18 -20v-127q0 -20 -18 -20h-238zM599 1416
q-20 0 -20 20v127q0 20 20 20h238q18 0 18 -20v-127q0 -20 -18 -20h-238zM648 1632l-258 108q-19 10 -11 27l57 119q9 24 27 13l236 -153q18 -12 11 -30l-35 -75q-7 -18 -27 -9z" />
    <glyph glyph-name="uni01DB" unicode="&#x1dc;" horiz-adv-x="1090" vert-adv-y="0" 
d="M377 0q-24 0 -40 17l-200 200q-17 16 -17 40v1051q0 25 25 25h283q25 0 25 -25v-1021q0 -20 20 -20h164v1041q0 25 25 25h283q25 0 25 -25v-1283q0 -25 -25 -25h-568zM254 1416q-20 0 -20 20v127q0 20 20 20h238q18 0 18 -20v-127q0 -20 -18 -20h-238zM599 1416
q-20 0 -20 20v127q0 20 20 20h238q18 0 18 -20v-127q0 -20 -18 -20h-238zM648 1632l-258 108q-19 10 -11 27l57 119q9 24 27 13l236 -153q18 -12 11 -30l-35 -75q-7 -18 -27 -9z" />
    <glyph glyph-name="uni01DD" unicode="&#x1dd;" horiz-adv-x="1036" vert-adv-y="0" 
d="M468 1100q10 0 21.5 -3t21.5 -5l178 -44l204 -68q30 -10 30 -58v-665q0 -24 -17 -40l-200 -200q-17 -17 -40 -17h-320q-23 0 -40 17l-200 200q-17 16 -17 40v410h537l7 133l-142 47l-255 18q-17 3 -17 23v187q0 25 25 25h224zM508 510h-19q-49 0 -78.5 -37t-29.5 -100
v-20q0 -62 29.5 -99t78.5 -37h20q48 0 76.5 37t28.5 99v20q0 63 -28.5 100t-77.5 37z" />
    <glyph glyph-name="uni01DE" unicode="&#x1de;" horiz-adv-x="1117" vert-adv-y="0" 
d="M138 0q-25 0 -25 25v927q0 13 10 30l237 336q11 15 32 15h331q22 0 32 -15l238 -336q10 -14 10 -30v-927q0 -25 -25 -25h-283q-25 0 -25 25v425h-223v-425q0 -25 -25 -25h-284zM558 665q92 0 124.5 40.5t32.5 154.5t-32.5 154.5t-124.5 40.5q-91 0 -123.5 -40.5
t-32.5 -154.5t32.5 -154.5t123.5 -40.5zM267 1416q-20 0 -20 20v127q0 20 20 20h238q18 0 18 -20v-127q0 -20 -18 -20h-238zM612 1416q-20 0 -20 20v127q0 20 20 20h238q18 0 18 -20v-127q0 -20 -18 -20h-238zM380 1700q-25 0 -25 25v50q0 25 25 25h351q25 0 25 -25v-50
q0 -25 -25 -25h-351z" />
    <glyph glyph-name="uni01DF" unicode="&#x1df;" vert-adv-y="0" 
d="M370 0q-23 0 -40 17l-200 200q-17 16 -17 40v586q0 24 17 40l200 200q17 17 40 17h535q25 0 25 -25v-1050q0 -25 -25 -25h-208q-13 0 -19.5 5t-14.5 12l-50 50l-50 -50q-16 -17 -40 -17h-153zM487 233h70q32 0 44 13t12 46v575h-126q-33 0 -45 -13t-12 -46v-516
q0 -33 12 -46t45 -13zM339 1183q-20 0 -20 20v127q0 20 20 20h238q18 0 18 -20v-127q0 -20 -18 -20h-238zM684 1183q-20 0 -20 20v127q0 20 20 20h238q18 0 18 -20v-127q0 -20 -18 -20h-238zM452 1467q-25 0 -25 25v50q0 25 25 25h351q25 0 25 -25v-50q0 -25 -25 -25h-351z
" />
    <glyph glyph-name="uni01E0" unicode="&#x1e0;" horiz-adv-x="1117" vert-adv-y="0" 
d="M138 0q-25 0 -25 25v927q0 13 10 30l237 336q11 15 32 15h331q22 0 32 -15l238 -336q10 -14 10 -30v-927q0 -25 -25 -25h-283q-25 0 -25 25v425h-223v-425q0 -25 -25 -25h-284zM558 665q92 0 124.5 40.5t32.5 154.5t-32.5 154.5t-124.5 40.5q-91 0 -123.5 -40.5
t-32.5 -154.5t32.5 -154.5t123.5 -40.5zM558 1387q-43 0 -71.5 28.5t-28.5 71.5q0 44 28.5 73t71.5 29q44 0 72 -29t28 -73q0 -43 -28 -71.5t-72 -28.5zM380 1706q-25 0 -25 25v50q0 25 25 25h351q25 0 25 -25v-50q0 -25 -25 -25h-351z" />
    <glyph glyph-name="uni01E1" unicode="&#x1e1;" vert-adv-y="0" 
d="M370 0q-23 0 -40 17l-200 200q-17 16 -17 40v586q0 24 17 40l200 200q17 17 40 17h535q25 0 25 -25v-1050q0 -25 -25 -25h-208q-13 0 -19.5 5t-14.5 12l-50 50l-50 -50q-16 -17 -40 -17h-153zM487 233h70q32 0 44 13t12 46v575h-126q-33 0 -45 -13t-12 -46v-516
q0 -33 12 -46t45 -13zM630 1154q-43 0 -71.5 28.5t-28.5 71.5q0 44 28.5 73t71.5 29q44 0 72 -29t28 -73q0 -43 -28 -71.5t-72 -28.5zM452 1473q-25 0 -25 25v50q0 25 25 25h351q25 0 25 -25v-50q0 -25 -25 -25h-351z" />
    <glyph glyph-name="uni01E2" unicode="&#x1e2;" horiz-adv-x="1538" vert-adv-y="0" 
d="M138 0q-25 0 -25 25v927q0 13 10 30l237 336q11 15 32 15h1001q25 0 25 -25v-216q0 -25 -25 -25h-388v-284h355q25 0 25 -25v-183q0 -25 -25 -25h-355v-283h388q25 0 25 -25v-217q0 -25 -25 -25h-698q-25 0 -25 25v425h-223v-425q0 -25 -25 -25h-284zM558 665
q92 0 124.5 40.5t32.5 154.5t-32.5 154.5t-124.5 40.5q-91 0 -123.5 -40.5t-32.5 -154.5t32.5 -154.5t123.5 -40.5zM672 1450q-25 0 -25 25v50q0 25 25 25h351q25 0 25 -25v-50q0 -25 -25 -25h-351z" />
    <glyph glyph-name="uni01E3" unicode="&#x1e3;" horiz-adv-x="1579" vert-adv-y="0" 
d="M1111 0q-10 0 -21.5 3t-21.5 5l-178 44l-204 68q-30 10 -30 58v665q0 24 17 40l200 200q17 17 40 17h320q23 0 40 -17l200 -200q17 -16 17 -40v-410h-537l-7 -133l142 -47l255 -18q17 -3 17 -23v-187q0 -25 -25 -25h-224zM370 0q-23 0 -40 17l-200 200q-17 16 -17 40v410
h537l7 133l-142 47l-255 18q-17 3 -17 23v187q0 25 25 25h224q10 0 21.5 -3t21.5 -5l178 -44l204 -68q30 -10 30 -58v-665q0 -24 -17 -40l-200 -200q-17 -17 -40 -17h-320zM513 217h20q48 0 76.5 37t28.5 99v20q0 63 -28.5 100t-77.5 37h-19q-49 0 -78.5 -37t-29.5 -100v-20
q0 -62 29.5 -99t78.5 -37zM1071 590h19q49 0 78.5 37t29.5 100v20q0 62 -29.5 99t-78.5 37h-20q-48 0 -76.5 -37t-28.5 -99v-20q0 -63 28.5 -100t77.5 -37zM604 1217q-25 0 -25 25v50q0 25 25 25h351q25 0 25 -25v-50q0 -25 -25 -25h-351z" />
    <glyph glyph-name="uni01E4" unicode="&#x1e4;" horiz-adv-x="1155" vert-adv-y="0" 
d="M572 362q-25 0 -25 25v38q0 25 25 25h478q25 0 25 -25v-38q0 -25 -25 -25h-478zM377 0q-24 0 -40 17l-200 200q-17 16 -17 40v820q0 23 17 40l200 200q16 16 40 16h591q25 0 25 -25v-216q0 -25 -25 -25h-481q-14 0 -24 -10t-10 -24v-731q0 -14 10 -24t24 -10h216v267
h-128q-25 0 -25 25v215q0 25 25 25h410q25 0 25 -25v-518q0 -24 -17 -40l-200 -200q-16 -17 -40 -17h-376z" />
    <glyph glyph-name="uni01E5" unicode="&#x1e5;" vert-adv-y="0" 
d="M402 -333q-25 0 -25 25v156q0 20 15 22l146 37l104 55q15 8 15 31v164l-94 -87q-17 -17 -40 -17l-170 -6q-23 0 -40 16l-183 184q-17 16 -17 40v556q0 24 17 40l200 200q17 17 40 17h535q25 0 25 -25v-1202q0 -27 -17 -40l-133 -85l-168 -70q-15 -6 -22.5 -8.5
t-24.5 -2.5h-163zM487 263h70q32 0 44 13t12 46v545h-126q-33 0 -45 -13t-12 -46v-486q0 -33 12 -46t45 -13zM422 507q-25 0 -25 25v33q0 25 25 25h548q25 0 25 -25v-33q0 -25 -25 -25h-548z" />
    <glyph glyph-name="Gcaron" unicode="&#x1e6;" horiz-adv-x="1100" vert-adv-y="0" 
d="M377 0q-24 0 -40 17l-200 200q-17 16 -17 40v820q0 23 17 40l200 200q16 16 40 16h591q25 0 25 -25v-216q0 -25 -25 -25h-481q-14 0 -24 -10t-10 -24v-731q0 -14 10 -24t24 -10h216v267h-128q-25 0 -25 25v215q0 25 25 25h410q25 0 25 -25v-518q0 -24 -17 -40l-200 -200
q-16 -17 -40 -17h-376zM510 1383q-22 0 -28 15l-82 158q-6 11 -1 19t18 8h130q13 0 25 -18l26 -50l4 -20h6l5 20l27 50q11 18 25 18h130q13 0 18 -8t-1 -19l-84 -158q-6 -15 -28 -15h-190z" />
    <glyph glyph-name="gcaron" unicode="&#x1e7;" vert-adv-y="0" 
d="M402 -333q-25 0 -25 25v156q0 20 15 22l146 37l104 55q15 8 15 31v164l-94 -87q-17 -17 -40 -17l-170 -6q-23 0 -40 16l-183 184q-17 16 -17 40v556q0 24 17 40l200 200q17 17 40 17h535q25 0 25 -25v-1202q0 -27 -17 -40l-133 -85l-168 -70q-15 -6 -22.5 -8.5
t-24.5 -2.5h-163zM487 263h70q32 0 44 13t12 46v545h-126q-33 0 -45 -13t-12 -46v-486q0 -33 12 -46t45 -13zM501 1150q-22 0 -28 15l-82 158q-6 11 -1 19t18 8h130q13 0 25 -18l26 -50l4 -20h6l5 20l27 50q11 18 25 18h130q13 0 18 -8t-1 -19l-84 -158q-6 -15 -28 -15h-190
z" />
    <glyph glyph-name="uni01E8" unicode="&#x1e8;" horiz-adv-x="1155" vert-adv-y="0" 
d="M145 0q-25 0 -25 25v1283q0 25 25 25h283q25 0 25 -25v-530h124l66 249l60 293q2 6 9.5 9.5t22.5 3.5h288q25 0 25 -25v-125q0 -11 -3 -21.5t-5 -18.5l-122 -293l-85 -160l87 -158l147 -334q4 -7 6 -15t2 -23v-135q0 -25 -25 -25h-298q-7 0 -17.5 2.5t-12.5 12.5l-74 317
l-55 181h-140v-488q0 -25 -25 -25h-283zM487 1383q-22 0 -28 15l-82 158q-6 11 -1 19t18 8h130q13 0 25 -18l26 -50l4 -20h6l5 20l27 50q11 18 25 18h130q13 0 18 -8t-1 -19l-84 -158q-6 -15 -28 -15h-190z" />
    <glyph glyph-name="uni01E9" unicode="&#x1e9;" horiz-adv-x="1022" vert-adv-y="0" 
d="M675 0q-13 0 -20.5 4t-9.5 11l-115 453h-93v240h93l115 375q2 8 9.5 11.5t20.5 3.5h253q25 0 25 -25v-106q0 -14 -2 -22t-6 -17l-148 -341v-34l156 -383q5 -11 7 -19.5t2 -18.5v-107q0 -25 -25 -25h-262zM145 0q-25 0 -25 25v1283q0 25 25 25h267q25 0 25 -25v-1283
q0 -25 -25 -25h-267zM481 1383q-22 0 -28 15l-82 158q-6 11 -1 19t18 8h130q13 0 25 -18l26 -50l4 -20h6l5 20l27 50q11 18 25 18h130q13 0 18 -8t-1 -19l-84 -158q-6 -15 -28 -15h-190z" />
    <glyph glyph-name="uni01EA" unicode="&#x1ea;" horiz-adv-x="1147" vert-adv-y="0" 
d="M377 0q-23 0 -40 17l-200 200q-17 16 -17 40v820q0 23 17 40l200 200q17 16 40 16h393q24 0 40 -16l200 -200q17 -17 17 -40v-820q0 -24 -17 -40l-200 -200q-16 -17 -40 -17h-393zM495 267h157q42 0 42 56v687q0 57 -42 57h-157q-41 0 -41 -57v-687q0 -56 41 -56z
M662 -299q-7 0 -10 2l-92 45q-5 3 -5 10v173q0 8 5 10l92 65q3 2 10 2h100q8 0 8 -8v-84q0 -5 -6 -10l-72 -33q-5 -3 -5 -8v-25q0 -6 5 -9l72 -28q6 -2 6 -10v-83q0 -9 -8 -9h-100z" />
    <glyph glyph-name="uni01EB" unicode="&#x1eb;" vert-adv-y="0" 
d="M370 0q-23 0 -40 17l-200 200q-17 16 -17 40v586q0 24 17 40l200 200q17 17 40 17h303q24 0 40 -17l200 -200q17 -16 17 -40v-586q0 -24 -17 -40l-200 -200q-16 -17 -40 -17h-303zM487 233h70q32 0 44 13t12 46v516q0 33 -12 46t-44 13h-70q-33 0 -45 -13t-12 -46v-516
q0 -33 12 -46t45 -13zM605 -282q-7 0 -10 2l-92 45q-5 3 -5 10v173q0 8 5 10l92 65q3 2 10 2h100q8 0 8 -8v-84q0 -5 -6 -10l-72 -33q-5 -3 -5 -8v-25q0 -6 5 -9l72 -28q6 -2 6 -10v-83q0 -9 -8 -9h-100z" />
    <glyph glyph-name="uni01EC" unicode="&#x1ec;" horiz-adv-x="1147" vert-adv-y="0" 
d="M377 0q-23 0 -40 17l-200 200q-17 16 -17 40v820q0 23 17 40l200 200q17 16 40 16h393q24 0 40 -16l200 -200q17 -17 17 -40v-820q0 -24 -17 -40l-200 -200q-16 -17 -40 -17h-393zM495 267h157q42 0 42 56v687q0 57 -42 57h-157q-41 0 -41 -57v-687q0 -56 41 -56z
M662 -299q-7 0 -10 2l-92 45q-5 3 -5 10v173q0 8 5 10l92 65q3 2 10 2h100q8 0 8 -8v-84q0 -5 -6 -10l-72 -33q-5 -3 -5 -8v-25q0 -6 5 -9l72 -28q6 -2 6 -10v-83q0 -9 -8 -9h-100zM397 1450q-25 0 -25 25v50q0 25 25 25h351q25 0 25 -25v-50q0 -25 -25 -25h-351z" />
    <glyph glyph-name="uni01ED" unicode="&#x1ed;" vert-adv-y="0" 
d="M370 0q-23 0 -40 17l-200 200q-17 16 -17 40v586q0 24 17 40l200 200q17 17 40 17h303q24 0 40 -17l200 -200q17 -16 17 -40v-586q0 -24 -17 -40l-200 -200q-16 -17 -40 -17h-303zM487 233h70q32 0 44 13t12 46v516q0 33 -12 46t-44 13h-70q-33 0 -45 -13t-12 -46v-516
q0 -33 12 -46t45 -13zM605 -282q-7 0 -10 2l-92 45q-5 3 -5 10v173q0 8 5 10l92 65q3 2 10 2h100q8 0 8 -8v-84q0 -5 -6 -10l-72 -33q-5 -3 -5 -8v-25q0 -6 5 -9l72 -28q6 -2 6 -10v-83q0 -9 -8 -9h-100zM344 1217q-25 0 -25 25v50q0 25 25 25h351q25 0 25 -25v-50
q0 -25 -25 -25h-351z" />
    <glyph glyph-name="uni01EE" unicode="&#x1ee;" horiz-adv-x="899" vert-adv-y="0" 
d="M145 8q-25 0 -25 25v270q0 25 25 25h269v17l-165 308v37l165 310v17h-269q-25 0 -25 25v266q0 25 25 25h609q25 0 25 -25v-291l-184 -327v-37l184 -336v-284q0 -25 -25 -25h-609zM353 1383q-22 0 -28 15l-82 158q-6 11 -1 19t18 8h130q13 0 25 -18l26 -50l4 -20h6l5 20
l27 50q11 18 25 18h130q13 0 18 -8t-1 -19l-84 -158q-6 -15 -28 -15h-190z" />
    <glyph glyph-name="uni01EF" unicode="&#x1ef;" horiz-adv-x="885" vert-adv-y="0" 
d="M747 -300h-609q-25 0 -25 25v217q0 25 25 25h280v50l-231 368v37l231 361v50h-280q-25 0 -25 25v217q0 25 25 25h609q25 0 25 -25v-308l-234 -345v-37l234 -360v-300q0 -25 -25 -25zM346 1150q-22 0 -28 15l-82 158q-6 11 -1 19t18 8h130q13 0 25 -18l26 -50l4 -20h6
l5 20l27 50q11 18 25 18h130q13 0 18 -8t-1 -19l-84 -158q-6 -15 -28 -15h-190z" />
    <glyph glyph-name="uni01F0" unicode="&#x1f0;" horiz-adv-x="533" vert-adv-y="0" 
d="M-37 -333q-23 0 -23 25v156q0 18 15 22l80 28l55 62q9 9 11 16t2 17v1082q0 25 25 25h267q25 0 25 -25v-1150q0 -25 -17 -43l-118 -129l-127 -71q-25 -15 -50 -15h-145zM161 1150q-22 0 -28 15l-82 158q-6 11 -1 19t18 8h130q13 0 25 -18l26 -50l4 -20h6l5 20l27 50
q11 18 25 18h130q13 0 18 -8t-1 -19l-84 -158q-6 -15 -28 -15h-190z" />
    <glyph glyph-name="uni01F4" unicode="&#x1f4;" horiz-adv-x="1100" vert-adv-y="0" 
d="M377 0q-24 0 -40 17l-200 200q-17 16 -17 40v820q0 23 17 40l200 200q16 16 40 16h591q25 0 25 -25v-216q0 -25 -25 -25h-481q-14 0 -24 -10t-10 -24v-731q0 -14 10 -24t24 -10h216v267h-128q-25 0 -25 25v215q0 25 25 25h410q25 0 25 -25v-518q0 -24 -17 -40l-200 -200
q-16 -17 -40 -17h-376zM504 1382q-19 -9 -27 9l-35 75q-7 18 11 30l236 153q18 11 27 -13l57 -119q8 -17 -11 -27z" />
    <glyph glyph-name="uni01F5" unicode="&#x1f5;" vert-adv-y="0" 
d="M402 -333q-25 0 -25 25v156q0 20 15 22l146 37l104 55q15 8 15 31v164l-94 -87q-17 -17 -40 -17l-170 -6q-23 0 -40 16l-183 184q-17 16 -17 40v556q0 24 17 40l200 200q17 17 40 17h535q25 0 25 -25v-1202q0 -27 -17 -40l-133 -85l-168 -70q-15 -6 -22.5 -8.5
t-24.5 -2.5h-163zM487 263h70q32 0 44 13t12 46v545h-126q-33 0 -45 -13t-12 -46v-486q0 -33 12 -46t45 -13zM495 1149q-19 -9 -27 9l-35 75q-7 18 11 30l236 153q18 11 27 -13l57 -119q8 -17 -11 -27z" />
    <glyph glyph-name="uni01F8" unicode="&#x1f8;" horiz-adv-x="1090" vert-adv-y="0" 
d="M145 0q-25 0 -25 25v1283q0 25 25 25h568q24 0 40 -16l200 -200q17 -17 17 -40v-1052q0 -25 -25 -25h-283q-25 0 -25 25v1042h-184v-1042q0 -25 -25 -25h-283zM648 1382l-258 108q-19 10 -11 27l57 119q9 24 27 13l236 -153q18 -12 11 -30l-35 -75q-7 -18 -27 -9z" />
    <glyph glyph-name="uni01F9" unicode="&#x1f9;" horiz-adv-x="1050" vert-adv-y="0" 
d="M145 0q-25 0 -25 25v1050q0 25 25 25h535q23 0 40 -17l200 -200q17 -16 17 -40v-818q0 -25 -25 -25h-267q-25 0 -25 25v778q0 47 -47 47h-136v-825q0 -25 -25 -25h-267zM631 1149l-258 108q-19 10 -11 27l57 119q9 24 27 13l236 -153q18 -12 11 -30l-35 -75
q-7 -18 -27 -9z" />
    <glyph glyph-name="Aringacute" unicode="&#x1fa;" horiz-adv-x="1117" vert-adv-y="0" 
d="M138 0q-25 0 -25 25v927q0 13 10 30l237 336q11 15 32 15h331q22 0 32 -15l238 -336q10 -14 10 -30v-927q0 -25 -25 -25h-283q-25 0 -25 25v425h-223v-425q0 -25 -25 -25h-284zM558 665q92 0 124.5 40.5t32.5 154.5t-32.5 154.5t-124.5 40.5q-91 0 -123.5 -40.5
t-32.5 -154.5t32.5 -154.5t123.5 -40.5zM387 1383q-25 0 -25 25v150q0 25 25 25h343q25 0 25 -25v-150q0 -25 -25 -25h-343zM560 1410q30 0 51.5 22t21.5 53q0 32 -20.5 52.5t-52.5 20.5q-31 0 -53 -21.5t-22 -51.5t22.5 -52.5t52.5 -22.5zM455 1632q-19 -9 -27 9l-35 75
q-7 18 11 30l236 153q18 11 27 -13l57 -119q8 -17 -11 -27z" />
    <glyph glyph-name="aringacute" unicode="&#x1fb;" vert-adv-y="0" 
d="M370 0q-23 0 -40 17l-200 200q-17 16 -17 40v586q0 24 17 40l200 200q17 17 40 17h535q25 0 25 -25v-1050q0 -25 -25 -25h-208q-13 0 -19.5 5t-14.5 12l-50 50l-50 -50q-16 -17 -40 -17h-153zM487 233h70q32 0 44 13t12 46v575h-126q-33 0 -45 -13t-12 -46v-516
q0 -33 12 -46t45 -13zM459 1150q-25 0 -25 25v150q0 25 25 25h343q25 0 25 -25v-150q0 -25 -25 -25h-343zM632 1177q30 0 51.5 22t21.5 53q0 32 -20.5 52.5t-52.5 20.5q-31 0 -53 -21.5t-22 -51.5t22.5 -52.5t52.5 -22.5zM527 1399q-19 -9 -27 9l-35 75q-7 18 11 30l236 153
q18 11 27 -13l57 -119q8 -17 -11 -27z" />
    <glyph glyph-name="AEacute" unicode="&#x1fc;" horiz-adv-x="1538" vert-adv-y="0" 
d="M138 0q-25 0 -25 25v927q0 13 10 30l237 336q11 15 32 15h1001q25 0 25 -25v-216q0 -25 -25 -25h-388v-284h355q25 0 25 -25v-183q0 -25 -25 -25h-355v-283h388q25 0 25 -25v-217q0 -25 -25 -25h-698q-25 0 -25 25v425h-223v-425q0 -25 -25 -25h-284zM558 665
q92 0 124.5 40.5t32.5 154.5t-32.5 154.5t-124.5 40.5q-91 0 -123.5 -40.5t-32.5 -154.5t32.5 -154.5t123.5 -40.5zM747 1382q-19 -9 -27 9l-35 75q-7 18 11 30l236 153q18 11 27 -13l57 -119q8 -17 -11 -27z" />
    <glyph glyph-name="aeacute" unicode="&#x1fd;" horiz-adv-x="1579" vert-adv-y="0" 
d="M1111 0q-10 0 -21.5 3t-21.5 5l-178 44l-204 68q-30 10 -30 58v665q0 24 17 40l200 200q17 17 40 17h320q23 0 40 -17l200 -200q17 -16 17 -40v-410h-537l-7 -133l142 -47l255 -18q17 -3 17 -23v-187q0 -25 -25 -25h-224zM370 0q-23 0 -40 17l-200 200q-17 16 -17 40v410
h537l7 133l-142 47l-255 18q-17 3 -17 23v187q0 25 25 25h224q10 0 21.5 -3t21.5 -5l178 -44l204 -68q30 -10 30 -58v-665q0 -24 -17 -40l-200 -200q-17 -17 -40 -17h-320zM513 217h20q48 0 76.5 37t28.5 99v20q0 63 -28.5 100t-77.5 37h-19q-49 0 -78.5 -37t-29.5 -100v-20
q0 -62 29.5 -99t78.5 -37zM1071 590h19q49 0 78.5 37t29.5 100v20q0 62 -29.5 99t-78.5 37h-20q-48 0 -76.5 -37t-28.5 -99v-20q0 -63 28.5 -100t77.5 -37zM679 1149q-19 -9 -27 9l-35 75q-7 18 11 30l236 153q18 11 27 -13l57 -119q8 -17 -11 -27z" />
    <glyph glyph-name="Oslashacute" unicode="&#x1fe;" horiz-adv-x="1147" vert-adv-y="0" 
d="M38 -4q-13 0 -22 7t0 20l318 482l65 99l331 501l41 62l94 143q9 15 14 19t13 4h195q15 0 21.5 -8t-0.5 -19l-257 -390l-44 -67l-393 -595l-41 -62l-113 -172q-7 -11 -11.5 -17.5t-15.5 -6.5h-195zM377 0q-23 0 -40 17l-200 200q-17 16 -17 40v820q0 23 17 40l200 200
q17 16 40 16h393q24 0 40 -16l200 -200q17 -17 17 -40v-820q0 -24 -17 -40l-200 -200q-16 -17 -40 -17h-393zM495 267h157q42 0 42 56v687q0 57 -42 57h-157q-41 0 -41 -57v-687q0 -56 41 -56zM491 1382q-19 -9 -27 9l-35 75q-7 18 11 30l236 153q18 11 27 -13l57 -119
q8 -17 -11 -27z" />
    <glyph glyph-name="oslashacute" unicode="&#x1ff;" vert-adv-y="0" 
d="M112 0q-15 0 -21.5 8.5t-0.5 18.5l725 1050q17 23 43 23h72q15 0 21.5 -8t0.5 -19l-725 -1050q-15 -23 -44 -23h-71zM370 0q-23 0 -40 17l-200 200q-17 16 -17 40v586q0 24 17 40l200 200q17 17 40 17h303q24 0 40 -17l200 -200q17 -16 17 -40v-586q0 -24 -17 -40
l-200 -200q-16 -17 -40 -17h-303zM487 233h70q32 0 44 13t12 46v516q0 33 -12 46t-44 13h-70q-33 0 -45 -13t-12 -46v-516q0 -33 12 -46t45 -13zM419 1149q-19 -9 -27 9l-35 75q-7 18 11 30l236 153q18 11 27 -13l57 -119q8 -17 -11 -27z" />
    <glyph glyph-name="uni0200" unicode="&#x200;" horiz-adv-x="1117" vert-adv-y="0" 
d="M138 0q-25 0 -25 25v927q0 13 10 30l237 336q11 15 32 15h331q22 0 32 -15l238 -336q10 -14 10 -30v-927q0 -25 -25 -25h-283q-25 0 -25 25v425h-223v-425q0 -25 -25 -25h-284zM558 665q92 0 124.5 40.5t32.5 154.5t-32.5 154.5t-124.5 40.5q-91 0 -123.5 -40.5
t-32.5 -154.5t32.5 -154.5t123.5 -40.5zM660 1399q-16 -7 -24 10l-107 228q-7 18 9 25l146 56q21 10 26 -9l66 -245q5 -20 -10 -27zM412 1376q-16 -7 -24 10l-107 228q-7 18 9 25l146 56q21 10 26 -9l66 -245q5 -20 -10 -27z" />
    <glyph glyph-name="uni0201" unicode="&#x201;" vert-adv-y="0" 
d="M370 0q-23 0 -40 17l-200 200q-17 16 -17 40v586q0 24 17 40l200 200q17 17 40 17h535q25 0 25 -25v-1050q0 -25 -25 -25h-208q-13 0 -19.5 5t-14.5 12l-50 50l-50 -50q-16 -17 -40 -17h-153zM487 233h70q32 0 44 13t12 46v575h-126q-33 0 -45 -13t-12 -46v-516
q0 -33 12 -46t45 -13zM732 1166q-16 -7 -24 10l-107 228q-7 18 9 25l146 56q21 10 26 -9l66 -245q5 -20 -10 -27zM484 1143q-16 -7 -24 10l-107 228q-7 18 9 25l146 56q21 10 26 -9l66 -245q5 -20 -10 -27z" />
    <glyph glyph-name="uni0202" unicode="&#x202;" horiz-adv-x="1117" vert-adv-y="0" 
d="M138 0q-25 0 -25 25v927q0 13 10 30l237 336q11 15 32 15h331q22 0 32 -15l238 -336q10 -14 10 -30v-927q0 -25 -25 -25h-283q-25 0 -25 25v425h-223v-425q0 -25 -25 -25h-284zM558 665q92 0 124.5 40.5t32.5 154.5t-32.5 154.5t-124.5 40.5q-91 0 -123.5 -40.5
t-32.5 -154.5t32.5 -154.5t123.5 -40.5zM436 1583h244q19 0 30 -15l41 -57q10 -14 10 -30v-73q0 -25 -25 -25h-106q-25 0 -25 25v62h-94v-62q0 -25 -25 -25h-106q-25 0 -25 25v73q0 16 10 30l41 57q11 15 30 15z" />
    <glyph glyph-name="uni0203" unicode="&#x203;" vert-adv-y="0" 
d="M370 0q-23 0 -40 17l-200 200q-17 16 -17 40v586q0 24 17 40l200 200q17 17 40 17h535q25 0 25 -25v-1050q0 -25 -25 -25h-208q-13 0 -19.5 5t-14.5 12l-50 50l-50 -50q-16 -17 -40 -17h-153zM487 233h70q32 0 44 13t12 46v575h-126q-33 0 -45 -13t-12 -46v-516
q0 -33 12 -46t45 -13zM508 1350h244q19 0 30 -15l41 -57q10 -14 10 -30v-73q0 -25 -25 -25h-106q-25 0 -25 25v62h-94v-62q0 -25 -25 -25h-106q-25 0 -25 25v73q0 16 10 30l41 57q11 15 30 15z" />
    <glyph glyph-name="uni0204" unicode="&#x204;" horiz-adv-x="987" vert-adv-y="0" 
d="M145 0q-25 0 -25 25v1283q0 25 25 25h697q25 0 25 -25v-216q0 -25 -25 -25h-389v-284h355q25 0 25 -25v-183q0 -25 -25 -25h-355v-283h389q25 0 25 -25v-217q0 -25 -25 -25h-697zM610 1399q-16 -7 -24 10l-107 228q-7 18 9 25l146 56q21 10 26 -9l66 -245q5 -20 -10 -27z
M362 1376q-16 -7 -24 10l-107 228q-7 18 9 25l146 56q21 10 26 -9l66 -245q5 -20 -10 -27z" />
    <glyph glyph-name="uni0205" unicode="&#x205;" horiz-adv-x="1036" vert-adv-y="0" 
d="M568 0q-10 0 -21.5 3t-21.5 5l-178 44l-204 68q-30 10 -30 58v665q0 24 17 40l200 200q17 17 40 17h320q23 0 40 -17l200 -200q17 -16 17 -40v-410h-537l-7 -133l142 -47l255 -18q17 -3 17 -23v-187q0 -25 -25 -25h-224zM528 590h19q49 0 78.5 37t29.5 100v20
q0 62 -29.5 99t-78.5 37h-20q-48 0 -76.5 -37t-28.5 -99v-20q0 -63 28.5 -100t77.5 -37zM640 1166q-16 -7 -24 10l-107 228q-7 18 9 25l146 56q21 10 26 -9l66 -245q5 -20 -10 -27zM392 1143q-16 -7 -24 10l-107 228q-7 18 9 25l146 56q21 10 26 -9l66 -245q5 -20 -10 -27z
" />
    <glyph glyph-name="uni0206" unicode="&#x206;" horiz-adv-x="987" vert-adv-y="0" 
d="M145 0q-25 0 -25 25v1283q0 25 25 25h697q25 0 25 -25v-216q0 -25 -25 -25h-389v-284h355q25 0 25 -25v-183q0 -25 -25 -25h-355v-283h389q25 0 25 -25v-217q0 -25 -25 -25h-697zM386 1583h244q19 0 30 -15l41 -57q10 -14 10 -30v-73q0 -25 -25 -25h-106q-25 0 -25 25v62
h-94v-62q0 -25 -25 -25h-106q-25 0 -25 25v73q0 16 10 30l41 57q11 15 30 15z" />
    <glyph glyph-name="uni0207" unicode="&#x207;" horiz-adv-x="1036" vert-adv-y="0" 
d="M568 0q-10 0 -21.5 3t-21.5 5l-178 44l-204 68q-30 10 -30 58v665q0 24 17 40l200 200q17 17 40 17h320q23 0 40 -17l200 -200q17 -16 17 -40v-410h-537l-7 -133l142 -47l255 -18q17 -3 17 -23v-187q0 -25 -25 -25h-224zM528 590h19q49 0 78.5 37t29.5 100v20
q0 62 -29.5 99t-78.5 37h-20q-48 0 -76.5 -37t-28.5 -99v-20q0 -63 28.5 -100t77.5 -37zM416 1350h244q19 0 30 -15l41 -57q10 -14 10 -30v-73q0 -25 -25 -25h-106q-25 0 -25 25v62h-94v-62q0 -25 -25 -25h-106q-25 0 -25 25v73q0 16 10 30l41 57q11 15 30 15z" />
    <glyph glyph-name="uni0208" unicode="&#x208;" horiz-adv-x="573" vert-adv-y="0" 
d="M145 0q-25 0 -25 25v1283q0 25 25 25h283q25 0 25 -25v-1283q0 -25 -25 -25h-283zM394 1399q-16 -7 -24 10l-107 228q-7 18 9 25l146 56q21 10 26 -9l66 -245q5 -20 -10 -27zM146 1376q-16 -7 -24 10l-107 228q-7 18 9 25l146 56q21 10 26 -9l66 -245q5 -20 -10 -27z" />
    <glyph glyph-name="uni0209" unicode="&#x209;" horiz-adv-x="400" vert-adv-y="0" 
d="M67 0q-25 0 -25 25v1050q0 25 25 25h266q25 0 25 -25v-1050q0 -25 -25 -25h-266zM302 1166q-16 -7 -24 10l-107 228q-7 18 9 25l146 56q21 10 26 -9l66 -245q5 -20 -10 -27zM54 1143q-16 -7 -24 10l-107 228q-7 18 9 25l146 56q21 10 26 -9l66 -245q5 -20 -10 -27z" />
    <glyph glyph-name="uni020A" unicode="&#x20a;" horiz-adv-x="573" vert-adv-y="0" 
d="M145 0q-25 0 -25 25v1283q0 25 25 25h283q25 0 25 -25v-1283q0 -25 -25 -25h-283zM170 1583h244q19 0 30 -15l41 -57q10 -14 10 -30v-73q0 -25 -25 -25h-106q-25 0 -25 25v62h-94v-62q0 -25 -25 -25h-106q-25 0 -25 25v73q0 16 10 30l41 57q11 15 30 15z" />
    <glyph glyph-name="uni020B" unicode="&#x20b;" horiz-adv-x="400" vert-adv-y="0" 
d="M67 0q-25 0 -25 25v1050q0 25 25 25h266q25 0 25 -25v-1050q0 -25 -25 -25h-266zM78 1350h244q19 0 30 -15l41 -57q10 -14 10 -30v-73q0 -25 -25 -25h-106q-25 0 -25 25v62h-94v-62q0 -25 -25 -25h-106q-25 0 -25 25v73q0 16 10 30l41 57q11 15 30 15z" />
    <glyph glyph-name="uni020C" unicode="&#x20c;" horiz-adv-x="1147" vert-adv-y="0" 
d="M377 0q-23 0 -40 17l-200 200q-17 16 -17 40v820q0 23 17 40l200 200q17 16 40 16h393q24 0 40 -16l200 -200q17 -17 17 -40v-820q0 -24 -17 -40l-200 -200q-16 -17 -40 -17h-393zM495 267h157q42 0 42 56v687q0 57 -42 57h-157q-41 0 -41 -57v-687q0 -56 41 -56z
M677 1399q-16 -7 -24 10l-107 228q-7 18 9 25l146 56q21 10 26 -9l66 -245q5 -20 -10 -27zM429 1376q-16 -7 -24 10l-107 228q-7 18 9 25l146 56q21 10 26 -9l66 -245q5 -20 -10 -27z" />
    <glyph glyph-name="uni020D" unicode="&#x20d;" vert-adv-y="0" 
d="M370 0q-23 0 -40 17l-200 200q-17 16 -17 40v586q0 24 17 40l200 200q17 17 40 17h303q24 0 40 -17l200 -200q17 -16 17 -40v-586q0 -24 -17 -40l-200 -200q-16 -17 -40 -17h-303zM487 233h70q32 0 44 13t12 46v516q0 33 -12 46t-44 13h-70q-33 0 -45 -13t-12 -46v-516
q0 -33 12 -46t45 -13zM624 1166q-16 -7 -24 10l-107 228q-7 18 9 25l146 56q21 10 26 -9l66 -245q5 -20 -10 -27zM376 1143q-16 -7 -24 10l-107 228q-7 18 9 25l146 56q21 10 26 -9l66 -245q5 -20 -10 -27z" />
    <glyph glyph-name="uni020E" unicode="&#x20e;" horiz-adv-x="1147" vert-adv-y="0" 
d="M377 0q-23 0 -40 17l-200 200q-17 16 -17 40v820q0 23 17 40l200 200q17 16 40 16h393q24 0 40 -16l200 -200q17 -17 17 -40v-820q0 -24 -17 -40l-200 -200q-16 -17 -40 -17h-393zM495 267h157q42 0 42 56v687q0 57 -42 57h-157q-41 0 -41 -57v-687q0 -56 41 -56z
M453 1583h244q19 0 30 -15l41 -57q10 -14 10 -30v-73q0 -25 -25 -25h-106q-25 0 -25 25v62h-94v-62q0 -25 -25 -25h-106q-25 0 -25 25v73q0 16 10 30l41 57q11 15 30 15z" />
    <glyph glyph-name="uni020F" unicode="&#x20f;" vert-adv-y="0" 
d="M370 0q-23 0 -40 17l-200 200q-17 16 -17 40v586q0 24 17 40l200 200q17 17 40 17h303q24 0 40 -17l200 -200q17 -16 17 -40v-586q0 -24 -17 -40l-200 -200q-16 -17 -40 -17h-303zM487 233h70q32 0 44 13t12 46v516q0 33 -12 46t-44 13h-70q-33 0 -45 -13t-12 -46v-516
q0 -33 12 -46t45 -13zM400 1350h244q19 0 30 -15l41 -57q10 -14 10 -30v-73q0 -25 -25 -25h-106q-25 0 -25 25v62h-94v-62q0 -25 -25 -25h-106q-25 0 -25 25v73q0 16 10 30l41 57q11 15 30 15z" />
    <glyph glyph-name="uni0210" unicode="&#x210;" horiz-adv-x="1032" vert-adv-y="0" 
d="M145 0q-25 0 -25 25v1283q0 25 25 25h542q24 0 40 -13l230 -228q11 -10 13.5 -17t2.5 -23v-274q0 -13 -10 -23l-110 -107l-93 -80l110 -146l113 -242q4 -9 6.5 -17.5t2.5 -20.5v-117q0 -25 -25 -25h-264q-22 0 -30 20l-161 468h-75v-463q0 -25 -25 -25h-267zM547 733
q83 0 113 34.5t30 129.5q0 96 -30 130.5t-113 34.5q-82 0 -113 -34.5t-31 -130.5q0 -95 31 -129.5t113 -34.5zM594 1399q-16 -7 -24 10l-107 228q-7 18 9 25l146 56q21 10 26 -9l66 -245q5 -20 -10 -27zM346 1376q-16 -7 -24 10l-107 228q-7 18 9 25l146 56q21 10 26 -9
l66 -245q5 -20 -10 -27z" />
    <glyph glyph-name="uni0211" unicode="&#x211;" horiz-adv-x="698" vert-adv-y="0" 
d="M145 0q-25 0 -25 25v1050q0 25 25 25h152q19 0 33 -17l98 -113l109 118q11 12 28 12h108q25 0 25 -25v-215q0 -16 -2 -21.5t-11 -11.5l-248 -183v-619q0 -25 -25 -25h-267zM530 1166q-16 -7 -24 10l-107 228q-7 18 9 25l146 56q21 10 26 -9l66 -245q5 -20 -10 -27z
M282 1143q-16 -7 -24 10l-107 228q-7 18 9 25l146 56q21 10 26 -9l66 -245q5 -20 -10 -27z" />
    <glyph glyph-name="uni0212" unicode="&#x212;" horiz-adv-x="1032" vert-adv-y="0" 
d="M145 0q-25 0 -25 25v1283q0 25 25 25h542q24 0 40 -13l230 -228q11 -10 13.5 -17t2.5 -23v-274q0 -13 -10 -23l-110 -107l-93 -80l110 -146l113 -242q4 -9 6.5 -17.5t2.5 -20.5v-117q0 -25 -25 -25h-264q-22 0 -30 20l-161 468h-75v-463q0 -25 -25 -25h-267zM547 733
q83 0 113 34.5t30 129.5q0 96 -30 130.5t-113 34.5q-82 0 -113 -34.5t-31 -130.5q0 -95 31 -129.5t113 -34.5zM370 1583h244q19 0 30 -15l41 -57q10 -14 10 -30v-73q0 -25 -25 -25h-106q-25 0 -25 25v62h-94v-62q0 -25 -25 -25h-106q-25 0 -25 25v73q0 16 10 30l41 57
q11 15 30 15z" />
    <glyph glyph-name="uni0213" unicode="&#x213;" horiz-adv-x="698" vert-adv-y="0" 
d="M145 0q-25 0 -25 25v1050q0 25 25 25h152q19 0 33 -17l98 -113l109 118q11 12 28 12h108q25 0 25 -25v-215q0 -16 -2 -21.5t-11 -11.5l-248 -183v-619q0 -25 -25 -25h-267zM306 1350h244q19 0 30 -15l41 -57q10 -14 10 -30v-73q0 -25 -25 -25h-106q-25 0 -25 25v62h-94
v-62q0 -25 -25 -25h-106q-25 0 -25 25v73q0 16 10 30l41 57q11 15 30 15z" />
    <glyph glyph-name="uni0214" unicode="&#x214;" horiz-adv-x="1090" vert-adv-y="0" 
d="M377 0q-24 0 -40 17l-200 200q-17 16 -17 40v1051q0 25 25 25h283q25 0 25 -25v-1021q0 -20 20 -20h164v1041q0 25 25 25h283q25 0 25 -25v-1283q0 -25 -25 -25h-568zM647 1399q-16 -7 -24 10l-107 228q-7 18 9 25l146 56q21 10 26 -9l66 -245q5 -20 -10 -27zM399 1376
q-16 -7 -24 10l-107 228q-7 18 9 25l146 56q21 10 26 -9l66 -245q5 -20 -10 -27z" />
    <glyph glyph-name="uni0214" unicode="&#x215;" horiz-adv-x="1090" vert-adv-y="0" 
d="M377 0q-24 0 -40 17l-200 200q-17 16 -17 40v1051q0 25 25 25h283q25 0 25 -25v-1021q0 -20 20 -20h164v1041q0 25 25 25h283q25 0 25 -25v-1283q0 -25 -25 -25h-568zM647 1399q-16 -7 -24 10l-107 228q-7 18 9 25l146 56q21 10 26 -9l66 -245q5 -20 -10 -27zM399 1376
q-16 -7 -24 10l-107 228q-7 18 9 25l146 56q21 10 26 -9l66 -245q5 -20 -10 -27z" />
    <glyph glyph-name="uni0216" unicode="&#x216;" horiz-adv-x="1090" vert-adv-y="0" 
d="M377 0q-24 0 -40 17l-200 200q-17 16 -17 40v1051q0 25 25 25h283q25 0 25 -25v-1021q0 -20 20 -20h164v1041q0 25 25 25h283q25 0 25 -25v-1283q0 -25 -25 -25h-568zM423 1583h244q19 0 30 -15l41 -57q10 -14 10 -30v-73q0 -25 -25 -25h-106q-25 0 -25 25v62h-94v-62
q0 -25 -25 -25h-106q-25 0 -25 25v73q0 16 10 30l41 57q11 15 30 15z" />
    <glyph glyph-name="uni0217" unicode="&#x217;" horiz-adv-x="1050" vert-adv-y="0" 
d="M377 0q-24 0 -40 17l-200 200q-17 16 -17 40v818q0 25 25 25h267q25 0 25 -25v-778q0 -47 46 -47h137v825q0 25 25 25h267q25 0 25 -25v-1050q0 -25 -25 -25h-535zM406 1350h244q19 0 30 -15l41 -57q10 -14 10 -30v-73q0 -25 -25 -25h-106q-25 0 -25 25v62h-94v-62
q0 -25 -25 -25h-106q-25 0 -25 25v73q0 16 10 30l41 57q11 15 30 15z" />
    <glyph glyph-name="uni0218" unicode="&#x218;" horiz-adv-x="795" vert-adv-y="0" 
d="M115 0q-25 0 -25 25v188q0 13 1.5 21t11.5 13l262 120v178l-258 160q-17 10 -17 30v367q0 16 2 23.5t15 16.5l263 178q10 6 18.5 9.5t21.5 3.5h270q25 0 25 -25v-170q0 -22 -15 -30l-262 -108v-185l262 -150q15 -7 15 -32v-435q0 -8 -2.5 -17t-10.5 -13l-314 -156
q-6 -3 -14.5 -7.5t-16.5 -4.5h-232zM313 -300q-13 0 -13 13v72q0 13 13 13h54q16 0 16 14v31h-83q-13 4 -13 15l1 79q0 13 14 13h195q13 0 13 -13v-124q0 -57 -27.5 -85t-72.5 -28h-97z" />
    <glyph glyph-name="uni0219" unicode="&#x219;" horiz-adv-x="722" vert-adv-y="0" 
d="M114 0q-25 0 -25 25v162q0 23 15 30l204 121v104l-204 110q-15 9 -15 31v319q0 11 3.5 18t10.5 12l213 156q11 8 18 10t14 2h243q25 0 25 -25v-157q0 -17 -2.5 -23t-10.5 -10l-189 -102v-116l202 -100q17 -7 17 -30v-307q0 -25 -17 -40l-213 -177q-16 -13 -40 -13h-249z
M276 -300q-13 0 -13 13v72q0 13 13 13h54q16 0 16 14v31h-83q-13 4 -13 15l1 79q0 13 14 13h195q13 0 13 -13v-124q0 -57 -27.5 -85t-72.5 -28h-97z" />
    <glyph glyph-name="uni021A" unicode="&#x21a;" horiz-adv-x="973" vert-adv-y="0" 
d="M345 0q-25 0 -25 25v1042h-175q-25 0 -25 25v216q0 25 25 25h683q25 0 25 -25v-216q0 -25 -25 -25h-175v-1042q0 -25 -25 -25h-283zM397 -300q-13 0 -13 13v72q0 13 13 13h54q16 0 16 14v31h-83q-13 4 -13 15l1 79q0 13 14 13h195q13 0 13 -13v-124q0 -57 -27.5 -85
t-72.5 -28h-97z" />
    <glyph glyph-name="uni021B" unicode="&#x21b;" horiz-adv-x="625" vert-adv-y="0" 
d="M350 0q-23 0 -40 17l-167 166q-16 17 -16 40v644h-42q-25 0 -25 25v183q0 25 25 25h42v125q0 25 25 25h266q25 0 25 -25v-125h97q25 0 25 -25v-183q0 -25 -25 -25h-97v-534q0 -19 12 -31l98 -99q10 -9 10 -30v-148q0 -25 -25 -25h-188zM353 -300q-13 0 -13 13v72
q0 13 13 13h54q16 0 16 14v31h-83q-13 4 -13 15l1 79q0 13 14 13h195q13 0 13 -13v-124q0 -57 -27.5 -85t-72.5 -28h-97z" />
    <glyph glyph-name="uni021C" unicode="&#x21c;" horiz-adv-x="683" vert-adv-y="0" 
d="M114 -100q-25 0 -25 25v112q0 10 4.5 16.5t10.5 13.5l180 203v120l-175 195q-15 15 2 35l178 225v108l-168 7q-25 0 -25 25v223q0 25 25 25h222q20 0 31 -11l174 -177q13 -16 13 -30v-242l-108 -136v-24l126 -156q7 -7 11 -13.5t4 -16.5v-229q0 -19 -2 -28t-13 -20
l-213 -240q-6 -7 -13.5 -8.5t-16.5 -1.5h-222z" />
    <glyph glyph-name="uni021D" unicode="&#x21d;" horiz-adv-x="683" vert-adv-y="0" 
d="M114 -233q-25 0 -25 25v112q0 10 4.5 16.5t10.5 13.5l180 203v120l-175 195q-15 15 2 35l178 225v108l-168 7q-25 0 -25 25v223q0 25 25 25h222q20 0 31 -11l174 -177q13 -16 13 -30v-242l-108 -136v-24l126 -156q7 -7 11 -13.5t4 -16.5v-229q0 -19 -2 -28t-13 -20
l-213 -240q-6 -7 -13.5 -8.5t-16.5 -1.5h-222z" />
    <glyph glyph-name="uni021E" unicode="&#x21e;" horiz-adv-x="1153" vert-adv-y="0" 
d="M145 0q-25 0 -25 25v1283q0 25 25 25h283q25 0 25 -25v-475h247v475q0 25 25 25h283q25 0 25 -25v-1283q0 -25 -25 -25h-283q-25 0 -25 25v542h-247v-542q0 -25 -25 -25h-283zM480 1383q-22 0 -28 15l-82 158q-6 11 -1 19t18 8h130q13 0 25 -18l26 -50l4 -20h6l5 20
l27 50q11 18 25 18h130q13 0 18 -8t-1 -19l-84 -158q-6 -15 -28 -15h-190z" />
    <glyph glyph-name="uni021F" unicode="&#x21f;" horiz-adv-x="1050" vert-adv-y="0" 
d="M145 0q-25 0 -25 25v1283q0 25 25 25h267q25 0 25 -25v-208h243q23 0 40 -17l200 -200q17 -16 17 -40v-818q0 -25 -25 -25h-267q-25 0 -25 25v783q0 42 -42 42h-141v-825q0 -25 -25 -25h-267zM431 1383q-22 0 -28 15l-82 158q-6 11 -1 19t18 8h130q13 0 25 -18l26 -50
l4 -20h6l5 20l27 50q11 18 25 18h130q13 0 18 -8t-1 -19l-84 -158q-6 -15 -28 -15h-190z" />
    <glyph glyph-name="uni0220" unicode="&#x220;" horiz-adv-x="1077" vert-adv-y="0" 
d="M138 0q-25 0 -25 25v1283q0 25 25 25h569q23 0 40 -16l200 -200q16 -17 16 -40v-1469q0 -25 -25 -25h-283q-25 0 -25 25v1459h-183v-1042q0 -25 -25 -25h-284z" />
    <glyph glyph-name="uni0222" unicode="&#x222;" horiz-adv-x="1147" vert-adv-y="0" 
d="M377 0q-23 0 -40 17l-200 200q-17 16 -17 40v486q0 24 17 40l200 200q17 17 40 17h393q24 0 40 -17l200 -200q17 -16 17 -40v-486q0 -24 -17 -40l-200 -200q-16 -17 -40 -17h-393zM495 267h157q42 0 42 56v354q0 56 -42 56h-157q-41 0 -41 -56v-354q0 -56 41 -56z
M377 732q-23 0 -40 16l-200 200q-17 17 -17 40v345h334v-278q0 -57 41 -57h157q42 0 42 57v278h333v-345q0 -23 -17 -40l-200 -200q-16 -16 -40 -16h-393z" />
    <glyph glyph-name="uni0223" unicode="&#x223;" vert-adv-y="0" 
d="M370 0q-23 0 -40 17l-200 200q-17 16 -17 40v486q0 24 17 40l200 200q17 17 40 17h303q24 0 40 -17l200 -200q17 -16 17 -40v-486q0 -24 -17 -40l-200 -200q-16 -17 -40 -17h-303zM487 233h70q32 0 44 13t12 46v416q0 33 -12 46t-44 13h-70q-33 0 -45 -13t-12 -46v-416
q0 -33 12 -46t45 -13zM370 767q-23 0 -40 16l-200 200q-17 17 -17 40v310h317v-275q0 -32 12 -45t45 -13h70q32 0 44 13t12 45v275h317v-310q0 -23 -17 -40l-200 -200q-16 -16 -40 -16h-303z" />
    <glyph glyph-name="uni0226" unicode="&#x226;" horiz-adv-x="1117" vert-adv-y="0" 
d="M138 0q-25 0 -25 25v927q0 13 10 30l237 336q11 15 32 15h331q22 0 32 -15l238 -336q10 -14 10 -30v-927q0 -25 -25 -25h-283q-25 0 -25 25v425h-223v-425q0 -25 -25 -25h-284zM558 665q92 0 124.5 40.5t32.5 154.5t-32.5 154.5t-124.5 40.5q-91 0 -123.5 -40.5
t-32.5 -154.5t32.5 -154.5t123.5 -40.5zM558 1387q-43 0 -71.5 28.5t-28.5 71.5q0 44 28.5 73t71.5 29q44 0 72 -29t28 -73q0 -43 -28 -71.5t-72 -28.5z" />
    <glyph glyph-name="uni0227" unicode="&#x227;" vert-adv-y="0" 
d="M370 0q-23 0 -40 17l-200 200q-17 16 -17 40v586q0 24 17 40l200 200q17 17 40 17h535q25 0 25 -25v-1050q0 -25 -25 -25h-208q-13 0 -19.5 5t-14.5 12l-50 50l-50 -50q-16 -17 -40 -17h-153zM487 233h70q32 0 44 13t12 46v575h-126q-33 0 -45 -13t-12 -46v-516
q0 -33 12 -46t45 -13zM630 1154q-43 0 -71.5 28.5t-28.5 71.5q0 44 28.5 73t71.5 29q44 0 72 -29t28 -73q0 -43 -28 -71.5t-72 -28.5z" />
    <glyph glyph-name="uni0228" unicode="&#x228;" horiz-adv-x="987" vert-adv-y="0" 
d="M145 0q-25 0 -25 25v1283q0 25 25 25h697q25 0 25 -25v-216q0 -25 -25 -25h-389v-284h355q25 0 25 -25v-183q0 -25 -25 -25h-355v-283h389q25 0 25 -25v-217q0 -25 -25 -25h-697zM408 -323q-25 0 -25 21v34q0 20 25 20h113v81h-88q-25 0 -25 25v65l51 77h135l-51 -77h65
q25 0 25 -25v-158q0 -18 -14 -32l-20 -20q-7 -7 -15 -9t-16 -2h-160z" />
    <glyph glyph-name="uni0229" unicode="&#x229;" horiz-adv-x="1036" vert-adv-y="0" 
d="M568 0q-10 0 -21.5 3t-21.5 5l-178 44l-204 68q-30 10 -30 58v665q0 24 17 40l200 200q17 17 40 17h320q23 0 40 -17l200 -200q17 -16 17 -40v-410h-537l-7 -133l142 -47l255 -18q17 -3 17 -23v-187q0 -25 -25 -25h-224zM528 590h19q49 0 78.5 37t29.5 100v20
q0 62 -29.5 99t-78.5 37h-20q-48 0 -76.5 -37t-28.5 -99v-20q0 -63 28.5 -100t77.5 -37zM539 -323q-25 0 -25 21v34q0 20 25 20h113v81h-88q-25 0 -25 25v65l51 77h135l-51 -77h65q25 0 25 -25v-158q0 -18 -14 -32l-20 -20q-7 -7 -15 -9t-16 -2h-160z" />
    <glyph glyph-name="uni022A" unicode="&#x22a;" horiz-adv-x="1147" vert-adv-y="0" 
d="M377 0q-23 0 -40 17l-200 200q-17 16 -17 40v820q0 23 17 40l200 200q17 16 40 16h393q24 0 40 -16l200 -200q17 -17 17 -40v-820q0 -24 -17 -40l-200 -200q-16 -17 -40 -17h-393zM495 267h157q42 0 42 56v687q0 57 -42 57h-157q-41 0 -41 -57v-687q0 -56 41 -56z
M284 1416q-20 0 -20 20v127q0 20 20 20h238q18 0 18 -20v-127q0 -20 -18 -20h-238zM629 1416q-20 0 -20 20v127q0 20 20 20h238q18 0 18 -20v-127q0 -20 -18 -20h-238zM397 1700q-25 0 -25 25v50q0 25 25 25h351q25 0 25 -25v-50q0 -25 -25 -25h-351z" />
    <glyph glyph-name="uni022B" unicode="&#x22b;" vert-adv-y="0" 
d="M370 0q-23 0 -40 17l-200 200q-17 16 -17 40v586q0 24 17 40l200 200q17 17 40 17h303q24 0 40 -17l200 -200q17 -16 17 -40v-586q0 -24 -17 -40l-200 -200q-16 -17 -40 -17h-303zM487 233h70q32 0 44 13t12 46v516q0 33 -12 46t-44 13h-70q-33 0 -45 -13t-12 -46v-516
q0 -33 12 -46t45 -13zM231 1183q-20 0 -20 20v127q0 20 20 20h238q18 0 18 -20v-127q0 -20 -18 -20h-238zM576 1183q-20 0 -20 20v127q0 20 20 20h238q18 0 18 -20v-127q0 -20 -18 -20h-238zM344 1467q-25 0 -25 25v50q0 25 25 25h351q25 0 25 -25v-50q0 -25 -25 -25h-351z
" />
    <glyph glyph-name="uni022C" unicode="&#x22c;" horiz-adv-x="1147" vert-adv-y="0" 
d="M377 0q-23 0 -40 17l-200 200q-17 16 -17 40v820q0 23 17 40l200 200q17 16 40 16h393q24 0 40 -16l200 -200q17 -17 17 -40v-820q0 -24 -17 -40l-200 -200q-16 -17 -40 -17h-393zM495 267h157q42 0 42 56v687q0 57 -42 57h-157q-41 0 -41 -57v-687q0 -56 41 -56z
M376 1383q-22 0 -13 27l65 156q11 17 20 17h140q11 0 17 -17l26 -71l27 71q8 17 35 17h80q22 0 13 -28l-61 -155q-6 -17 -20 -17h-139q-10 0 -16 17l-19 76l-48 -76q-10 -17 -35 -17h-72zM397 1700q-25 0 -25 25v50q0 25 25 25h351q25 0 25 -25v-50q0 -25 -25 -25h-351z" />
    <glyph glyph-name="uni022D" unicode="&#x22d;" vert-adv-y="0" 
d="M370 0q-23 0 -40 17l-200 200q-17 16 -17 40v586q0 24 17 40l200 200q17 17 40 17h303q24 0 40 -17l200 -200q17 -16 17 -40v-586q0 -24 -17 -40l-200 -200q-16 -17 -40 -17h-303zM487 233h70q32 0 44 13t12 46v516q0 33 -12 46t-44 13h-70q-33 0 -45 -13t-12 -46v-516
q0 -33 12 -46t45 -13zM323 1150q-22 0 -13 27l65 156q11 17 20 17h140q11 0 17 -17l26 -71l27 71q8 17 35 17h80q22 0 13 -28l-61 -155q-6 -17 -20 -17h-139q-10 0 -16 17l-19 76l-48 -76q-10 -17 -35 -17h-72zM344 1467q-25 0 -25 25v50q0 25 25 25h351q25 0 25 -25v-50
q0 -25 -25 -25h-351z" />
    <glyph glyph-name="uni022E" unicode="&#x22e;" horiz-adv-x="1147" vert-adv-y="0" 
d="M377 0q-23 0 -40 17l-200 200q-17 16 -17 40v820q0 23 17 40l200 200q17 16 40 16h393q24 0 40 -16l200 -200q17 -17 17 -40v-820q0 -24 -17 -40l-200 -200q-16 -17 -40 -17h-393zM495 267h157q42 0 42 56v687q0 57 -42 57h-157q-41 0 -41 -57v-687q0 -56 41 -56z
M575 1387q-43 0 -71.5 28.5t-28.5 71.5q0 44 28.5 73t71.5 29q44 0 72 -29t28 -73q0 -43 -28 -71.5t-72 -28.5z" />
    <glyph glyph-name="uni022F" unicode="&#x22f;" vert-adv-y="0" 
d="M370 0q-23 0 -40 17l-200 200q-17 16 -17 40v586q0 24 17 40l200 200q17 17 40 17h303q24 0 40 -17l200 -200q17 -16 17 -40v-586q0 -24 -17 -40l-200 -200q-16 -17 -40 -17h-303zM487 233h70q32 0 44 13t12 46v516q0 33 -12 46t-44 13h-70q-33 0 -45 -13t-12 -46v-516
q0 -33 12 -46t45 -13zM522 1154q-43 0 -71.5 28.5t-28.5 71.5q0 44 28.5 73t71.5 29q44 0 72 -29t28 -73q0 -43 -28 -71.5t-72 -28.5z" />
    <glyph glyph-name="uni0230" unicode="&#x230;" horiz-adv-x="1147" vert-adv-y="0" 
d="M377 0q-23 0 -40 17l-200 200q-17 16 -17 40v820q0 23 17 40l200 200q17 16 40 16h393q24 0 40 -16l200 -200q17 -17 17 -40v-820q0 -24 -17 -40l-200 -200q-16 -17 -40 -17h-393zM495 267h157q42 0 42 56v687q0 57 -42 57h-157q-41 0 -41 -57v-687q0 -56 41 -56z
M575 1387q-43 0 -71.5 28.5t-28.5 71.5q0 44 28.5 73t71.5 29q44 0 72 -29t28 -73q0 -43 -28 -71.5t-72 -28.5zM397 1706q-25 0 -25 25v50q0 25 25 25h351q25 0 25 -25v-50q0 -25 -25 -25h-351z" />
    <glyph glyph-name="uni0231" unicode="&#x231;" vert-adv-y="0" 
d="M370 0q-23 0 -40 17l-200 200q-17 16 -17 40v586q0 24 17 40l200 200q17 17 40 17h303q24 0 40 -17l200 -200q17 -16 17 -40v-586q0 -24 -17 -40l-200 -200q-16 -17 -40 -17h-303zM487 233h70q32 0 44 13t12 46v516q0 33 -12 46t-44 13h-70q-33 0 -45 -13t-12 -46v-516
q0 -33 12 -46t45 -13zM522 1154q-43 0 -71.5 28.5t-28.5 71.5q0 44 28.5 73t71.5 29q44 0 72 -29t28 -73q0 -43 -28 -71.5t-72 -28.5zM344 1473q-25 0 -25 25v50q0 25 25 25h351q25 0 25 -25v-50q0 -25 -25 -25h-351z" />
    <glyph glyph-name="uni0232" unicode="&#x232;" horiz-adv-x="1050" vert-adv-y="0" 
d="M383 0q-25 0 -25 25v390l-268 267q-7 8 -8.5 14.5t-1.5 15.5v596q0 25 25 25h283q25 0 25 -25v-605h224v605q0 25 25 25h283q25 0 25 -25v-596q0 -9 -1 -15.5t-9 -14.5l-267 -267v-390q0 -25 -25 -25h-285zM347 1450q-25 0 -25 25v50q0 25 25 25h351q25 0 25 -25v-50
q0 -25 -25 -25h-351z" />
    <glyph glyph-name="uni0233" unicode="&#x233;" horiz-adv-x="1050" vert-adv-y="0" 
d="M408 -333q-25 0 -25 25v156q0 19 15 22l147 37l103 55q15 8 15 31v164l-93 -87q-17 -17 -40 -17l-170 -6q-23 0 -40 16l-183 184q-17 16 -17 40v788q0 25 25 25h267q25 0 25 -25v-753q0 -33 12 -46t44 -13h127v812q0 25 25 25h267q25 0 25 -25v-1202q0 -30 -17 -40
l-133 -85l-169 -70q-15 -6 -22.5 -8.5t-23.5 -2.5h-164zM350 1217q-25 0 -25 25v50q0 25 25 25h351q25 0 25 -25v-50q0 -25 -25 -25h-351z" />
    <glyph glyph-name="uni0237" unicode="&#x237;" horiz-adv-x="533" vert-adv-y="0" 
d="M-37 -333q-23 0 -23 25v156q0 18 15 22l80 28l55 62q9 9 11 16t2 17v1082q0 25 25 25h267q25 0 25 -25v-1150q0 -25 -17 -43l-118 -129l-127 -71q-25 -15 -50 -15h-145z" />
    <glyph glyph-name="uni023A" unicode="&#x23a;" horiz-adv-x="940" vert-adv-y="0" 
d="M672 1035q-34 0 -17 30l140 252q9 16 30 16h112q14 0 20 -8t-2 -22l-140 -251q-8 -17 -30 -17h-113zM112 -98q-33 0 -17 30l140 251q9 17 30 17h112q14 0 20 -8t-2 -22l-140 -252q-9 -16 -30 -16h-113zM138 0q-25 0 -25 25v927q0 13 10 30l237 336q11 15 32 15h331
q22 0 32 -15l238 -336q10 -14 10 -30v-927q0 -25 -25 -25h-283q-25 0 -25 25v425h-223v-425q0 -25 -25 -25h-284zM558 665q92 0 124.5 40.5t32.5 154.5t-32.5 154.5t-124.5 40.5q-91 0 -123.5 -40.5t-32.5 -154.5t32.5 -154.5t123.5 -40.5z" />
    <glyph glyph-name="uni023B" unicode="&#x23b;" horiz-adv-x="843" vert-adv-y="0" 
d="M378 -110l334 1595h55l-334 -1595h-55zM498 0q-23 0 -40 13l-163 149l-165 215q-11 14 -14 17.5t-3 17.5v510q0 14 3.5 18t13.5 17l153 198l175 165q11 9 17.5 11t22.5 2h247q25 0 25 -25v-160q0 -8 -1.5 -16.5t-10.5 -14.5l-188 -129l-123 -158v-327l125 -158l186 -128
q8 -5 10 -12t2 -15v-165q0 -25 -25 -25h-247z" />
    <glyph glyph-name="uni023C" unicode="&#x23c;" horiz-adv-x="863" vert-adv-y="0" 
d="M129 0q-26 0 -12 27l577 1150q12 23 30 23h43q26 0 12 -27l-577 -1150q-12 -23 -30 -23h-43zM506 0q-20 0 -40 13l-163 110l-112 180q-7 13 -12 17.5t-5 19.5v420q0 15 4 20t13 18l102 170l173 119q9 6 18 9.5t22 3.5h173q25 0 25 -25v-187q0 -8 -1.5 -17t-9.5 -14
l-114 -57l-88 -115v-267l93 -106l109 -69q10 -6 10.5 -14.5t0.5 -16.5v-187q0 -25 -25 -25h-173z" />
    <glyph glyph-name="uni023D" unicode="&#x23d;" horiz-adv-x="770" vert-adv-y="0" 
d="M145 0q-25 0 -25 25v1283q0 25 25 25h283q25 0 25 -25v-1041h252q25 0 25 -25v-217q0 -25 -25 -25h-560zM28 729q-25 0 -25 25v33q0 25 25 25h548q25 0 25 -25v-33q0 -25 -25 -25h-548z" />
    <glyph glyph-name="uni023E" unicode="&#x23e;" horiz-adv-x="973" vert-adv-y="0" 
d="M150 -118q-21 0 -11 26l576 1617q4 11 12 17t18 6h60q22 0 12 -26l-577 -1617q-4 -11 -11.5 -17t-18.5 -6h-60zM345 0q-25 0 -25 25v1042h-175q-25 0 -25 25v216q0 25 25 25h683q25 0 25 -25v-216q0 -25 -25 -25h-175v-1042q0 -25 -25 -25h-283z" />
    <glyph glyph-name="uni0241" unicode="&#x241;" horiz-adv-x="811" vert-adv-y="0" 
d="M140 0q-25 0 -25 25l-2 448q0 11 5 16.5t14 12.5l226 181v239l-230 126q-15 8 -15 30v230q0 25 25 25h165q16 0 30 -10l350 -221q15 -10 15 -30v-437q0 -18 -16 -33l-234 -225v-352q0 -25 -25 -25h-283z" />
    <glyph glyph-name="uni0242" unicode="&#x242;" horiz-adv-x="811" vert-adv-y="0" 
d="M140 0q-25 0 -25 25l-2 265q0 11 5 16t14 12l226 182v188l-230 144q-15 9 -15 30v213q0 25 25 25h165q16 0 30 -10l350 -222q15 -9 15 -30v-386q0 -19 -16 -34l-234 -225v-168q0 -25 -25 -25h-283z" />
    <glyph glyph-name="uni0243" unicode="&#x243;" horiz-adv-x="1133" vert-adv-y="0" 
d="M50 323q-25 0 -25 25v59q0 25 25 25h462q25 0 25 -25v-59q0 -25 -25 -25h-462zM150 0q-25 0 -25 25v1283q0 25 25 25h602q23 0 40 -16l200 -200q16 -17 16 -40v-210q0 -10 -4 -16t-12 -14l-157 -140l-15 -37l15 -27l157 -140q8 -8 12 -13.5t4 -16.5v-206q0 -24 -16 -40
l-200 -200q-17 -17 -40 -17h-602zM548 225q83 0 113.5 33t30.5 125q0 93 -30.5 126t-113.5 33q-82 0 -112.5 -33t-30.5 -126q0 -92 30.5 -125t112.5 -33zM548 792q83 0 113.5 33t30.5 125t-30.5 125t-113.5 33q-82 0 -112.5 -33t-30.5 -125t30.5 -125t112.5 -33z" />
    <glyph glyph-name="uni0244" unicode="&#x244;" horiz-adv-x="1090" vert-adv-y="0" 
d="M377 0q-24 0 -40 17l-200 200q-17 16 -17 40v1051q0 25 25 25h283q25 0 25 -25v-1021q0 -20 20 -20h164v1041q0 25 25 25h283q25 0 25 -25v-1283q0 -25 -25 -25h-568zM20 626q-25 0 -25 25v33q0 25 25 25h1048q25 0 25 -25v-33q0 -25 -25 -25h-1048z" />
    <glyph glyph-name="uni0245" unicode="&#x245;" horiz-adv-x="1130" vert-adv-y="0" 
d="M753 1333q24 0 40 -17l200 -200q17 -16 17 -40v-1051q0 -25 -25 -25h-283q-25 0 -25 25v1040h-224v-1040q0 -25 -25 -25h-283q-25 0 -25 25v1051q0 24 17 40l200 200q16 17 40 17h376z" />
    <glyph glyph-name="uni0246" unicode="&#x246;" horiz-adv-x="987" vert-adv-y="0" 
d="M372 -110l333 1595h55l-333 -1595h-55zM145 0q-25 0 -25 25v1283q0 25 25 25h697q25 0 25 -25v-216q0 -25 -25 -25h-389v-284h355q25 0 25 -25v-183q0 -25 -25 -25h-355v-283h389q25 0 25 -25v-217q0 -25 -25 -25h-697z" />
    <glyph glyph-name="uni0247" unicode="&#x247;" horiz-adv-x="1036" vert-adv-y="0" 
d="M155 0q-26 0 -12 27l577 1150q12 23 30 23h43q26 0 12 -27l-577 -1150q-12 -23 -30 -23h-43zM568 0q-10 0 -21.5 3t-21.5 5l-178 44l-204 68q-30 10 -30 58v665q0 24 17 40l200 200q17 17 40 17h320q23 0 40 -17l200 -200q17 -16 17 -40v-410h-537l-7 -133l142 -47
l255 -18q17 -3 17 -23v-187q0 -25 -25 -25h-224zM528 590h19q49 0 78.5 37t29.5 100v20q0 62 -29.5 99t-78.5 37h-20q-48 0 -76.5 -37t-28.5 -99v-20q0 -63 28.5 -100t77.5 -37z" />
    <glyph glyph-name="uni0248" unicode="&#x248;" horiz-adv-x="800" vert-adv-y="0" 
d="M65 -167q-25 0 -25 25v159q0 19 10 30l148 148q12 11 12 32v1081q0 25 25 25h283q25 0 25 -25v-1221q0 -9 -1.5 -16.5t-9.5 -15.5l-207 -207q-15 -15 -30 -15h-230zM107 850q-25 0 -25 25v33q0 25 25 25h548q25 0 25 -25v-33q0 -25 -25 -25h-548z" />
    <glyph glyph-name="uni0249" unicode="&#x249;" horiz-adv-x="1000" vert-adv-y="0" 
d="M71 -333q-23 0 -23 25v156q0 18 15 22l80 28l55 62q9 9 11 16t2 17v1082q0 25 25 25h267q25 0 25 -25v-1150q0 -25 -17 -43l-118 -129l-127 -71q-25 -15 -50 -15h-145zM231 1183q-20 0 -20 20v127q0 20 20 20h278q18 0 18 -20v-127q0 -20 -18 -20h-278zM122 600
q-25 0 -25 25v33q0 25 25 25h548q25 0 25 -25v-33q0 -25 -25 -25h-548z" />
    <glyph glyph-name="uni024A" unicode="&#x24a;" horiz-adv-x="1310" vert-adv-y="0" 
d="M977 -417q-23 0 -40 17l-217 217q-16 16 -16 40v265l-100 -100q-17 -17 -40 -17h-187q-23 0 -40 17l-200 200q-17 16 -17 40v815q0 23 17 40l200 200q17 16 40 16h618q25 0 25 -25v-1308q0 -18 12 -32l148 -148q10 -9 10 -30v-182q0 -25 -25 -25h-188zM495 272h192v795
h-192q-41 0 -41 -57v-682q0 -56 41 -56z" />
    <glyph glyph-name="uni024B" unicode="&#x24b;" horiz-adv-x="1000" vert-adv-y="0" 
d="M895 -500q-23 0 -40 17l-218 218q-17 17 -17 40v292l-50 -50q-17 -17 -40 -17h-153q-24 0 -40 17l-200 200q-17 16 -17 40v586q0 24 17 40l200 200q16 17 40 17h535q25 0 25 -25v-1157q0 -20 11 -31l150 -150q10 -10 10 -30v-182q0 -25 -25 -25h-188zM493 233h70
q33 0 45 13t12 46v575h-127q-32 0 -44 -13t-12 -46v-516q0 -33 12 -46t44 -13z" />
    <glyph glyph-name="uni024C" unicode="&#x24c;" horiz-adv-x="1139" vert-adv-y="0" 
d="M252 0q-25 0 -25 25v463h-92q-25 0 -25 25v189q0 25 25 25h92v581q0 25 25 25h542q24 0 40 -13l230 -228q11 -10 13.5 -17t2.5 -23v-274q0 -13 -10 -23l-110 -107l-93 -80l110 -146l113 -242q4 -9 6.5 -17.5t2.5 -20.5v-117q0 -25 -25 -25h-264q-22 0 -30 20l-161 468
h-75v-463q0 -25 -25 -25h-267zM654 733q83 0 113 34.5t30 129.5q0 96 -30 130.5t-113 34.5q-82 0 -113 -34.5t-31 -130.5q0 -95 31 -129.5t113 -34.5z" />
    <glyph glyph-name="uni024D" unicode="&#x24d;" horiz-adv-x="698" vert-adv-y="0" 
d="M145 0q-25 0 -25 25v1050q0 25 25 25h152q19 0 33 -17l98 -113l109 118q11 12 28 12h108q25 0 25 -25v-215q0 -16 -2 -21.5t-11 -11.5l-248 -183v-619q0 -25 -25 -25h-267zM3 469q-25 0 -25 25v33q0 25 25 25h548q25 0 25 -25v-33q0 -25 -25 -25h-548z" />
    <glyph glyph-name="uni024E" unicode="&#x24e;" horiz-adv-x="1228" vert-adv-y="0" 
d="M473 0q-25 0 -25 25v390l-268 267q-7 8 -8.5 14.5t-1.5 15.5v596q0 25 25 25h283q25 0 25 -25v-605h224v605q0 25 25 25h283q25 0 25 -25v-596q0 -9 -1 -15.5t-9 -14.5l-267 -267v-390q0 -25 -25 -25h-285zM90 964q-25 0 -25 25v33q0 25 25 25h1048q25 0 25 -25v-33
q0 -25 -25 -25h-1048z" />
    <glyph glyph-name="uni024F" unicode="&#x24f;" horiz-adv-x="1050" vert-adv-y="0" 
d="M408 -333q-25 0 -25 25v156q0 19 15 22l147 37l103 55q15 8 15 31v164l-93 -87q-17 -17 -40 -17l-170 -6q-23 0 -40 16l-183 184q-17 16 -17 40v788q0 25 25 25h267q25 0 25 -25v-753q0 -33 12 -46t44 -13h127v812q0 25 25 25h267q25 0 25 -25v-1202q0 -30 -17 -40
l-133 -85l-169 -70q-15 -6 -22.5 -8.5t-23.5 -2.5h-164zM-3 572q-25 0 -25 25v33q0 25 25 25h1048q25 0 25 -25v-33q0 -25 -25 -25h-1048z" />
    <glyph glyph-name="uni0251" unicode="&#x251;" vert-adv-y="0" 
d="M370 0q-23 0 -40 17l-200 200q-17 16 -17 40v586q0 24 17 40l200 200q17 17 40 17h153q24 0 40 -17l50 -50l50 50q8 8 14.5 12.5t19.5 4.5h208q25 0 25 -25v-1050q0 -25 -25 -25h-208q-13 0 -19.5 5t-14.5 12l-50 50l-50 -50q-16 -17 -40 -17h-153zM487 233h70
q32 0 44 13t12 46v516q0 33 -12 46t-44 13h-70q-33 0 -45 -13t-12 -46v-516q0 -33 12 -46t45 -13z" />
    <glyph glyph-name="uni0253" unicode="&#x253;" horiz-adv-x="1050" vert-adv-y="0" 
d="M121 1124v312q0 24 16 38l74 70q15 14 40 14h351q32 0 32 -30v-157q0 -32 -32 -32h-165v-31zM145 0q-25 0 -25 25v1283q0 25 25 25h267q25 0 25 -25v-275l50 50q16 17 40 17h153q23 0 40 -17l200 -200q17 -16 17 -40v-586q0 -24 -17 -40l-200 -200q-17 -17 -40 -17h-535z
M437 233h126q33 0 45 13t12 46v516q0 33 -12 46t-45 13h-70q-32 0 -44 -13t-12 -46v-575z" />
    </font>
</defs>
</svg>
