<?xml version="1.0" standalone="no"?>
<!DOCTYPE svg PUBLIC "-//W3C//DTD SVG 1.1//EN" "http://www.w3.org/Graphics/SVG/1.1/DTD/svg11.dtd" >
<svg xmlns="http://www.w3.org/2000/svg" xmlns:xlink="http://www.w3.org/1999/xlink" version="1.1">
<metadata>
Created by FontForge 20201107 at Tue Oct 17 19:33:37 2023
 By 
Copyright 2022 The Kalnia Project Authors (https://github.com/fridamedrano/Kalnia-Typeface.git)
</metadata>
<defs>
<font id="Kalnia-Bold" horiz-adv-x="702" >
  <font-face 
    font-family="Kalnia"
    font-weight="700"
    font-stretch="normal"
    units-per-em="1000"
    panose-1="0 0 0 0 0 0 0 0 0 0"
    ascent="800"
    descent="-200"
    x-height="500"
    cap-height="708"
    bbox="-242 -252 1220 956"
    underline-thickness="50"
    underline-position="-125"
    unicode-range="U+000D-FFFD"
  />
<missing-glyph horiz-adv-x="540" 
d="M80 708h380v-708h-380v708zM430 678h-320v-648h320v648zM455 682l-342 -672l-30 16l343 672z" />
    <glyph glyph-name="fi" unicode="fi" horiz-adv-x="770" 
d="M10 0v10l50 10v460h-50v10l50 10q0 33 3.5 71t15.5 66q12 27 34 47.5t57 34t84.5 20t115.5 6.5q103 0 181.5 -16.5t122.5 -46t44 -67.5q0 -40 -35 -63t-95 -23q-58 0 -91.5 21t-33.5 56q0 18 9.5 35t19.5 31t10 23q0 12 -18.5 21t-49.5 14t-67 5q-32 0 -54 -7.5
t-33.5 -21.5t-11.5 -35q0 -13 3.5 -40t10 -61.5t13.5 -69.5l145 -5l270 20v-490l50 -15v-10h-335v10l50 15v455h-180v-460l50 -10v-10h-335z" />
    <glyph glyph-name="fl" unicode="fl" horiz-adv-x="771" 
d="M10 0v10l50 10v460h-50v10l50 10q0 33 3.5 71t15.5 66q16 38 51.5 61.5t94 35t142.5 11.5q22 0 48 -3.5t53 -9.5t49 -14l194 27v-720l50 -15v-10h-335v10l50 15v594q0 29 -7 51t-20.5 36.5t-34 21.5t-47.5 7q-32 0 -54 -7.5t-33.5 -21.5t-11.5 -35q0 -13 3.5 -40
t10 -61.5t13.5 -69.5h90v-15h-90v-465l50 -10v-10h-335z" />
    <glyph glyph-name="f_b.liga" unicode="fb" horiz-adv-x="1090" 
d="M476 -15v634q0 29 -7 51t-20.5 36.5t-34 21.5t-47.5 7q-32 0 -54 -7.5t-33.5 -21.5t-11.5 -35q0 -13 3.5 -40t10 -61.5t13.5 -69.5h90v-15h-90v-465l50 -10v-10h-335v10l50 10v460h-50v10l50 10q0 17 1.5 42t5.5 51t12 44q16 36 50.5 60t93 36t144.5 12q22 0 48 -3.5
t53 -9.5t49 -14l194 27v-393l8 -8q20 54 41 87.5t43.5 51.5t46.5 25t50 7q47 0 79 -20.5t52.5 -55t29.5 -77t9 -86.5q0 -82 -25 -138t-67 -90t-94 -48.5t-106 -14.5q-45 0 -78.5 10t-57.5 25.5t-41 34t-29 35.5h-10l-76 -105h-10zM768 0q24 0 37.5 32.5t19 87.5t5.5 121
q0 68 -2.5 109.5t-11 60.5t-25.5 19q-14 0 -28.5 -20t-27.5 -52t-24 -69v-119q0 -54 5 -88t13.5 -51.5t18.5 -24t20 -6.5z" />
    <glyph glyph-name="f_f.liga" unicode="ff" horiz-adv-x="834" 
d="M10 0v10l50 10v460h-50v10l50 10q0 33 3.5 71t15.5 66q16 36 50.5 60t93 36t144.5 12q34 0 89.5 -8t113.5 -25q29 16 74.5 24.5t103.5 8.5q50 0 92.5 -8t75 -23t50.5 -37.5t18 -52.5q0 -29 -17 -49t-47 -30t-69 -10q-59 0 -97.5 23t-38.5 66q0 21 11.5 36.5t27 27
t27 20.5t11.5 18q0 5 -11.5 7t-29.5 2q-37 0 -51 -17t-14 -47q0 -13 3.5 -40t10 -61.5t13.5 -69.5h90v-15h-90v-460l50 -15v-10h-335v10l50 15v455h-183v-460l50 -10v-10h-335zM382 490l96 10v35.5v35v36.5q0 48 -10.5 76t-35 40t-65.5 12q-32 0 -54 -7.5t-33.5 -21.5
t-11.5 -35q0 -13 3.5 -40t10 -61.5t13.5 -69.5z" />
    <glyph glyph-name="f_h.liga" unicode="fh" horiz-adv-x="1116" 
d="M10 0v10l50 10v460h-50v10l50 10q0 33 3.5 71t15.5 66q16 36 50.5 60t94 36t147.5 12q26 0 51 -3.5t49 -9.5t46 -14l194 27v-393l8 -8q17 48 41 87t58.5 61.5t84.5 22.5q46 0 76 -14t46.5 -38.5t23.5 -56t7 -66.5v-315l50 -15v-10h-325v10l40 15v350q0 31 -9 48t-21 17
q-14 0 -27.5 -20t-24.5 -47.5t-18.5 -51t-9.5 -31.5v-265l40 -15v-10h-325v10l50 15v594q0 62 -29.5 89t-79.5 27q-32 0 -54 -7.5t-33.5 -21.5t-11.5 -35q0 -13 3.5 -40t10 -61.5t13.5 -69.5h90v-15h-90v-465l50 -10v-10h-335z" />
    <glyph glyph-name="f_j.liga" unicode="fj" horiz-adv-x="763" 
d="M370 745q103 0 181.5 -16.5t122.5 -46t44 -67.5q0 -40 -35 -63t-95 -23q-58 0 -91.5 21t-33.5 56q0 18 9.5 35t19.5 31t10 23q0 12 -18.5 21t-49.5 14t-67 5q-32 0 -54 -7.5t-33.5 -21.5t-11.5 -35q0 -13 3.5 -40t10 -61.5t13.5 -69.5l145 -5l270 20v-515
q0 -33 -4.5 -58.5t-14.5 -48.5q-23 -54 -85.5 -81t-165.5 -27q-49 0 -92 8t-75.5 23t-50.5 37.5t-18 52.5q0 29 17 45.5t47.5 23.5t68.5 7q59 0 97.5 -16t38.5 -60q0 -22 -11.5 -37.5t-27 -26.5t-27 -20t-11.5 -18q0 -5 9.5 -7t31.5 -2q38 0 51.5 17t13.5 47q0 24 -6 55
t-21 86v480h-180v-460l50 -10v-10h-335v10l50 10v460h-50v10l50 10q0 33 3.5 71t15.5 66q12 29 37.5 49.5t62.5 33.5t85 19t106 6z" />
    <glyph glyph-name="f_k.liga" unicode="fk" horiz-adv-x="1087" 
d="M10 0v10l50 10v460h-50v10l50 10q0 33 3.5 71t15.5 66q16 36 50.5 60t93 36t144.5 12q22 0 48 -3.5t53 -9.5t49 -14l194 27v-720l50 -15v-10h-335v10l50 15v594q0 29 -7 51t-20.5 36.5t-34 21.5t-47.5 7q-32 0 -54 -7.5t-33.5 -21.5t-11.5 -35q0 -13 3.5 -40t10 -61.5
t13.5 -69.5h90v-15h-90v-465l50 -10v-10h-335zM701 270v17q33 6 69 19t79 33q34 16 59 30.5t38.5 25.5t13.5 18t-14 11.5t-36 9t-47 11t-47 16.5t-36 27t-14 43q0 25 15.5 44t42.5 30t62 11q41 0 72.5 -14.5t49.5 -40t18 -59.5t-17 -60.5t-51 -52.5q-22 -17 -52 -34.5
t-67 -37.5v-12h129q9 -34 17.5 -68.5t17.5 -69.5q7 -28 16.5 -55t20 -48.5t20.5 -31.5q4 -4 7.5 -5.5t7.5 -1.5v-10q-19 -10 -38.5 -17t-40.5 -10t-47 -3q-48 0 -85 18.5t-62 53t-38 81.5q-10 38 -19 68.5t-17 63.5h-27z" />
    <glyph glyph-name=".notdef" horiz-adv-x="540" 
d="M80 708h380v-708h-380v708zM430 678h-320v-648h320v648zM455 682l-342 -672l-30 16l343 672z" />
    <glyph glyph-name=".null" horiz-adv-x="0" 
 />
    <glyph glyph-name="nonmarkingreturn" horiz-adv-x="333" 
 />
    <glyph glyph-name="CR" unicode="&#xd;" horiz-adv-x="600" 
 />
    <glyph glyph-name="space" unicode=" " horiz-adv-x="400" 
 />
    <glyph glyph-name="exclam" unicode="!" horiz-adv-x="370" 
d="M185 815q45 0 75 -25.5t30 -75.5q0 -30 -7 -58t-18.5 -58t-24.5 -65t-24.5 -78.5t-18.5 -98t-7 -124.5h-10q0 70 -7 124.5t-18.5 98t-24.5 79t-24.5 65.5t-18.5 58t-7 57q0 50 30 75.5t75 25.5zM185 152q28 0 50 -10.5t35 -29.5t13 -45q0 -25 -13 -43.5t-35 -28.5
t-50 -10t-50 10t-35 28.5t-13 43.5q0 26 13 45t35 29.5t50 10.5z" />
    <glyph glyph-name="quotedbl" unicode="&#x22;" horiz-adv-x="348" 
d="M85 473l-65 235h144l-65 -235h-14zM249 473l-65 235h144l-65 -235h-14z" />
    <glyph glyph-name="numbersign" unicode="#" horiz-adv-x="716" 
d="M204 0h-30l128 708h32zM413 0h-30l128 708h32zM39 263l5 30h594l-5 -30h-594zM672 477h-594l5 30h594z" />
    <glyph glyph-name="dollar" unicode="$" horiz-adv-x="665" 
d="M358 -140v140h30v-140h-30zM298 -140v140h30v-140h-30zM298 718v97h30v-97h-30zM358 718v97h30v-97h-30zM332 -15q-49 0 -102 7t-102 19.5t-87 29.5l20 259h20l95 -161q29 -48 59 -79t61.5 -45.5t61.5 -14.5q22 0 37.5 6.5t23.5 19t8 29.5q0 26 -14.5 51.5t-48.5 56.5
t-93 72q-90 65 -143 112t-75.5 85t-22.5 76q0 45 22 84t63.5 68.5t99 46t127.5 16.5q60 0 113 -8.5t96.5 -22.5t71.5 -32l-50 -249h-20l-45 91q-37 76 -68 121t-60 65t-61 20q-34 0 -58 -8t-36.5 -23t-12.5 -37q0 -23 20.5 -50.5t69 -65.5t130.5 -93q62 -40 103.5 -73
t67 -61.5t36.5 -55t11 -55.5q0 -47 -20 -81t-53.5 -57t-75 -37t-85.5 -20t-84 -6z" />
    <glyph glyph-name="percent" unicode="%" horiz-adv-x="858" 
d="M613 -15q-56 0 -91.5 18.5t-52 48.5t-16.5 65q0 47 26 89.5t73.5 70t112.5 27.5q40 0 69 -10.5t47.5 -28.5t27.5 -41.5t9 -50.5q0 -48 -22.5 -91t-68 -70t-114.5 -27zM598 -5q17 0 31.5 21t26.5 53.5t21 69t14 68t5 48.5t-4.5 28.5t-14.5 11.5q-16 0 -30.5 -21.5
t-27.5 -54.5t-22.5 -69t-15 -66.5t-5.5 -45.5q0 -11 2 -21t7 -16t13 -6zM200 404q-56 0 -91.5 18.5t-52 48.5t-16.5 65q0 47 26 89.5t73.5 70t112.5 27.5q40 0 69 -10.5t47.5 -28.5t27.5 -41.5t9 -50.5q0 -48 -22.5 -91t-68 -70t-114.5 -27zM185 414q16 0 31 21t27 53.5
t21 69t14 68t5 48.5t-4.5 28.5t-14.5 11.5q-16 0 -30.5 -21.5t-27.5 -54.5t-22.5 -69t-15 -66.5t-5.5 -45.5q0 -11 2 -21t7 -16t13 -6zM298 -15l233 738h30l-233 -738h-30z" />
    <glyph glyph-name="ampersand" unicode="&#x26;" horiz-adv-x="875" 
d="M197 -15q-51 0 -91 23.5t-63 63.5t-23 91q0 45 17.5 80t47.5 63.5t69.5 52.5t83.5 46q-19 24 -36.5 47.5t-28.5 49t-11 51.5q0 48 35 86.5t94.5 61t132.5 22.5q48 0 94 -12t75.5 -35.5t29.5 -58.5t-38 -68.5t-111 -61.5v-21l-15 20q10 6 19.5 28t16 50t6.5 50
q0 27 -8 49.5t-24.5 36t-41.5 13.5q-28 0 -40 -18t-12 -45q0 -21 8 -43.5t26 -49t49 -61.5l258 -308q19 -22 35.5 -31t29.5 -9q21 0 32.5 11t11.5 31q0 16 -7 36.5t-22 45.5l12 7q21 -32 33 -66.5t12 -67.5q0 -43 -16.5 -79.5t-50.5 -58.5t-88 -22q-39 0 -78 18t-82.5 57.5
t-98.5 104.5l-207 215h-15v-38.5v-38.5v-39q0 -44 14.5 -76t43 -49t71.5 -17q29 0 55.5 13t45.5 37l7 -9q-41 -57 -84.5 -96.5t-87 -60.5t-85.5 -21zM759 313q-31 0 -50.5 12t-31.5 30.5t-19.5 36.5t-15 30t-18.5 12q-8 0 -16.5 -8t-17.5 -25l-25 -47l-7 10l23 42
q29 50 73.5 79.5t92.5 29.5q29 0 53.5 -12t39.5 -34t15 -53q0 -28 -9.5 -48t-25 -32t-31.5 -17.5t-30 -5.5z" />
    <glyph glyph-name="quotesingle" unicode="'" horiz-adv-x="184" 
d="M85 473l-65 235h144l-65 -235h-14z" />
    <glyph glyph-name="parenleft" unicode="(" horiz-adv-x="587" 
d="M517 -86q-67 10 -123.5 29.5t-103 49t-82 68t-59.5 85.5t-36.5 102.5t-12.5 118.5q0 125 48.5 218.5t142 152t226.5 77.5l10 -15q-59 -14 -98 -66.5t-58.5 -144t-19.5 -222.5q0 -132 19.5 -224t58.5 -145t98 -67z" />
    <glyph glyph-name="parenright" unicode=")" horiz-adv-x="587" 
d="M70 -86l-10 17q59 14 98 67t58.5 145t19.5 224q0 131 -19.5 222.5t-58.5 144t-98 66.5l10 15q134 -19 227 -77.5t141.5 -152t48.5 -218.5q0 -63 -12.5 -118.5t-36.5 -102.5t-59.5 -85.5t-82 -68t-103 -49t-123.5 -29.5z" />
    <glyph glyph-name="asterisk" unicode="*" horiz-adv-x="293" 
d="M146 450q-20 0 -31.5 11t-11.5 29q0 12 5.5 20t13.5 15.5t13.5 15.5t5.5 19q0 8 -2.5 11.5t-12.5 -2.5q-11 -7 -15 -19t-7 -25t-12.5 -22t-30.5 -9q-18 0 -29.5 14t-11.5 34q0 19 12 31t31 12q14 0 22.5 -5t16.5 -7t19 6q8 5 6.5 10t-6.5 7q-11 8 -19 6t-16.5 -7
t-22.5 -5q-19 0 -31 12t-12 31q0 20 11.5 34t29.5 14q21 0 30.5 -9t12.5 -22t7 -25.5t15 -18.5q10 -6 12.5 -2.5t2.5 11.5q0 10 -5.5 18t-13.5 16t-13.5 16.5t-5.5 19.5q0 18 11.5 29t31.5 11t31.5 -11t11.5 -29q0 -12 -5.5 -20.5t-13.5 -16t-13.5 -15.5t-5.5 -18
q0 -8 2.5 -11.5t12.5 2.5q11 7 15 19t7 25t12.5 22t30.5 9q18 0 29.5 -14t11.5 -34q0 -19 -12 -31t-31 -12q-13 0 -22 5t-17 7t-19 -6q-4 -2 -6 -7t6 -10q11 -8 19 -6t17 7t22 5q19 0 31 -12t12 -31q0 -20 -11.5 -34t-29.5 -14q-17 0 -26 6t-13 15.5t-6.5 20t-6.5 19.5
t-13 14q-10 6 -12.5 2.5t-2.5 -11.5q0 -11 5.5 -19t13.5 -15.5t13.5 -15.5t5.5 -20q0 -18 -11.5 -29t-31.5 -11z" />
    <glyph glyph-name="plus" unicode="+" horiz-adv-x="460" 
d="M200 470h60v-340h-60v340zM60 270v60h340v-60h-340z" />
    <glyph glyph-name="comma" unicode="," horiz-adv-x="256" 
d="M93 -90l-7 14q14 6 27.5 14.5t24.5 18.5t17 19l-11 9h-16q-30 0 -52 11t-34 29.5t-12 41.5q0 26 13 45t35 29.5t50 10.5t50 -10.5t35 -29.5t13 -45q0 -25 -11 -50t-29.5 -46.5t-42.5 -37t-50 -23.5z" />
    <glyph glyph-name="hyphen" unicode="-" horiz-adv-x="460" 
d="M60 270v60h340v-60h-340z" />
    <glyph glyph-name="period" unicode="." horiz-adv-x="256" 
d="M128 152q28 0 50 -10.5t35 -29.5t13 -45q0 -25 -13 -43.5t-35 -28.5t-50 -10t-50 10t-35 28.5t-13 43.5q0 26 13 45t35 29.5t50 10.5z" />
    <glyph glyph-name="slash" unicode="/" horiz-adv-x="283" 
d="M10 -15l233 738h30l-233 -738h-30z" />
    <glyph glyph-name="zero" unicode="0" horiz-adv-x="740" 
d="M368 -15q-69 0 -128.5 24t-104.5 72t-70 119.5t-25 165.5q0 87 25.5 153.5t71 112t106 68.5t131.5 23q76 0 136 -23t102.5 -68.5t65 -112t22.5 -153.5q0 -94 -22.5 -165.5t-65.5 -119.5t-104.5 -72t-139.5 -24zM369 0q35 0 51 34.5t21.5 92t8.5 125.5v220
q0 63 -5.5 116.5t-22 86.5t-49.5 33q-32 0 -50 -33t-25.5 -86.5t-7.5 -116.5v-220q0 -68 7.5 -125.5t24.5 -92t47 -34.5z" />
    <glyph glyph-name="one" unicode="1" horiz-adv-x="520" 
d="M95 0v10l60 10v582h-85v10l320 112h10v-704l50 -10v-10h-355z" />
    <glyph glyph-name="two" unicode="2" horiz-adv-x="701" 
d="M102 -15q-28 0 -44 24.5t-16 69.5q0 52 15.5 97.5t46.5 84.5q26 32 61.5 60t81.5 51q53 26 87.5 57.5t52 68t17.5 78.5t-24 67.5t-61 37.5t-77 12q-19 0 -34 -2.5t-24 -7t-9 -10.5q0 -5 11.5 -16t39.5 -34q25 -19 38 -41t13 -44q0 -34 -18.5 -53.5t-46.5 -27.5t-57 -8
q-26 0 -52.5 7.5t-44.5 26.5t-18 56q0 32 21 64t61.5 59.5t99.5 44t135 16.5q142 0 218.5 -45.5t76.5 -131.5q0 -49 -31 -91.5t-90 -77.5t-145 -60q-108 -31 -176 -61t-103.5 -62t-44.5 -70l8 -5q17 33 45.5 56.5t64 38t73 21.5t72.5 7q47 0 90 -12.5t79.5 -28.5t64.5 -28.5
t46 -12.5q19 0 32.5 29.5t13.5 84.5h10q0 -81 -16.5 -136t-46 -89t-67.5 -49t-81 -15q-38 0 -80 9.5t-83.5 24t-79.5 30.5q-35 15 -65 28t-50.5 21.5t-29.5 8.5q-6 0 -6 -4q0 -11 13 -18t29 -15q17 -8 31.5 -18.5t14.5 -28.5q0 -15 -11 -26.5t-31 -11.5z" />
    <glyph glyph-name="three" unicode="3" horiz-adv-x="662" 
d="M329 -15q-79 0 -134.5 13t-89.5 35.5t-49.5 50t-15.5 55.5q0 30 13.5 54.5t40 39t66.5 14.5q42 0 67.5 -15.5t37.5 -37.5t12 -44q0 -27 -12.5 -44.5t-31 -28t-37.5 -18t-31.5 -13.5t-12.5 -15q0 -5 6.5 -10.5t18 -10t27.5 -7.5t34 -3q44 0 76 25.5t50 65.5t18 83
q0 65 -9 102.5t-29 53t-54 15.5h-60v15q50 0 83.5 29t51 71.5t17.5 84.5q0 45 -18 82t-50 59t-76 22q-18 0 -34 -2.5t-27.5 -7t-18 -10t-6.5 -10.5q0 -9 12.5 -15t31.5 -13.5t37.5 -18t31 -28t12.5 -44.5q0 -21 -12 -43.5t-37.5 -38t-67.5 -15.5q-40 0 -66.5 14.5t-40 39
t-13.5 54.5q0 29 15.5 56t49.5 49t89.5 35t134.5 13q87 0 153 -19.5t103 -60.5t37 -107q0 -45 -24 -78t-68 -53.5t-103.5 -30.5t-130.5 -10v-10q72 0 132 -10.5t103.5 -33t67 -59t23.5 -87.5q0 -43 -18.5 -74t-49.5 -51.5t-69.5 -32t-78.5 -16.5t-77 -5z" />
    <glyph glyph-name="four" unicode="4" horiz-adv-x="641" 
d="M25 170v25q37 11 68.5 30t50.5 47q12 18 18.5 39.5t6.5 46.5q0 29 -15 60.5t-54 81.5q-19 26 -34.5 54t-15.5 59t17 56t46.5 39.5t66.5 14.5q42 0 71.5 -24t44.5 -70t15 -113q0 -76 -17 -131t-45 -93q-27 -36 -61 -58t-69.5 -31.5t-67.5 -9.5v-13l270 10v306l235 212h10
v-510l50 2v-30h-50v-150l50 -10v-10h-345v10l50 10v150h-296z" />
    <glyph glyph-name="five" unicode="5" horiz-adv-x="696" 
d="M352 -15q-76 0 -135 17t-99.5 44t-61.5 60t-21 64q0 27 10.5 46.5t27.5 31t37.5 17t39.5 5.5q22 0 42 -6t36 -18t25 -30.5t9 -44.5q0 -23 -8.5 -40t-20.5 -30t-24.5 -23t-21 -18.5t-8.5 -18.5q0 -5 4.5 -9.5t12.5 -8t18.5 -5.5t22.5 -2q40 0 77 14t61 50t24 103
q0 51 -25.5 88t-66.5 56.5t-88 19.5q-26 0 -46 -5.5t-37.5 -16.5t-37.5 -27h-24q5 34 8 68t4 65t1 55q0 66 -5 109.5t-5 64.5q0 25 9 38.5t23 19t28 5.5q24 0 38 -8.5t14 -25.5q0 -15 -9 -26t-22 -19t-26 -14t-22 -11.5t-9 -10.5t7 -5q11 0 36 12.5t60 31t76 35.5
q27 12 56 21t59 14.5t60 5.5q43 0 81 -15t67.5 -48.5t46 -88.5t16.5 -136h-10q0 62 -11.5 88t-40.5 26q-17 0 -41 -12.5t-56 -28.5t-73.5 -28.5t-93.5 -12.5q-35 0 -69.5 7t-66 21.5t-57 38t-42.5 56.5l-8 -5q4 -16 5.5 -42t1.5 -55q0 -24 -1.5 -53t-4 -55.5t-5.5 -43.5
l15 -10q42 25 87 41.5t91.5 24.5t90.5 8q57 0 107.5 -13t89.5 -39.5t61 -65t22 -89.5q0 -37 -16 -74t-51 -67.5t-93.5 -48.5t-144.5 -18z" />
    <glyph glyph-name="six" unicode="6" horiz-adv-x="709" 
d="M404 723q60 0 104.5 -13t74.5 -35.5t44.5 -49.5t14.5 -56q0 -30 -13.5 -54.5t-40 -39t-66.5 -14.5q-41 0 -67 15.5t-38 38t-12 43.5q0 18 9 33t23.5 27t30 21.5t30 17t23.5 14t9 11.5t-6 9.5t-16 7.5t-21.5 4.5t-22.5 1.5q-92 0 -138 -37.5t-46 -112.5v-49v-72.5v-75.5
v-59l8 -8q11 34 29.5 61t43 46t53.5 29t62 10q62 0 105 -23.5t65.5 -69t22.5 -110.5q0 -60 -21 -106.5t-61.5 -78t-99.5 -48t-135 -16.5q-81 0 -140 22t-97 68.5t-56.5 118t-18.5 170.5q0 105 36 186t116.5 127t211.5 46zM374 377q-16 0 -30 -12t-26 -32.5t-22 -45.5
t-17 -50q0 -86 6 -139.5t22 -78t45 -24.5q30 0 46.5 26.5t23.5 78t7 124.5q0 50 -7.5 84t-20 51.5t-27.5 17.5z" />
    <glyph glyph-name="seven" unicode="7" horiz-adv-x="652" 
d="M312 -15q-73 0 -129.5 24.5t-88.5 67.5t-32 99t30 100t90.5 76.5t150.5 53.5q85 19 143.5 45t92.5 59.5t43 73.5l-8 5q-16 -31 -48.5 -57t-73.5 -41t-83 -15q-51 0 -97 11t-85 25t-70 25t-52 11q-15 0 -26 -10t-17 -29t-6 -47v-28h-11v274h15v-146q20 77 78 119t146 42
q33 0 66 -8.5t64.5 -22.5t60.5 -29.5t54.5 -29.5t46.5 -22.5t35 -8.5q7 0 7 6q0 4 -9.5 11.5t-34.5 22.5q-22 14 -33 26t-11 22q0 15 11.5 24t30.5 9q34 0 52 -16.5t18 -47.5q0 -52 -11.5 -99.5t-34.5 -85.5q-17 -29 -61 -70.5t-108 -88.5q-31 -23 -52.5 -48t-33 -50.5
t-11.5 -50.5q0 -48 30.5 -73.5t85.5 -25.5q27 0 54 14t48 37.5t31 52.5l13 -5q-18 -58 -55.5 -98.5t-91.5 -61.5t-123 -21z" />
    <glyph glyph-name="eight" unicode="8" horiz-adv-x="638" 
d="M321 -15q-77 0 -131.5 15.5t-88.5 41t-50 57t-16 64.5q0 29 12 56.5t33.5 49.5t50.5 35t64 13v18l10 -11v-29v-27v-26.5v-27.5v-29q0 -56 14 -99t42 -67t70 -24q30 0 53.5 13t37.5 38.5t14 63.5q0 32 -17.5 59.5t-57.5 57.5t-110 68q-35 20 -69 42t-61.5 49t-43.5 59.5
t-16 72.5q0 35 16.5 71t50.5 66.5t87.5 49t127.5 18.5q29 0 61.5 -4t64 -13.5t57.5 -24.5t41.5 -36t15.5 -49q0 -34 -13.5 -58.5t-35.5 -40t-47.5 -25t-49.5 -13t-41 -3.5v-20l-47 9q29 10 46.5 28.5t27 41.5t12.5 45.5t3 39.5q0 30 -9.5 55.5t-32 41.5t-60.5 16
q-33 0 -58.5 -11t-40 -33.5t-14.5 -57.5q0 -29 22 -56.5t59 -53t82 -50.5q32 -17 63 -35.5t58.5 -39.5t49 -46t34 -55.5t12.5 -68.5q0 -55 -22 -96t-61 -69t-90 -42t-109 -14z" />
    <glyph glyph-name="nine" unicode="9" horiz-adv-x="709" 
d="M305 -15q-60 0 -104.5 13t-74.5 35.5t-44.5 50t-14.5 55.5q0 30 13.5 54.5t40.5 39t66 14.5q42 0 67.5 -15.5t37.5 -37.5t12 -44q0 -18 -9 -33t-23.5 -27t-30 -21.5t-30 -17t-23.5 -13.5t-9 -12q0 -5 6 -9.5t16 -7.5t21.5 -4.5t22.5 -1.5q92 0 138 37.5t46 112.5v49v72.5
v76v58.5l-8 8q-11 -34 -29.5 -61t-43 -46t-53.5 -29t-62 -10q-62 0 -105 23.5t-65.5 69t-22.5 110.5q0 60 21 106.5t61.5 78t99.5 48t135 16.5q81 0 140 -22t97 -68.5t56.5 -118t18.5 -170.5q0 -105 -36 -186t-116 -127t-212 -46zM335 331q16 0 30 12t26 32.5t22 45.5t17 50
q0 87 -6 140t-21.5 77.5t-45.5 24.5t-46.5 -26.5t-23.5 -77.5t-7 -125q0 -50 7.5 -84t20 -51.5t27.5 -17.5z" />
    <glyph glyph-name="colon" unicode=":" horiz-adv-x="256" 
d="M128 152q28 0 50 -10.5t35 -29.5t13 -45q0 -25 -13 -43.5t-35 -28.5t-50 -10t-50 10t-35 28.5t-13 43.5q0 26 13 45t35 29.5t50 10.5zM128 477q28 0 50 -10.5t35 -29.5t13 -45q0 -25 -13 -43.5t-35 -28.5t-50 -10t-50 10t-35 28.5t-13 43.5q0 26 13 45t35 29.5t50 10.5z
" />
    <glyph glyph-name="semicolon" unicode=";" horiz-adv-x="257" 
d="M94 -90l-7 14q14 6 27.5 14.5t24.5 18.5t17 19l-11 9h-16q-30 0 -52 11t-34 29.5t-12 41.5q0 26 13 45t35 29.5t50 10.5t50 -10.5t35 -29.5t13 -45q0 -25 -11 -50t-29.5 -46.5t-42.5 -37t-50 -23.5zM128 476q28 0 50 -10.5t35 -29.5t13 -45q0 -25 -13 -43.5t-35 -28.5
t-50 -10t-50 10t-35 28.5t-13 43.5q0 26 13 45t35 29.5t50 10.5z" />
    <glyph glyph-name="less" unicode="&#x3c;" horiz-adv-x="460" 
d="M343 480l37 -50l-235 -152v64l235 -152l-37 -50l-254 160v20z" />
    <glyph glyph-name="equal" unicode="=" horiz-adv-x="460" 
d="M60 210v60h340v-60h-340zM60 330v60h340v-60h-340z" />
    <glyph glyph-name="greater" unicode="&#x3e;" horiz-adv-x="460" 
d="M117 480l254 -160v-20l-254 -160l-37 50l235 152v-64l-235 152z" />
    <glyph glyph-name="question" unicode="?" horiz-adv-x="604" 
d="M286 815q69 0 126.5 -24t92 -69.5t34.5 -109.5q0 -34 -12 -68t-36 -67.5t-61 -66.5q-57 -52 -90.5 -89t-48 -65t-14.5 -54h-15q-18 30 -25.5 57t-7.5 57q0 29 7.5 57.5t25 64t47.5 83.5q28 43 43.5 74t22.5 55t7 46q0 33 -9 56t-25.5 35.5t-40.5 12.5q-40 0 -74 -48
t-69 -152l-32 -97h-15l-107 201q42 41 88.5 65t94.5 35t93 11zM273 152q28 0 50 -10.5t35 -29.5t13 -45q0 -25 -13 -43.5t-35 -28.5t-50 -10t-50 10t-35 28.5t-13 43.5q0 26 13 45t35 29.5t50 10.5z" />
    <glyph glyph-name="at" unicode="@" horiz-adv-x="1054" 
d="M545 606q126 0 218.5 -24.5t152.5 -67.5t89 -99t29 -119q0 -41 -14 -83.5t-46.5 -78t-88 -57.5t-138.5 -22q-60 0 -98 16.5t-56 42.5t-18 55h-10q-10 -30 -29 -56t-45 -42.5t-57 -16.5q-68 0 -100 53t-32 135q0 28 8.5 64t27.5 69.5t52 55.5t81 22q30 0 50 -11.5
t32.5 -28.5t19.5 -33l25 62q56 0 87.5 -7t44.5 -26.5t13 -59.5v-171q0 -30 2 -51t7 -33.5t13 -18t20 -5.5q20 0 35 27t24 74t9 105q0 66 -15.5 123.5t-51 102t-95 69.5t-146.5 25q-82 0 -145.5 -29.5t-107.5 -80t-67 -114t-23 -132.5q0 -76 19.5 -137t56 -103t88 -64.5
t114.5 -22.5q61 0 107.5 9t82.5 25t65 36l9 -8q-33 -28 -78.5 -45t-96 -24.5t-99.5 -7.5q-105 0 -188.5 22t-141.5 65t-89 107t-31 148q0 73 25.5 131.5t73 102.5t112.5 73.5t144.5 44t169.5 14.5zM514 111q8 0 19.5 16t22.5 41.5t17 54.5v137q-8 17 -21.5 36.5t-27.5 19.5
q-21 0 -33.5 -24t-17.5 -62t-5 -80q0 -62 7.5 -92t18 -38.5t20.5 -8.5z" />
    <glyph glyph-name="A" unicode="A" horiz-adv-x="820" 
d="M5 0v10l51 10l285 688h152l274 -688l48 -10v-10h-383v5l70 14l-204 512h-13l-4 -10q-34 -85 -51.5 -162.5t-17.5 -136.5q0 -58 17.5 -106.5t54 -77t94.5 -28.5v-10h-373zM172 285v10l230 20v-30h-230z" />
    <glyph glyph-name="B" unicode="B" horiz-adv-x="776" 
d="M463 708q81 0 138.5 -17.5t88 -51.5t30.5 -85q0 -49 -27.5 -82.5t-70.5 -53.5t-92 -29t-92 -9v-10q55 0 109.5 -9t99.5 -29.5t72 -55t27 -84.5t-20 -86.5t-58.5 -60t-95.5 -34.5t-131 -11h-421v10l50 15v658l-50 15v10h443zM405 692q-35 0 -57.5 -1t-32.5 -3v-668
q17 -6 79 -6q29 0 57 17.5t46 60t18 116.5q0 87 -35 123t-101 36l-70 2v11l70 2q35 1 63.5 17.5t45.5 54t17 100.5t-27.5 100.5t-72.5 37.5z" />
    <glyph glyph-name="C" unicode="C" horiz-adv-x="731" 
d="M700 127q-41 -53 -89.5 -84t-101.5 -44.5t-106 -13.5q-77 0 -144.5 24.5t-119 72t-80.5 115.5t-29 155t27 155.5t78 117t124 73.5t166 25q55 0 107.5 -10.5t96.5 -25t72 -27.5l-60 -296h-20l-63 149q-28 66 -57.5 110t-61 66t-65.5 22q-24 0 -43 -23.5t-32 -63.5
t-20 -90.5t-7 -105.5q0 -62 15 -121.5t48.5 -108t87 -77t129.5 -28.5q37 0 72 9.5t66 31.5z" />
    <glyph glyph-name="D" unicode="D" horiz-adv-x="815" 
d="M437 708q97 0 175.5 -40.5t125.5 -117.5t47 -189q0 -114 -45.5 -194.5t-124 -123.5t-178.5 -43h-417v10l50 10v673l-50 5v10h417zM377 692q-21 0 -36.5 -1t-25.5 -3v-653l20 -20h42q80 0 119 94.5t39 267.5q0 95 -17.5 165.5t-52.5 110t-88 39.5z" />
    <glyph glyph-name="E" unicode="E" 
d="M20 0v10l50 15v658l-50 15v10h632l-35 -284h-10l-95 174q-25 46 -58 70.5t-57 24.5h-82v-327h20q21 0 39 11t34 27q26 26 42.5 56t20.5 46h10v-260h-10l-146 110h-10v-341h82q34 0 74 33t67 90l69 146h10l35 -284h-632z" />
    <glyph glyph-name="F" unicode="F" horiz-adv-x="652" 
d="M20 0v10l50 15v658l-50 15v10h632l-35 -284h-10l-95 174q-25 46 -58 70.5t-57 24.5h-82v-327h20q21 0 39 11t34 27q26 26 47.5 56t25.5 46h10v-260h-10l-156 110h-10v-336l50 -10v-10h-345z" />
    <glyph glyph-name="G" unicode="G" horiz-adv-x="760" 
d="M365 296v10h365v-179q-31 -40 -70.5 -67t-84 -43.5t-88.5 -24t-84 -7.5q-61 0 -117 16t-102.5 46.5t-81 75t-53.5 102t-19 127.5q0 87 27 155.5t78 117t124 73.5t166 25q41 0 81.5 -6t76.5 -16t66.5 -21t51.5 -20l-60 -276h-20l-60 125q-28 59 -51.5 98t-45 62
t-43.5 32.5t-47 9.5q-24 0 -43 -23.5t-32 -63.5t-20 -90.5t-7 -105.5q0 -40 6.5 -95t20.5 -113t38 -108t59 -81t82 -31h4h3v271z" />
    <glyph glyph-name="H" unicode="H" horiz-adv-x="850" 
d="M830 708v-10l-50 -10v-668l50 -10v-10h-335v10l40 10v668l-40 10v10h335zM355 708v-10l-40 -10v-668l40 -10v-10h-335v10l50 10v668l-50 10v10h335zM545 360v-30h-242v10z" />
    <glyph glyph-name="I" unicode="I" horiz-adv-x="385" 
d="M365 708v-10l-50 -10v-668l50 -10v-10h-345v10l50 10v668l-50 10v10h345z" />
    <glyph glyph-name="J" unicode="J" horiz-adv-x="597" 
d="M272 -15q-85 0 -145.5 16.5t-93 47t-32.5 72.5q0 28 12.5 47.5t33.5 31.5t46.5 17.5t50.5 5.5q29 0 52.5 -8.5t37.5 -24t14 -36.5q0 -23 -9.5 -39t-24.5 -27t-32 -18t-32 -13t-24.5 -12.5t-9.5 -16.5q0 -6 10.5 -12.5t28 -11t36.5 -4.5q23 0 45 8.5t38 35t21.5 78.5
t-3.5 140v426l-90 10v10h335v-483q0 -99 -29.5 -151t-88 -70.5t-147.5 -18.5z" />
    <glyph glyph-name="K" unicode="K" horiz-adv-x="764" 
d="M603 -15q-38 0 -66 8.5t-51 29t-47 55.5q-13 20 -26 46t-26.5 59.5t-27 74t-27.5 88.5h-17v-326l50 -10v-10h-345v10l50 10v668l-50 10v10h295v-348q6 0 12 1t12 3q20 7 38.5 23.5t35 40t29.5 50.5q11 22 19 45t12 45.5t4 42.5q0 38 -19.5 62.5t-62.5 24.5v10h354v-10
l-50 -10q0 -43 -15 -82t-40 -73t-56 -62q-41 -38 -87.5 -65t-86.5 -41t-63 -14v-5q59 0 103 -8t76 -26t56 -48.5t43 -74.5q19 -45 34.5 -74t31 -47t32.5 -30q9 -6 18 -6v-10q-23 -18 -48 -25.5t-49 -9.5t-45 -2z" />
    <glyph glyph-name="L" unicode="L" horiz-adv-x="647" 
d="M20 0v10l50 10v668l-50 10v10h346v-10l-51 -10v-673h62q29 0 53 16.5t47 53t48 95.5l52 124h20l35 -304h-612z" />
    <glyph glyph-name="M" unicode="M" horiz-adv-x="978" 
d="M5 0v10l80 10v666l-71 12v10h320l209 -493l-19 23h37l-12 -22l111 492h313v-10l-50 -10v-668l50 -10v-10h-356v10l61 10v572h-15l-157 -592h-136l-255 566h-15v-5q0 -46 7 -110.5t21 -135t37 -134.5t55 -110t74 -61v-10h-289z" />
    <glyph glyph-name="N" unicode="N" horiz-adv-x="756" 
d="M5 0v10l70 10v585q0 26 -18 50t-52 43v10h302l328 -446h17v5q0 52 -9 104t-27 101t-44.5 92t-61.5 77.5t-78 56.5v10h319v-10l-84 -10v-688h-131l-431 574h-15v-5q0 -72 9 -139t29 -127.5t51 -114t74.5 -98.5t100.5 -80v-10h-349z" />
    <glyph glyph-name="O" unicode="O" horiz-adv-x="800" 
d="M402 723q76 0 142.5 -21.5t117.5 -66t79.5 -115t28.5 -169.5q0 -93 -27.5 -162t-77.5 -114t-117 -67.5t-146 -22.5t-147 23t-118.5 68.5t-78.5 114.5t-28 161q0 84 27 152.5t76.5 117t118 75t150.5 26.5zM402 713q-32 0 -55.5 -20t-38 -63t-21.5 -110.5t-7 -163.5
q0 -94 7 -162.5t21.5 -111.5t38 -64t55.5 -21t54.5 19.5t36.5 62.5t20.5 111.5t6.5 166.5q0 97 -6.5 165t-20.5 110t-36.5 61.5t-54.5 19.5z" />
    <glyph glyph-name="P" unicode="P" horiz-adv-x="775" 
d="M454 708q98 0 162.5 -20.5t96.5 -61t32 -102.5q0 -103 -94.5 -158t-269.5 -55q-26 0 -44 1t-28 2v17q9 -4 30 -4q75 0 115.5 48.5t40.5 138.5q0 60 -14 99.5t-42 59t-70 19.5q-4 0 -16 -0.5t-23 -1t-15 -2.5v-668l50 -10v-10h-345v10l50 10v668l-50 10v10h434z" />
    <glyph glyph-name="Q" unicode="Q" horiz-adv-x="800" 
d="M369 -5h15q9 -43 32 -68t53.5 -36t62.5 -11q36 0 59 10t34.5 23t13.5 22l6 -2q0 -49 -15.5 -82t-42 -49.5t-58.5 -16.5q-64 0 -104.5 58.5t-55.5 151.5zM402 723q76 0 142.5 -21.5t117.5 -66t79.5 -115t28.5 -169.5q0 -93 -27.5 -162t-77.5 -114t-117 -67.5t-146 -22.5
t-147 23t-118.5 68.5t-78.5 114.5t-28 161q0 84 27 152.5t76.5 117t118 75t150.5 26.5zM402 713q-32 0 -55.5 -20t-38 -63t-21.5 -110.5t-7 -163.5q0 -94 7 -162.5t21.5 -111.5t38 -64t55.5 -21t54.5 19.5t36.5 62.5t20.5 111.5t6.5 166.5q0 97 -6.5 165t-20.5 110
t-36.5 61.5t-54.5 19.5z" />
    <glyph glyph-name="R" unicode="R" horiz-adv-x="750" 
d="M625 -15q-44 0 -80 14.5t-63.5 40t-44.5 58.5q-18 35 -43 101t-54 154h-25v-333l50 -10v-10h-345v10l50 10v669l-50 9v10h445q87 0 145 -18t86.5 -54.5t28.5 -91.5q0 -57 -42 -97.5t-123 -61.5t-197 -21v-10q56 0 100 -7.5t77.5 -22.5t56 -38t34.5 -54q22 -54 39.5 -94.5
t31.5 -65t22 -31.5q11 -9 21 -9v-10q-18 -15 -40 -23t-43 -11t-37 -3zM339 378q36 0 64 10.5t47 31t29 50t10 68.5q0 50 -14 84t-40.5 52t-64.5 18q-16 0 -28.5 -0.5t-26.5 -3.5v-305q6 -3 12 -4t12 -1z" />
    <glyph glyph-name="S" unicode="S" horiz-adv-x="665" 
d="M332 -15q-49 0 -102 7t-102 19.5t-87 29.5l20 259h20l95 -161q29 -48 59 -79t61.5 -45.5t61.5 -14.5q22 0 37.5 6.5t23.5 19t8 29.5q0 26 -14.5 51.5t-48.5 56.5t-93 72q-90 65 -143 112t-75.5 85t-22.5 76q0 45 22 84t63.5 68.5t99 46t127.5 16.5q60 0 113 -8.5
t96.5 -22.5t71.5 -32l-50 -249h-20l-45 91q-37 76 -68 121t-60 65t-61 20q-34 0 -58 -8t-36.5 -23t-12.5 -37q0 -23 20.5 -50.5t69 -65.5t130.5 -93q62 -40 103.5 -73t67 -61.5t36.5 -55t11 -55.5q0 -47 -20 -81t-53.5 -57t-75 -37t-85.5 -20t-84 -6z" />
    <glyph glyph-name="T" unicode="T" horiz-adv-x="749" 
d="M202 0v10l50 10v673h-10q-20 0 -41.5 -16t-41.5 -47t-39 -76l-60 -140h-20l-35 294h739l-35 -294h-20l-60 140q-19 45 -39.5 76t-41.5 47t-41 16h-10v-673l50 -10v-10h-345z" />
    <glyph glyph-name="U" unicode="U" horiz-adv-x="733" 
d="M387 0q-154 0 -235.5 78.5t-81.5 224.5v386l-50 9v10h355v-10l-60 -9v-357q0 -121 43 -186t121 -65q74 0 114 49.5t40 140.5v16q0 51 -16.5 108.5t-46 113.5t-68.5 105t-84 84v10h305v-10l-70 -9v-374q0 -151 -66 -233t-200 -82z" />
    <glyph glyph-name="V" unicode="V" horiz-adv-x="813" 
d="M329 0l-276 688l-48 10v10h385v-10l-72 -9l206 -512h13l2 5q26 66 40 130.5t14 118.5q0 95 -38.5 164t-110.5 103v10h364v-10l-51 -10l-276 -688h-152z" />
    <glyph glyph-name="W" unicode="W" horiz-adv-x="1218" 
d="M735 0l-132 330l133 329l194 -482h13l4 11q26 67 39 125.5t13 107.5q0 58 -17.5 113t-50.5 98.5t-81 65.5v10h363v-10l-53 -15l-273 -683h-152zM329 0l-276 688l-48 10v10h385v-10l-72 -9l206 -512h13l2 5q26 66 40 130.5t14 118.5q0 95 -38.5 164t-110.5 103v10h364v-10
l-51 -10l-276 -688h-152z" />
    <glyph glyph-name="X" unicode="X" horiz-adv-x="843" 
d="M413 0v10l73 10l-414 668l-67 10v10h425v-10l-73 -9l414 -669l67 -10v-10h-425zM5 0v10l66 10l238 306l26 -44h-33l-3 -4q-22 -29 -31 -58.5t-9 -58.5q0 -55 33.5 -96t90.5 -55v-10h-378zM501 440h34l6 6q25 25 35 52t10 52q0 35 -14.5 66t-39 53t-55.5 29v10h361v-10
l-49 -9l-262 -292z" />
    <glyph glyph-name="Y" unicode="Y" horiz-adv-x="762" 
d="M221 0v10l50 15v247l-218 416l-48 10v10h403v-10l-82 -9l173 -332h20l4 7q28 49 42 92t14 73q0 50 -26.5 92.5t-79.5 76.5v10h284v-10l-48 -10l-193 -369v-294l50 -15v-10h-345z" />
    <glyph glyph-name="Z" unicode="Z" 
d="M20 0l399 692h-96q-28 0 -55.5 -17.5t-53 -51.5t-49.5 -86l-62 -134h-20l-35 305h634l-399 -692h106q32 0 61.5 19.5t57.5 59t53 98.5l48 111h20l35 -304h-644z" />
    <glyph glyph-name="bracketleft" unicode="[" horiz-adv-x="517" 
d="M437 800v-15h-92v-890h92v-15h-337v920h337z" />
    <glyph glyph-name="backslash" unicode="\" horiz-adv-x="283" 
d="M273 -15h-30l-233 738h30z" />
    <glyph glyph-name="bracketright" unicode="]" horiz-adv-x="517" 
d="M80 800h337v-920h-337v15h92v890h-92v15z" />
    <glyph glyph-name="asciicircum" unicode="^" horiz-adv-x="380" 
d="M320 500l-10 -6l-118 138h-4l-118 -138l-10 6l126 208h8z" />
    <glyph glyph-name="underscore" unicode="_" horiz-adv-x="580" 
d="M20 -130v60h540v-60h-540z" />
    <glyph glyph-name="grave" unicode="`" horiz-adv-x="300" 
d="M274 577l-254 115l214 46l46 -157z" />
    <glyph glyph-name="a" unicode="a" horiz-adv-x="648" 
d="M331 515q68 0 117 -11.5t81 -35.5t47 -59.5t15 -83.5v-293q0 -7 2.5 -12.5t9.5 -5.5q6 0 16 4t24 12v-10q-14 -10 -35 -18t-45 -12.5t-47 -4.5q-72 0 -116 35.5t-44 119.5v3.5v4v6.5l-7 6q-18 -41 -40.5 -73.5t-49 -55t-55.5 -34.5t-60 -12q-39 0 -69 15t-47.5 41
t-17.5 60q0 84 91.5 131t254.5 47q0 87 -7.5 133.5t-31 64t-71.5 17.5q-24 0 -42.5 -4.5t-29 -10.5t-10.5 -10q0 -6 14 -13t51 -19q73 -24 73 -73q0 -43 -38.5 -66t-97.5 -23q-58 0 -95.5 23t-37.5 66q0 28 24 55t66 48.5t95.5 34.5t112.5 13zM356 269q-48 0 -77 -25
t-42 -60t-13 -65q0 -18 3.5 -30t10 -18t16.5 -6t22 7t25.5 22.5t27.5 41t27 62.5v71z" />
    <glyph glyph-name="b" unicode="b" horiz-adv-x="676" 
d="M62 -15v709h-50v11l285 40v-393l8 -8q20 54 41 87.5t43.5 51.5t46.5 25t50 7q47 0 79 -20.5t52.5 -55t29.5 -77t9 -86.5q0 -82 -25 -138t-67 -90t-94 -48.5t-106 -14.5q-45 0 -78.5 10t-57.5 25.5t-41 34t-29 35.5h-10l-76 -105h-10zM354 0q24 0 37.5 32.5t19 87.5
t5.5 121q0 68 -2.5 109.5t-11 60.5t-25.5 19q-14 0 -28.5 -20t-27.5 -52t-24 -69v-119q0 -54 5 -88t13.5 -51.5t18.5 -24t20 -6.5z" />
    <glyph glyph-name="c" unicode="c" horiz-adv-x="596" 
d="M294 -15q-80 0 -142 32.5t-97 90.5t-35 132q0 65 23 116t67 86.5t106.5 54t141.5 18.5q40 0 79 -8.5t70.5 -26t50 -44t18.5 -62.5q0 -29 -17 -49t-47 -30t-69 -10q-59 0 -97.5 23t-38.5 66q0 31 20.5 53t55.5 29q62 14 62 27q0 6 -7.5 11t-20 8t-28.5 3q-31 0 -56 -18.5
t-42 -50t-26 -70.5t-9 -81q0 -55 10.5 -98t30.5 -73t49 -45.5t66 -15.5q25 0 54 12.5t54.5 36t38.5 55.5l14 -9q-30 -58 -65 -91t-72.5 -48.5t-73.5 -19.5t-68 -4z" />
    <glyph glyph-name="d" unicode="d" horiz-adv-x="693" 
d="M633 745v-709h50v-11l-285 -40v163l-8 8q-7 -21 -20.5 -50t-34.5 -56.5t-50.5 -46t-67.5 -18.5q-60 0 -104.5 32.5t-68.5 88t-24 124.5q0 104 30 166.5t79.5 90.5t105.5 28t90 -16.5t51 -35.5t22 -28v259h-50v11zM332 467q-25 0 -41 -27t-23.5 -74t-7.5 -106
q0 -74 5.5 -118t16 -63t26.5 -19q11 0 22 8.5t22 27t22.5 46.5t23.5 67v132q0 33 -6 57t-16 39t-21.5 22.5t-22.5 7.5z" />
    <glyph glyph-name="e" unicode="e" horiz-adv-x="601" 
d="M315 515q93 0 151.5 -36t86.5 -92.5t28 -120.5h-326v10l109 20q0 68 -2.5 114.5t-13 70.5t-34.5 24q-20 0 -32 -21t-17.5 -70.5t-5.5 -137.5q0 -37 8 -76t25 -72.5t44.5 -54t66.5 -20.5q18 0 39.5 7t42 21t37.5 33t27 43l14 -9q-27 -56 -61 -88.5t-71 -48.5t-71.5 -21
t-62.5 -5q-69 0 -121 22.5t-86.5 59.5t-52 82.5t-17.5 90.5q0 65 22 116t61.5 86.5t93.5 54t118 18.5z" />
    <glyph glyph-name="f" unicode="f" horiz-adv-x="416" 
d="M10 0v10l50 10v460h-50v10l50 10q0 33 3.5 71t15.5 66q16 36 49 60t83.5 36t118.5 12q50 0 92.5 -8t75 -23t50.5 -37.5t18 -52.5q0 -29 -17 -49t-47 -30t-69 -10q-59 0 -97.5 23t-38.5 66q0 22 11.5 37.5t27 26.5t27 20t11.5 18q0 5 -9.5 7t-31.5 2q-37 0 -51 -17
t-14 -47q0 -13 3.5 -40t10 -61.5t13.5 -69.5h90v-15h-90v-465l50 -10v-10h-335z" />
    <glyph glyph-name="g" unicode="g" horiz-adv-x="644" 
d="M265 -215q-62 0 -108 12t-76.5 32t-45.5 44.5t-15 49.5q0 33 15 58.5t42.5 40t62.5 14.5q56 0 86.5 -24.5t30.5 -61.5q0 -32 -13 -52t-32.5 -31.5t-39.5 -17.5t-33 -10.5t-13 -10.5q0 -8 13.5 -14.5t36 -10.5t49.5 -4q45 0 79.5 16.5t54 44.5t19.5 64q0 33 -17 57
t-51.5 39.5t-89 23t-129.5 7.5v15l136 95l9 -6l-34 -23l10 -10q77 0 140.5 -7t112.5 -21t82 -34t50 -46.5t17 -58.5q0 -63 -43 -100t-121.5 -53.5t-184.5 -16.5zM312 145q-57 0 -109.5 9.5t-93.5 29.5t-65 53t-24 81q0 43 23 79t63.5 62.5t94.5 41t116 14.5q50 0 102 -13.5
t96.5 -38.5t71.5 -61.5t27 -83.5q0 -32 -15.5 -63t-50.5 -56t-93 -39.5t-143 -14.5zM317 155q24 0 36 16.5t16.5 48.5t4.5 78q0 54 -3.5 101t-15.5 76.5t-38 29.5q-24 0 -36.5 -29.5t-16.5 -76.5t-4 -101q0 -45 4.5 -77t17 -49t35.5 -17zM387 495l-67 14q25 0 52.5 11
t53.5 29t48.5 38t38.5 38.5t22 30.5l63 -141h-211v-20z" />
    <glyph glyph-name="h" unicode="h" horiz-adv-x="700" 
d="M690 10v-10h-325v10l40 10v355q0 31 -9 48t-21 17q-14 0 -27.5 -20t-24.5 -47.5t-18.5 -51t-9.5 -31.5v-270l40 -10v-10h-325v10l50 10v674h-50v11l285 40v-393l8 -8q17 48 41 87t58.5 61.5t84.5 22.5q46 0 76 -14t46.5 -38.5t23.5 -56t7 -66.5v-320z" />
    <glyph glyph-name="i" unicode="i" horiz-adv-x="355" 
d="M175 570q-40 0 -71 11t-48.5 31t-17.5 46t17.5 45.5t48.5 30.5t71 11q41 0 72 -11t48.5 -30.5t17.5 -45.5t-17.5 -46t-48.5 -31t-72 -11zM10 0v10l50 10v444h-50v11l285 40v-495l50 -10v-10h-335z" />
    <glyph glyph-name="j" unicode="j" horiz-adv-x="355" 
d="M182 529q-38 0 -66.5 13t-44.5 35t-16 49q0 29 16 50.5t44.5 34t66.5 12.5t66.5 -12.5t45 -34t16.5 -50.5q0 -27 -16.5 -49t-45 -35t-66.5 -13zM30 -215q-49 0 -92 8t-75.5 23t-50.5 37.5t-18 52.5q0 29 17 45.5t47.5 23.5t68.5 7q59 0 97.5 -16t38.5 -60
q0 -22 -11.5 -37.5t-27 -26.5t-27 -20t-11.5 -18q0 -5 9.5 -7t31.5 -2q38 0 51.5 17t13.5 47q0 24 -6 55t-21 86v464h-50v11l285 40v-515q0 -33 -4.5 -58.5t-14.5 -48.5q-23 -54 -85.5 -81t-165.5 -27z" />
    <glyph glyph-name="k" unicode="k" horiz-adv-x="671" 
d="M295 20l50 -10v-10h-335v10l50 10v674h-50v11l285 40v-725zM285 270v17q33 6 69 19t79 33q34 16 59 30.5t38.5 25.5t13.5 18t-14 11.5t-36 9t-47 11t-47 16.5t-36 27t-14 43q0 25 15.5 44t42.5 30t62 11q41 0 72.5 -14.5t49.5 -40t18 -59.5t-17 -60.5t-51 -52.5
q-22 -17 -52 -34.5t-67 -37.5v-12h129q9 -34 17.5 -68.5t17.5 -69.5q7 -28 16.5 -55t20 -48.5t20.5 -31.5q4 -4 7.5 -5.5t7.5 -1.5v-10q-19 -10 -38.5 -17t-40.5 -10t-47 -3q-48 0 -85 18.5t-62 53t-38 81.5q-10 38 -19 68.5t-17 63.5h-27z" />
    <glyph glyph-name="l" unicode="l" horiz-adv-x="355" 
d="M295 20l50 -10v-10h-335v10l50 10v674h-50v11l285 40v-725z" />
    <glyph glyph-name="m" unicode="m" horiz-adv-x="1047" 
d="M12 0v10l50 15v424h-50v11l285 40v-148l8 -8q17 48 41 87t58.5 61.5t84.5 22.5q39 0 68 -11t47.5 -32t28 -51.5t9.5 -68.5v-327l40 -15v-10h-315v10l40 15v350q0 31 -9 48t-21 17q-14 0 -27.5 -20t-24.5 -47.5t-18.5 -51t-9.5 -31.5v-265l40 -15v-10h-325zM712 0v10
l40 15v350q0 31 -9 48t-21 17q-14 0 -27.5 -20t-24.5 -47.5t-18.5 -51t-9.5 -31.5v62l8 -8q17 48 41 87t58.5 61.5t84.5 22.5q46 0 76 -14t46.5 -38.5t23.5 -56t7 -66.5v-315l50 -15v-10h-325z" />
    <glyph glyph-name="n" unicode="n" 
d="M692 10v-10h-325v10l40 10v355q0 31 -9 48t-21 17q-14 0 -27.5 -20t-24.5 -47.5t-18.5 -51t-9.5 -31.5v-270l40 -10v-10h-325v10l50 10v444h-50v11l285 40v-163l8 -8q17 48 41 87t58.5 61.5t84.5 22.5q46 0 76 -14t46.5 -38.5t23.5 -56t7 -66.5v-320z" />
    <glyph glyph-name="o" unicode="o" horiz-adv-x="630" 
d="M316 515q72 0 127 -20t92 -56.5t56 -85.5t19 -107q0 -51 -18.5 -97.5t-55.5 -83.5t-92 -58.5t-128 -21.5q-76 0 -132 21.5t-92.5 58.5t-54 83.5t-17.5 97.5q0 58 20.5 107t58.5 85.5t93 56.5t124 20zM316 505q-24 0 -36 -37t-16 -96t-4 -126q0 -46 1.5 -91t7 -81
t17 -57.5t30.5 -21.5q17 0 27.5 21t16.5 57t8 81t2 92q0 50 -1.5 96.5t-6.5 83t-16 58t-30 21.5z" />
    <glyph glyph-name="p" unicode="p" horiz-adv-x="693" 
d="M10 -200v10l50 14v640h-50v11l285 40v-163l8 -8q7 21 20.5 50t34.5 56.5t50.5 46t67.5 18.5q61 0 105 -32.5t68 -88t24 -124.5q0 -104 -30 -166.5t-79 -90.5t-106 -28q-55 0 -89.5 16.5t-51.5 36t-22 27.5v-240l50 -15v-10h-335zM361 33q26 0 41.5 27t23 74t7.5 106
q0 75 -5.5 118.5t-16 62.5t-26.5 19q-12 0 -22.5 -8t-21.5 -26t-22 -46t-24 -69v-132q0 -27 5 -49.5t14 -40t21 -27t26 -9.5z" />
    <glyph glyph-name="q" unicode="q" horiz-adv-x="674" 
d="M329 -200v10l50 4v334l-8 8q-19 -54 -40.5 -87.5t-44 -51.5t-46.5 -25t-50 -7q-46 0 -78.5 20.5t-53 55t-29.5 77t-9 86.5q0 83 25 138.5t67 89.5t94 48.5t106 14.5q45 0 78 -10t56 -26t39.5 -34.5t28.5 -35.5h14l76 106h10v-701l50 -4v-10h-335zM299 70q12 0 25.5 16.5
t27.5 48t27 76.5v119q0 54 -5 88t-13.5 51.5t-18.5 24t-20 6.5q-24 0 -37.5 -32.5t-19 -87t-5.5 -121.5t2.5 -109t11 -61t25.5 -19z" />
    <glyph glyph-name="r" unicode="r" horiz-adv-x="603" 
d="M12 0v10l50 15v439h-50v11l285 40v-153l8 -8q11 31 23.5 57t25.5 42q22 31 52.5 46.5t70.5 15.5q29 0 58 -12t48.5 -37t19.5 -64q0 -32 -16 -57t-44.5 -39t-66.5 -14q-34 0 -60.5 12.5t-41.5 34.5t-15 50q0 12 2.5 21.5t5 18t2.5 14.5q0 7 -4 7q-6 0 -15 -15t-26 -54
q-6 -15 -13 -37.5t-14 -48.5v-270l50 -15v-10h-335z" />
    <glyph glyph-name="s" unicode="s" horiz-adv-x="563" 
d="M267 -15q-47 0 -91 8.5t-79.5 25t-56 40.5t-20.5 55q0 28 17 45t43.5 25.5t54.5 8.5q30 0 55 -8.5t40.5 -25.5t15.5 -41q0 -16 -5 -29t-18 -29q-13 -14 -18 -23.5t-5 -19.5q0 -5 5 -11t17 -9.5t33 -3.5q28 0 53.5 6.5t41.5 21.5t16 41q0 24 -14 44t-47 39.5t-90 42.5
q-71 30 -112.5 58t-59 58t-17.5 64q0 68 70 107.5t188 39.5q65 0 120.5 -15t89.5 -42t34 -65q0 -25 -15.5 -42t-40 -25.5t-51.5 -8.5q-22 0 -43 5t-38 14.5t-27.5 24t-10.5 33.5q0 31 29 58q16 15 22 24t6 16q0 3 -3 6t-10 5t-18.5 3t-28.5 1q-28 0 -55 -5.5t-44.5 -18
t-17.5 -35.5q0 -25 22 -46t57 -39.5t75 -36.5q76 -34 120 -61t63 -53t19 -56q0 -44 -23.5 -76t-62.5 -53t-87 -31.5t-98 -10.5z" />
    <glyph glyph-name="t" unicode="t" horiz-adv-x="395" 
d="M230 -15q-91 0 -130.5 49.5t-39.5 146.5v299h-60v10l60 10l215 164h20v-149l90 -25v-10h-90v-380q0 -37 12.5 -53.5t30.5 -16.5q10 0 20 4t20 11v-20q-14 -9 -31 -16.5t-35.5 -13t-39 -8t-42.5 -2.5z" />
    <glyph glyph-name="u" unicode="u" horiz-adv-x="692" 
d="M205 -14q-76 0 -114.5 43.5t-38.5 131.5v304h-50v10l285 40v-389q0 -31 9 -48t21 -17q13 0 27.5 20t28.5 54t24 76v254h-50v10l285 40v-479h50v-11l-285 -40v164l-8 8q-31 -89 -75 -130t-109 -41z" />
    <glyph glyph-name="v" unicode="v" horiz-adv-x="619" 
d="M231 0l-204 480l-47 9v11h353v-11l-52 -9l128 -300h16l3 8q10 27 14.5 62t4.5 74q0 24 -3.5 52.5t-12.5 54.5t-24 42.5t-39 16.5v10h241v-10l-56 -10l-182 -480h-140z" />
    <glyph glyph-name="w" unicode="w" horiz-adv-x="899" 
d="M553 498l136 -318h16l3 8q10 27 14.5 62t4.5 74q0 24 -3.5 52.5t-12.5 54.5t-24 42.5t-39 16.5v10h241v-10l-56 -10l-182 -480h-140l-78 184zM231 0l-204 480l-47 9v11h353v-11l-52 -9l128 -300h16l3 8q10 27 14.5 62t4.5 74q0 24 -3.5 52.5t-12.5 54.5t-24 42.5
t-39 16.5v10h241v-10l-56 -10l-182 -480h-140z" />
    <glyph glyph-name="x" unicode="x" horiz-adv-x="688" 
d="M326 0v10l40 10l-313 460l-51 9v11h349v-11l-39 -9l315 -460l50 -10v-10h-351zM113 -15q-31 0 -56 12.5t-39 35t-14 50.5q0 31 15 52.5t40 33t54 11.5q23 0 42 -6.5t34 -18.5t23 -28t8 -34q0 -8 -1.5 -16t-3.5 -14t-2 -10q0 -7 5 -7q6 0 15.5 14t20.5 40t21 60l15 -23
h-10q-16 -49 -38.5 -83t-54 -51.5t-74.5 -17.5zM564 324q-25 0 -47.5 9.5t-36.5 27.5t-14 43q0 12 5.5 23.5t10.5 21t5 14.5q0 6 -5 6q-13 0 -27.5 -20.5t-27.5 -50t-23 -55.5l-14 21h10q22 56 45.5 89t51 47.5t62.5 14.5t60 -13.5t38.5 -34.5t13.5 -46q0 -34 -15.5 -55.5
t-40 -31.5t-51.5 -10z" />
    <glyph glyph-name="y" unicode="y" horiz-adv-x="619" 
d="M167 -215q-46 0 -74.5 14.5t-42 38t-13.5 51.5q0 22 9.5 38t26 27t36.5 16.5t40 5.5q24 0 45 -8t34.5 -24t13.5 -41q0 -15 -2 -27.5t-5 -22.5q-4 -13 -8 -21.5t-4 -13.5q0 -4 6 -4q17 0 37.5 18t39.5 52q14 23 25.5 52t21.5 64h-120l-201 480l-52 9v11h353v-11l-47 -9
l123 -300h16l4 12q8 26 12.5 55t4.5 58q0 26 -2.5 57.5t-10.5 60.5t-23.5 48t-41.5 19v10h241v-10l-56 -10l-182 -480q-20 -52 -34 -84.5t-23 -46.5q-23 -37 -57.5 -60.5t-89.5 -23.5z" />
    <glyph glyph-name="z" unicode="z" horiz-adv-x="592" 
d="M0 0l314 485h-20q-89 0 -143.5 -34t-73.5 -102l-23 -83h-10l-31 234h569l-315 -485h60q60 0 100 26.5t59 80.5l32 88h10l50 -210h-578z" />
    <glyph glyph-name="braceleft" unicode="{" horiz-adv-x="597" 
d="M329 820q30 0 57.5 -4.5t51.5 -12t44 -17t35 -20.5l-4 -11q-10 6 -18.5 8.5t-15.5 2.5q-25 0 -46.5 -16t-21.5 -60q0 -24 3 -47.5t7 -47.5t7 -48t3 -48q0 -44 -22.5 -80.5t-60 -57.5t-82.5 -21q47 0 84 -22t59 -60.5t22 -89.5q0 -15 -2 -29.5t-5 -29.5t-6.5 -30t-5.5 -30
t-2 -30q0 -44 11 -67t27 -30.5t31 -7.5q5 0 10.5 1.5t11.5 4t12 5.5l4 -11q-19 -16 -40 -26.5t-43.5 -16.5t-46.5 -8.5t-48 -2.5q-70 0 -111 20t-59 52t-18 69q0 42 15 74t34.5 59t34.5 52t15 53q0 29 -14.5 46.5t-36.5 27t-46.5 13t-44.5 3.5l-28 -1l1 25l27 -1q21 0 45 3
t46 11.5t36 24.5t14 42q0 32 -14.5 59.5t-34 55.5t-34 61.5t-14.5 77.5q0 41 23.5 71t64 46t89.5 16z" />
    <glyph glyph-name="bar" unicode="|" horiz-adv-x="210" 
d="M90 820h30v-960h-30v960z" />
    <glyph glyph-name="braceright" unicode="}" horiz-adv-x="597" 
d="M268 820q50 0 90 -16t63.5 -46t23.5 -71q0 -44 -14.5 -77.5t-34 -61.5t-34 -55.5t-14.5 -59.5q0 -26 14 -42t36 -24.5t46 -11.5t45 -3l27 1l1 -25l-28 1q-20 0 -44.5 -3.5t-46.5 -13t-36.5 -27t-14.5 -46.5q0 -28 15 -53t34.5 -52t34.5 -59t15 -74q0 -37 -18 -69t-59 -52
t-111 -20q-24 0 -48 2.5t-46.5 8.5t-43.5 16.5t-40 26.5l4 11q7 -3 12.5 -5.5t11 -4t10.5 -1.5q16 0 31.5 7.5t26.5 30.5t11 67q0 15 -2 30t-5 30t-6.5 30t-5.5 29.5t-2 29.5q0 51 22 89.5t59.5 60.5t83.5 22q-44 0 -82 21t-60.5 57.5t-22.5 80.5q0 24 3 48t7 48t7 47.5
t3 47.5q0 44 -21.5 60t-46.5 16q-7 0 -15.5 -2.5t-18.5 -8.5l-4 11q15 11 35 20.5t44 17t51.5 12t57.5 4.5z" />
    <glyph glyph-name="asciitilde" unicode="~" horiz-adv-x="460" 
d="M303 231q-27 0 -51 7.5t-46 17t-43 16.5t-41 7q-28 0 -49 -11t-32 -37l-11 6q25 58 48 92t49.5 48.5t60.5 14.5q27 0 49.5 -6.5t42.5 -15.5t39.5 -15.5t40.5 -6.5q19 0 32.5 7.5t22.5 27.5l15 -4q-24 -55 -44 -87.5t-39.5 -46.5t-43.5 -14z" />
    <glyph glyph-name="uni00A0" unicode="&#xa0;" horiz-adv-x="400" 
 />
    <glyph glyph-name="exclamdown" unicode="&#xa1;" horiz-adv-x="370" 
d="M185 -215q-45 0 -75 26t-30 75q0 29 7 57t18.5 58t24.5 65.5t24.5 79t18.5 98.5t7 124h10q0 -69 7 -124t18.5 -98.5t24.5 -78.5t24.5 -65t18.5 -58t7 -58q0 -49 -30 -75t-75 -26zM186 615q28 0 50 -10.5t35 -29.5t13 -45q0 -25 -13 -43.5t-35 -28.5t-50 -10t-50 10
t-35 28.5t-13 43.5q0 26 13 45t35 29.5t50 10.5z" />
    <glyph glyph-name="cent" unicode="&#xa2;" horiz-adv-x="596" 
d="M300 708h30v-169h-30v169zM300 47h30v-187h-30v187zM294 25q-80 0 -142 32.5t-97 90.5t-35 132q0 65 23 116t67 86.5t106.5 54t141.5 18.5q40 0 79 -8.5t70.5 -26t50 -44t18.5 -62.5q0 -29 -17 -49t-47 -30t-69 -10q-59 0 -97.5 23t-38.5 66q0 31 20.5 53t55.5 29
q62 14 62 27q0 6 -7.5 11t-20 8t-28.5 3q-31 0 -56 -18.5t-42 -50t-26 -70.5t-9 -81q0 -55 10.5 -98t30.5 -73t49 -45.5t66 -15.5q25 0 54 12.5t54.5 36t38.5 55.5l14 -9q-30 -58 -65 -91t-72.5 -48.5t-73.5 -19.5t-68 -4z" />
    <glyph glyph-name="sterling" unicode="&#xa3;" horiz-adv-x="678" 
d="M87 -15q-12 0 -20 6.5t-8 15.5q0 14 10.5 20t24.5 6q13 0 26.5 3.5t23.5 10.5q8 6 10.5 15.5t2.5 22.5q0 21 -8.5 50t-21.5 64t-26 73.5t-21.5 78.5t-8.5 79q0 37 9.5 78t31.5 79t58 69t89.5 49.5t126.5 18.5q51 0 97.5 -11.5t82.5 -31.5t57 -46t21 -54q0 -43 -33 -72.5
t-95 -29.5q-36 0 -65 10t-46 27.5t-17 38.5q0 22 12.5 37.5t31 27t36.5 20.5t30.5 17.5t12.5 18.5q0 11 -14.5 19.5t-39 13.5t-55.5 5q-34 0 -54.5 -9.5t-30 -28.5t-12.5 -46.5t-3 -63.5q0 -45 1 -89.5t2 -80.5t1 -56q0 -26 -12.5 -62t-35.5 -75q-16 -28 -41.5 -65.5
t-55.5 -78.5l7 -7q45 60 82.5 94.5t75 49.5t81.5 15q29 0 53 -7t44 -16t36.5 -16t28.5 -7q29 0 46.5 21t17.5 76h15q0 -55 -10 -104.5t-32.5 -88.5t-60 -61.5t-92.5 -22.5q-50 0 -88 10t-67 22.5t-53 22.5t-46 10q-18 0 -31 -6t-27 -21q-18 -22 -29.5 -30t-24.5 -8zM30 331
v30h400v-30h-400z" />
    <glyph glyph-name="currency" unicode="&#xa4;" horiz-adv-x="520" 
d="M260 104q-43 0 -76 18.5t-52 51.5t-19 76t19 76t52 51.5t76 18.5t76 -18.5t52 -51.5t19 -76t-19 -76t-52 -51.5t-76 -18.5zM260 134q35 0 61 15t41 41t15 60t-15 60t-41 41t-61 15q-34 0 -60.5 -15t-41.5 -41t-15 -60t15 -60t41.5 -41t60.5 -15zM145 336l-102 121l25 22
l102 -120zM375 336l-25 23l102 120l25 -22zM145 164l25 -23l-102 -120l-25 22zM375 164l102 -121l-25 -22l-102 120z" />
    <glyph glyph-name="yen" unicode="&#xa5;" horiz-adv-x="762" 
d="M158 317v30h450v-30h-450zM158 252v30h450v-30h-450zM221 0v10l50 15v247l-218 416l-48 10v10h403v-10l-82 -9l173 -332h20l4 7q28 49 42 92t14 73q0 50 -26.5 92.5t-79.5 76.5v10h284v-10l-48 -10l-193 -369v-294l50 -15v-10h-345z" />
    <glyph glyph-name="brokenbar" unicode="&#xa6;" horiz-adv-x="210" 
d="M120 300v-440h-30v440h30zM90 380v440h30v-440h-30z" />
    <glyph glyph-name="section" unicode="&#xa7;" horiz-adv-x="558" 
d="M267 -15q-47 0 -91 8.5t-79.5 25t-56 40.5t-20.5 55q0 23 14.5 41t40.5 28t60 10q33 0 58 -9.5t39 -26.5t14 -39q0 -17 -5 -30t-18 -29q-11 -14 -17 -24.5t-6 -17.5t6.5 -12.5t19 -8.5t29.5 -3q34 0 59 9t38.5 26t13.5 39q0 21 -9.5 38t-31 32t-57.5 30
q-46 20 -83.5 36.5t-62.5 26.5q-46 20 -71 47t-25 56q0 23 18.5 41.5t51.5 29t76 10.5v30h10q0 -30 26 -59t75 -52q17 -8 38.5 -17.5t43.5 -18.5t38 -16t21 -9q37 -15 62 -36.5t38.5 -46.5t13.5 -53q0 -33 -20 -61t-56 -48t-85.5 -31t-109.5 -11zM365 279q0 38 -23.5 69
t-68.5 48q-24 10 -44 18t-39.5 17t-43.5 20q-40 20 -67 41.5t-40.5 45t-13.5 48.5q0 40 31.5 71t87.5 48.5t129 17.5q75 0 132 -15.5t89.5 -43t32.5 -63.5q0 -35 -28.5 -55.5t-77.5 -20.5q-35 0 -62 10t-42 27.5t-15 39.5q0 29 29 58q16 17 22 25.5t6 14.5q0 3 -4.5 5.5
t-12.5 5t-19 3.5t-24 1q-57 0 -87.5 -18t-30.5 -51q0 -14 11.5 -29t35 -30.5t59.5 -31.5q45 -20 86.5 -38t79.5 -34q42 -18 63 -39t21 -45q0 -45 -40.5 -67.5t-121.5 -22.5v-30h-10z" />
    <glyph glyph-name="dieresis" unicode="&#xa8;" horiz-adv-x="453" 
d="M343 738q41 0 67 -22.5t26 -58.5q0 -35 -26 -57.5t-67 -22.5t-67 22.5t-26 57.5q0 36 26 58.5t67 22.5zM109 738q41 0 67 -22.5t26 -58.5q0 -35 -26 -57.5t-67 -22.5t-67 22.5t-26 57.5q0 36 26 58.5t67 22.5z" />
    <glyph glyph-name="copyright" unicode="&#xa9;" horiz-adv-x="606" 
d="M303 -15q-55 0 -103.5 20.5t-84.5 56.5t-56.5 84.5t-20.5 103.5q0 56 20.5 104t56.5 84t84.5 56.5t103.5 20.5q56 0 104 -20.5t84 -56.5t56.5 -84t20.5 -104q0 -55 -20.5 -103.5t-56.5 -84.5t-84 -56.5t-104 -20.5zM303 15q50 0 92.5 18t74.5 50.5t50 75.5t18 92
t-18 91.5t-50 74.5t-74.5 50t-92.5 18q-49 0 -92 -18t-75 -50t-50 -74.5t-18 -91.5t18 -92t50 -75.5t75 -50.5t92 -18zM303 97q-51 0 -86.5 22t-53.5 56.5t-18 69.5q0 37 12.5 66.5t35.5 50t53 31t65 10.5q57 0 90 -19t47 -44.5t14 -43.5q0 -34 -21 -53.5t-56 -19.5
q-29 0 -46 13t-17 35q0 34 49 53q26 11 36 17t10 12t-7.5 12t-19.5 10t-26 4q-31 0 -48.5 -16.5t-25 -46t-7.5 -68.5q0 -28 9.5 -53.5t27.5 -41.5t45 -16q15 0 31 7.5t30.5 21.5t21.5 32l10 -7q-17 -33 -37 -52.5t-41 -28t-41 -11t-36 -2.5z" />
    <glyph glyph-name="ordfeminine" unicode="&#xaa;" horiz-adv-x="394" 
d="M120 470q-30 0 -50 14.5t-20 45.5q0 21 11 35.5t29 23t39 13.5t42 6.5t37 1.5q0 53 -10 73.5t-36 20.5q-22 0 -37 -2.5t-15 -7.5t9 -8t20.5 -6.5t20.5 -10.5t9 -21q0 -13 -15 -25t-42 -12q-22 0 -37 11t-15 27q0 15 10.5 28.5t29 24t43.5 16t53 5.5q40 0 67 -7.5
t41.5 -30t14.5 -67.5v-103q0 -8 4 -14.5t12 -6.5q2 0 4.5 1t4.5 2v-10q-17 -7 -34 -12t-33 -5q-20 0 -35.5 7t-24.5 22t-9 39l-7 5q-15 -37 -35 -55t-46 -18zM50 404v30h294v-30h-294zM166 515q8 0 15 8.5t13.5 24.5t13.5 38v11q-17 0 -30 -10.5t-19.5 -24.5t-6.5 -26
q0 -9 3.5 -15t10.5 -6z" />
    <glyph glyph-name="guillemotleft" unicode="&#xab;" horiz-adv-x="559" 
d="M294 480l5 -4l-83 -165v-2l83 -165l-5 -4l-234 167v6zM494 480l5 -4l-83 -165v-2l83 -165l-5 -4l-234 167v6z" />
    <glyph glyph-name="logicalnot" unicode="&#xac;" horiz-adv-x="460" 
d="M340 330h60v-170h-60v170zM60 270v60h340v-60h-340z" />
    <glyph glyph-name="registered" unicode="&#xae;" horiz-adv-x="606" 
d="M303 194q-55 0 -103.5 20.5t-84.5 56.5t-56.5 84.5t-20.5 103.5q0 56 20.5 103.5t56.5 84t84.5 56.5t103.5 20q56 0 104 -20t84 -56.5t56.5 -84t20.5 -103.5q0 -55 -20.5 -103.5t-56.5 -84.5t-84 -56.5t-104 -20.5zM303 224q50 0 92.5 18t74.5 50.5t50 75.5t18 92t-18 91
t-50 74t-74.5 50t-92.5 18q-49 0 -92 -18t-75 -50t-50 -74t-18 -91t18 -92t50 -75.5t75 -50.5t92 -18zM404 301q-23 0 -39.5 10.5t-28.5 26.5q-13 17 -26 44.5t-26 67.5h-10v-124l21 -5v-10h-141v10l20 5v259l-20 5v10h182q29 0 52.5 -5.5t38 -20t14.5 -40.5
q0 -28 -18.5 -44t-49.5 -23t-69 -7v-10q35 0 59 -9.5t37 -32.5l21 -39q8 -14 14 -24t13 -15q3 -2 6.5 -3t6.5 -1v-10q-11 -9 -25 -12t-32 -3zM284 469q22 0 35.5 8t19.5 22.5t6 32.5q0 23 -9.5 40.5t-38.5 17.5h-23v-121h10z" />
    <glyph glyph-name="macron" unicode="&#xaf;" horiz-adv-x="392" 
d="M20 615v80h352v-80h-352z" />
    <glyph glyph-name="degree" unicode="&#xb0;" horiz-adv-x="269" 
d="M134 718q27 0 48.5 -12.5t34 -33.5t12.5 -48q0 -26 -12.5 -48t-34 -34.5t-48.5 -12.5q-26 0 -47.5 12.5t-34 34.5t-12.5 48q0 27 12.5 48t34 33.5t47.5 12.5zM134 688q-27 0 -45.5 -18.5t-18.5 -44.5q0 -28 18.5 -47t45.5 -19t46 19t19 47q0 26 -19 44.5t-46 18.5z" />
    <glyph glyph-name="plusminus" unicode="&#xb1;" horiz-adv-x="460" 
d="M200 470h60v-340h-60v340zM60 270v60h340v-60h-340zM60 30v60h340v-60h-340z" />
    <glyph glyph-name="uni00B2" unicode="&#xb2;" horiz-adv-x="323" 
d="M59 411q-9 0 -18.5 7.5t-9.5 29.5q0 25 8 43t21 32.5t28 26.5q54 43 75 69.5t21 51.5q0 18 -9.5 25.5t-23.5 9t-26 1.5t-19.5 -2t-11 -4.5t-3.5 -5.5q0 -5 5.5 -9.5t12 -9.5t12 -11.5t5.5 -15.5q0 -18 -14.5 -27t-32.5 -9q-16 0 -32.5 9.5t-16.5 32.5q0 18 16 33.5
t45.5 25t72.5 9.5q49 0 76 -10t38 -26t11 -33q0 -35 -31 -62.5t-88 -43.5q-55 -15 -85.5 -32.5t-36.5 -37.5l4 -2q12 14 27 24t33.5 15t38.5 5q25 0 44.5 -9t35.5 -17.5t29 -8.5q11 0 17 12t6 36h10q0 -68 -26.5 -95t-62.5 -27q-25 0 -50.5 8t-47 18.5t-37.5 18.5t-23 8
q-4 0 -4 -3q0 -4 9 -9t18 -11.5t9 -13.5t-5.5 -11.5t-13.5 -4.5z" />
    <glyph glyph-name="uni00B3" unicode="&#xb3;" horiz-adv-x="305" 
d="M152 411q-45 0 -71.5 9t-38.5 24t-12 32q0 19 12.5 32t37.5 13q26 0 38 -10.5t12 -24.5q0 -10 -8 -15.5t-19 -10t-19 -9t-8 -11.5q0 -3 5 -5.5t13 -4.5t18 -2q29 0 45.5 17.5t16.5 45.5q0 27 -3.5 44t-12 24.5t-23.5 7.5h-25v10q32 0 48 22t16 49q0 29 -17 43.5t-45 14.5
q-10 0 -18 -1.5t-13 -4.5t-5 -6q0 -7 8 -11.5t19 -8.5t19 -9.5t8 -16.5q0 -13 -12 -24.5t-38 -11.5q-25 0 -37.5 13.5t-12.5 32.5q0 16 12 31t38.5 24.5t71.5 9.5q55 0 89 -17.5t34 -51.5q0 -26 -17 -42.5t-44.5 -24t-61.5 -7.5v-5q34 0 61.5 -9.5t44.5 -27.5t17 -42
q0 -26 -12 -43t-30.5 -26t-40 -12.5t-40.5 -3.5z" />
    <glyph glyph-name="acute" unicode="&#xb4;" horiz-adv-x="300" 
d="M26 577l-6 4l46 157l214 -46z" />
    <glyph glyph-name="uni00B5" unicode="&#xb5;" horiz-adv-x="810" 
d="M192 -215q-97 0 -139.5 35.5t-42.5 93.5q0 43 25.5 94t72 106.5t107.5 112.5q0 57 7 109.5t23.5 93t44.5 64t71 23.5q38 0 63.5 -19t25.5 -50q0 -28 -18.5 -58t-49 -59t-69 -53.5t-77.5 -41.5q0 -29 11 -47.5t28.5 -28.5t36 -13.5t33.5 -3.5q22 0 52.5 6t64.5 22t64 44
q0 93 19.5 160t53 103.5t73.5 36.5q38 0 59 -23.5t21 -52.5q0 -31 -20 -65.5t-51 -67.5t-64.5 -60.5t-61.5 -44.5q0 -14 7 -25.5t19 -20t26.5 -13t29.5 -4.5q12 0 29.5 2t38.5 10t42.5 26t42.5 49h10q-15 -84 -45.5 -137t-67 -78t-70.5 -25q-31 0 -55.5 22.5t-33 68
t6.5 113.5h-9q-34 -100 -86.5 -152t-109.5 -52q-37 0 -66 20.5t-43 63t-7 107.5h-10q-4 -52 -9.5 -98.5t-10.5 -87t-9 -73.5q-7 -68 -2 -94.5t24 -26.5q20 0 27.5 22t7.5 78q0 33 26 49.5t78 16.5q44 0 67 -18.5t23 -53.5q0 -36 -32.5 -59t-85.5 -34.5t-116 -11.5z" />
    <glyph glyph-name="paragraph" unicode="&#xb6;" horiz-adv-x="708" 
d="M688 708v-10l-50 -15v-658l50 -15v-10h-414v10l50 6v253q-57 0 -110 13.5t-94.5 40.5t-65.5 67.5t-24 94.5q0 61 24 103.5t65.5 69t94.5 38.5t110 12h364zM344 698v-679l49 6v658z" />
    <glyph glyph-name="periodcentered" unicode="&#xb7;" horiz-adv-x="356" 
d="M178 362q28 0 50 -10.5t35 -29.5t13 -45q0 -25 -13 -43.5t-35 -28.5t-50 -10t-50 10t-35 28.5t-13 43.5q0 26 13 45t35 29.5t50 10.5z" />
    <glyph glyph-name="cedilla" unicode="&#xb8;" horiz-adv-x="241" 
d="M122 -215q-37 0 -64 15.5t-38 49.5l10 10q9 -16 22.5 -23.5t27.5 -7.5q19 0 31.5 8.5t19.5 22t7 27.5q0 11 -4 22.5t-12.5 21.5t-21 16.5t-30.5 6.5l18 46h10l-9 -25l8 -11q43 0 70.5 -13.5t40.5 -33.5t13 -42q0 -21 -12 -42t-34 -34.5t-53 -13.5z" />
    <glyph glyph-name="uni00B9" unicode="&#xb9;" horiz-adv-x="228" 
d="M40 421v10l26 5v223h-26v10l116 39h10v-272l22 -5v-10h-148z" />
    <glyph glyph-name="ordmasculine" unicode="&#xba;" horiz-adv-x="385" 
d="M193 470q-49 0 -81 17.5t-47 46t-15 60.5q0 37 17 66t49.5 46t76.5 17q68 0 105 -37t37 -92q0 -32 -16 -60.5t-47.5 -46t-78.5 -17.5zM50 404v30h285v-30h-285zM193 485q17 0 21.5 32.5t4.5 76.5q0 32 -1.5 57.5t-7 41t-17.5 15.5q-18 0 -22.5 -33.5t-4.5 -80.5
q0 -29 1.5 -54t7.5 -40t18 -15z" />
    <glyph glyph-name="guillemotright" unicode="&#xbb;" horiz-adv-x="559" 
d="M265 480l234 -167v-6l-234 -167l-5 4l83 165v2l-83 165zM65 480l234 -167v-6l-234 -167l-5 4l83 165v2l-83 165z" />
    <glyph glyph-name="onequarter" unicode="&#xbc;" horiz-adv-x="617" 
d="M50 421v10l26 5v223h-26v10l116 39h10v-272l22 -5v-10h-148zM309 73v15q15 4 28.5 9t22.5 14q7 6 10.5 14.5t3.5 20.5q0 15 -7.5 29.5t-17.5 29t-17.5 28t-7.5 26.5q0 21 13 32t38 11q30 0 43 -25.5t13 -57.5q0 -40 -10.5 -67.5t-26.5 -41.5q-16 -15 -36 -20t-37 -5v-5
l116 4v127l90 91h10v-215l20 1v-15h-20v-58l30 -5v-10h-162v10l32 5v58h-128zM132 -15l233 738h30l-233 -738h-30z" />
    <glyph glyph-name="onehalf" unicode="&#xbd;" horiz-adv-x="631" 
d="M50 421v10l26 5v223h-26v10l116 39h10v-272l22 -5v-10h-148zM347 -15q-9 0 -18.5 7.5t-9.5 29.5q0 25 8 43t21 32.5t28 26.5q54 43 75 69.5t21 51.5q0 18 -9.5 25.5t-23.5 9t-26 1.5t-19.5 -2t-11 -4.5t-3.5 -5.5q0 -5 5.5 -9.5t12 -9.5t12 -11.5t5.5 -15.5
q0 -18 -14.5 -27t-32.5 -9q-16 0 -32.5 9.5t-16.5 32.5q0 18 16 33.5t45.5 25t72.5 9.5q49 0 76 -10t38 -26t11 -33q0 -35 -31 -62.5t-88 -43.5q-55 -15 -85.5 -32.5t-36.5 -37.5l4 -2q12 14 27 24t33.5 15t38.5 5q25 0 44.5 -9t35.5 -17.5t29 -8.5q11 0 17 12t6 36h10
q0 -68 -26.5 -95t-62.5 -27q-25 0 -50.5 8t-47 18.5t-37.5 18.5t-23 8q-4 0 -4 -3q0 -4 9 -9t18 -11.5t9 -13.5t-5.5 -11.5t-13.5 -4.5zM132 -15l233 738h30l-233 -738h-30z" />
    <glyph glyph-name="threequarters" unicode="&#xbe;" horiz-adv-x="693" 
d="M172 411q-45 0 -71.5 9t-38.5 24t-12 32q0 19 12.5 32t37.5 13q26 0 38 -10.5t12 -24.5q0 -10 -8 -15.5t-19 -10t-19 -9t-8 -11.5q0 -3 5 -5.5t13 -4.5t18 -2q29 0 45.5 17.5t16.5 45.5q0 27 -3.5 44t-12 24.5t-23.5 7.5h-25v10q32 0 48 22t16 49q0 29 -17 43.5t-45 14.5
q-10 0 -18 -1.5t-13 -4.5t-5 -6q0 -7 8 -11.5t19 -8.5t19 -9.5t8 -16.5q0 -13 -12 -24.5t-38 -11.5q-25 0 -37.5 13.5t-12.5 32.5q0 16 12 31t38.5 24.5t71.5 9.5q55 0 89 -17.5t34 -51.5q0 -26 -17 -42.5t-44.5 -24t-61.5 -7.5v-5q34 0 61.5 -9.5t44.5 -27.5t17 -42
q0 -26 -12 -43t-30.5 -26t-40 -12.5t-40.5 -3.5zM385 73v15q15 4 28.5 9t22.5 14q7 6 10.5 14.5t3.5 20.5q0 15 -7.5 29.5t-17.5 29t-17.5 28t-7.5 26.5q0 21 13 32t38 11q30 0 43 -25.5t13 -57.5q0 -40 -10.5 -67.5t-26.5 -41.5q-16 -15 -36 -20t-37 -5v-5l116 4v127l90 91
h10v-215l20 1v-15h-20v-58l30 -5v-10h-162v10l32 5v58h-128zM209 -15l233 738h30l-233 -738h-30z" />
    <glyph glyph-name="questiondown" unicode="&#xbf;" horiz-adv-x="604" 
d="M318 -215q-69 0 -126.5 24t-92 69.5t-34.5 109.5q0 35 12 68.5t36.5 67t60.5 66.5q58 52 91 89t47.5 65t14.5 54h15q18 -30 25.5 -57t7.5 -57q0 -28 -7.5 -57t-25 -64t-47.5 -84q-27 -43 -43 -74t-23 -54.5t-7 -46.5q0 -32 9 -55.5t26 -36t40 -12.5q40 0 74.5 48
t68.5 152l32 97h15l107 -201q-42 -40 -88.5 -64.5t-94 -35.5t-93.5 -11zM335 615q28 0 50 -10.5t35 -29.5t13 -45q0 -25 -13 -43.5t-35 -28.5t-50 -10t-50 10t-35 28.5t-13 43.5q0 26 13 45t35 29.5t50 10.5z" />
    <glyph glyph-name="Agrave" unicode="&#xc0;" horiz-adv-x="820" 
d="M5 0v10l51 10l285 688h152l274 -688l48 -10v-10h-383v5l70 14l-204 512h-13l-4 -10q-34 -85 -51.5 -162.5t-17.5 -136.5q0 -58 17.5 -106.5t54 -77t94.5 -28.5v-10h-373zM172 285v10l230 20v-30h-230zM464 785l-254 115l214 46l46 -157z" />
    <glyph glyph-name="Aacute" unicode="&#xc1;" horiz-adv-x="820" 
d="M5 0v10l51 10l285 688h152l274 -688l48 -10v-10h-383v5l70 14l-204 512h-13l-4 -10q-34 -85 -51.5 -162.5t-17.5 -136.5q0 -58 17.5 -106.5t54 -77t94.5 -28.5v-10h-373zM172 285v10l230 20v-30h-230zM357 785l-6 4l46 157l214 -46z" />
    <glyph glyph-name="Acircumflex" unicode="&#xc2;" horiz-adv-x="820" 
d="M5 0v10l51 10l285 688h152l274 -688l48 -10v-10h-383v5l70 14l-204 512h-13l-4 -10q-34 -85 -51.5 -162.5t-17.5 -136.5q0 -58 17.5 -106.5t54 -77t94.5 -28.5v-10h-373zM172 285v10l230 20v-30h-230zM250 785l-10 7l130 154h80l130 -151l-10 -10l-255 73z" />
    <glyph glyph-name="Atilde" unicode="&#xc3;" horiz-adv-x="820" 
d="M5 0v10l51 10l285 688h152l274 -688l48 -10v-10h-383v5l70 14l-204 512h-13l-4 -10q-34 -85 -51.5 -162.5t-17.5 -136.5q0 -58 17.5 -106.5t54 -77t94.5 -28.5v-10h-373zM172 285v10l230 20v-30h-230zM483 785q-34 0 -63 9.5t-54.5 22t-50 22t-50.5 9.5
q-29 0 -50.5 -15.5t-35.5 -47.5l-11 6q17 39 43.5 74.5t65 58t91.5 22.5q34 0 62.5 -9t53.5 -20.5t48 -20.5t45 -9q20 0 35 12.5t25 37.5l15 -4q-25 -58 -49.5 -90t-53 -45t-66.5 -13z" />
    <glyph glyph-name="Adieresis" unicode="&#xc4;" horiz-adv-x="820" 
d="M5 0v10l51 10l285 688h152l274 -688l48 -10v-10h-383v5l70 14l-204 512h-13l-4 -10q-34 -85 -51.5 -162.5t-17.5 -136.5q0 -58 17.5 -106.5t54 -77t94.5 -28.5v-10h-373zM172 285v10l230 20v-30h-230zM521 946q41 0 67 -22.5t26 -58.5q0 -35 -26 -57.5t-67 -22.5
t-67 22.5t-26 57.5q0 36 26 58.5t67 22.5zM287 946q41 0 67 -22.5t26 -58.5q0 -35 -26 -57.5t-67 -22.5t-67 22.5t-26 57.5q0 36 26 58.5t67 22.5z" />
    <glyph glyph-name="Aring" unicode="&#xc5;" horiz-adv-x="820" 
d="M5 0v10l51 10l285 688h152l274 -688l48 -10v-10h-383v5l70 14l-204 512h-13l-4 -10q-34 -85 -51.5 -162.5t-17.5 -136.5q0 -58 17.5 -106.5t54 -77t94.5 -28.5v-10h-373zM172 285v10l230 20v-30h-230zM410 956q41 0 72 -11.5t48.5 -31.5t17.5 -47q0 -26 -17.5 -47
t-48.5 -32.5t-72 -11.5t-72.5 11.5t-49 32.5t-17.5 47q0 27 17.5 47t49 31.5t72.5 11.5zM410 946q-16 0 -25.5 -21.5t-9.5 -56.5q0 -37 9.5 -60t25.5 -23q14 0 23.5 23t9.5 60q0 35 -9.5 56.5t-23.5 21.5z" />
    <glyph glyph-name="AE" unicode="&#xc6;" horiz-adv-x="1070" 
d="M5 0v10l53 15l339 659l-50 14v10h101v-38l-28 8l-6 -11q-42 -82 -73.5 -154.5t-52 -135t-31 -115t-10.5 -95.5q0 -37 11 -67.5t33.5 -53.5t56.5 -36v-10h-343zM261 315v10l187 20v-30h-187zM765 693h-82v-327h20q21 0 40 11.5t34 27.5q26 26 42 56t20 45h10v-260h-10
l-146 110h-10v-341h82q34 0 74 33t67 90l69 146h10l35 -284h-632v10l50 15v683h582l-35 -284h-10l-95 174q-25 46 -58 70.5t-57 24.5z" />
    <glyph glyph-name="Ccedilla" unicode="&#xc7;" horiz-adv-x="731" 
d="M700 127q-41 -53 -89.5 -84t-101.5 -44.5t-106 -13.5q-77 0 -144.5 24.5t-119 72t-80.5 115.5t-29 155t27 155.5t78 117t124 73.5t166 25q55 0 107.5 -10.5t96.5 -25t72 -27.5l-60 -296h-20l-63 149q-28 66 -57.5 110t-61 66t-65.5 22q-24 0 -43 -23.5t-32 -63.5
t-20 -90.5t-7 -105.5q0 -62 15 -121.5t48.5 -108t87 -77t129.5 -28.5q37 0 72 9.5t66 31.5zM413 -215q-37 0 -64 15.5t-38 49.5l10 10q9 -16 22.5 -23.5t27.5 -7.5q19 0 31.5 8.5t19.5 22t7 27.5q0 11 -4 22.5t-12.5 21.5t-21 16.5t-30.5 6.5l18 46h10l-9 -25l8 -11
q43 0 70.5 -13.5t40.5 -33.5t13 -42q0 -21 -12 -42t-34 -34.5t-53 -13.5z" />
    <glyph glyph-name="Egrave" unicode="&#xc8;" 
d="M20 0v10l50 15v658l-50 15v10h632l-35 -284h-10l-95 174q-25 46 -58 70.5t-57 24.5h-82v-327h20q21 0 39 11t34 27q26 26 42.5 56t20.5 46h10v-260h-10l-146 110h-10v-341h82q34 0 74 33t67 90l69 146h10l35 -284h-632zM405 785l-254 115l214 46l46 -157z" />
    <glyph glyph-name="Eacute" unicode="&#xc9;" 
d="M20 0v10l50 15v658l-50 15v10h632l-35 -284h-10l-95 174q-25 46 -58 70.5t-57 24.5h-82v-327h20q21 0 39 11t34 27q26 26 42.5 56t20.5 46h10v-260h-10l-146 110h-10v-341h82q34 0 74 33t67 90l69 146h10l35 -284h-632zM298 785l-6 4l46 157l214 -46z" />
    <glyph glyph-name="Ecircumflex" unicode="&#xca;" 
d="M20 0v10l50 15v658l-50 15v10h632l-35 -284h-10l-95 174q-25 46 -58 70.5t-57 24.5h-82v-327h20q21 0 39 11t34 27q26 26 42.5 56t20.5 46h10v-260h-10l-146 110h-10v-341h82q34 0 74 33t67 90l69 146h10l35 -284h-632zM191 785l-10 7l130 154h80l130 -151l-10 -10
l-255 73z" />
    <glyph glyph-name="Edieresis" unicode="&#xcb;" 
d="M20 0v10l50 15v658l-50 15v10h632l-35 -284h-10l-95 174q-25 46 -58 70.5t-57 24.5h-82v-327h20q21 0 39 11t34 27q26 26 42.5 56t20.5 46h10v-260h-10l-146 110h-10v-341h82q34 0 74 33t67 90l69 146h10l35 -284h-632zM462 946q41 0 67 -22.5t26 -58.5q0 -35 -26 -57.5
t-67 -22.5t-67 22.5t-26 57.5q0 36 26 58.5t67 22.5zM228 946q41 0 67 -22.5t26 -58.5q0 -35 -26 -57.5t-67 -22.5t-67 22.5t-26 57.5q0 36 26 58.5t67 22.5z" />
    <glyph glyph-name="Igrave" unicode="&#xcc;" horiz-adv-x="385" 
d="M365 708v-10l-50 -10v-668l50 -10v-10h-345v10l50 10v668l-50 10v10h345zM247 785l-254 115l214 46l46 -157z" />
    <glyph glyph-name="Iacute" unicode="&#xcd;" horiz-adv-x="385" 
d="M365 708v-10l-50 -10v-668l50 -10v-10h-345v10l50 10v668l-50 10v10h345zM140 785l-6 4l46 157l214 -46z" />
    <glyph glyph-name="Icircumflex" unicode="&#xce;" horiz-adv-x="385" 
d="M365 708v-10l-50 -10v-668l50 -10v-10h-345v10l50 10v668l-50 10v10h345zM33 785l-10 7l130 154h80l130 -151l-10 -10l-255 73z" />
    <glyph glyph-name="Idieresis" unicode="&#xcf;" horiz-adv-x="385" 
d="M365 708v-10l-50 -10v-668l50 -10v-10h-345v10l50 10v668l-50 10v10h345zM304 946q41 0 67 -22.5t26 -58.5q0 -35 -26 -57.5t-67 -22.5t-67 22.5t-26 57.5q0 36 26 58.5t67 22.5zM70 946q41 0 67 -22.5t26 -58.5q0 -35 -26 -57.5t-67 -22.5t-67 22.5t-26 57.5
q0 36 26 58.5t67 22.5z" />
    <glyph glyph-name="Eth" unicode="&#xd0;" horiz-adv-x="815" 
d="M20 394h363v-80h-363v80zM437 708q97 0 175.5 -40.5t125.5 -117.5t47 -189q0 -114 -45.5 -194.5t-124 -123.5t-178.5 -43h-417v10l50 10v673l-50 5v10h417zM377 692q-21 0 -36.5 -1t-25.5 -3v-653l20 -20h42q80 0 119 94.5t39 267.5q0 95 -17.5 165.5t-52.5 110t-88 39.5
z" />
    <glyph glyph-name="Ntilde" unicode="&#xd1;" horiz-adv-x="756" 
d="M5 0v10l70 10v585q0 26 -18 50t-52 43v10h302l328 -446h17v5q0 52 -9 104t-27 101t-44.5 92t-61.5 77.5t-78 56.5v10h319v-10l-84 -10v-688h-131l-431 574h-15v-5q0 -72 9 -139t29 -127.5t51 -114t74.5 -98.5t100.5 -80v-10h-349zM451 785q-34 0 -63 9.5t-54.5 22t-50 22
t-50.5 9.5q-29 0 -50.5 -15.5t-35.5 -47.5l-11 6q17 39 43.5 74.5t65 58t91.5 22.5q34 0 62.5 -9t53.5 -20.5t48 -20.5t45 -9q20 0 35 12.5t25 37.5l15 -4q-25 -58 -49.5 -90t-53 -45t-66.5 -13z" />
    <glyph glyph-name="Ograve" unicode="&#xd2;" horiz-adv-x="800" 
d="M402 723q76 0 142.5 -21.5t117.5 -66t79.5 -115t28.5 -169.5q0 -93 -27.5 -162t-77.5 -114t-117 -67.5t-146 -22.5t-147 23t-118.5 68.5t-78.5 114.5t-28 161q0 84 27 152.5t76.5 117t118 75t150.5 26.5zM402 713q-32 0 -55.5 -20t-38 -63t-21.5 -110.5t-7 -163.5
q0 -94 7 -162.5t21.5 -111.5t38 -64t55.5 -21t54.5 19.5t36.5 62.5t20.5 111.5t6.5 166.5q0 97 -6.5 165t-20.5 110t-36.5 61.5t-54.5 19.5zM456 785l-254 115l214 46l46 -157z" />
    <glyph glyph-name="Oacute" unicode="&#xd3;" horiz-adv-x="800" 
d="M402 723q76 0 142.5 -21.5t117.5 -66t79.5 -115t28.5 -169.5q0 -93 -27.5 -162t-77.5 -114t-117 -67.5t-146 -22.5t-147 23t-118.5 68.5t-78.5 114.5t-28 161q0 84 27 152.5t76.5 117t118 75t150.5 26.5zM402 713q-32 0 -55.5 -20t-38 -63t-21.5 -110.5t-7 -163.5
q0 -94 7 -162.5t21.5 -111.5t38 -64t55.5 -21t54.5 19.5t36.5 62.5t20.5 111.5t6.5 166.5q0 97 -6.5 165t-20.5 110t-36.5 61.5t-54.5 19.5zM349 785l-6 4l46 157l214 -46z" />
    <glyph glyph-name="Ocircumflex" unicode="&#xd4;" horiz-adv-x="800" 
d="M402 723q76 0 142.5 -21.5t117.5 -66t79.5 -115t28.5 -169.5q0 -93 -27.5 -162t-77.5 -114t-117 -67.5t-146 -22.5t-147 23t-118.5 68.5t-78.5 114.5t-28 161q0 84 27 152.5t76.5 117t118 75t150.5 26.5zM402 713q-32 0 -55.5 -20t-38 -63t-21.5 -110.5t-7 -163.5
q0 -94 7 -162.5t21.5 -111.5t38 -64t55.5 -21t54.5 19.5t36.5 62.5t20.5 111.5t6.5 166.5q0 97 -6.5 165t-20.5 110t-36.5 61.5t-54.5 19.5zM242 785l-10 7l130 154h80l130 -151l-10 -10l-255 73z" />
    <glyph glyph-name="Otilde" unicode="&#xd5;" horiz-adv-x="800" 
d="M402 723q76 0 142.5 -21.5t117.5 -66t79.5 -115t28.5 -169.5q0 -93 -27.5 -162t-77.5 -114t-117 -67.5t-146 -22.5t-147 23t-118.5 68.5t-78.5 114.5t-28 161q0 84 27 152.5t76.5 117t118 75t150.5 26.5zM402 713q-32 0 -55.5 -20t-38 -63t-21.5 -110.5t-7 -163.5
q0 -94 7 -162.5t21.5 -111.5t38 -64t55.5 -21t54.5 19.5t36.5 62.5t20.5 111.5t6.5 166.5q0 97 -6.5 165t-20.5 110t-36.5 61.5t-54.5 19.5zM475 785q-34 0 -63 9.5t-54.5 22t-50 22t-50.5 9.5q-29 0 -50.5 -15.5t-35.5 -47.5l-11 6q17 39 43.5 74.5t65 58t91.5 22.5
q34 0 62.5 -9t53.5 -20.5t48 -20.5t45 -9q20 0 35 12.5t25 37.5l15 -4q-25 -58 -49.5 -90t-53 -45t-66.5 -13z" />
    <glyph glyph-name="Odieresis" unicode="&#xd6;" horiz-adv-x="800" 
d="M402 723q76 0 142.5 -21.5t117.5 -66t79.5 -115t28.5 -169.5q0 -93 -27.5 -162t-77.5 -114t-117 -67.5t-146 -22.5t-147 23t-118.5 68.5t-78.5 114.5t-28 161q0 84 27 152.5t76.5 117t118 75t150.5 26.5zM402 713q-32 0 -55.5 -20t-38 -63t-21.5 -110.5t-7 -163.5
q0 -94 7 -162.5t21.5 -111.5t38 -64t55.5 -21t54.5 19.5t36.5 62.5t20.5 111.5t6.5 166.5q0 97 -6.5 165t-20.5 110t-36.5 61.5t-54.5 19.5zM513 946q41 0 67 -22.5t26 -58.5q0 -35 -26 -57.5t-67 -22.5t-67 22.5t-26 57.5q0 36 26 58.5t67 22.5zM279 946q41 0 67 -22.5
t26 -58.5q0 -35 -26 -57.5t-67 -22.5t-67 22.5t-26 57.5q0 36 26 58.5t67 22.5z" />
    <glyph glyph-name="multiply" unicode="&#xd7;" horiz-adv-x="460" 
d="M88 399l43 43l240 -240l-42 -43zM329 442l43 -43l-240 -240l-43 42z" />
    <glyph glyph-name="Oslash" unicode="&#xd8;" horiz-adv-x="800" 
d="M282 -92l-76 30l315 863l79 -29zM402 723q76 0 142.5 -21.5t117.5 -66t79.5 -115t28.5 -169.5q0 -93 -27.5 -162t-77.5 -114t-117 -67.5t-146 -22.5t-147 23t-118.5 68.5t-78.5 114.5t-28 161q0 84 27 152.5t76.5 117t118 75t150.5 26.5zM402 713q-32 0 -55.5 -20
t-38 -63t-21.5 -110.5t-7 -163.5q0 -94 7 -162.5t21.5 -111.5t38 -64t55.5 -21t54.5 19.5t36.5 62.5t20.5 111.5t6.5 166.5q0 97 -6.5 165t-20.5 110t-36.5 61.5t-54.5 19.5z" />
    <glyph glyph-name="Ugrave" unicode="&#xd9;" horiz-adv-x="733" 
d="M387 0q-154 0 -235.5 78.5t-81.5 224.5v386l-50 9v10h355v-10l-60 -9v-357q0 -121 43 -186t121 -65q74 0 114 49.5t40 140.5v16q0 51 -16.5 108.5t-46 113.5t-68.5 105t-84 84v10h305v-10l-70 -9v-374q0 -151 -66 -233t-200 -82zM441 785l-254 115l214 46l46 -157z" />
    <glyph glyph-name="Uacute" unicode="&#xda;" horiz-adv-x="733" 
d="M387 0q-154 0 -235.5 78.5t-81.5 224.5v386l-50 9v10h355v-10l-60 -9v-357q0 -121 43 -186t121 -65q74 0 114 49.5t40 140.5v16q0 51 -16.5 108.5t-46 113.5t-68.5 105t-84 84v10h305v-10l-70 -9v-374q0 -151 -66 -233t-200 -82zM334 785l-6 4l46 157l214 -46z" />
    <glyph glyph-name="Ucircumflex" unicode="&#xdb;" horiz-adv-x="733" 
d="M387 0q-154 0 -235.5 78.5t-81.5 224.5v386l-50 9v10h355v-10l-60 -9v-357q0 -121 43 -186t121 -65q74 0 114 49.5t40 140.5v16q0 51 -16.5 108.5t-46 113.5t-68.5 105t-84 84v10h305v-10l-70 -9v-374q0 -151 -66 -233t-200 -82zM227 785l-10 7l130 154h80l130 -151
l-10 -10l-255 73z" />
    <glyph glyph-name="Udieresis" unicode="&#xdc;" horiz-adv-x="733" 
d="M387 0q-154 0 -235.5 78.5t-81.5 224.5v386l-50 9v10h355v-10l-60 -9v-357q0 -121 43 -186t121 -65q74 0 114 49.5t40 140.5v16q0 51 -16.5 108.5t-46 113.5t-68.5 105t-84 84v10h305v-10l-70 -9v-374q0 -151 -66 -233t-200 -82zM498 946q41 0 67 -22.5t26 -58.5
q0 -35 -26 -57.5t-67 -22.5t-67 22.5t-26 57.5q0 36 26 58.5t67 22.5zM264 946q41 0 67 -22.5t26 -58.5q0 -35 -26 -57.5t-67 -22.5t-67 22.5t-26 57.5q0 36 26 58.5t67 22.5z" />
    <glyph glyph-name="Yacute" unicode="&#xdd;" horiz-adv-x="762" 
d="M221 0v10l50 15v247l-218 416l-48 10v10h403v-10l-82 -9l173 -332h20l4 7q28 49 42 92t14 73q0 50 -26.5 92.5t-79.5 76.5v10h284v-10l-48 -10l-193 -369v-294l50 -15v-10h-345zM358 785l-6 4l46 157l214 -46z" />
    <glyph glyph-name="Thorn" unicode="&#xde;" horiz-adv-x="775" 
d="M20 0v10l50 15v658l-50 15v10h345v-10l-50 -15v-658l50 -15v-10h-345zM359 566q-16 0 -29 -1t-21 -3v17q10 2 28 2.5t44 0.5q127 0 207 -19.5t118.5 -60t38.5 -104.5q0 -68 -42.5 -116t-123.5 -72.5t-198 -24.5q-26 0 -44 1t-28 2v17q5 -2 12 -3t18 -1q50 0 85 22
t53 63.5t18 101.5t-15 99.5t-45 59t-76 19.5z" />
    <glyph glyph-name="germandbls" unicode="&#xdf;" horiz-adv-x="862" 
d="M586 -15q-47 0 -91 8.5t-79.5 25t-56 40.5t-20.5 55q0 24 14.5 42t40.5 28t60 10q33 0 58 -9.5t39 -26.5t14 -40q0 -20 -7 -33.5t-16 -24t-16 -20.5t-7 -22q0 -7 7 -12.5t19.5 -8.5t28.5 -3q51 0 81 18.5t30 49.5q0 29 -20 51t-52 41t-68 39q-62 35 -97.5 64.5t-50 58
t-14.5 60.5q0 26 9 53t23 54.5t30 54.5t30 52t23 47t9 40t-11.5 31t-39 20t-74.5 7q-30 0 -51.5 -4.5t-35.5 -12.5t-20.5 -20t-6.5 -27q0 -13 3.5 -40t10 -61.5t13.5 -69.5v-480l50 -10v-10h-335v10l50 10v460h-50v10l50 10q0 33 3.5 71t15.5 66q9 22 25 39t40.5 30
t57.5 21.5t76.5 13t98.5 4.5q79 0 141 -11.5t104.5 -31t65 -41.5t22.5 -43q0 -24 -16 -41.5t-42 -30t-57.5 -21t-62.5 -15t-57 -13t-42 -14.5t-16 -19q0 -12 16 -24.5t42 -25t58 -26t65 -27t61 -27.5q36 -18 71.5 -37.5t64 -41t45.5 -45.5t17 -52q0 -44 -23.5 -76.5
t-62.5 -54t-87 -32t-98 -10.5z" />
    <glyph glyph-name="agrave" unicode="&#xe0;" horiz-adv-x="648" 
d="M331 515q68 0 117 -11.5t81 -35.5t47 -59.5t15 -83.5v-293q0 -7 2.5 -12.5t9.5 -5.5q6 0 16 4t24 12v-10q-14 -10 -35 -18t-45 -12.5t-47 -4.5q-72 0 -116 35.5t-44 119.5v3.5v4v6.5l-7 6q-18 -41 -40.5 -73.5t-49 -55t-55.5 -34.5t-60 -12q-39 0 -69 15t-47.5 41
t-17.5 60q0 84 91.5 131t254.5 47q0 87 -7.5 133.5t-31 64t-71.5 17.5q-24 0 -42.5 -4.5t-29 -10.5t-10.5 -10q0 -6 14 -13t51 -19q73 -24 73 -73q0 -43 -38.5 -66t-97.5 -23q-58 0 -95.5 23t-37.5 66q0 28 24 55t66 48.5t95.5 34.5t112.5 13zM356 269q-48 0 -77 -25
t-42 -60t-13 -65q0 -18 3.5 -30t10 -18t16.5 -6t22 7t25.5 22.5t27.5 41t27 62.5v71zM366 577l-254 115l214 46l46 -157z" />
    <glyph glyph-name="aacute" unicode="&#xe1;" horiz-adv-x="648" 
d="M331 515q68 0 117 -11.5t81 -35.5t47 -59.5t15 -83.5v-293q0 -7 2.5 -12.5t9.5 -5.5q6 0 16 4t24 12v-10q-14 -10 -35 -18t-45 -12.5t-47 -4.5q-72 0 -116 35.5t-44 119.5v3.5v4v6.5l-7 6q-18 -41 -40.5 -73.5t-49 -55t-55.5 -34.5t-60 -12q-39 0 -69 15t-47.5 41
t-17.5 60q0 84 91.5 131t254.5 47q0 87 -7.5 133.5t-31 64t-71.5 17.5q-24 0 -42.5 -4.5t-29 -10.5t-10.5 -10q0 -6 14 -13t51 -19q73 -24 73 -73q0 -43 -38.5 -66t-97.5 -23q-58 0 -95.5 23t-37.5 66q0 28 24 55t66 48.5t95.5 34.5t112.5 13zM356 269q-48 0 -77 -25
t-42 -60t-13 -65q0 -18 3.5 -30t10 -18t16.5 -6t22 7t25.5 22.5t27.5 41t27 62.5v71zM259 577l-6 4l46 157l214 -46z" />
    <glyph glyph-name="acircumflex" unicode="&#xe2;" horiz-adv-x="648" 
d="M331 515q68 0 117 -11.5t81 -35.5t47 -59.5t15 -83.5v-293q0 -7 2.5 -12.5t9.5 -5.5q6 0 16 4t24 12v-10q-14 -10 -35 -18t-45 -12.5t-47 -4.5q-72 0 -116 35.5t-44 119.5v3.5v4v6.5l-7 6q-18 -41 -40.5 -73.5t-49 -55t-55.5 -34.5t-60 -12q-39 0 -69 15t-47.5 41
t-17.5 60q0 84 91.5 131t254.5 47q0 87 -7.5 133.5t-31 64t-71.5 17.5q-24 0 -42.5 -4.5t-29 -10.5t-10.5 -10q0 -6 14 -13t51 -19q73 -24 73 -73q0 -43 -38.5 -66t-97.5 -23q-58 0 -95.5 23t-37.5 66q0 28 24 55t66 48.5t95.5 34.5t112.5 13zM356 269q-48 0 -77 -25
t-42 -60t-13 -65q0 -18 3.5 -30t10 -18t16.5 -6t22 7t25.5 22.5t27.5 41t27 62.5v71zM152 577l-10 7l130 154h80l130 -151l-10 -10l-255 73z" />
    <glyph glyph-name="atilde" unicode="&#xe3;" horiz-adv-x="648" 
d="M331 515q68 0 117 -11.5t81 -35.5t47 -59.5t15 -83.5v-293q0 -7 2.5 -12.5t9.5 -5.5q6 0 16 4t24 12v-10q-14 -10 -35 -18t-45 -12.5t-47 -4.5q-72 0 -116 35.5t-44 119.5v3.5v4v6.5l-7 6q-18 -41 -40.5 -73.5t-49 -55t-55.5 -34.5t-60 -12q-39 0 -69 15t-47.5 41
t-17.5 60q0 84 91.5 131t254.5 47q0 87 -7.5 133.5t-31 64t-71.5 17.5q-24 0 -42.5 -4.5t-29 -10.5t-10.5 -10q0 -6 14 -13t51 -19q73 -24 73 -73q0 -43 -38.5 -66t-97.5 -23q-58 0 -95.5 23t-37.5 66q0 28 24 55t66 48.5t95.5 34.5t112.5 13zM356 269q-48 0 -77 -25
t-42 -60t-13 -65q0 -18 3.5 -30t10 -18t16.5 -6t22 7t25.5 22.5t27.5 41t27 62.5v71zM385 577q-34 0 -63 9.5t-54.5 22t-50 22t-50.5 9.5q-29 0 -50.5 -15.5t-35.5 -47.5l-11 6q17 39 43.5 74.5t65 58t91.5 22.5q34 0 62.5 -9t53.5 -20.5t48 -20.5t45 -9q20 0 35 12.5
t25 37.5l15 -4q-25 -58 -49.5 -90t-53 -45t-66.5 -13z" />
    <glyph glyph-name="adieresis" unicode="&#xe4;" horiz-adv-x="648" 
d="M331 515q68 0 117 -11.5t81 -35.5t47 -59.5t15 -83.5v-293q0 -7 2.5 -12.5t9.5 -5.5q6 0 16 4t24 12v-10q-14 -10 -35 -18t-45 -12.5t-47 -4.5q-72 0 -116 35.5t-44 119.5v3.5v4v6.5l-7 6q-18 -41 -40.5 -73.5t-49 -55t-55.5 -34.5t-60 -12q-39 0 -69 15t-47.5 41
t-17.5 60q0 84 91.5 131t254.5 47q0 87 -7.5 133.5t-31 64t-71.5 17.5q-24 0 -42.5 -4.5t-29 -10.5t-10.5 -10q0 -6 14 -13t51 -19q73 -24 73 -73q0 -43 -38.5 -66t-97.5 -23q-58 0 -95.5 23t-37.5 66q0 28 24 55t66 48.5t95.5 34.5t112.5 13zM356 269q-48 0 -77 -25
t-42 -60t-13 -65q0 -18 3.5 -30t10 -18t16.5 -6t22 7t25.5 22.5t27.5 41t27 62.5v71zM423 738q41 0 67 -22.5t26 -58.5q0 -35 -26 -57.5t-67 -22.5t-67 22.5t-26 57.5q0 36 26 58.5t67 22.5zM189 738q41 0 67 -22.5t26 -58.5q0 -35 -26 -57.5t-67 -22.5t-67 22.5t-26 57.5
q0 36 26 58.5t67 22.5z" />
    <glyph glyph-name="aring" unicode="&#xe5;" horiz-adv-x="648" 
d="M331 515q68 0 117 -11.5t81 -35.5t47 -59.5t15 -83.5v-293q0 -7 2.5 -12.5t9.5 -5.5q6 0 16 4t24 12v-10q-14 -10 -35 -18t-45 -12.5t-47 -4.5q-72 0 -116 35.5t-44 119.5v3.5v4v6.5l-7 6q-18 -41 -40.5 -73.5t-49 -55t-55.5 -34.5t-60 -12q-39 0 -69 15t-47.5 41
t-17.5 60q0 84 91.5 131t254.5 47q0 87 -7.5 133.5t-31 64t-71.5 17.5q-24 0 -42.5 -4.5t-29 -10.5t-10.5 -10q0 -6 14 -13t51 -19q73 -24 73 -73q0 -43 -38.5 -66t-97.5 -23q-58 0 -95.5 23t-37.5 66q0 28 24 55t66 48.5t95.5 34.5t112.5 13zM356 269q-48 0 -77 -25
t-42 -60t-13 -65q0 -18 3.5 -30t10 -18t16.5 -6t22 7t25.5 22.5t27.5 41t27 62.5v71zM312 748q41 0 72 -11.5t48.5 -31.5t17.5 -47q0 -26 -17.5 -47t-48.5 -32.5t-72 -11.5t-72.5 11.5t-49 32.5t-17.5 47q0 27 17.5 47t49 31.5t72.5 11.5zM312 738q-16 0 -25.5 -21.5
t-9.5 -56.5q0 -37 9.5 -60t25.5 -23q14 0 23.5 23t9.5 60q0 35 -9.5 56.5t-23.5 21.5z" />
    <glyph glyph-name="ae" unicode="&#xe6;" horiz-adv-x="933" 
d="M144 -15q-39 0 -69 15t-47.5 41t-17.5 60q0 84 91.5 131t254.5 47q0 87 -7.5 133.5t-31 64t-71.5 17.5q-24 0 -42.5 -4.5t-29 -10.5t-10.5 -10q0 -6 14 -13t51 -19q73 -24 73 -73q0 -43 -38.5 -66t-97.5 -23q-58 0 -95.5 23t-37.5 66q0 28 24 55t66 48.5t95.5 34.5
t112.5 13q53 0 91 -10t63 -28q26 14 53 22.5t55 12t54 3.5q93 0 151.5 -36t86.5 -92.5t28 -120.5h-322v-2q0 -32 8 -68.5t25 -69t44.5 -53t66.5 -20.5q18 0 39.5 7t42 21t37.5 33t27 43l14 -9q-27 -56 -61 -88.5t-71 -48.5t-71.5 -21t-62.5 -5q-114 0 -179.5 52.5
t-85.5 133.5h-12q-18 -41 -41 -75t-50 -59t-56.5 -38.5t-60.5 -13.5zM254 65q10 0 22 7t25.5 22.5t27.5 41t27 62.5v71q-48 0 -77 -25t-42 -60t-13 -65q0 -18 3.5 -30t10 -18t16.5 -6zM591 276l105 20q0 70 -2.5 116.5t-13 69.5t-34.5 23q-20 0 -32 -21.5t-17.5 -71.5
t-5.5 -136z" />
    <glyph glyph-name="ccedilla" unicode="&#xe7;" horiz-adv-x="596" 
d="M294 -15q-80 0 -142 32.5t-97 90.5t-35 132q0 65 23 116t67 86.5t106.5 54t141.5 18.5q40 0 79 -8.5t70.5 -26t50 -44t18.5 -62.5q0 -29 -17 -49t-47 -30t-69 -10q-59 0 -97.5 23t-38.5 66q0 31 20.5 53t55.5 29q62 14 62 27q0 6 -7.5 11t-20 8t-28.5 3q-31 0 -56 -18.5
t-42 -50t-26 -70.5t-9 -81q0 -55 10.5 -98t30.5 -73t49 -45.5t66 -15.5q25 0 54 12.5t54.5 36t38.5 55.5l14 -9q-30 -58 -65 -91t-72.5 -48.5t-73.5 -19.5t-68 -4zM335 -215q-37 0 -64 15.5t-38 49.5l10 10q9 -16 22.5 -23.5t27.5 -7.5q19 0 31.5 8.5t19.5 22t7 27.5
q0 11 -4 22.5t-12.5 21.5t-21 16.5t-30.5 6.5l18 46h10l-9 -25l8 -11q43 0 70.5 -13.5t40.5 -33.5t13 -42q0 -21 -12 -42t-34 -34.5t-53 -13.5z" />
    <glyph glyph-name="egrave" unicode="&#xe8;" horiz-adv-x="601" 
d="M315 515q93 0 151.5 -36t86.5 -92.5t28 -120.5h-326v10l109 20q0 68 -2.5 114.5t-13 70.5t-34.5 24q-20 0 -32 -21t-17.5 -70.5t-5.5 -137.5q0 -37 8 -76t25 -72.5t44.5 -54t66.5 -20.5q18 0 39.5 7t42 21t37.5 33t27 43l14 -9q-27 -56 -61 -88.5t-71 -48.5t-71.5 -21
t-62.5 -5q-69 0 -121 22.5t-86.5 59.5t-52 82.5t-17.5 90.5q0 65 22 116t61.5 86.5t93.5 54t118 18.5zM365 577l-254 115l214 46l46 -157z" />
    <glyph glyph-name="eacute" unicode="&#xe9;" horiz-adv-x="601" 
d="M315 515q93 0 151.5 -36t86.5 -92.5t28 -120.5h-326v10l109 20q0 68 -2.5 114.5t-13 70.5t-34.5 24q-20 0 -32 -21t-17.5 -70.5t-5.5 -137.5q0 -37 8 -76t25 -72.5t44.5 -54t66.5 -20.5q18 0 39.5 7t42 21t37.5 33t27 43l14 -9q-27 -56 -61 -88.5t-71 -48.5t-71.5 -21
t-62.5 -5q-69 0 -121 22.5t-86.5 59.5t-52 82.5t-17.5 90.5q0 65 22 116t61.5 86.5t93.5 54t118 18.5zM258 577l-6 4l46 157l214 -46z" />
    <glyph glyph-name="ecircumflex" unicode="&#xea;" horiz-adv-x="601" 
d="M315 515q93 0 151.5 -36t86.5 -92.5t28 -120.5h-326v10l109 20q0 68 -2.5 114.5t-13 70.5t-34.5 24q-20 0 -32 -21t-17.5 -70.5t-5.5 -137.5q0 -37 8 -76t25 -72.5t44.5 -54t66.5 -20.5q18 0 39.5 7t42 21t37.5 33t27 43l14 -9q-27 -56 -61 -88.5t-71 -48.5t-71.5 -21
t-62.5 -5q-69 0 -121 22.5t-86.5 59.5t-52 82.5t-17.5 90.5q0 65 22 116t61.5 86.5t93.5 54t118 18.5zM151 577l-10 7l130 154h80l130 -151l-10 -10l-255 73z" />
    <glyph glyph-name="edieresis" unicode="&#xeb;" horiz-adv-x="601" 
d="M315 515q93 0 151.5 -36t86.5 -92.5t28 -120.5h-326v10l109 20q0 68 -2.5 114.5t-13 70.5t-34.5 24q-20 0 -32 -21t-17.5 -70.5t-5.5 -137.5q0 -37 8 -76t25 -72.5t44.5 -54t66.5 -20.5q18 0 39.5 7t42 21t37.5 33t27 43l14 -9q-27 -56 -61 -88.5t-71 -48.5t-71.5 -21
t-62.5 -5q-69 0 -121 22.5t-86.5 59.5t-52 82.5t-17.5 90.5q0 65 22 116t61.5 86.5t93.5 54t118 18.5zM422 738q41 0 67 -22.5t26 -58.5q0 -35 -26 -57.5t-67 -22.5t-67 22.5t-26 57.5q0 36 26 58.5t67 22.5zM188 738q41 0 67 -22.5t26 -58.5q0 -35 -26 -57.5t-67 -22.5
t-67 22.5t-26 57.5q0 36 26 58.5t67 22.5z" />
    <glyph glyph-name="igrave" unicode="&#xec;" horiz-adv-x="355" 
d="M10 0v10l50 10v444h-50v11l285 40v-495l50 -10v-10h-335zM222 577l-254 115l214 46l46 -157z" />
    <glyph glyph-name="iacute" unicode="&#xed;" horiz-adv-x="355" 
d="M10 0v10l50 10v444h-50v11l285 40v-495l50 -10v-10h-335zM115 577l-6 4l46 157l214 -46z" />
    <glyph glyph-name="icircumflex" unicode="&#xee;" horiz-adv-x="355" 
d="M10 0v10l50 10v444h-50v11l285 40v-495l50 -10v-10h-335zM8 577l-10 7l130 154h80l130 -151l-10 -10l-255 73z" />
    <glyph glyph-name="idieresis" unicode="&#xef;" horiz-adv-x="355" 
d="M10 0v10l50 10v444h-50v11l285 40v-495l50 -10v-10h-335zM279 738q41 0 67 -22.5t26 -58.5q0 -35 -26 -57.5t-67 -22.5t-67 22.5t-26 57.5q0 36 26 58.5t67 22.5zM45 738q41 0 67 -22.5t26 -58.5q0 -35 -26 -57.5t-67 -22.5t-67 22.5t-26 57.5q0 36 26 58.5t67 22.5z" />
    <glyph glyph-name="eth" unicode="&#xf0;" horiz-adv-x="630" 
d="M316 -15q-101 0 -167 37t-97.5 97t-31.5 127q0 77 36 138t102.5 96t157.5 35h10h10l2 2q-11 29 -28 57t-39 55t-49 53t-60 51l10 12q73 -11 139 -40t121 -72.5t94.5 -98.5t61.5 -117.5t22 -128.5q0 -88 -33 -156.5t-98.5 -107.5t-162.5 -39zM316 -5q17 0 27.5 21t16.5 57
t8 81t2 92q0 50 -1.5 96.5t-6.5 83t-16 58t-30 21.5q-18 0 -29.5 -21.5t-17 -58t-7.5 -83t-2 -96.5q0 -46 1.5 -91t7 -81t17 -57.5t30.5 -21.5zM220 568l-9 8l218 145l5 -10z" />
    <glyph glyph-name="ntilde" unicode="&#xf1;" 
d="M692 10v-10h-325v10l40 10v355q0 31 -9 48t-21 17q-14 0 -27.5 -20t-24.5 -47.5t-18.5 -51t-9.5 -31.5v-270l40 -10v-10h-325v10l50 10v444h-50v11l285 40v-163l8 -8q17 48 41 87t58.5 61.5t84.5 22.5q46 0 76 -14t46.5 -38.5t23.5 -56t7 -66.5v-320zM425 577
q-34 0 -63 9.5t-54.5 22t-50 22t-50.5 9.5q-29 0 -50.5 -15.5t-35.5 -47.5l-11 6q17 39 43.5 74.5t65 58t91.5 22.5q34 0 62.5 -9t53.5 -20.5t48 -20.5t45 -9q20 0 35 12.5t25 37.5l15 -4q-25 -58 -49.5 -90t-53 -45t-66.5 -13z" />
    <glyph glyph-name="ograve" unicode="&#xf2;" horiz-adv-x="630" 
d="M316 515q72 0 127 -20t92 -56.5t56 -85.5t19 -107q0 -51 -18.5 -97.5t-55.5 -83.5t-92 -58.5t-128 -21.5q-76 0 -132 21.5t-92.5 58.5t-54 83.5t-17.5 97.5q0 58 20.5 107t58.5 85.5t93 56.5t124 20zM316 505q-24 0 -36 -37t-16 -96t-4 -126q0 -46 1.5 -91t7 -81
t17 -57.5t30.5 -21.5q17 0 27.5 21t16.5 57t8 81t2 92q0 50 -1.5 96.5t-6.5 83t-16 58t-30 21.5zM370 577l-254 115l214 46l46 -157z" />
    <glyph glyph-name="oacute" unicode="&#xf3;" horiz-adv-x="630" 
d="M316 515q72 0 127 -20t92 -56.5t56 -85.5t19 -107q0 -51 -18.5 -97.5t-55.5 -83.5t-92 -58.5t-128 -21.5q-76 0 -132 21.5t-92.5 58.5t-54 83.5t-17.5 97.5q0 58 20.5 107t58.5 85.5t93 56.5t124 20zM316 505q-24 0 -36 -37t-16 -96t-4 -126q0 -46 1.5 -91t7 -81
t17 -57.5t30.5 -21.5q17 0 27.5 21t16.5 57t8 81t2 92q0 50 -1.5 96.5t-6.5 83t-16 58t-30 21.5zM263 577l-6 4l46 157l214 -46z" />
    <glyph glyph-name="ocircumflex" unicode="&#xf4;" horiz-adv-x="630" 
d="M316 515q72 0 127 -20t92 -56.5t56 -85.5t19 -107q0 -51 -18.5 -97.5t-55.5 -83.5t-92 -58.5t-128 -21.5q-76 0 -132 21.5t-92.5 58.5t-54 83.5t-17.5 97.5q0 58 20.5 107t58.5 85.5t93 56.5t124 20zM316 505q-24 0 -36 -37t-16 -96t-4 -126q0 -46 1.5 -91t7 -81
t17 -57.5t30.5 -21.5q17 0 27.5 21t16.5 57t8 81t2 92q0 50 -1.5 96.5t-6.5 83t-16 58t-30 21.5zM156 577l-10 7l130 154h80l130 -151l-10 -10l-255 73z" />
    <glyph glyph-name="otilde" unicode="&#xf5;" horiz-adv-x="630" 
d="M316 515q72 0 127 -20t92 -56.5t56 -85.5t19 -107q0 -51 -18.5 -97.5t-55.5 -83.5t-92 -58.5t-128 -21.5q-76 0 -132 21.5t-92.5 58.5t-54 83.5t-17.5 97.5q0 58 20.5 107t58.5 85.5t93 56.5t124 20zM316 505q-24 0 -36 -37t-16 -96t-4 -126q0 -46 1.5 -91t7 -81
t17 -57.5t30.5 -21.5q17 0 27.5 21t16.5 57t8 81t2 92q0 50 -1.5 96.5t-6.5 83t-16 58t-30 21.5zM389 577q-34 0 -63 9.5t-54.5 22t-50 22t-50.5 9.5q-29 0 -50.5 -15.5t-35.5 -47.5l-11 6q17 39 43.5 74.5t65 58t91.5 22.5q34 0 62.5 -9t53.5 -20.5t48 -20.5t45 -9
q20 0 35 12.5t25 37.5l15 -4q-25 -58 -49.5 -90t-53 -45t-66.5 -13z" />
    <glyph glyph-name="odieresis" unicode="&#xf6;" horiz-adv-x="630" 
d="M316 515q72 0 127 -20t92 -56.5t56 -85.5t19 -107q0 -51 -18.5 -97.5t-55.5 -83.5t-92 -58.5t-128 -21.5q-76 0 -132 21.5t-92.5 58.5t-54 83.5t-17.5 97.5q0 58 20.5 107t58.5 85.5t93 56.5t124 20zM316 505q-24 0 -36 -37t-16 -96t-4 -126q0 -46 1.5 -91t7 -81
t17 -57.5t30.5 -21.5q17 0 27.5 21t16.5 57t8 81t2 92q0 50 -1.5 96.5t-6.5 83t-16 58t-30 21.5zM427 738q41 0 67 -22.5t26 -58.5q0 -35 -26 -57.5t-67 -22.5t-67 22.5t-26 57.5q0 36 26 58.5t67 22.5zM193 738q41 0 67 -22.5t26 -58.5q0 -35 -26 -57.5t-67 -22.5t-67 22.5
t-26 57.5q0 36 26 58.5t67 22.5z" />
    <glyph glyph-name="divide" unicode="&#xf7;" horiz-adv-x="460" 
d="M230 223q28 0 45.5 -15.5t17.5 -39.5q0 -22 -17.5 -36.5t-45.5 -14.5t-45.5 14.5t-17.5 36.5q0 24 17.5 39.5t45.5 15.5zM230 484q28 0 45.5 -15t17.5 -38q0 -24 -17.5 -39t-45.5 -15t-45.5 15t-17.5 39q0 23 17.5 38t45.5 15zM60 270v60h340v-60h-340z" />
    <glyph glyph-name="oslash" unicode="&#xf8;" horiz-adv-x="630" 
d="M518 546l-330 -619l-73 36l331 622zM316 515q72 0 127 -20t92 -56.5t56 -85.5t19 -107q0 -51 -18.5 -97.5t-55.5 -83.5t-92 -58.5t-128 -21.5q-76 0 -132 21.5t-92.5 58.5t-54 83.5t-17.5 97.5q0 58 20.5 107t58.5 85.5t93 56.5t124 20zM316 505q-24 0 -36 -37t-16 -96
t-4 -126q0 -46 1.5 -91t7 -81t17 -57.5t30.5 -21.5q17 0 27.5 21t16.5 57t8 81t2 92q0 50 -1.5 96.5t-6.5 83t-16 58t-30 21.5z" />
    <glyph glyph-name="ugrave" unicode="&#xf9;" horiz-adv-x="692" 
d="M205 -14q-76 0 -114.5 43.5t-38.5 131.5v304h-50v10l285 40v-389q0 -31 9 -48t21 -17q13 0 27.5 20t28.5 54t24 76v254h-50v10l285 40v-479h50v-11l-285 -40v164l-8 8q-31 -89 -75 -130t-109 -41zM400 577l-254 115l214 46l46 -157z" />
    <glyph glyph-name="uacute" unicode="&#xfa;" horiz-adv-x="692" 
d="M205 -14q-76 0 -114.5 43.5t-38.5 131.5v304h-50v10l285 40v-389q0 -31 9 -48t21 -17q13 0 27.5 20t28.5 54t24 76v254h-50v10l285 40v-479h50v-11l-285 -40v164l-8 8q-31 -89 -75 -130t-109 -41zM293 577l-6 4l46 157l214 -46z" />
    <glyph glyph-name="ucircumflex" unicode="&#xfb;" horiz-adv-x="692" 
d="M205 -14q-76 0 -114.5 43.5t-38.5 131.5v304h-50v10l285 40v-389q0 -31 9 -48t21 -17q13 0 27.5 20t28.5 54t24 76v254h-50v10l285 40v-479h50v-11l-285 -40v164l-8 8q-31 -89 -75 -130t-109 -41zM186 577l-10 7l130 154h80l130 -151l-10 -10l-255 73z" />
    <glyph glyph-name="udieresis" unicode="&#xfc;" horiz-adv-x="692" 
d="M205 -14q-76 0 -114.5 43.5t-38.5 131.5v304h-50v10l285 40v-389q0 -31 9 -48t21 -17q13 0 27.5 20t28.5 54t24 76v254h-50v10l285 40v-479h50v-11l-285 -40v164l-8 8q-31 -89 -75 -130t-109 -41zM457 738q41 0 67 -22.5t26 -58.5q0 -35 -26 -57.5t-67 -22.5t-67 22.5
t-26 57.5q0 36 26 58.5t67 22.5zM223 738q41 0 67 -22.5t26 -58.5q0 -35 -26 -57.5t-67 -22.5t-67 22.5t-26 57.5q0 36 26 58.5t67 22.5z" />
    <glyph glyph-name="yacute" unicode="&#xfd;" horiz-adv-x="619" 
d="M167 -215q-46 0 -74.5 14.5t-42 38t-13.5 51.5q0 22 9.5 38t26 27t36.5 16.5t40 5.5q24 0 45 -8t34.5 -24t13.5 -41q0 -15 -2 -27.5t-5 -22.5q-4 -13 -8 -21.5t-4 -13.5q0 -4 6 -4q17 0 37.5 18t39.5 52q14 23 25.5 52t21.5 64h-120l-201 480l-52 9v11h353v-11l-47 -9
l123 -300h16l4 12q8 26 12.5 55t4.5 58q0 26 -2.5 57.5t-10.5 60.5t-23.5 48t-41.5 19v10h241v-10l-56 -10l-182 -480q-20 -52 -34 -84.5t-23 -46.5q-23 -37 -57.5 -60.5t-89.5 -23.5zM267 577l-6 4l46 157l214 -46z" />
    <glyph glyph-name="thorn" unicode="&#xfe;" horiz-adv-x="693" 
d="M10 -200v10l50 14v870h-50v11l285 40v-393l8 -8q7 21 20.5 50t34.5 56.5t50.5 46t67.5 18.5q61 0 105 -32.5t68 -88t24 -124.5q0 -104 -30 -166.5t-79 -90.5t-106 -28q-55 0 -89.5 16.5t-51.5 36t-22 27.5v-240l50 -15v-10h-335zM361 33q26 0 41.5 27t23 74t7.5 106
q0 75 -5.5 118.5t-16 62.5t-26.5 19q-12 0 -22.5 -8t-21.5 -26t-22 -46t-24 -69v-132q0 -27 5 -49.5t14 -40t21 -27t26 -9.5z" />
    <glyph glyph-name="ydieresis" unicode="&#xff;" horiz-adv-x="619" 
d="M167 -215q-46 0 -74.5 14.5t-42 38t-13.5 51.5q0 22 9.5 38t26 27t36.5 16.5t40 5.5q24 0 45 -8t34.5 -24t13.5 -41q0 -15 -2 -27.5t-5 -22.5q-4 -13 -8 -21.5t-4 -13.5q0 -4 6 -4q17 0 37.5 18t39.5 52q14 23 25.5 52t21.5 64h-120l-201 480l-52 9v11h353v-11l-47 -9
l123 -300h16l4 12q8 26 12.5 55t4.5 58q0 26 -2.5 57.5t-10.5 60.5t-23.5 48t-41.5 19v10h241v-10l-56 -10l-182 -480q-20 -52 -34 -84.5t-23 -46.5q-23 -37 -57.5 -60.5t-89.5 -23.5zM431 738q41 0 67 -22.5t26 -58.5q0 -35 -26 -57.5t-67 -22.5t-67 22.5t-26 57.5
q0 36 26 58.5t67 22.5zM197 738q41 0 67 -22.5t26 -58.5q0 -35 -26 -57.5t-67 -22.5t-67 22.5t-26 57.5q0 36 26 58.5t67 22.5z" />
    <glyph glyph-name="Amacron" unicode="&#x100;" horiz-adv-x="820" 
d="M5 0v10l51 10l285 688h152l274 -688l48 -10v-10h-383v5l70 14l-204 512h-13l-4 -10q-34 -85 -51.5 -162.5t-17.5 -136.5q0 -58 17.5 -106.5t54 -77t94.5 -28.5v-10h-373zM172 285v10l230 20v-30h-230zM234 823v80h352v-80h-352z" />
    <glyph glyph-name="amacron" unicode="&#x101;" horiz-adv-x="648" 
d="M331 515q68 0 117 -11.5t81 -35.5t47 -59.5t15 -83.5v-293q0 -7 2.5 -12.5t9.5 -5.5q6 0 16 4t24 12v-10q-14 -10 -35 -18t-45 -12.5t-47 -4.5q-72 0 -116 35.5t-44 119.5v3.5v4v6.5l-7 6q-18 -41 -40.5 -73.5t-49 -55t-55.5 -34.5t-60 -12q-39 0 -69 15t-47.5 41
t-17.5 60q0 84 91.5 131t254.5 47q0 87 -7.5 133.5t-31 64t-71.5 17.5q-24 0 -42.5 -4.5t-29 -10.5t-10.5 -10q0 -6 14 -13t51 -19q73 -24 73 -73q0 -43 -38.5 -66t-97.5 -23q-58 0 -95.5 23t-37.5 66q0 28 24 55t66 48.5t95.5 34.5t112.5 13zM356 269q-48 0 -77 -25
t-42 -60t-13 -65q0 -18 3.5 -30t10 -18t16.5 -6t22 7t25.5 22.5t27.5 41t27 62.5v71zM136 615v80h352v-80h-352z" />
    <glyph glyph-name="Abreve" unicode="&#x102;" horiz-adv-x="820" 
d="M5 0v10l51 10l285 688h152l274 -688l48 -10v-10h-383v5l70 14l-204 512h-13l-4 -10q-34 -85 -51.5 -162.5t-17.5 -136.5q0 -58 17.5 -106.5t54 -77t94.5 -28.5v-10h-373zM172 285v10l230 20v-30h-230zM410 791q-59 0 -105.5 38t-66.5 102l10 10q18 -15 43 -25t55 -15.5
t64 -5.5t64 5.5t55 15.5t43 25l10 -10q-20 -64 -66.5 -102t-105.5 -38z" />
    <glyph glyph-name="abreve" unicode="&#x103;" horiz-adv-x="648" 
d="M331 515q68 0 117 -11.5t81 -35.5t47 -59.5t15 -83.5v-293q0 -7 2.5 -12.5t9.5 -5.5q6 0 16 4t24 12v-10q-14 -10 -35 -18t-45 -12.5t-47 -4.5q-72 0 -116 35.5t-44 119.5v3.5v4v6.5l-7 6q-18 -41 -40.5 -73.5t-49 -55t-55.5 -34.5t-60 -12q-39 0 -69 15t-47.5 41
t-17.5 60q0 84 91.5 131t254.5 47q0 87 -7.5 133.5t-31 64t-71.5 17.5q-24 0 -42.5 -4.5t-29 -10.5t-10.5 -10q0 -6 14 -13t51 -19q73 -24 73 -73q0 -43 -38.5 -66t-97.5 -23q-58 0 -95.5 23t-37.5 66q0 28 24 55t66 48.5t95.5 34.5t112.5 13zM356 269q-48 0 -77 -25
t-42 -60t-13 -65q0 -18 3.5 -30t10 -18t16.5 -6t22 7t25.5 22.5t27.5 41t27 62.5v71zM312 583q-59 0 -105.5 38t-66.5 102l10 10q18 -15 43 -25t55 -15.5t64 -5.5t64 5.5t55 15.5t43 25l10 -10q-20 -64 -66.5 -102t-105.5 -38z" />
    <glyph glyph-name="Aogonek" unicode="&#x104;" horiz-adv-x="820" 
d="M5 0v10l51 10l285 688h152l274 -688l48 -10v-10h-383v5l70 14l-204 512h-13l-4 -10q-34 -85 -51.5 -162.5t-17.5 -136.5q0 -58 17.5 -106.5t54 -77t94.5 -28.5v-10h-373zM172 285v10l230 20v-30h-230zM815 4q-37 -19 -59 -47t-22 -57q0 -28 15 -43.5t43 -15.5
q16 0 29.5 6.5t20.5 17.5l8 -7q-20 -31 -55 -50t-74 -19q-34 0 -61 10t-42 28.5t-15 41.5q0 42 53.5 78.5t151.5 62.5z" />
    <glyph glyph-name="aogonek" unicode="&#x105;" horiz-adv-x="648" 
d="M331 515q68 0 117 -11.5t81 -35.5t47 -59.5t15 -83.5v-293q0 -7 2.5 -12.5t9.5 -5.5q6 0 16 4t24 12v-10q-14 -10 -35 -18t-45 -12.5t-47 -4.5q-72 0 -116 35.5t-44 119.5v3.5v4v6.5l-7 6q-18 -41 -40.5 -73.5t-49 -55t-55.5 -34.5t-60 -12q-39 0 -69 15t-47.5 41
t-17.5 60q0 84 91.5 131t254.5 47q0 87 -7.5 133.5t-31 64t-71.5 17.5q-24 0 -42.5 -4.5t-29 -10.5t-10.5 -10q0 -6 14 -13t51 -19q73 -24 73 -73q0 -43 -38.5 -66t-97.5 -23q-58 0 -95.5 23t-37.5 66q0 28 24 55t66 48.5t95.5 34.5t112.5 13zM356 269q-48 0 -77 -25
t-42 -60t-13 -65q0 -18 3.5 -30t10 -18t16.5 -6t22 7t25.5 22.5t27.5 41t27 62.5v71zM611 4q-37 -19 -59 -47t-22 -57q0 -28 15 -43.5t43 -15.5q16 0 29.5 6.5t20.5 17.5l8 -7q-20 -31 -55 -50t-74 -19q-34 0 -61 10t-42 28.5t-15 41.5q0 42 53.5 78.5t151.5 62.5z" />
    <glyph glyph-name="Cacute" unicode="&#x106;" horiz-adv-x="731" 
d="M700 127q-41 -53 -89.5 -84t-101.5 -44.5t-106 -13.5q-77 0 -144.5 24.5t-119 72t-80.5 115.5t-29 155t27 155.5t78 117t124 73.5t166 25q55 0 107.5 -10.5t96.5 -25t72 -27.5l-60 -296h-20l-63 149q-28 66 -57.5 110t-61 66t-65.5 22q-24 0 -43 -23.5t-32 -63.5
t-20 -90.5t-7 -105.5q0 -62 15 -121.5t48.5 -108t87 -77t129.5 -28.5q37 0 72 9.5t66 31.5zM341 785l-6 4l46 157l214 -46z" />
    <glyph glyph-name="cacute" unicode="&#x107;" horiz-adv-x="596" 
d="M294 -15q-80 0 -142 32.5t-97 90.5t-35 132q0 65 23 116t67 86.5t106.5 54t141.5 18.5q40 0 79 -8.5t70.5 -26t50 -44t18.5 -62.5q0 -29 -17 -49t-47 -30t-69 -10q-59 0 -97.5 23t-38.5 66q0 31 20.5 53t55.5 29q62 14 62 27q0 6 -7.5 11t-20 8t-28.5 3q-31 0 -56 -18.5
t-42 -50t-26 -70.5t-9 -81q0 -55 10.5 -98t30.5 -73t49 -45.5t66 -15.5q25 0 54 12.5t54.5 36t38.5 55.5l14 -9q-30 -58 -65 -91t-72.5 -48.5t-73.5 -19.5t-68 -4zM255 577l-6 4l46 157l214 -46z" />
    <glyph glyph-name="Cdotaccent" unicode="&#x10a;" horiz-adv-x="731" 
d="M700 127q-41 -53 -89.5 -84t-101.5 -44.5t-106 -13.5q-77 0 -144.5 24.5t-119 72t-80.5 115.5t-29 155t27 155.5t78 117t124 73.5t166 25q55 0 107.5 -10.5t96.5 -25t72 -27.5l-60 -296h-20l-63 149q-28 66 -57.5 110t-61 66t-65.5 22q-24 0 -43 -23.5t-32 -63.5
t-20 -90.5t-7 -105.5q0 -62 15 -121.5t48.5 -108t87 -77t129.5 -28.5q37 0 72 9.5t66 31.5zM394 946q41 0 67 -22.5t26 -58.5q0 -35 -26 -57.5t-67 -22.5t-67 22.5t-26 57.5q0 36 26 58.5t67 22.5z" />
    <glyph glyph-name="cdotaccent" unicode="&#x10b;" horiz-adv-x="596" 
d="M294 -15q-80 0 -142 32.5t-97 90.5t-35 132q0 65 23 116t67 86.5t106.5 54t141.5 18.5q40 0 79 -8.5t70.5 -26t50 -44t18.5 -62.5q0 -29 -17 -49t-47 -30t-69 -10q-59 0 -97.5 23t-38.5 66q0 31 20.5 53t55.5 29q62 14 62 27q0 6 -7.5 11t-20 8t-28.5 3q-31 0 -56 -18.5
t-42 -50t-26 -70.5t-9 -81q0 -55 10.5 -98t30.5 -73t49 -45.5t66 -15.5q25 0 54 12.5t54.5 36t38.5 55.5l14 -9q-30 -58 -65 -91t-72.5 -48.5t-73.5 -19.5t-68 -4zM308 738q41 0 67 -22.5t26 -58.5q0 -35 -26 -57.5t-67 -22.5t-67 22.5t-26 57.5q0 36 26 58.5t67 22.5z" />
    <glyph glyph-name="Ccaron" unicode="&#x10c;" horiz-adv-x="731" 
d="M700 127q-41 -53 -89.5 -84t-101.5 -44.5t-106 -13.5q-77 0 -144.5 24.5t-119 72t-80.5 115.5t-29 155t27 155.5t78 117t124 73.5t166 25q55 0 107.5 -10.5t96.5 -25t72 -27.5l-60 -296h-20l-63 149q-28 66 -57.5 110t-61 66t-65.5 22q-24 0 -43 -23.5t-32 -63.5
t-20 -90.5t-7 -105.5q0 -62 15 -121.5t48.5 -108t87 -77t129.5 -28.5q37 0 72 9.5t66 31.5zM554 946l10 -7l-130 -154h-80l-130 151l10 10l255 -73z" />
    <glyph glyph-name="ccaron" unicode="&#x10d;" horiz-adv-x="596" 
d="M294 -15q-80 0 -142 32.5t-97 90.5t-35 132q0 65 23 116t67 86.5t106.5 54t141.5 18.5q40 0 79 -8.5t70.5 -26t50 -44t18.5 -62.5q0 -29 -17 -49t-47 -30t-69 -10q-59 0 -97.5 23t-38.5 66q0 31 20.5 53t55.5 29q62 14 62 27q0 6 -7.5 11t-20 8t-28.5 3q-31 0 -56 -18.5
t-42 -50t-26 -70.5t-9 -81q0 -55 10.5 -98t30.5 -73t49 -45.5t66 -15.5q25 0 54 12.5t54.5 36t38.5 55.5l14 -9q-30 -58 -65 -91t-72.5 -48.5t-73.5 -19.5t-68 -4zM468 738l10 -7l-130 -154h-80l-130 151l10 10l255 -73z" />
    <glyph glyph-name="Dcaron" unicode="&#x10e;" horiz-adv-x="815" 
d="M437 708q97 0 175.5 -40.5t125.5 -117.5t47 -189q0 -114 -45.5 -194.5t-124 -123.5t-178.5 -43h-417v10l50 10v673l-50 5v10h417zM377 692q-21 0 -36.5 -1t-25.5 -3v-653l20 -20h42q80 0 119 94.5t39 267.5q0 95 -17.5 165.5t-52.5 110t-88 39.5zM547 946l10 -7
l-130 -154h-80l-130 151l10 10l255 -73z" />
    <glyph glyph-name="dcaron" unicode="&#x10f;" horiz-adv-x="865" 
d="M633 745v-709h50v-11l-285 -40v163l-8 8q-7 -21 -20.5 -50t-34.5 -56.5t-50.5 -46t-67.5 -18.5q-60 0 -104.5 32.5t-68.5 88t-24 124.5q0 104 30 166.5t79.5 90.5t105.5 28t90 -16.5t51 -35.5t22 -28v259h-50v11zM332 467q-25 0 -41 -27t-23.5 -74t-7.5 -106
q0 -74 5.5 -118t16 -63t26.5 -19q11 0 22 8.5t22 27t22.5 46.5t23.5 67v132q0 33 -6 57t-16 39t-21.5 22.5t-22.5 7.5zM691 539v199h164l-120 -199h-44z" />
    <glyph glyph-name="Dcroat" unicode="&#x110;" horiz-adv-x="815" 
d="M437 708q97 0 175.5 -40.5t125.5 -117.5t47 -189q0 -114 -45.5 -194.5t-124 -123.5t-178.5 -43h-417v10l50 10v673l-50 5v10h417zM377 692q-21 0 -36.5 -1t-25.5 -3v-653l20 -20h42q80 0 119 94.5t39 267.5q0 95 -17.5 165.5t-52.5 110t-88 39.5zM547 946l10 -7
l-130 -154h-80l-130 151l10 10l255 -73z" />
    <glyph glyph-name="dcroat" unicode="&#x111;" horiz-adv-x="693" 
d="M318 623h365v-80h-365v80zM633 745v-709h50v-11l-285 -40v163l-8 8q-7 -21 -20.5 -50t-34.5 -56.5t-50.5 -46t-67.5 -18.5q-60 0 -104.5 32.5t-68.5 88t-24 124.5q0 104 30 166.5t79.5 90.5t105.5 28t90 -16.5t51 -35.5t22 -28v259h-50v11zM332 467q-25 0 -41 -27
t-23.5 -74t-7.5 -106q0 -74 5.5 -118t16 -63t26.5 -19q11 0 22 8.5t22 27t22.5 46.5t23.5 67v132q0 33 -6 57t-16 39t-21.5 22.5t-22.5 7.5z" />
    <glyph glyph-name="Emacron" unicode="&#x112;" 
d="M20 0v10l50 15v658l-50 15v10h632l-35 -284h-10l-95 174q-25 46 -58 70.5t-57 24.5h-82v-327h20q21 0 39 11t34 27q26 26 42.5 56t20.5 46h10v-260h-10l-146 110h-10v-341h82q34 0 74 33t67 90l69 146h10l35 -284h-632zM175 823v80h352v-80h-352z" />
    <glyph glyph-name="emacron" unicode="&#x113;" horiz-adv-x="601" 
d="M315 515q93 0 151.5 -36t86.5 -92.5t28 -120.5h-326v10l109 20q0 68 -2.5 114.5t-13 70.5t-34.5 24q-20 0 -32 -21t-17.5 -70.5t-5.5 -137.5q0 -37 8 -76t25 -72.5t44.5 -54t66.5 -20.5q18 0 39.5 7t42 21t37.5 33t27 43l14 -9q-27 -56 -61 -88.5t-71 -48.5t-71.5 -21
t-62.5 -5q-69 0 -121 22.5t-86.5 59.5t-52 82.5t-17.5 90.5q0 65 22 116t61.5 86.5t93.5 54t118 18.5zM135 615v80h352v-80h-352z" />
    <glyph glyph-name="Edotaccent" unicode="&#x116;" 
d="M20 0v10l50 15v658l-50 15v10h632l-35 -284h-10l-95 174q-25 46 -58 70.5t-57 24.5h-82v-327h20q21 0 39 11t34 27q26 26 42.5 56t20.5 46h10v-260h-10l-146 110h-10v-341h82q34 0 74 33t67 90l69 146h10l35 -284h-632zM351 946q41 0 67 -22.5t26 -58.5q0 -35 -26 -57.5
t-67 -22.5t-67 22.5t-26 57.5q0 36 26 58.5t67 22.5z" />
    <glyph glyph-name="edotaccent" unicode="&#x117;" horiz-adv-x="601" 
d="M315 515q93 0 151.5 -36t86.5 -92.5t28 -120.5h-326v10l109 20q0 68 -2.5 114.5t-13 70.5t-34.5 24q-20 0 -32 -21t-17.5 -70.5t-5.5 -137.5q0 -37 8 -76t25 -72.5t44.5 -54t66.5 -20.5q18 0 39.5 7t42 21t37.5 33t27 43l14 -9q-27 -56 -61 -88.5t-71 -48.5t-71.5 -21
t-62.5 -5q-69 0 -121 22.5t-86.5 59.5t-52 82.5t-17.5 90.5q0 65 22 116t61.5 86.5t93.5 54t118 18.5zM311 738q41 0 67 -22.5t26 -58.5q0 -35 -26 -57.5t-67 -22.5t-67 22.5t-26 57.5q0 36 26 58.5t67 22.5z" />
    <glyph glyph-name="Eogonek" unicode="&#x118;" 
d="M20 0v10l50 15v658l-50 15v10h632l-35 -284h-10l-95 174q-25 46 -58 70.5t-57 24.5h-82v-327h20q21 0 39 11t34 27q26 26 42.5 56t20.5 46h10v-260h-10l-146 110h-10v-341h82q34 0 74 33t67 90l69 146h10l35 -284h-632zM650 4q-37 -19 -59 -47t-22 -57q0 -28 15 -43.5
t43 -15.5q16 0 29.5 6.5t20.5 17.5l8 -7q-20 -31 -55 -50t-74 -19q-34 0 -61 10t-42 28.5t-15 41.5q0 42 53.5 78.5t151.5 62.5z" />
    <glyph glyph-name="eogonek" unicode="&#x119;" horiz-adv-x="601" 
d="M315 515q93 0 151.5 -36t86.5 -92.5t28 -120.5h-326v10l109 20q0 68 -2.5 114.5t-13 70.5t-34.5 24q-20 0 -32 -21t-17.5 -70.5t-5.5 -137.5q0 -37 8 -76t25 -72.5t44.5 -54t66.5 -20.5q18 0 39.5 7t42 21t37.5 33t27 43l14 -9q-27 -56 -61 -88.5t-71 -48.5t-71.5 -21
t-62.5 -5q-69 0 -121 22.5t-86.5 59.5t-52 82.5t-17.5 90.5q0 65 22 116t61.5 86.5t93.5 54t118 18.5zM414 4q-37 -19 -59 -47t-22 -57q0 -28 15 -43.5t43 -15.5q16 0 29.5 6.5t20.5 17.5l8 -7q-20 -31 -55 -50t-74 -19q-34 0 -61 10t-42 28.5t-15 41.5q0 42 53.5 78.5
t151.5 62.5z" />
    <glyph glyph-name="Ecaron" unicode="&#x11a;" 
d="M20 0v10l50 15v658l-50 15v10h632l-35 -284h-10l-95 174q-25 46 -58 70.5t-57 24.5h-82v-327h20q21 0 39 11t34 27q26 26 42.5 56t20.5 46h10v-260h-10l-146 110h-10v-341h82q34 0 74 33t67 90l69 146h10l35 -284h-632zM511 946l10 -7l-130 -154h-80l-130 151l10 10
l255 -73z" />
    <glyph glyph-name="ecaron" unicode="&#x11b;" horiz-adv-x="601" 
d="M315 515q93 0 151.5 -36t86.5 -92.5t28 -120.5h-326v10l109 20q0 68 -2.5 114.5t-13 70.5t-34.5 24q-20 0 -32 -21t-17.5 -70.5t-5.5 -137.5q0 -37 8 -76t25 -72.5t44.5 -54t66.5 -20.5q18 0 39.5 7t42 21t37.5 33t27 43l14 -9q-27 -56 -61 -88.5t-71 -48.5t-71.5 -21
t-62.5 -5q-69 0 -121 22.5t-86.5 59.5t-52 82.5t-17.5 90.5q0 65 22 116t61.5 86.5t93.5 54t118 18.5zM471 738l10 -7l-130 -154h-80l-130 151l10 10l255 -73z" />
    <glyph glyph-name="Gbreve" unicode="&#x11e;" horiz-adv-x="760" 
d="M365 296v10h365v-179q-31 -40 -70.5 -67t-84 -43.5t-88.5 -24t-84 -7.5q-61 0 -117 16t-102.5 46.5t-81 75t-53.5 102t-19 127.5q0 87 27 155.5t78 117t124 73.5t166 25q41 0 81.5 -6t76.5 -16t66.5 -21t51.5 -20l-60 -276h-20l-60 125q-28 59 -51.5 98t-45 62
t-43.5 32.5t-47 9.5q-24 0 -43 -23.5t-32 -63.5t-20 -90.5t-7 -105.5q0 -40 6.5 -95t20.5 -113t38 -108t59 -81t82 -31h4h3v271zM395 791q-59 0 -105.5 38t-66.5 102l10 10q18 -15 43 -25t55 -15.5t64 -5.5t64 5.5t55 15.5t43 25l10 -10q-20 -64 -66.5 -102t-105.5 -38z" />
    <glyph glyph-name="gbreve" unicode="&#x11f;" horiz-adv-x="644" 
d="M265 -215q-62 0 -108 12t-76.5 32t-45.5 44.5t-15 49.5q0 33 15 58.5t42.5 40t62.5 14.5q56 0 86.5 -24.5t30.5 -61.5q0 -32 -13 -52t-32.5 -31.5t-39.5 -17.5t-33 -10.5t-13 -10.5q0 -8 13.5 -14.5t36 -10.5t49.5 -4q45 0 79.5 16.5t54 44.5t19.5 64q0 33 -17 57
t-51.5 39.5t-89 23t-129.5 7.5v15l136 95l9 -6l-34 -23l10 -10q77 0 140.5 -7t112.5 -21t82 -34t50 -46.5t17 -58.5q0 -63 -43 -100t-121.5 -53.5t-184.5 -16.5zM312 145q-57 0 -109.5 9.5t-93.5 29.5t-65 53t-24 81q0 43 23 79t63.5 62.5t94.5 41t116 14.5q50 0 102 -13.5
t96.5 -38.5t71.5 -61.5t27 -83.5q0 -32 -15.5 -63t-50.5 -56t-93 -39.5t-143 -14.5zM317 155q24 0 36 16.5t16.5 48.5t4.5 78q0 54 -3.5 101t-15.5 76.5t-38 29.5q-24 0 -36.5 -29.5t-16.5 -76.5t-4 -101q0 -45 4.5 -77t17 -49t35.5 -17zM387 495l-67 14q25 0 52.5 11
t53.5 29t48.5 38t38.5 38.5t22 30.5l63 -141h-211v-20zM318 583q-59 0 -105.5 38t-66.5 102l10 10q18 -15 43 -25t55 -15.5t64 -5.5t64 5.5t55 15.5t43 25l10 -10q-20 -64 -66.5 -102t-105.5 -38z" />
    <glyph glyph-name="Gdotaccent" unicode="&#x120;" horiz-adv-x="760" 
d="M365 296v10h365v-179q-31 -40 -70.5 -67t-84 -43.5t-88.5 -24t-84 -7.5q-61 0 -117 16t-102.5 46.5t-81 75t-53.5 102t-19 127.5q0 87 27 155.5t78 117t124 73.5t166 25q41 0 81.5 -6t76.5 -16t66.5 -21t51.5 -20l-60 -276h-20l-60 125q-28 59 -51.5 98t-45 62
t-43.5 32.5t-47 9.5q-24 0 -43 -23.5t-32 -63.5t-20 -90.5t-7 -105.5q0 -40 6.5 -95t20.5 -113t38 -108t59 -81t82 -31h4h3v271zM395 946q41 0 67 -22.5t26 -58.5q0 -35 -26 -57.5t-67 -22.5t-67 22.5t-26 57.5q0 36 26 58.5t67 22.5z" />
    <glyph glyph-name="gdotaccent" unicode="&#x121;" horiz-adv-x="644" 
d="M265 -215q-62 0 -108 12t-76.5 32t-45.5 44.5t-15 49.5q0 33 15 58.5t42.5 40t62.5 14.5q56 0 86.5 -24.5t30.5 -61.5q0 -32 -13 -52t-32.5 -31.5t-39.5 -17.5t-33 -10.5t-13 -10.5q0 -8 13.5 -14.5t36 -10.5t49.5 -4q45 0 79.5 16.5t54 44.5t19.5 64q0 33 -17 57
t-51.5 39.5t-89 23t-129.5 7.5v15l136 95l9 -6l-34 -23l10 -10q77 0 140.5 -7t112.5 -21t82 -34t50 -46.5t17 -58.5q0 -63 -43 -100t-121.5 -53.5t-184.5 -16.5zM312 145q-57 0 -109.5 9.5t-93.5 29.5t-65 53t-24 81q0 43 23 79t63.5 62.5t94.5 41t116 14.5q50 0 102 -13.5
t96.5 -38.5t71.5 -61.5t27 -83.5q0 -32 -15.5 -63t-50.5 -56t-93 -39.5t-143 -14.5zM317 155q24 0 36 16.5t16.5 48.5t4.5 78q0 54 -3.5 101t-15.5 76.5t-38 29.5q-24 0 -36.5 -29.5t-16.5 -76.5t-4 -101q0 -45 4.5 -77t17 -49t35.5 -17zM387 495l-67 14q25 0 52.5 11
t53.5 29t48.5 38t38.5 38.5t22 30.5l63 -141h-211v-20zM318 738q41 0 67 -22.5t26 -58.5q0 -35 -26 -57.5t-67 -22.5t-67 22.5t-26 57.5q0 36 26 58.5t67 22.5z" />
    <glyph glyph-name="uni0122" unicode="&#x122;" horiz-adv-x="760" 
d="M365 296v10h365v-179q-31 -40 -70.5 -67t-84 -43.5t-88.5 -24t-84 -7.5q-61 0 -117 16t-102.5 46.5t-81 75t-53.5 102t-19 127.5q0 87 27 155.5t78 117t124 73.5t166 25q41 0 81.5 -6t76.5 -16t66.5 -21t51.5 -20l-60 -276h-20l-60 125q-28 59 -51.5 98t-45 62
t-43.5 32.5t-47 9.5q-24 0 -43 -23.5t-32 -63.5t-20 -90.5t-7 -105.5q0 -40 6.5 -95t20.5 -113t38 -108t59 -81t82 -31h4h3v271zM381 -252l-7 14q14 6 27.5 14.5t24.5 18.5t17 19l-11 9h-16q-27 0 -49.5 7.5t-35.5 21.5t-13 33q0 20 13 34.5t35.5 22.5t49.5 8q28 0 50 -8
t35 -22.5t13 -34.5q0 -22 -10.5 -43t-28.5 -39t-42 -32.5t-52 -22.5z" />
    <glyph glyph-name="uni0123" unicode="&#x123;" horiz-adv-x="644" 
d="M265 -215q-62 0 -108 12t-76.5 32t-45.5 44.5t-15 49.5q0 33 15 58.5t42.5 40t62.5 14.5q56 0 86.5 -24.5t30.5 -61.5q0 -32 -13 -52t-32.5 -31.5t-39.5 -17.5t-33 -10.5t-13 -10.5q0 -8 13.5 -14.5t36 -10.5t49.5 -4q45 0 79.5 16.5t54 44.5t19.5 64q0 33 -17 57
t-51.5 39.5t-89 23t-129.5 7.5v15l136 95l9 -6l-34 -23l10 -10q77 0 140.5 -7t112.5 -21t82 -34t50 -46.5t17 -58.5q0 -63 -43 -100t-121.5 -53.5t-184.5 -16.5zM312 145q-57 0 -109.5 9.5t-93.5 29.5t-65 53t-24 81q0 43 23 79t63.5 62.5t94.5 41t116 14.5q50 0 102 -13.5
t96.5 -38.5t71.5 -61.5t27 -83.5q0 -32 -15.5 -63t-50.5 -56t-93 -39.5t-143 -14.5zM317 155q24 0 36 16.5t16.5 48.5t4.5 78q0 54 -3.5 101t-15.5 76.5t-38 29.5q-24 0 -36.5 -29.5t-16.5 -76.5t-4 -101q0 -45 4.5 -77t17 -49t35.5 -17zM387 495l-67 14q25 0 52.5 11
t53.5 29t48.5 38t38.5 38.5t22 30.5l63 -141h-211v-20zM353 813l7 -14q-13 -5 -27 -14t-25 -18.5t-17 -19.5l11 -9h16q29 0 51 -9.5t34.5 -26.5t12.5 -40q0 -26 -13 -45t-35 -29.5t-50 -10.5t-50 10.5t-35 29.5t-13 45t11 50t29.5 44t42.5 35t50 22z" />
    <glyph glyph-name="Hbar" unicode="&#x126;" horiz-adv-x="850" 
d="M20 580h810v-80h-810v80zM830 708v-10l-50 -10v-668l50 -10v-10h-335v10l40 10v668l-40 10v10h335zM355 708v-10l-40 -10v-668l40 -10v-10h-335v10l50 10v668l-50 10v10h335zM545 360v-30h-242v10z" />
    <glyph glyph-name="hbar" unicode="&#x127;" horiz-adv-x="700" 
d="M10 623h365v-80h-365v80zM690 10v-10h-325v10l40 10v355q0 31 -9 48t-21 17q-14 0 -27.5 -20t-24.5 -47.5t-18.5 -51t-9.5 -31.5v-270l40 -10v-10h-325v10l50 10v674h-50v11l285 40v-393l8 -8q17 48 41 87t58.5 61.5t84.5 22.5q46 0 76 -14t46.5 -38.5t23.5 -56t7 -66.5
v-320z" />
    <glyph glyph-name="Imacron" unicode="&#x12a;" horiz-adv-x="385" 
d="M365 708v-10l-50 -10v-668l50 -10v-10h-345v10l50 10v668l-50 10v10h345zM17 823v80h352v-80h-352z" />
    <glyph glyph-name="imacron" unicode="&#x12b;" horiz-adv-x="355" 
d="M10 0v10l50 10v444h-50v11l285 40v-495l50 -10v-10h-335zM-8 615v80h352v-80h-352z" />
    <glyph glyph-name="Iogonek" unicode="&#x12e;" horiz-adv-x="385" 
d="M365 708v-10l-50 -10v-668l50 -10v-10h-345v10l50 10v668l-50 10v10h345zM364 4q-37 -19 -59 -47t-22 -57q0 -28 15 -43.5t43 -15.5q16 0 29.5 6.5t20.5 17.5l8 -7q-20 -31 -55 -50t-74 -19q-34 0 -61 10t-42 28.5t-15 41.5q0 42 53.5 78.5t151.5 62.5z" />
    <glyph glyph-name="iogonek" unicode="&#x12f;" horiz-adv-x="355" 
d="M175 570q-40 0 -71 11t-48.5 31t-17.5 46t17.5 45.5t48.5 30.5t71 11q41 0 72 -11t48.5 -30.5t17.5 -45.5t-17.5 -46t-48.5 -31t-72 -11zM10 0v10l50 10v444h-50v11l285 40v-495l50 -10v-10h-335zM345 4q-37 -19 -59 -47t-22 -57q0 -28 15 -43.5t43 -15.5q16 0 29.5 6.5
t20.5 17.5l8 -7q-20 -31 -55 -50t-74 -19q-34 0 -61 10t-42 28.5t-15 41.5q0 42 53.5 78.5t151.5 62.5z" />
    <glyph glyph-name="Idotaccent" unicode="&#x130;" horiz-adv-x="385" 
d="M365 708v-10l-50 -10v-668l50 -10v-10h-345v10l50 10v668l-50 10v10h345zM193 946q41 0 67 -22.5t26 -58.5q0 -35 -26 -57.5t-67 -22.5t-67 22.5t-26 57.5q0 36 26 58.5t67 22.5z" />
    <glyph glyph-name="dotlessi" unicode="&#x131;" horiz-adv-x="355" 
d="M10 0v10l50 10v444h-50v11l285 40v-495l50 -10v-10h-335z" />
    <glyph glyph-name="IJ" unicode="&#x132;" horiz-adv-x="962" 
d="M365 708v-10l-50 -10v-668l50 -10v-10h-345v10l50 10v668l-50 10v10h345zM637 -15q-85 0 -145.5 16.5t-93 47t-32.5 72.5q0 28 12.5 47.5t33.5 31.5t46.5 17.5t50.5 5.5q29 0 52.5 -8.5t37.5 -24t14 -36.5q0 -23 -9.5 -39t-24.5 -27t-32 -18t-32 -13t-24.5 -12.5
t-9.5 -16.5q0 -6 10.5 -12.5t28 -11t36.5 -4.5q23 0 45 8.5t38 35t21.5 78.5t-3.5 140v426l-90 10v10h335v-483q0 -99 -29.5 -151t-88 -70.5t-147.5 -18.5z" />
    <glyph glyph-name="ij" unicode="&#x133;" horiz-adv-x="710" 
d="M175 570q-40 0 -71 11t-48.5 31t-17.5 46t17.5 45.5t48.5 30.5t71 11q41 0 72 -11t48.5 -30.5t17.5 -45.5t-17.5 -46t-48.5 -31t-72 -11zM10 0v10l50 10v444h-50v11l285 40v-495l50 -10v-10h-335zM537 529q-38 0 -66.5 13t-44.5 35t-16 49q0 29 16 50.5t44.5 34
t66.5 12.5t66.5 -12.5t45 -34t16.5 -50.5q0 -27 -16.5 -49t-45 -35t-66.5 -13zM385 -215q-49 0 -92 8t-75.5 23t-50.5 37.5t-18 52.5q0 29 17 45.5t47.5 23.5t68.5 7q59 0 97.5 -16t38.5 -60q0 -22 -11.5 -37.5t-27 -26.5t-27 -20t-11.5 -18q0 -5 9.5 -7t31.5 -2
q38 0 51.5 17t13.5 47q0 24 -6 55t-21 86v464h-50v11l285 40v-515q0 -33 -4.5 -58.5t-14.5 -48.5q-23 -54 -85.5 -81t-165.5 -27z" />
    <glyph glyph-name="uni0136" unicode="&#x136;" horiz-adv-x="764" 
d="M603 -15q-38 0 -66 8.5t-51 29t-47 55.5q-13 20 -26 46t-26.5 59.5t-27 74t-27.5 88.5h-17v-326l50 -10v-10h-345v10l50 10v668l-50 10v10h295v-348q6 0 12 1t12 3q20 7 38.5 23.5t35 40t29.5 50.5q11 22 19 45t12 45.5t4 42.5q0 38 -19.5 62.5t-62.5 24.5v10h354v-10
l-50 -10q0 -43 -15 -82t-40 -73t-56 -62q-41 -38 -87.5 -65t-86.5 -41t-63 -14v-5q59 0 103 -8t76 -26t56 -48.5t43 -74.5q19 -45 34.5 -74t31 -47t32.5 -30q9 -6 18 -6v-10q-23 -18 -48 -25.5t-49 -9.5t-45 -2zM377 -252l-7 14q14 6 27.5 14.5t24.5 18.5t17 19l-11 9h-16
q-27 0 -49.5 7.5t-35.5 21.5t-13 33q0 20 13 34.5t35.5 22.5t49.5 8q28 0 50 -8t35 -22.5t13 -34.5q0 -22 -10.5 -43t-28.5 -39t-42 -32.5t-52 -22.5z" />
    <glyph glyph-name="uni0137" unicode="&#x137;" horiz-adv-x="671" 
d="M295 20l50 -10v-10h-335v10l50 10v674h-50v11l285 40v-725zM285 270v17q33 6 69 19t79 33q34 16 59 30.5t38.5 25.5t13.5 18t-14 11.5t-36 9t-47 11t-47 16.5t-36 27t-14 43q0 25 15.5 44t42.5 30t62 11q41 0 72.5 -14.5t49.5 -40t18 -59.5t-17 -60.5t-51 -52.5
q-22 -17 -52 -34.5t-67 -37.5v-12h129q9 -34 17.5 -68.5t17.5 -69.5q7 -28 16.5 -55t20 -48.5t20.5 -31.5q4 -4 7.5 -5.5t7.5 -1.5v-10q-19 -10 -38.5 -17t-40.5 -10t-47 -3q-48 0 -85 18.5t-62 53t-38 81.5q-10 38 -19 68.5t-17 63.5h-27zM331 -252l-7 14q14 6 27.5 14.5
t24.5 18.5t17 19l-11 9h-16q-27 0 -49.5 7.5t-35.5 21.5t-13 33q0 20 13 34.5t35.5 22.5t49.5 8q28 0 50 -8t35 -22.5t13 -34.5q0 -22 -10.5 -43t-28.5 -39t-42 -32.5t-52 -22.5z" />
    <glyph glyph-name="Lacute" unicode="&#x139;" horiz-adv-x="647" 
d="M20 0v10l50 10v668l-50 10v10h346v-10l-51 -10v-673h62q29 0 53 16.5t47 53t48 95.5l52 124h20l35 -304h-612zM141 785l-6 4l46 157l214 -46z" />
    <glyph glyph-name="lacute" unicode="&#x13a;" horiz-adv-x="355" 
d="M295 20l50 -10v-10h-335v10l50 10v674h-50v11l285 40v-725zM125 785l-6 4l46 157l214 -46z" />
    <glyph glyph-name="uni013B" unicode="&#x13b;" horiz-adv-x="647" 
d="M20 0v10l50 10v668l-50 10v10h346v-10l-51 -10v-673h62q29 0 53 16.5t47 53t48 95.5l52 124h20l35 -304h-612zM309 -252l-7 14q14 6 27.5 14.5t24.5 18.5t17 19l-11 9h-16q-27 0 -49.5 7.5t-35.5 21.5t-13 33q0 20 13 34.5t35.5 22.5t49.5 8q28 0 50 -8t35 -22.5
t13 -34.5q0 -22 -10.5 -43t-28.5 -39t-42 -32.5t-52 -22.5z" />
    <glyph glyph-name="uni013C" unicode="&#x13c;" horiz-adv-x="355" 
d="M295 20l50 -10v-10h-335v10l50 10v674h-50v11l285 40v-725zM143 -252l-7 14q14 6 27.5 14.5t24.5 18.5t17 19l-11 9h-16q-27 0 -49.5 7.5t-35.5 21.5t-13 33q0 20 13 34.5t35.5 22.5t49.5 8q28 0 50 -8t35 -22.5t13 -34.5q0 -22 -10.5 -43t-28.5 -39t-42 -32.5t-52 -22.5
z" />
    <glyph glyph-name="Lcaron" unicode="&#x13d;" horiz-adv-x="647" 
d="M20 0v10l50 10v668l-50 10v10h346v-10l-51 -10v-673h62q29 0 53 16.5t47 53t48 95.5l52 124h20l35 -304h-612zM455 539v199h164l-120 -199h-44z" />
    <glyph glyph-name="lcaron" unicode="&#x13e;" horiz-adv-x="527" 
d="M295 20l50 -10v-10h-335v10l50 10v674h-50v11l285 40v-725zM353 539v199h164l-120 -199h-44z" />
    <glyph glyph-name="Ldot" unicode="&#x13f;" horiz-adv-x="657" 
d="M20 0v10l50 10v668l-50 10v10h346v-10l-51 -10v-673h62q29 0 53 16.5t47 53t48 95.5l52 124h20l35 -304h-612zM521 512q28 0 50 -10.5t35 -29.5t13 -45q0 -25 -13 -43.5t-35 -28.5t-50 -10t-50 10t-35 28.5t-13 43.5q0 26 13 45t35 29.5t50 10.5z" />
    <glyph glyph-name="ldot" unicode="&#x140;" horiz-adv-x="571" 
d="M295 20l50 -10v-10h-335v10l50 10v674h-50v11l285 40v-725zM463 452q28 0 50 -10.5t35 -29.5t13 -45q0 -25 -13 -43.5t-35 -28.5t-50 -10t-50 10t-35 28.5t-13 43.5q0 26 13 45t35 29.5t50 10.5z" />
    <glyph glyph-name="Lslash" unicode="&#x141;" horiz-adv-x="647" 
d="M20 262l-40 71l393 217l39 -72zM20 0v10l50 10v668l-50 10v10h346v-10l-51 -10v-673h62q29 0 53 16.5t47 53t48 95.5l52 124h20l35 -304h-612z" />
    <glyph glyph-name="lslash" unicode="&#x142;" horiz-adv-x="355" 
d="M17 262l-40 71l362 200l39 -72zM295 20l50 -10v-10h-335v10l50 10v674h-50v11l285 40v-725z" />
    <glyph glyph-name="Nacute" unicode="&#x143;" horiz-adv-x="756" 
d="M5 0v10l70 10v585q0 26 -18 50t-52 43v10h302l328 -446h17v5q0 52 -9 104t-27 101t-44.5 92t-61.5 77.5t-78 56.5v10h319v-10l-84 -10v-688h-131l-431 574h-15v-5q0 -72 9 -139t29 -127.5t51 -114t74.5 -98.5t100.5 -80v-10h-349zM325 785l-6 4l46 157l214 -46z" />
    <glyph glyph-name="nacute" unicode="&#x144;" 
d="M692 10v-10h-325v10l40 10v355q0 31 -9 48t-21 17q-14 0 -27.5 -20t-24.5 -47.5t-18.5 -51t-9.5 -31.5v-270l40 -10v-10h-325v10l50 10v444h-50v11l285 40v-163l8 -8q17 48 41 87t58.5 61.5t84.5 22.5q46 0 76 -14t46.5 -38.5t23.5 -56t7 -66.5v-320zM299 577l-6 4
l46 157l214 -46z" />
    <glyph glyph-name="uni0145" unicode="&#x145;" horiz-adv-x="756" 
d="M5 0v10l70 10v585q0 26 -18 50t-52 43v10h302l328 -446h17v5q0 52 -9 104t-27 101t-44.5 92t-61.5 77.5t-78 56.5v10h319v-10l-84 -10v-688h-131l-431 574h-15v-5q0 -72 9 -139t29 -127.5t51 -114t74.5 -98.5t100.5 -80v-10h-349zM353 -252l-7 14q14 6 27.5 14.5
t24.5 18.5t17 19l-11 9h-16q-27 0 -49.5 7.5t-35.5 21.5t-13 33q0 20 13 34.5t35.5 22.5t49.5 8q28 0 50 -8t35 -22.5t13 -34.5q0 -22 -10.5 -43t-28.5 -39t-42 -32.5t-52 -22.5z" />
    <glyph glyph-name="uni0146" unicode="&#x146;" 
d="M692 10v-10h-325v10l40 10v355q0 31 -9 48t-21 17q-14 0 -27.5 -20t-24.5 -47.5t-18.5 -51t-9.5 -31.5v-270l40 -10v-10h-325v10l50 10v444h-50v11l285 40v-163l8 -8q17 48 41 87t58.5 61.5t84.5 22.5q46 0 76 -14t46.5 -38.5t23.5 -56t7 -66.5v-320zM317 -252l-7 14
q14 6 27.5 14.5t24.5 18.5t17 19l-11 9h-16q-27 0 -49.5 7.5t-35.5 21.5t-13 33q0 20 13 34.5t35.5 22.5t49.5 8q28 0 50 -8t35 -22.5t13 -34.5q0 -22 -10.5 -43t-28.5 -39t-42 -32.5t-52 -22.5z" />
    <glyph glyph-name="Ncaron" unicode="&#x147;" horiz-adv-x="756" 
d="M5 0v10l70 10v585q0 26 -18 50t-52 43v10h302l328 -446h17v5q0 52 -9 104t-27 101t-44.5 92t-61.5 77.5t-78 56.5v10h319v-10l-84 -10v-688h-131l-431 574h-15v-5q0 -72 9 -139t29 -127.5t51 -114t74.5 -98.5t100.5 -80v-10h-349zM538 946l10 -7l-130 -154h-80l-130 151
l10 10l255 -73z" />
    <glyph glyph-name="ncaron" unicode="&#x148;" 
d="M692 10v-10h-325v10l40 10v355q0 31 -9 48t-21 17q-14 0 -27.5 -20t-24.5 -47.5t-18.5 -51t-9.5 -31.5v-270l40 -10v-10h-325v10l50 10v444h-50v11l285 40v-163l8 -8q17 48 41 87t58.5 61.5t84.5 22.5q46 0 76 -14t46.5 -38.5t23.5 -56t7 -66.5v-320zM512 738l10 -7
l-130 -154h-80l-130 151l10 10l255 -73z" />
    <glyph glyph-name="Eng" unicode="&#x14a;" horiz-adv-x="756" 
d="M667 -83q0 -29 -19.5 -53.5t-53 -42t-77 -27t-92.5 -9.5q-63 0 -116.5 11.5t-85.5 34.5t-32 59q0 35 23.5 53.5t66.5 18.5q53 0 78.5 -16.5t25.5 -49.5q0 -100 40 -100q19 0 23 31.5t4 89.5v195l-347 462h-15v-5q0 -72 9 -139t29 -127.5t51 -114t74.5 -98.5t100.5 -80
v-10h-349v10l70 10v585q0 26 -18 50t-52 43v10h302l328 -446h17v5q0 52 -9 104t-27 101t-44.5 92t-61.5 77.5t-78 56.5v10h319v-10l-84 -10v-771z" />
    <glyph glyph-name="eng" unicode="&#x14b;" 
d="M642 -83q0 -29 -22.5 -53.5t-60 -42t-84 -27t-95.5 -9.5q-63 0 -116.5 11.5t-85.5 34.5t-32 59q0 35 23.5 53.5t66.5 18.5q53 0 78.5 -16.5t25.5 -49.5q0 -50 10 -75t30 -25q19 0 23 31.5t4 89.5v458q0 31 -9 48t-21 17q-14 0 -27.5 -20t-24.5 -47.5t-18.5 -51
t-9.5 -31.5v-270l40 -10v-10h-325v10l50 10v444h-50v11l285 40v-163l8 -8q17 48 41 87t58.5 61.5t84.5 22.5q46 0 76 -14t46.5 -38.5t23.5 -56t7 -66.5v-423z" />
    <glyph glyph-name="Omacron" unicode="&#x14c;" horiz-adv-x="800" 
d="M402 723q76 0 142.5 -21.5t117.5 -66t79.5 -115t28.5 -169.5q0 -93 -27.5 -162t-77.5 -114t-117 -67.5t-146 -22.5t-147 23t-118.5 68.5t-78.5 114.5t-28 161q0 84 27 152.5t76.5 117t118 75t150.5 26.5zM402 713q-32 0 -55.5 -20t-38 -63t-21.5 -110.5t-7 -163.5
q0 -94 7 -162.5t21.5 -111.5t38 -64t55.5 -21t54.5 19.5t36.5 62.5t20.5 111.5t6.5 166.5q0 97 -6.5 165t-20.5 110t-36.5 61.5t-54.5 19.5zM226 823v80h352v-80h-352z" />
    <glyph glyph-name="omacron" unicode="&#x14d;" horiz-adv-x="630" 
d="M316 515q72 0 127 -20t92 -56.5t56 -85.5t19 -107q0 -51 -18.5 -97.5t-55.5 -83.5t-92 -58.5t-128 -21.5q-76 0 -132 21.5t-92.5 58.5t-54 83.5t-17.5 97.5q0 58 20.5 107t58.5 85.5t93 56.5t124 20zM316 505q-24 0 -36 -37t-16 -96t-4 -126q0 -46 1.5 -91t7 -81
t17 -57.5t30.5 -21.5q17 0 27.5 21t16.5 57t8 81t2 92q0 50 -1.5 96.5t-6.5 83t-16 58t-30 21.5zM140 615v80h352v-80h-352z" />
    <glyph glyph-name="Ohungarumlaut" unicode="&#x150;" horiz-adv-x="800" 
d="M402 723q76 0 142.5 -21.5t117.5 -66t79.5 -115t28.5 -169.5q0 -93 -27.5 -162t-77.5 -114t-117 -67.5t-146 -22.5t-147 23t-118.5 68.5t-78.5 114.5t-28 161q0 84 27 152.5t76.5 117t118 75t150.5 26.5zM402 713q-32 0 -55.5 -20t-38 -63t-21.5 -110.5t-7 -163.5
q0 -94 7 -162.5t21.5 -111.5t38 -64t55.5 -21t54.5 19.5t36.5 62.5t20.5 111.5t6.5 166.5q0 97 -6.5 165t-20.5 110t-36.5 61.5t-54.5 19.5zM481 785l-6 4l46 157l214 -46zM235 785l-6 4l46 157l214 -46z" />
    <glyph glyph-name="ohungarumlaut" unicode="&#x151;" horiz-adv-x="630" 
d="M316 515q72 0 127 -20t92 -56.5t56 -85.5t19 -107q0 -51 -18.5 -97.5t-55.5 -83.5t-92 -58.5t-128 -21.5q-76 0 -132 21.5t-92.5 58.5t-54 83.5t-17.5 97.5q0 58 20.5 107t58.5 85.5t93 56.5t124 20zM316 505q-24 0 -36 -37t-16 -96t-4 -126q0 -46 1.5 -91t7 -81
t17 -57.5t30.5 -21.5q17 0 27.5 21t16.5 57t8 81t2 92q0 50 -1.5 96.5t-6.5 83t-16 58t-30 21.5zM395 577l-6 4l46 157l214 -46zM149 577l-6 4l46 157l214 -46z" />
    <glyph glyph-name="OE" unicode="&#x152;" horiz-adv-x="1102" 
d="M392 12h1.5h1.5q28 0 44.5 33.5t23.5 111t7 210.5q0 120 -7.5 192.5t-24 105.5t-43.5 33h-1.5h-1.5q-32 0 -53.5 -20.5t-34.5 -61.5t-18.5 -103.5t-5.5 -146.5q0 -91 5.5 -157.5t18.5 -110t34.5 -65t53.5 -21.5zM797 693h-82v-327h20q21 0 39.5 11.5t34.5 26.5
q25 26 41.5 56.5t20.5 45.5h10v-260h-10l-146 110h-10v-341h82q34 0 74 33t67 90l69 146h10l35 -284h-558h-50.5h-51.5q-79 0 -145.5 23.5t-115 69.5t-75 113.5t-26.5 155.5q0 73 25.5 135.5t73 110t114.5 74t149 26.5h51.5h50.5h558l-35 -284h-10l-95 174q-25 46 -58 70.5
t-57 24.5z" />
    <glyph glyph-name="oe" unicode="&#x153;" horiz-adv-x="951" 
d="M316 -15q-76 0 -132 21.5t-92.5 58.5t-54 83.5t-17.5 97.5q0 58 20.5 107t58.5 85.5t93 56.5t124 20q36 0 67.5 -5.5t59 -17.5t50.5 -31q24 20 51 31.5t57.5 17t63.5 5.5q93 0 151.5 -36t86.5 -92.5t28 -120.5h-326v10l109 20q0 70 -2.5 116.5t-13 69.5t-34.5 23
q-15 0 -25.5 -11.5t-17 -37.5t-9.5 -70t-3 -110q0 -44 9.5 -84.5t27.5 -71.5t45 -49t62 -18q18 0 39.5 7t42 21t37.5 33t27 43l14 -9q-27 -56 -61 -88.5t-71 -48.5t-71.5 -21t-62.5 -5q-32 0 -60.5 5.5t-53 17.5t-45.5 30q-23 -18 -49.5 -30t-57 -17.5t-65.5 -5.5zM316 -5
q17 0 27.5 21t16.5 57t8 81t2 92q0 50 -1.5 96.5t-6.5 83t-16 58t-30 21.5q-24 0 -36 -37t-16 -96t-4 -126q0 -46 1.5 -91t7 -81t17 -57.5t30.5 -21.5z" />
    <glyph glyph-name="Racute" unicode="&#x154;" horiz-adv-x="750" 
d="M625 -15q-44 0 -80 14.5t-63.5 40t-44.5 58.5q-18 35 -43 101t-54 154h-25v-333l50 -10v-10h-345v10l50 10v669l-50 9v10h445q87 0 145 -18t86.5 -54.5t28.5 -91.5q0 -57 -42 -97.5t-123 -61.5t-197 -21v-10q56 0 100 -7.5t77.5 -22.5t56 -38t34.5 -54q22 -54 39.5 -94.5
t31.5 -65t22 -31.5q11 -9 21 -9v-10q-18 -15 -40 -23t-43 -11t-37 -3zM339 378q36 0 64 10.5t47 31t29 50t10 68.5q0 50 -14 84t-40.5 52t-64.5 18q-16 0 -28.5 -0.5t-26.5 -3.5v-305q6 -3 12 -4t12 -1zM327 785l-6 4l46 157l214 -46z" />
    <glyph glyph-name="racute" unicode="&#x155;" horiz-adv-x="603" 
d="M12 0v10l50 15v439h-50v11l285 40v-153l8 -8q11 31 23.5 57t25.5 42q22 31 52.5 46.5t70.5 15.5q29 0 58 -12t48.5 -37t19.5 -64q0 -32 -16 -57t-44.5 -39t-66.5 -14q-34 0 -60.5 12.5t-41.5 34.5t-15 50q0 12 2.5 21.5t5 18t2.5 14.5q0 7 -4 7q-6 0 -15 -15t-26 -54
q-6 -15 -13 -37.5t-14 -48.5v-270l50 -15v-10h-335zM249 577l-6 4l46 157l214 -46z" />
    <glyph glyph-name="uni0156" unicode="&#x156;" horiz-adv-x="750" 
d="M625 -15q-44 0 -80 14.5t-63.5 40t-44.5 58.5q-18 35 -43 101t-54 154h-25v-333l50 -10v-10h-345v10l50 10v669l-50 9v10h445q87 0 145 -18t86.5 -54.5t28.5 -91.5q0 -57 -42 -97.5t-123 -61.5t-197 -21v-10q56 0 100 -7.5t77.5 -22.5t56 -38t34.5 -54q22 -54 39.5 -94.5
t31.5 -65t22 -31.5q11 -9 21 -9v-10q-18 -15 -40 -23t-43 -11t-37 -3zM339 378q36 0 64 10.5t47 31t29 50t10 68.5q0 50 -14 84t-40.5 52t-64.5 18q-16 0 -28.5 -0.5t-26.5 -3.5v-305q6 -3 12 -4t12 -1zM375 -252l-7 14q14 6 27.5 14.5t24.5 18.5t17 19l-11 9h-16
q-27 0 -49.5 7.5t-35.5 21.5t-13 33q0 20 13 34.5t35.5 22.5t49.5 8q28 0 50 -8t35 -22.5t13 -34.5q0 -22 -10.5 -43t-28.5 -39t-42 -32.5t-52 -22.5z" />
    <glyph glyph-name="uni0157" unicode="&#x157;" horiz-adv-x="603" 
d="M12 0v10l50 15v439h-50v11l285 40v-153l8 -8q11 31 23.5 57t25.5 42q22 31 52.5 46.5t70.5 15.5q29 0 58 -12t48.5 -37t19.5 -64q0 -32 -16 -57t-44.5 -39t-66.5 -14q-34 0 -60.5 12.5t-41.5 34.5t-15 50q0 12 2.5 21.5t5 18t2.5 14.5q0 7 -4 7q-6 0 -15 -15t-26 -54
q-6 -15 -13 -37.5t-14 -48.5v-270l50 -15v-10h-335zM147 -252l-7 14q14 6 27.5 14.5t24.5 18.5t17 19l-11 9h-16q-27 0 -49.5 7.5t-35.5 21.5t-13 33q0 20 13 34.5t35.5 22.5t49.5 8q28 0 50 -8t35 -22.5t13 -34.5q0 -22 -10.5 -43t-28.5 -39t-42 -32.5t-52 -22.5z" />
    <glyph glyph-name="Rcaron" unicode="&#x158;" horiz-adv-x="750" 
d="M625 -15q-44 0 -80 14.5t-63.5 40t-44.5 58.5q-18 35 -43 101t-54 154h-25v-333l50 -10v-10h-345v10l50 10v669l-50 9v10h445q87 0 145 -18t86.5 -54.5t28.5 -91.5q0 -57 -42 -97.5t-123 -61.5t-197 -21v-10q56 0 100 -7.5t77.5 -22.5t56 -38t34.5 -54q22 -54 39.5 -94.5
t31.5 -65t22 -31.5q11 -9 21 -9v-10q-18 -15 -40 -23t-43 -11t-37 -3zM339 378q36 0 64 10.5t47 31t29 50t10 68.5q0 50 -14 84t-40.5 52t-64.5 18q-16 0 -28.5 -0.5t-26.5 -3.5v-305q6 -3 12 -4t12 -1zM540 946l10 -7l-130 -154h-80l-130 151l10 10l255 -73z" />
    <glyph glyph-name="rcaron" unicode="&#x159;" horiz-adv-x="603" 
d="M12 0v10l50 15v439h-50v11l285 40v-153l8 -8q11 31 23.5 57t25.5 42q22 31 52.5 46.5t70.5 15.5q29 0 58 -12t48.5 -37t19.5 -64q0 -32 -16 -57t-44.5 -39t-66.5 -14q-34 0 -60.5 12.5t-41.5 34.5t-15 50q0 12 2.5 21.5t5 18t2.5 14.5q0 7 -4 7q-6 0 -15 -15t-26 -54
q-6 -15 -13 -37.5t-14 -48.5v-270l50 -15v-10h-335zM462 738l10 -7l-130 -154h-80l-130 151l10 10l255 -73z" />
    <glyph glyph-name="Sacute" unicode="&#x15a;" horiz-adv-x="665" 
d="M332 -15q-49 0 -102 7t-102 19.5t-87 29.5l20 259h20l95 -161q29 -48 59 -79t61.5 -45.5t61.5 -14.5q22 0 37.5 6.5t23.5 19t8 29.5q0 26 -14.5 51.5t-48.5 56.5t-93 72q-90 65 -143 112t-75.5 85t-22.5 76q0 45 22 84t63.5 68.5t99 46t127.5 16.5q60 0 113 -8.5
t96.5 -22.5t71.5 -32l-50 -249h-20l-45 91q-37 76 -68 121t-60 65t-61 20q-34 0 -58 -8t-36.5 -23t-12.5 -37q0 -23 20.5 -50.5t69 -65.5t130.5 -93q62 -40 103.5 -73t67 -61.5t36.5 -55t11 -55.5q0 -47 -20 -81t-53.5 -57t-75 -37t-85.5 -20t-84 -6zM280 785l-6 4l46 157
l214 -46z" />
    <glyph glyph-name="sacute" unicode="&#x15b;" horiz-adv-x="563" 
d="M267 -15q-47 0 -91 8.5t-79.5 25t-56 40.5t-20.5 55q0 28 17 45t43.5 25.5t54.5 8.5q30 0 55 -8.5t40.5 -25.5t15.5 -41q0 -16 -5 -29t-18 -29q-13 -14 -18 -23.5t-5 -19.5q0 -5 5 -11t17 -9.5t33 -3.5q28 0 53.5 6.5t41.5 21.5t16 41q0 24 -14 44t-47 39.5t-90 42.5
q-71 30 -112.5 58t-59 58t-17.5 64q0 68 70 107.5t188 39.5q65 0 120.5 -15t89.5 -42t34 -65q0 -25 -15.5 -42t-40 -25.5t-51.5 -8.5q-22 0 -43 5t-38 14.5t-27.5 24t-10.5 33.5q0 31 29 58q16 15 22 24t6 16q0 3 -3 6t-10 5t-18.5 3t-28.5 1q-28 0 -55 -5.5t-44.5 -18
t-17.5 -35.5q0 -25 22 -46t57 -39.5t75 -36.5q76 -34 120 -61t63 -53t19 -56q0 -44 -23.5 -76t-62.5 -53t-87 -31.5t-98 -10.5zM214 577l-6 4l46 157l214 -46z" />
    <glyph glyph-name="Scedilla" unicode="&#x15e;" horiz-adv-x="665" 
d="M332 -15q-49 0 -102 7t-102 19.5t-87 29.5l20 259h20l95 -161q29 -48 59 -79t61.5 -45.5t61.5 -14.5q22 0 37.5 6.5t23.5 19t8 29.5q0 26 -14.5 51.5t-48.5 56.5t-93 72q-90 65 -143 112t-75.5 85t-22.5 76q0 45 22 84t63.5 68.5t99 46t127.5 16.5q60 0 113 -8.5
t96.5 -22.5t71.5 -32l-50 -249h-20l-45 91q-37 76 -68 121t-60 65t-61 20q-34 0 -58 -8t-36.5 -23t-12.5 -37q0 -23 20.5 -50.5t69 -65.5t130.5 -93q62 -40 103.5 -73t67 -61.5t36.5 -55t11 -55.5q0 -47 -20 -81t-53.5 -57t-75 -37t-85.5 -20t-84 -6zM360 -215
q-37 0 -64 15.5t-38 49.5l10 10q9 -16 22.5 -23.5t27.5 -7.5q19 0 31.5 8.5t19.5 22t7 27.5q0 11 -4 22.5t-12.5 21.5t-21 16.5t-30.5 6.5l18 46h10l-9 -25l8 -11q43 0 70.5 -13.5t40.5 -33.5t13 -42q0 -21 -12 -42t-34 -34.5t-53 -13.5z" />
    <glyph glyph-name="scedilla" unicode="&#x15f;" horiz-adv-x="563" 
d="M267 -15q-47 0 -91 8.5t-79.5 25t-56 40.5t-20.5 55q0 28 17 45t43.5 25.5t54.5 8.5q30 0 55 -8.5t40.5 -25.5t15.5 -41q0 -16 -5 -29t-18 -29q-13 -14 -18 -23.5t-5 -19.5q0 -5 5 -11t17 -9.5t33 -3.5q28 0 53.5 6.5t41.5 21.5t16 41q0 24 -14 44t-47 39.5t-90 42.5
q-71 30 -112.5 58t-59 58t-17.5 64q0 68 70 107.5t188 39.5q65 0 120.5 -15t89.5 -42t34 -65q0 -25 -15.5 -42t-40 -25.5t-51.5 -8.5q-22 0 -43 5t-38 14.5t-27.5 24t-10.5 33.5q0 31 29 58q16 15 22 24t6 16q0 3 -3 6t-10 5t-18.5 3t-28.5 1q-28 0 -55 -5.5t-44.5 -18
t-17.5 -35.5q0 -25 22 -46t57 -39.5t75 -36.5q76 -34 120 -61t63 -53t19 -56q0 -44 -23.5 -76t-62.5 -53t-87 -31.5t-98 -10.5zM304 -215q-37 0 -64 15.5t-38 49.5l10 10q9 -16 22.5 -23.5t27.5 -7.5q19 0 31.5 8.5t19.5 22t7 27.5q0 11 -4 22.5t-12.5 21.5t-21 16.5
t-30.5 6.5l18 46h10l-9 -25l8 -11q43 0 70.5 -13.5t40.5 -33.5t13 -42q0 -21 -12 -42t-34 -34.5t-53 -13.5z" />
    <glyph glyph-name="Scaron" unicode="&#x160;" horiz-adv-x="665" 
d="M332 -15q-49 0 -102 7t-102 19.5t-87 29.5l20 259h20l95 -161q29 -48 59 -79t61.5 -45.5t61.5 -14.5q22 0 37.5 6.5t23.5 19t8 29.5q0 26 -14.5 51.5t-48.5 56.5t-93 72q-90 65 -143 112t-75.5 85t-22.5 76q0 45 22 84t63.5 68.5t99 46t127.5 16.5q60 0 113 -8.5
t96.5 -22.5t71.5 -32l-50 -249h-20l-45 91q-37 76 -68 121t-60 65t-61 20q-34 0 -58 -8t-36.5 -23t-12.5 -37q0 -23 20.5 -50.5t69 -65.5t130.5 -93q62 -40 103.5 -73t67 -61.5t36.5 -55t11 -55.5q0 -47 -20 -81t-53.5 -57t-75 -37t-85.5 -20t-84 -6zM493 946l10 -7
l-130 -154h-80l-130 151l10 10l255 -73z" />
    <glyph glyph-name="scaron" unicode="&#x161;" horiz-adv-x="563" 
d="M267 -15q-47 0 -91 8.5t-79.5 25t-56 40.5t-20.5 55q0 28 17 45t43.5 25.5t54.5 8.5q30 0 55 -8.5t40.5 -25.5t15.5 -41q0 -16 -5 -29t-18 -29q-13 -14 -18 -23.5t-5 -19.5q0 -5 5 -11t17 -9.5t33 -3.5q28 0 53.5 6.5t41.5 21.5t16 41q0 24 -14 44t-47 39.5t-90 42.5
q-71 30 -112.5 58t-59 58t-17.5 64q0 68 70 107.5t188 39.5q65 0 120.5 -15t89.5 -42t34 -65q0 -25 -15.5 -42t-40 -25.5t-51.5 -8.5q-22 0 -43 5t-38 14.5t-27.5 24t-10.5 33.5q0 31 29 58q16 15 22 24t6 16q0 3 -3 6t-10 5t-18.5 3t-28.5 1q-28 0 -55 -5.5t-44.5 -18
t-17.5 -35.5q0 -25 22 -46t57 -39.5t75 -36.5q76 -34 120 -61t63 -53t19 -56q0 -44 -23.5 -76t-62.5 -53t-87 -31.5t-98 -10.5zM427 738l10 -7l-130 -154h-80l-130 151l10 10l255 -73z" />
    <glyph glyph-name="Tcaron" unicode="&#x164;" horiz-adv-x="749" 
d="M202 0v10l50 10v673h-10q-20 0 -41.5 -16t-41.5 -47t-39 -76l-60 -140h-20l-35 294h739l-35 -294h-20l-60 140q-19 45 -39.5 76t-41.5 47t-41 16h-10v-673l50 -10v-10h-345zM535 946l10 -7l-130 -154h-80l-130 151l10 10l255 -73z" />
    <glyph glyph-name="tcaron" unicode="&#x165;" horiz-adv-x="607" 
d="M230 -15q-91 0 -130.5 49.5t-39.5 146.5v299h-60v10l60 10l215 164h20v-149l90 -25v-10h-90v-380q0 -37 12.5 -53.5t30.5 -16.5q10 0 20 4t20 11v-20q-14 -9 -31 -16.5t-35.5 -13t-39 -8t-42.5 -2.5zM433 539v199h164l-120 -199h-44z" />
    <glyph glyph-name="Umacron" unicode="&#x16a;" horiz-adv-x="733" 
d="M387 0q-154 0 -235.5 78.5t-81.5 224.5v386l-50 9v10h355v-10l-60 -9v-357q0 -121 43 -186t121 -65q74 0 114 49.5t40 140.5v16q0 51 -16.5 108.5t-46 113.5t-68.5 105t-84 84v10h305v-10l-70 -9v-374q0 -151 -66 -233t-200 -82zM211 823v80h352v-80h-352z" />
    <glyph glyph-name="umacron" unicode="&#x16b;" horiz-adv-x="692" 
d="M205 -14q-76 0 -114.5 43.5t-38.5 131.5v304h-50v10l285 40v-389q0 -31 9 -48t21 -17q13 0 27.5 20t28.5 54t24 76v254h-50v10l285 40v-479h50v-11l-285 -40v164l-8 8q-31 -89 -75 -130t-109 -41zM170 615v80h352v-80h-352z" />
    <glyph glyph-name="Ubreve" unicode="&#x16c;" horiz-adv-x="733" 
d="M387 0q-154 0 -235.5 78.5t-81.5 224.5v386l-50 9v10h355v-10l-60 -9v-357q0 -121 43 -186t121 -65q74 0 114 49.5t40 140.5v16q0 51 -16.5 108.5t-46 113.5t-68.5 105t-84 84v10h305v-10l-70 -9v-374q0 -151 -66 -233t-200 -82zM387 791q-59 0 -105.5 38t-66.5 102
l10 10q18 -15 43 -25t55 -15.5t64 -5.5t64 5.5t55 15.5t43 25l10 -10q-20 -64 -66.5 -102t-105.5 -38z" />
    <glyph glyph-name="ubreve" unicode="&#x16d;" horiz-adv-x="692" 
d="M205 -14q-76 0 -114.5 43.5t-38.5 131.5v304h-50v10l285 40v-389q0 -31 9 -48t21 -17q13 0 27.5 20t28.5 54t24 76v254h-50v10l285 40v-479h50v-11l-285 -40v164l-8 8q-31 -89 -75 -130t-109 -41zM346 583q-59 0 -105.5 38t-66.5 102l10 10q18 -15 43 -25t55 -15.5
t64 -5.5t64 5.5t55 15.5t43 25l10 -10q-20 -64 -66.5 -102t-105.5 -38z" />
    <glyph glyph-name="Uring" unicode="&#x16e;" horiz-adv-x="733" 
d="M387 0q-154 0 -235.5 78.5t-81.5 224.5v386l-50 9v10h355v-10l-60 -9v-357q0 -121 43 -186t121 -65q74 0 114 49.5t40 140.5v16q0 51 -16.5 108.5t-46 113.5t-68.5 105t-84 84v10h305v-10l-70 -9v-374q0 -151 -66 -233t-200 -82zM387 956q41 0 72 -11.5t48.5 -31.5
t17.5 -47q0 -26 -17.5 -47t-48.5 -32.5t-72 -11.5t-72.5 11.5t-49 32.5t-17.5 47q0 27 17.5 47t49 31.5t72.5 11.5zM387 946q-16 0 -25.5 -21.5t-9.5 -56.5q0 -37 9.5 -60t25.5 -23q14 0 23.5 23t9.5 60q0 35 -9.5 56.5t-23.5 21.5z" />
    <glyph glyph-name="uring" unicode="&#x16f;" horiz-adv-x="692" 
d="M205 -14q-76 0 -114.5 43.5t-38.5 131.5v304h-50v10l285 40v-389q0 -31 9 -48t21 -17q13 0 27.5 20t28.5 54t24 76v254h-50v10l285 40v-479h50v-11l-285 -40v164l-8 8q-31 -89 -75 -130t-109 -41zM346 748q41 0 72 -11.5t48.5 -31.5t17.5 -47q0 -26 -17.5 -47
t-48.5 -32.5t-72 -11.5t-72.5 11.5t-49 32.5t-17.5 47q0 27 17.5 47t49 31.5t72.5 11.5zM346 738q-16 0 -25.5 -21.5t-9.5 -56.5q0 -37 9.5 -60t25.5 -23q14 0 23.5 23t9.5 60q0 35 -9.5 56.5t-23.5 21.5z" />
    <glyph glyph-name="Uhungarumlaut" unicode="&#x170;" horiz-adv-x="733" 
d="M387 0q-154 0 -235.5 78.5t-81.5 224.5v386l-50 9v10h355v-10l-60 -9v-357q0 -121 43 -186t121 -65q74 0 114 49.5t40 140.5v16q0 51 -16.5 108.5t-46 113.5t-68.5 105t-84 84v10h305v-10l-70 -9v-374q0 -151 -66 -233t-200 -82zM466 785l-6 4l46 157l214 -46zM220 785
l-6 4l46 157l214 -46z" />
    <glyph glyph-name="uhungarumlaut" unicode="&#x171;" horiz-adv-x="692" 
d="M205 -14q-76 0 -114.5 43.5t-38.5 131.5v304h-50v10l285 40v-389q0 -31 9 -48t21 -17q13 0 27.5 20t28.5 54t24 76v254h-50v10l285 40v-479h50v-11l-285 -40v164l-8 8q-31 -89 -75 -130t-109 -41zM425 577l-6 4l46 157l214 -46zM179 577l-6 4l46 157l214 -46z" />
    <glyph glyph-name="Uogonek" unicode="&#x172;" horiz-adv-x="733" 
d="M387 0q-154 0 -235.5 78.5t-81.5 224.5v386l-50 9v10h355v-10l-60 -9v-357q0 -121 43 -186t121 -65q74 0 114 49.5t40 140.5v16q0 51 -16.5 108.5t-46 113.5t-68.5 105t-84 84v10h305v-10l-70 -9v-374q0 -151 -66 -233t-200 -82zM440 4q-37 -19 -59 -47t-22 -57
q0 -28 15 -43.5t43 -15.5q16 0 29.5 6.5t20.5 17.5l8 -7q-20 -31 -55 -50t-74 -19q-34 0 -61 10t-42 28.5t-15 41.5q0 42 53.5 78.5t151.5 62.5z" />
    <glyph glyph-name="uogonek" unicode="&#x173;" horiz-adv-x="692" 
d="M205 -14q-76 0 -114.5 43.5t-38.5 131.5v304h-50v10l285 40v-389q0 -31 9 -48t21 -17q13 0 27.5 20t28.5 54t24 76v254h-50v10l285 40v-479h50v-11l-285 -40v164l-8 8q-31 -89 -75 -130t-109 -41zM526 4q-37 -19 -59 -47t-22 -57q0 -28 15 -43.5t43 -15.5q16 0 29.5 6.5
t20.5 17.5l8 -7q-20 -31 -55 -50t-74 -19q-34 0 -61 10t-42 28.5t-15 41.5q0 42 53.5 78.5t151.5 62.5z" />
    <glyph glyph-name="Wcircumflex" unicode="&#x174;" horiz-adv-x="1218" 
d="M735 0l-132 330l133 329l194 -482h13l4 11q26 67 39 125.5t13 107.5q0 58 -17.5 113t-50.5 98.5t-81 65.5v10h363v-10l-53 -15l-273 -683h-152zM329 0l-276 688l-48 10v10h385v-10l-72 -9l206 -512h13l2 5q26 66 40 130.5t14 118.5q0 95 -38.5 164t-110.5 103v10h364v-10
l-51 -10l-276 -688h-152zM457 785l-10 7l130 154h80l130 -151l-10 -10l-255 73z" />
    <glyph glyph-name="wcircumflex" unicode="&#x175;" horiz-adv-x="899" 
d="M553 498l136 -318h16l3 8q10 27 14.5 62t4.5 74q0 24 -3.5 52.5t-12.5 54.5t-24 42.5t-39 16.5v10h241v-10l-56 -10l-182 -480h-140l-78 184zM231 0l-204 480l-47 9v11h353v-11l-52 -9l128 -300h16l3 8q10 27 14.5 62t4.5 74q0 24 -3.5 52.5t-12.5 54.5t-24 42.5
t-39 16.5v10h241v-10l-56 -10l-182 -480h-140zM318 577l-10 7l130 154h80l130 -151l-10 -10l-255 73z" />
    <glyph glyph-name="Ycircumflex" unicode="&#x176;" horiz-adv-x="762" 
d="M221 0v10l50 15v247l-218 416l-48 10v10h403v-10l-82 -9l173 -332h20l4 7q28 49 42 92t14 73q0 50 -26.5 92.5t-79.5 76.5v10h284v-10l-48 -10l-193 -369v-294l50 -15v-10h-345zM251 785l-10 7l130 154h80l130 -151l-10 -10l-255 73z" />
    <glyph glyph-name="ycircumflex" unicode="&#x177;" horiz-adv-x="619" 
d="M167 -215q-46 0 -74.5 14.5t-42 38t-13.5 51.5q0 22 9.5 38t26 27t36.5 16.5t40 5.5q24 0 45 -8t34.5 -24t13.5 -41q0 -15 -2 -27.5t-5 -22.5q-4 -13 -8 -21.5t-4 -13.5q0 -4 6 -4q17 0 37.5 18t39.5 52q14 23 25.5 52t21.5 64h-120l-201 480l-52 9v11h353v-11l-47 -9
l123 -300h16l4 12q8 26 12.5 55t4.5 58q0 26 -2.5 57.5t-10.5 60.5t-23.5 48t-41.5 19v10h241v-10l-56 -10l-182 -480q-20 -52 -34 -84.5t-23 -46.5q-23 -37 -57.5 -60.5t-89.5 -23.5zM160 577l-10 7l130 154h80l130 -151l-10 -10l-255 73z" />
    <glyph glyph-name="Ydieresis" unicode="&#x178;" horiz-adv-x="762" 
d="M221 0v10l50 15v247l-218 416l-48 10v10h403v-10l-82 -9l173 -332h20l4 7q28 49 42 92t14 73q0 50 -26.5 92.5t-79.5 76.5v10h284v-10l-48 -10l-193 -369v-294l50 -15v-10h-345zM522 946q41 0 67 -22.5t26 -58.5q0 -35 -26 -57.5t-67 -22.5t-67 22.5t-26 57.5
q0 36 26 58.5t67 22.5zM288 946q41 0 67 -22.5t26 -58.5q0 -35 -26 -57.5t-67 -22.5t-67 22.5t-26 57.5q0 36 26 58.5t67 22.5z" />
    <glyph glyph-name="Zacute" unicode="&#x179;" 
d="M20 0l399 692h-96q-28 0 -55.5 -17.5t-53 -51.5t-49.5 -86l-62 -134h-20l-35 305h634l-399 -692h106q32 0 61.5 19.5t57.5 59t53 98.5l48 111h20l35 -304h-644zM308 785l-6 4l46 157l214 -46z" />
    <glyph glyph-name="zacute" unicode="&#x17a;" horiz-adv-x="592" 
d="M0 0l314 485h-20q-89 0 -143.5 -34t-73.5 -102l-23 -83h-10l-31 234h569l-315 -485h60q60 0 100 26.5t59 80.5l32 88h10l50 -210h-578zM251 577l-6 4l46 157l214 -46z" />
    <glyph glyph-name="Zdotaccent" unicode="&#x17b;" 
d="M20 0l399 692h-96q-28 0 -55.5 -17.5t-53 -51.5t-49.5 -86l-62 -134h-20l-35 305h634l-399 -692h106q32 0 61.5 19.5t57.5 59t53 98.5l48 111h20l35 -304h-644zM361 946q41 0 67 -22.5t26 -58.5q0 -35 -26 -57.5t-67 -22.5t-67 22.5t-26 57.5q0 36 26 58.5t67 22.5z" />
    <glyph glyph-name="zdotaccent" unicode="&#x17c;" horiz-adv-x="592" 
d="M0 0l314 485h-20q-89 0 -143.5 -34t-73.5 -102l-23 -83h-10l-31 234h569l-315 -485h60q60 0 100 26.5t59 80.5l32 88h10l50 -210h-578zM304 738q41 0 67 -22.5t26 -58.5q0 -35 -26 -57.5t-67 -22.5t-67 22.5t-26 57.5q0 36 26 58.5t67 22.5z" />
    <glyph glyph-name="Zcaron" unicode="&#x17d;" 
d="M20 0l399 692h-96q-28 0 -55.5 -17.5t-53 -51.5t-49.5 -86l-62 -134h-20l-35 305h634l-399 -692h106q32 0 61.5 19.5t57.5 59t53 98.5l48 111h20l35 -304h-644zM521 946l10 -7l-130 -154h-80l-130 151l10 10l255 -73z" />
    <glyph glyph-name="zcaron" unicode="&#x17e;" horiz-adv-x="592" 
d="M0 0l314 485h-20q-89 0 -143.5 -34t-73.5 -102l-23 -83h-10l-31 234h569l-315 -485h60q60 0 100 26.5t59 80.5l32 88h10l50 -210h-578zM464 738l10 -7l-130 -154h-80l-130 151l10 10l255 -73z" />
    <glyph glyph-name="florin" unicode="&#x192;" horiz-adv-x="514" 
d="M75 0l83 480h-50v10l50 10q0 33 3.5 71t15.5 66q16 36 49 60t83.5 36t118.5 12q50 0 92.5 -8t75 -23t50.5 -37.5t18 -52.5q0 -29 -17 -49t-47 -30t-69 -10q-59 0 -97.5 23t-38.5 66q0 22 11.5 37.5t27 26.5t27 20t11.5 18q0 5 -9.5 7t-31.5 2q-37 0 -51 -17t-14 -47
q0 -13 3.5 -40t10 -61.5t13.5 -69.5h90v-15h-89l-84 -485q-4 -24 -9 -43.5t-9.5 -35t-10.5 -28.5q-15 -36 -48 -60t-83.5 -36t-119.5 -12q-49 0 -92 8t-75.5 23t-50.5 37.5t-18 52.5q0 29 17 45.5t47.5 23.5t68.5 7q59 0 97.5 -16t38.5 -60q0 -22 -11.5 -37.5t-27 -26.5
t-27 -20t-11.5 -18q0 -5 9.5 -7t31.5 -2q38 0 51.5 17t13.5 47q0 20 -6 44.5t-10.5 49.5t-0.5 47z" />
    <glyph glyph-name="uni01CD" unicode="&#x1cd;" horiz-adv-x="820" 
d="M5 0v10l51 10l285 688h152l274 -688l48 -10v-10h-383v5l70 14l-204 512h-13l-4 -10q-34 -85 -51.5 -162.5t-17.5 -136.5q0 -58 17.5 -106.5t54 -77t94.5 -28.5v-10h-373zM172 285v10l230 20v-30h-230zM570 946l10 -7l-130 -154h-80l-130 151l10 10l255 -73z" />
    <glyph glyph-name="uni01CE" unicode="&#x1ce;" horiz-adv-x="648" 
d="M331 515q68 0 117 -11.5t81 -35.5t47 -59.5t15 -83.5v-293q0 -7 2.5 -12.5t9.5 -5.5q6 0 16 4t24 12v-10q-14 -10 -35 -18t-45 -12.5t-47 -4.5q-72 0 -116 35.5t-44 119.5v3.5v4v6.5l-7 6q-18 -41 -40.5 -73.5t-49 -55t-55.5 -34.5t-60 -12q-39 0 -69 15t-47.5 41
t-17.5 60q0 84 91.5 131t254.5 47q0 87 -7.5 133.5t-31 64t-71.5 17.5q-24 0 -42.5 -4.5t-29 -10.5t-10.5 -10q0 -6 14 -13t51 -19q73 -24 73 -73q0 -43 -38.5 -66t-97.5 -23q-58 0 -95.5 23t-37.5 66q0 28 24 55t66 48.5t95.5 34.5t112.5 13zM356 269q-48 0 -77 -25
t-42 -60t-13 -65q0 -18 3.5 -30t10 -18t16.5 -6t22 7t25.5 22.5t27.5 41t27 62.5v71zM472 738l10 -7l-130 -154h-80l-130 151l10 10l255 -73z" />
    <glyph glyph-name="uni0218" unicode="&#x218;" horiz-adv-x="665" 
d="M332 -15q-49 0 -102 7t-102 19.5t-87 29.5l20 259h20l95 -161q29 -48 59 -79t61.5 -45.5t61.5 -14.5q22 0 37.5 6.5t23.5 19t8 29.5q0 26 -14.5 51.5t-48.5 56.5t-93 72q-90 65 -143 112t-75.5 85t-22.5 76q0 45 22 84t63.5 68.5t99 46t127.5 16.5q60 0 113 -8.5
t96.5 -22.5t71.5 -32l-50 -249h-20l-45 91q-37 76 -68 121t-60 65t-61 20q-34 0 -58 -8t-36.5 -23t-12.5 -37q0 -23 20.5 -50.5t69 -65.5t130.5 -93q62 -40 103.5 -73t67 -61.5t36.5 -55t11 -55.5q0 -47 -20 -81t-53.5 -57t-75 -37t-85.5 -20t-84 -6zM298 -252l-7 14
q14 6 27.5 14.5t24.5 18.5t17 19l-11 9h-16q-27 0 -49.5 7.5t-35.5 21.5t-13 33q0 20 13 34.5t35.5 22.5t49.5 8q28 0 50 -8t35 -22.5t13 -34.5q0 -22 -10.5 -43t-28.5 -39t-42 -32.5t-52 -22.5z" />
    <glyph glyph-name="uni0219" unicode="&#x219;" horiz-adv-x="563" 
d="M267 -15q-47 0 -91 8.5t-79.5 25t-56 40.5t-20.5 55q0 28 17 45t43.5 25.5t54.5 8.5q30 0 55 -8.5t40.5 -25.5t15.5 -41q0 -16 -5 -29t-18 -29q-13 -14 -18 -23.5t-5 -19.5q0 -5 5 -11t17 -9.5t33 -3.5q28 0 53.5 6.5t41.5 21.5t16 41q0 24 -14 44t-47 39.5t-90 42.5
q-71 30 -112.5 58t-59 58t-17.5 64q0 68 70 107.5t188 39.5q65 0 120.5 -15t89.5 -42t34 -65q0 -25 -15.5 -42t-40 -25.5t-51.5 -8.5q-22 0 -43 5t-38 14.5t-27.5 24t-10.5 33.5q0 31 29 58q16 15 22 24t6 16q0 3 -3 6t-10 5t-18.5 3t-28.5 1q-28 0 -55 -5.5t-44.5 -18
t-17.5 -35.5q0 -25 22 -46t57 -39.5t75 -36.5q76 -34 120 -61t63 -53t19 -56q0 -44 -23.5 -76t-62.5 -53t-87 -31.5t-98 -10.5zM242 -252l-7 14q14 6 27.5 14.5t24.5 18.5t17 19l-11 9h-16q-27 0 -49.5 7.5t-35.5 21.5t-13 33q0 20 13 34.5t35.5 22.5t49.5 8q28 0 50 -8
t35 -22.5t13 -34.5q0 -22 -10.5 -43t-28.5 -39t-42 -32.5t-52 -22.5z" />
    <glyph glyph-name="uni021A" unicode="&#x21a;" horiz-adv-x="749" 
d="M202 0v10l50 10v673h-10q-20 0 -41.5 -16t-41.5 -47t-39 -76l-60 -140h-20l-35 294h739l-35 -294h-20l-60 140q-19 45 -39.5 76t-41.5 47t-41 16h-10v-673l50 -10v-10h-345zM340 -252l-7 14q14 6 27.5 14.5t24.5 18.5t17 19l-11 9h-16q-27 0 -49.5 7.5t-35.5 21.5t-13 33
q0 20 13 34.5t35.5 22.5t49.5 8q28 0 50 -8t35 -22.5t13 -34.5q0 -22 -10.5 -43t-28.5 -39t-42 -32.5t-52 -22.5z" />
    <glyph glyph-name="uni021B" unicode="&#x21b;" horiz-adv-x="395" 
d="M230 -15q-91 0 -130.5 49.5t-39.5 146.5v299h-60v10l60 10l215 164h20v-149l90 -25v-10h-90v-380q0 -37 12.5 -53.5t30.5 -16.5q10 0 20 4t20 11v-20q-14 -9 -31 -16.5t-35.5 -13t-39 -8t-42.5 -2.5zM173 -252l-7 14q14 6 27.5 14.5t24.5 18.5t17 19l-11 9h-16
q-27 0 -49.5 7.5t-35.5 21.5t-13 33q0 20 13 34.5t35.5 22.5t49.5 8q28 0 50 -8t35 -22.5t13 -34.5q0 -22 -10.5 -43t-28.5 -39t-42 -32.5t-52 -22.5z" />
    <glyph glyph-name="uni0237" unicode="&#x237;" horiz-adv-x="355" 
d="M30 -215q-49 0 -92 8t-75.5 23t-50.5 37.5t-18 52.5q0 29 17 45.5t47.5 23.5t68.5 7q59 0 97.5 -16t38.5 -60q0 -22 -11.5 -37.5t-27 -26.5t-27 -20t-11.5 -18q0 -5 9.5 -7t31.5 -2q38 0 51.5 17t13.5 47q0 24 -6 55t-21 86v464h-50v11l285 40v-515q0 -33 -4.5 -58.5
t-14.5 -48.5q-23 -54 -85.5 -81t-165.5 -27z" />
    <glyph glyph-name="uni02BB" unicode="&#x2bb;" horiz-adv-x="376" 
d="M223 723l7 -14q-13 -5 -27 -14t-25 -18.5t-17 -19.5l11 -9h16q31 0 52.5 -11t33.5 -29.5t12 -41.5q0 -26 -13 -45t-35 -29.5t-50 -10.5t-50 10.5t-35 29.5t-13 45t11 51t29.5 46t42.5 37t50 23z" />
    <glyph glyph-name="uni02BC" unicode="&#x2bc;" horiz-adv-x="376" 
d="M153 481l-7 14q14 6 27.5 14.5t24.5 18.5t17 19l-11 9h-16q-30 0 -52 11t-34 29.5t-12 41.5q0 26 13 45t35 29.5t50 10.5t50 -10.5t35 -29.5t13 -45t-11 -51t-29.5 -46t-42.5 -36.5t-50 -23.5z" />
    <glyph glyph-name="circumflex" unicode="&#x2c6;" horiz-adv-x="380" 
d="M30 577l-10 7l130 154h80l130 -151l-10 -10l-255 73z" />
    <glyph glyph-name="caron" unicode="&#x2c7;" horiz-adv-x="380" 
d="M350 738l10 -7l-130 -154h-80l-130 151l10 10l255 -73z" />
    <glyph glyph-name="breve" unicode="&#x2d8;" horiz-adv-x="384" 
d="M192 583q-59 0 -105.5 38t-66.5 102l10 10q18 -15 43 -25t55 -15.5t64 -5.5t64 5.5t55 15.5t43 25l10 -10q-20 -64 -66.5 -102t-105.5 -38z" />
    <glyph glyph-name="dotaccent" unicode="&#x2d9;" horiz-adv-x="226" 
d="M113 738q41 0 67 -22.5t26 -58.5q0 -35 -26 -57.5t-67 -22.5t-67 22.5t-26 57.5q0 36 26 58.5t67 22.5z" />
    <glyph glyph-name="ring" unicode="&#x2da;" horiz-adv-x="317" 
d="M159 748q41 0 72 -11.5t48.5 -31.5t17.5 -47q0 -26 -17.5 -47t-48.5 -32.5t-72 -11.5t-72.5 11.5t-49 32.5t-17.5 47q0 27 17.5 47t49 31.5t72.5 11.5zM159 738q-16 0 -25.5 -21.5t-9.5 -56.5q0 -37 9.5 -60t25.5 -23q14 0 23.5 23t9.5 60q0 35 -9.5 56.5t-23.5 21.5z
" />
    <glyph glyph-name="ogonek" unicode="&#x2db;" horiz-adv-x="287" 
d="M232 0q-37 -19 -59 -47t-22 -57q0 -28 15 -43.5t43 -15.5q16 0 29.5 6.5t20.5 17.5l8 -7q-20 -31 -55 -50t-74 -19q-34 0 -61 10t-42 28.5t-15 41.5q0 42 53.5 78.5t151.5 62.5z" />
    <glyph glyph-name="tilde" unicode="&#x2dc;" horiz-adv-x="564" 
d="M355 577q-34 0 -63 9.5t-54.5 22t-50 22t-50.5 9.5q-29 0 -50.5 -15.5t-35.5 -47.5l-11 6q17 39 43.5 74.5t65 58t91.5 22.5q34 0 62.5 -9t53.5 -20.5t48 -20.5t45 -9q20 0 35 12.5t25 37.5l15 -4q-25 -58 -49.5 -90t-53 -45t-66.5 -13z" />
    <glyph glyph-name="hungarumlaut" unicode="&#x2dd;" horiz-adv-x="546" 
d="M272 577l-6 4l46 157l214 -46zM26 577l-6 4l46 157l214 -46z" />
    <glyph glyph-name="gravecomb" unicode="&#x300;" horiz-adv-x="0" 
d="M54 577l-254 115l214 46l46 -157z" />
    <glyph glyph-name="acutecomb" unicode="&#x301;" horiz-adv-x="0" 
d="M-54 577l-6 4l46 157l214 -46z" />
    <glyph glyph-name="uni0302" unicode="&#x302;" horiz-adv-x="0" 
d="M-160 577l-10 7l130 154h80l130 -151l-10 -10l-255 73z" />
    <glyph glyph-name="tildecomb" unicode="&#x303;" horiz-adv-x="0" 
d="M73 577q-34 0 -63 9.5t-54.5 22t-50 22t-50.5 9.5q-29 0 -50.5 -15.5t-35.5 -47.5l-11 6q17 39 43.5 74.5t65 58t91.5 22.5q34 0 62.5 -9t53.5 -20.5t48 -20.5t45 -9q20 0 35 12.5t25 37.5l15 -4q-25 -58 -49.5 -90t-53 -45t-66.5 -13z" />
    <glyph glyph-name="uni0304" unicode="&#x304;" horiz-adv-x="0" 
d="M-176 615v80h352v-80h-352z" />
    <glyph glyph-name="uni0306" unicode="&#x306;" horiz-adv-x="0" 
d="M0 583q-59 0 -105.5 38t-66.5 102l10 10q18 -15 43 -25t55 -15.5t64 -5.5t64 5.5t55 15.5t43 25l10 -10q-20 -64 -66.5 -102t-105.5 -38z" />
    <glyph glyph-name="uni0307" unicode="&#x307;" horiz-adv-x="0" 
d="M0 738q41 0 67 -22.5t26 -58.5q0 -35 -26 -57.5t-67 -22.5t-67 22.5t-26 57.5q0 36 26 58.5t67 22.5z" />
    <glyph glyph-name="uni0308" unicode="&#x308;" horiz-adv-x="0" 
d="M117 738q41 0 67 -22.5t26 -58.5q0 -35 -26 -57.5t-67 -22.5t-67 22.5t-26 57.5q0 36 26 58.5t67 22.5zM-117 738q41 0 67 -22.5t26 -58.5q0 -35 -26 -57.5t-67 -22.5t-67 22.5t-26 57.5q0 36 26 58.5t67 22.5z" />
    <glyph glyph-name="uni030A" unicode="&#x30a;" horiz-adv-x="0" 
d="M0 748q41 0 72 -11.5t48.5 -31.5t17.5 -47q0 -26 -17.5 -47t-48.5 -32.5t-72 -11.5t-72.5 11.5t-49 32.5t-17.5 47q0 27 17.5 47t49 31.5t72.5 11.5zM0 738q-16 0 -25.5 -21.5t-9.5 -56.5q0 -37 9.5 -60t25.5 -23q14 0 23.5 23t9.5 60q0 35 -9.5 56.5t-23.5 21.5z" />
    <glyph glyph-name="uni030B" unicode="&#x30b;" horiz-adv-x="0" 
d="M59 577l-6 4l46 157l214 -46zM-187 577l-6 4l46 157l214 -46z" />
    <glyph glyph-name="uni030C" unicode="&#x30c;" horiz-adv-x="0" 
d="M160 738l10 -7l-130 -154h-80l-130 151l10 10l255 -73z" />
    <glyph glyph-name="uni0312" unicode="&#x312;" horiz-adv-x="0" 
d="M35 813l7 -14q-13 -5 -27 -14t-25 -18.5t-17 -19.5l11 -9h16q29 0 51 -9.5t34.5 -26.5t12.5 -40q0 -26 -13 -45t-35 -29.5t-50 -10.5t-50 10.5t-35 29.5t-13 45t11 50t29.5 44t42.5 35t50 22z" />
    <glyph glyph-name="uni0326" unicode="&#x326;" horiz-adv-x="0" 
d="M-35 -252l-7 14q14 6 27.5 14.5t24.5 18.5t17 19l-11 9h-16q-27 0 -49.5 7.5t-35.5 21.5t-13 33q0 20 13 34.5t35.5 22.5t49.5 8q28 0 50 -8t35 -22.5t13 -34.5q0 -22 -10.5 -43t-28.5 -39t-42 -32.5t-52 -22.5z" />
    <glyph glyph-name="uni0327" unicode="&#x327;" horiz-adv-x="0" 
d="M27 -215q-37 0 -64 15.5t-38 49.5l10 10q9 -16 22.5 -23.5t27.5 -7.5q19 0 31.5 8.5t19.5 22t7 27.5q0 11 -4 22.5t-12.5 21.5t-21 16.5t-30.5 6.5l18 46h10l-9 -25l8 -11q43 0 70.5 -13.5t40.5 -33.5t13 -42q0 -21 -12 -42t-34 -34.5t-53 -13.5z" />
    <glyph glyph-name="uni0328" unicode="&#x328;" horiz-adv-x="0" 
d="M4 0q-37 -19 -59 -47t-22 -57q0 -28 15 -43.5t43 -15.5q16 0 29.5 6.5t20.5 17.5l8 -7q-20 -31 -55 -50t-74 -19q-34 0 -61 10t-42 28.5t-15 41.5q0 42 53.5 78.5t151.5 62.5z" />
    <glyph glyph-name="uni03BC" unicode="&#x3bc;" horiz-adv-x="810" 
d="M192 -215q-97 0 -139.5 35.5t-42.5 93.5q0 43 25.5 94t72 106.5t107.5 112.5q0 57 7 109.5t23.5 93t44.5 64t71 23.5q38 0 63.5 -19t25.5 -50q0 -28 -18.5 -58t-49 -59t-69 -53.5t-77.5 -41.5q0 -29 11 -47.5t28.5 -28.5t36 -13.5t33.5 -3.5q22 0 52.5 6t64.5 22t64 44
q0 93 19.5 160t53 103.5t73.5 36.5q38 0 59 -23.5t21 -52.5q0 -31 -20 -65.5t-51 -67.5t-64.5 -60.5t-61.5 -44.5q0 -14 7 -25.5t19 -20t26.5 -13t29.5 -4.5q12 0 29.5 2t38.5 10t42.5 26t42.5 49h10q-15 -84 -45.5 -137t-67 -78t-70.5 -25q-31 0 -55.5 22.5t-33 68
t6.5 113.5h-9q-34 -100 -86.5 -152t-109.5 -52q-37 0 -66 20.5t-43 63t-7 107.5h-10q-4 -52 -9.5 -98.5t-10.5 -87t-9 -73.5q-7 -68 -2 -94.5t24 -26.5q20 0 27.5 22t7.5 78q0 33 26 49.5t78 16.5q44 0 67 -18.5t23 -53.5q0 -36 -32.5 -59t-85.5 -34.5t-116 -11.5z" />
    <glyph glyph-name="Wgrave" unicode="&#x1e80;" horiz-adv-x="1218" 
d="M735 0l-132 330l133 329l194 -482h13l4 11q26 67 39 125.5t13 107.5q0 58 -17.5 113t-50.5 98.5t-81 65.5v10h363v-10l-53 -15l-273 -683h-152zM329 0l-276 688l-48 10v10h385v-10l-72 -9l206 -512h13l2 5q26 66 40 130.5t14 118.5q0 95 -38.5 164t-110.5 103v10h364v-10
l-51 -10l-276 -688h-152zM671 785l-254 115l214 46l46 -157z" />
    <glyph glyph-name="wgrave" unicode="&#x1e81;" horiz-adv-x="899" 
d="M553 498l136 -318h16l3 8q10 27 14.5 62t4.5 74q0 24 -3.5 52.5t-12.5 54.5t-24 42.5t-39 16.5v10h241v-10l-56 -10l-182 -480h-140l-78 184zM231 0l-204 480l-47 9v11h353v-11l-52 -9l128 -300h16l3 8q10 27 14.5 62t4.5 74q0 24 -3.5 52.5t-12.5 54.5t-24 42.5
t-39 16.5v10h241v-10l-56 -10l-182 -480h-140zM532 577l-254 115l214 46l46 -157z" />
    <glyph glyph-name="Wacute" unicode="&#x1e82;" horiz-adv-x="1218" 
d="M735 0l-132 330l133 329l194 -482h13l4 11q26 67 39 125.5t13 107.5q0 58 -17.5 113t-50.5 98.5t-81 65.5v10h363v-10l-53 -15l-273 -683h-152zM329 0l-276 688l-48 10v10h385v-10l-72 -9l206 -512h13l2 5q26 66 40 130.5t14 118.5q0 95 -38.5 164t-110.5 103v10h364v-10
l-51 -10l-276 -688h-152zM564 785l-6 4l46 157l214 -46z" />
    <glyph glyph-name="wacute" unicode="&#x1e83;" horiz-adv-x="899" 
d="M553 498l136 -318h16l3 8q10 27 14.5 62t4.5 74q0 24 -3.5 52.5t-12.5 54.5t-24 42.5t-39 16.5v10h241v-10l-56 -10l-182 -480h-140l-78 184zM231 0l-204 480l-47 9v11h353v-11l-52 -9l128 -300h16l3 8q10 27 14.5 62t4.5 74q0 24 -3.5 52.5t-12.5 54.5t-24 42.5
t-39 16.5v10h241v-10l-56 -10l-182 -480h-140zM425 577l-6 4l46 157l214 -46z" />
    <glyph glyph-name="Wdieresis" unicode="&#x1e84;" horiz-adv-x="1218" 
d="M735 0l-132 330l133 329l194 -482h13l4 11q26 67 39 125.5t13 107.5q0 58 -17.5 113t-50.5 98.5t-81 65.5v10h363v-10l-53 -15l-273 -683h-152zM329 0l-276 688l-48 10v10h385v-10l-72 -9l206 -512h13l2 5q26 66 40 130.5t14 118.5q0 95 -38.5 164t-110.5 103v10h364v-10
l-51 -10l-276 -688h-152zM728 946q41 0 67 -22.5t26 -58.5q0 -35 -26 -57.5t-67 -22.5t-67 22.5t-26 57.5q0 36 26 58.5t67 22.5zM494 946q41 0 67 -22.5t26 -58.5q0 -35 -26 -57.5t-67 -22.5t-67 22.5t-26 57.5q0 36 26 58.5t67 22.5z" />
    <glyph glyph-name="wdieresis" unicode="&#x1e85;" horiz-adv-x="899" 
d="M553 498l136 -318h16l3 8q10 27 14.5 62t4.5 74q0 24 -3.5 52.5t-12.5 54.5t-24 42.5t-39 16.5v10h241v-10l-56 -10l-182 -480h-140l-78 184zM231 0l-204 480l-47 9v11h353v-11l-52 -9l128 -300h16l3 8q10 27 14.5 62t4.5 74q0 24 -3.5 52.5t-12.5 54.5t-24 42.5
t-39 16.5v10h241v-10l-56 -10l-182 -480h-140zM589 738q41 0 67 -22.5t26 -58.5q0 -35 -26 -57.5t-67 -22.5t-67 22.5t-26 57.5q0 36 26 58.5t67 22.5zM355 738q41 0 67 -22.5t26 -58.5q0 -35 -26 -57.5t-67 -22.5t-67 22.5t-26 57.5q0 36 26 58.5t67 22.5z" />
    <glyph glyph-name="uni1E9E" unicode="&#x1e9e;" horiz-adv-x="903" 
d="M600 -15q-79 0 -131 13t-82.5 35.5t-43 50t-12.5 55.5q0 30 13.5 54.5t40.5 39t66 14.5q42 0 67.5 -15.5t37.5 -37.5t12 -44q0 -27 -12.5 -44.5t-31 -28t-37.5 -18t-31.5 -13.5t-12.5 -15q0 -5 3.5 -10t11 -9t20.5 -6.5t31 -2.5q44 0 71 24.5t40 64t13 82.5q0 97 -65 149
t-187 52v9l205 314h-271v-678l50 -10v-10h-345v10l50 10v688h750v-10l-200 -304q71 0 128.5 -26.5t91 -72t33.5 -101.5q0 -61 -35 -108.5t-96.5 -74t-141.5 -26.5z" />
    <glyph glyph-name="Ygrave" unicode="&#x1ef2;" horiz-adv-x="762" 
d="M221 0v10l50 15v247l-218 416l-48 10v10h403v-10l-82 -9l173 -332h20l4 7q28 49 42 92t14 73q0 50 -26.5 92.5t-79.5 76.5v10h284v-10l-48 -10l-193 -369v-294l50 -15v-10h-345zM465 785l-254 115l214 46l46 -157z" />
    <glyph glyph-name="ygrave" unicode="&#x1ef3;" horiz-adv-x="619" 
d="M167 -215q-46 0 -74.5 14.5t-42 38t-13.5 51.5q0 22 9.5 38t26 27t36.5 16.5t40 5.5q24 0 45 -8t34.5 -24t13.5 -41q0 -15 -2 -27.5t-5 -22.5q-4 -13 -8 -21.5t-4 -13.5q0 -4 6 -4q17 0 37.5 18t39.5 52q14 23 25.5 52t21.5 64h-120l-201 480l-52 9v11h353v-11l-47 -9
l123 -300h16l4 12q8 26 12.5 55t4.5 58q0 26 -2.5 57.5t-10.5 60.5t-23.5 48t-41.5 19v10h241v-10l-56 -10l-182 -480q-20 -52 -34 -84.5t-23 -46.5q-23 -37 -57.5 -60.5t-89.5 -23.5zM374 577l-254 115l214 46l46 -157z" />
    <glyph glyph-name="uni2002" unicode="&#x2002;" horiz-adv-x="660" 
 />
    <glyph glyph-name="uni2009" unicode="&#x2009;" horiz-adv-x="132" 
 />
    <glyph glyph-name="uni200B" unicode="&#x200b;" horiz-adv-x="0" 
 />
    <glyph glyph-name="endash" unicode="&#x2013;" horiz-adv-x="660" 
d="M60 270v60h540v-60h-540z" />
    <glyph glyph-name="emdash" unicode="&#x2014;" horiz-adv-x="810" 
d="M60 270v60h690v-60h-690z" />
    <glyph glyph-name="quoteleft" unicode="&#x2018;" horiz-adv-x="376" 
d="M223 723l7 -14q-13 -5 -27 -14t-25 -18.5t-17 -19.5l11 -9h16q31 0 52.5 -11t33.5 -29.5t12 -41.5q0 -26 -13 -45t-35 -29.5t-50 -10.5t-50 10.5t-35 29.5t-13 45t11 51t29.5 46t42.5 37t50 23z" />
    <glyph glyph-name="quoteright" unicode="&#x2019;" horiz-adv-x="376" 
d="M153 481l-7 14q14 6 27.5 14.5t24.5 18.5t17 19l-11 9h-16q-30 0 -52 11t-34 29.5t-12 41.5q0 26 13 45t35 29.5t50 10.5t50 -10.5t35 -29.5t13 -45t-11 -51t-29.5 -46t-42.5 -36.5t-50 -23.5z" />
    <glyph glyph-name="quotesinglbase" unicode="&#x201a;" horiz-adv-x="256" 
d="M93 -90l-7 14q14 6 27.5 14.5t24.5 18.5t17 19l-11 9h-16q-30 0 -52 11t-34 29.5t-12 41.5q0 26 13 45t35 29.5t50 10.5t50 -10.5t35 -29.5t13 -45q0 -25 -11 -50t-29.5 -46.5t-42.5 -37t-50 -23.5z" />
    <glyph glyph-name="quotedblleft" unicode="&#x201c;" horiz-adv-x="611" 
d="M458 723l7 -14q-13 -5 -27 -14t-25 -18.5t-17 -19.5l11 -9h16q31 0 52.5 -11t33.5 -29.5t12 -41.5q0 -26 -13 -45t-35 -29.5t-50 -10.5t-50 10.5t-35 29.5t-13 45t11 51t29.5 46t42.5 37t50 23zM223 723l7 -14q-13 -5 -27 -14t-25 -18.5t-17 -19.5l11 -9h16
q31 0 52.5 -11t33.5 -29.5t12 -41.5q0 -26 -13 -45t-35 -29.5t-50 -10.5t-50 10.5t-35 29.5t-13 45t11 51t29.5 46t42.5 37t50 23z" />
    <glyph glyph-name="quotedblright" unicode="&#x201d;" horiz-adv-x="612" 
d="M153 481l-7 14q14 6 27.5 14.5t24.5 18.5t17 19l-11 9h-16q-30 0 -52 11t-34 29.5t-12 41.5q0 26 13 45t35 29.5t50 10.5t50 -10.5t35 -29.5t13 -45t-11 -51t-29.5 -46t-42.5 -36.5t-50 -23.5zM389 481l-7 14q14 6 27.5 14.5t24.5 18.5t17 19l-11 9h-16q-30 0 -52 11
t-34 29.5t-12 41.5q0 26 13 45t35 29.5t50 10.5t50 -10.5t35 -29.5t13 -45t-11 -51t-29.5 -46t-42.5 -36.5t-50 -23.5z" />
    <glyph glyph-name="quotedblbase" unicode="&#x201e;" horiz-adv-x="472" 
d="M93 -90l-7 14q14 6 27.5 14.5t24.5 18.5t17 19l-11 9h-16q-30 0 -52 11t-34 29.5t-12 41.5q0 26 13 45t35 29.5t50 10.5t50 -10.5t35 -29.5t13 -45q0 -25 -11 -50t-29.5 -46.5t-42.5 -37t-50 -23.5zM309 -90l-7 14q14 6 27.5 14.5t24.5 18.5t17 19l-11 9h-16
q-30 0 -52 11t-34 29.5t-12 41.5q0 26 13 45t35 29.5t50 10.5t50 -10.5t35 -29.5t13 -45q0 -25 -11 -50t-29.5 -46.5t-42.5 -37t-50 -23.5z" />
    <glyph glyph-name="dagger" unicode="&#x2020;" horiz-adv-x="498" 
d="M244 -15q0 55 -8 119.5t-21.5 129t-30 119t-33.5 88.5q47 21 70.5 52.5t23.5 92.5q0 20 -7.5 35t-18.5 27.5t-22.5 26t-19 29t-7.5 36.5q0 33 22.5 54t56.5 21q35 0 57 -21t22 -54q0 -21 -7.5 -36.5t-19 -29t-22.5 -26t-18.5 -27.5t-7.5 -35q0 -61 23.5 -92.5t70.5 -52.5
q-17 -34 -33.5 -88.5t-30 -119t-21.5 -129t-8 -119.5h-10zM95 507q-33 0 -54 22.5t-21 56.5q0 35 21 57t54 22q26 0 44.5 -11.5t34.5 -26t33.5 -26t41.5 -11.5t41.5 11.5t33.5 26t34.5 26t44.5 11.5q33 0 54 -22t21 -57q0 -34 -21 -56.5t-54 -22.5q-26 0 -44.5 11.5
t-34.5 26t-33.5 26t-41.5 11.5t-41.5 -11.5t-33.5 -26t-34.5 -26t-44.5 -11.5z" />
    <glyph glyph-name="daggerdbl" unicode="&#x2021;" horiz-adv-x="498" 
d="M151 400q32 14 52.5 42.5t31 66t10.5 77.5q0 20 -7.5 35t-18.5 27.5t-22.5 26t-19 29t-7.5 36.5q0 33 22.5 54t56.5 21q35 0 57 -21t22 -54q0 -21 -7.5 -36.5t-19 -29t-22.5 -26t-18.5 -27.5t-7.5 -35q0 -40 10.5 -77.5t31.5 -66t52 -42.5q-31 -14 -52 -42.5t-31.5 -65.5
t-10.5 -78q0 -20 7.5 -35t19 -27.5t22.5 -26t18.5 -29t7.5 -36.5q0 -33 -22 -54t-57 -21q-34 0 -56.5 21t-22.5 54q0 21 7.5 36.5t19 29t22.5 26t18.5 27.5t7.5 35q0 41 -10.5 78t-31 65.5t-52.5 42.5zM95 507q-33 0 -54 22.5t-21 56.5q0 35 21 57t54 22q26 0 44.5 -11.5
t34.5 -26t33.5 -26t41.5 -11.5t41.5 11.5t33.5 26t34.5 26t44.5 11.5q33 0 54 -22t21 -57q0 -34 -21 -56.5t-54 -22.5q-26 0 -44.5 11.5t-34.5 26t-33.5 26t-41.5 11.5t-41.5 -11.5t-33.5 -26t-34.5 -26t-44.5 -11.5zM95 293q26 0 44.5 -11.5t34.5 -26t33.5 -26t41.5 -11.5
t41.5 11.5t33.5 26t34.5 26t44.5 11.5q33 0 54 -22t21 -57q0 -34 -21 -56.5t-54 -22.5q-26 0 -44.5 11.5t-34.5 26t-33.5 26t-41.5 11.5t-41.5 -11.5t-33.5 -26t-34.5 -26t-44.5 -11.5q-33 0 -54 22.5t-21 56.5q0 35 21 57t54 22z" />
    <glyph glyph-name="bullet" unicode="&#x2022;" horiz-adv-x="384" 
d="M193 404q31 0 56 -14.5t40 -39t15 -55.5q0 -30 -15 -55t-40 -39.5t-56 -14.5t-56.5 14.5t-41 39.5t-15.5 55q0 31 15.5 55.5t41 39t56.5 14.5z" />
    <glyph glyph-name="ellipsis" unicode="&#x2026;" horiz-adv-x="688" 
d="M128 152q28 0 50 -10.5t35 -29.5t13 -45q0 -25 -13 -43.5t-35 -28.5t-50 -10t-50 10t-35 28.5t-13 43.5q0 26 13 45t35 29.5t50 10.5zM344 152q28 0 50 -10.5t35 -29.5t13 -45q0 -25 -13 -43.5t-35 -28.5t-50 -10t-50 10t-35 28.5t-13 43.5q0 26 13 45t35 29.5t50 10.5z
M560 152q28 0 50 -10.5t35 -29.5t13 -45q0 -25 -13 -43.5t-35 -28.5t-50 -10t-50 10t-35 28.5t-13 43.5q0 26 13 45t35 29.5t50 10.5z" />
    <glyph glyph-name="perthousand" unicode="&#x2030;" horiz-adv-x="1260" 
d="M1015 -15q-56 0 -91.5 18.5t-52 48.5t-16.5 65q0 47 26 89.5t73.5 70t112.5 27.5q40 0 69 -10.5t47.5 -28.5t27.5 -41.5t9 -50.5q0 -48 -22.5 -91t-68 -70t-114.5 -27zM1000 -5q16 0 31 21t27 53.5t21 69t14 68t5 48.5t-4.5 28.5t-14.5 11.5q-16 0 -30.5 -21.5
t-27.5 -54.5t-22.5 -69t-15 -66.5t-5.5 -45.5q0 -11 2 -21t7 -16t13 -6zM298 -15l233 738h30l-233 -738h-30zM613 -15q-56 0 -91.5 18.5t-52 48.5t-16.5 65q0 47 26 89.5t73.5 70t112.5 27.5q40 0 69 -10.5t47.5 -28.5t27.5 -41.5t9 -50.5q0 -48 -22.5 -91t-68 -70
t-114.5 -27zM598 -5q17 0 31.5 21t26.5 53.5t21 69t14 68t5 48.5t-4.5 28.5t-14.5 11.5q-16 0 -30.5 -21.5t-27.5 -54.5t-22.5 -69t-15 -66.5t-5.5 -45.5q0 -11 2 -21t7 -16t13 -6zM200 404q-56 0 -91.5 18.5t-52 48.5t-16.5 65q0 47 26 89.5t73.5 70t112.5 27.5
q40 0 69 -10.5t47.5 -28.5t27.5 -41.5t9 -50.5q0 -48 -22.5 -91t-68 -70t-114.5 -27zM185 414q16 0 31 21t27 53.5t21 69t14 68t5 48.5t-4.5 28.5t-14.5 11.5q-16 0 -30.5 -21.5t-27.5 -54.5t-22.5 -69t-15 -66.5t-5.5 -45.5q0 -11 2 -21t7 -16t13 -6z" />
    <glyph glyph-name="minute" unicode="&#x2032;" horiz-adv-x="243" 
d="M20 473l40 235h163l-189 -235h-14z" />
    <glyph glyph-name="second" unicode="&#x2033;" horiz-adv-x="443" 
d="M20 473l40 235h163l-189 -235h-14zM220 473l40 235h163l-189 -235h-14z" />
    <glyph glyph-name="guilsinglleft" unicode="&#x2039;" horiz-adv-x="359" 
d="M294 480l5 -4l-83 -165v-2l83 -165l-5 -4l-234 167v6z" />
    <glyph glyph-name="guilsinglright" unicode="&#x203a;" horiz-adv-x="359" 
d="M65 480l234 -167v-6l-234 -167l-5 4l83 165v2l-83 165z" />
    <glyph glyph-name="fraction" unicode="&#x2044;" horiz-adv-x="283" 
d="M10 -15l233 738h30l-233 -738h-30z" />
    <glyph glyph-name="uni2074" unicode="&#x2074;" horiz-adv-x="308" 
d="M30 494v15q15 4 28.5 9t22.5 14q7 6 10.5 14.5t3.5 20.5q0 15 -7.5 29.5t-17.5 29t-17.5 28t-7.5 26.5q0 21 13 32t38 11q30 0 43 -25.5t13 -57.5q0 -40 -10.5 -67.5t-26.5 -41.5q-16 -15 -36 -20t-37 -5v-5l116 4v127l90 91h10v-215l20 1v-15h-20v-58l30 -5v-10h-162v10
l32 5v58h-128z" />
    <glyph glyph-name="Euro" unicode="&#x20ac;" horiz-adv-x="808" 
d="M10 375v30h534v-30h-534zM10 295v30h534v-30h-534zM777 127q-41 -53 -89.5 -84t-101.5 -44.5t-106 -13.5q-77 0 -144.5 24.5t-119 72t-80.5 115.5t-29 155t27 155.5t78 117t124 73.5t166 25q55 0 107.5 -10.5t96.5 -25t72 -27.5l-60 -296h-20l-63 149q-28 66 -57.5 110
t-61 66t-65.5 22q-24 0 -43 -23.5t-32 -63.5t-20 -90.5t-7 -105.5q0 -62 15 -121.5t48.5 -108t87 -77t129.5 -28.5q37 0 72 9.5t66 31.5z" />
    <glyph glyph-name="trademark" unicode="&#x2122;" horiz-adv-x="752" 
d="M320 708v-10l-14 -109h-10l-27 62q-10 24 -22 35.5t-23 11.5h-4v-261l30 -11v-10h-161v10l31 11v261h-5q-11 0 -22 -11.5t-22 -35.5l-27 -62h-10l-14 109v10h300zM742 708v-10l-30 -9v-253l30 -10v-10h-154v10l24 10v225h-10l-59 -245h-55l-90 238h-10v-2
q0 -26 4.5 -61.5t13.5 -71t23 -61.5t34 -32v-10h-133v10l43 10v252l-38 10v10h138l73 -191h10l44 191h142z" />
    <glyph glyph-name="arrowup" unicode="&#x2191;" horiz-adv-x="560" 
d="M210 0v509l-150 -20v10q70 41 123.5 97.5t91.5 126.5h10q38 -70 91.5 -126.5t123.5 -97.5v-10l-150 20v-509h-140z" />
    <glyph glyph-name="arrowdown" unicode="&#x2193;" horiz-adv-x="560" 
d="M350 708v-509l150 20v-10q-70 -41 -123.5 -97t-91.5 -127h-10q-38 71 -91.5 127t-123.5 97v10l150 -20v509h140z" />
    <glyph glyph-name="minus" unicode="&#x2212;" horiz-adv-x="460" 
d="M60 270v60h340v-60h-340z" />
    <glyph glyph-name="uni2215" unicode="&#x2215;" horiz-adv-x="283" 
d="M10 -15l233 738h30l-233 -738h-30z" />
    <glyph glyph-name="approxequal" unicode="&#x2248;" horiz-adv-x="460" 
d="M303 132q-27 0 -51 7.5t-46 17t-43 16.5t-41 7q-28 0 -49 -11t-32 -37l-11 6q25 58 48 92t49.5 48.5t60.5 14.5q27 0 49.5 -6.5t42.5 -15.5t39.5 -15.5t40.5 -6.5q19 0 32.5 7.5t22.5 27.5l15 -4q-24 -55 -44 -87.5t-39.5 -46.5t-43.5 -14zM303 332q-27 0 -51 7.5t-46 17
t-43 16.5t-41 7q-28 0 -49 -11t-32 -37l-11 6q25 58 48 92t49.5 48.5t60.5 14.5q27 0 49.5 -6.5t42.5 -15.5t39.5 -15.5t40.5 -6.5q19 0 32.5 7.5t22.5 27.5l15 -4q-24 -55 -44 -87.5t-39.5 -46.5t-43.5 -14z" />
    <glyph glyph-name="notequal" unicode="&#x2260;" horiz-adv-x="460" 
d="M90 100l200 400h80l-200 -400h-80zM60 210v60h340v-60h-340zM60 330v60h340v-60h-340z" />
    <glyph glyph-name="lessequal" unicode="&#x2264;" horiz-adv-x="460" 
d="M343 490l37 -50l-235 -152v64l235 -152l-37 -50l-254 160v20zM400 40h-340v60h340v-60z" />
    <glyph glyph-name="greaterequal" unicode="&#x2265;" horiz-adv-x="460" 
d="M117 490l254 -160v-20l-254 -160l-37 50l235 152v-64l-235 152zM60 40v60h340v-60h-340z" />
    <glyph glyph-name="uni25CC" unicode="&#x25cc;" horiz-adv-x="833" 
d="M430 -22l-1 30q29 2 56.5 7t53.5 15l9 -29q-27 -10 -56.5 -15.5t-61.5 -7.5zM572 12l-11 28q53 23 91 61l22 -21q-22 -20 -48 -37.5t-54 -30.5zM691 98l-21 21q20 20 34.5 43t25.5 49l27 -12q-12 -28 -29 -53.5t-37 -47.5zM767 224l-28 9q19 51 21 109l30 -1
q-1 -31 -7 -60.5t-16 -56.5zM760 367q-3 57 -21 108l28 9q10 -27 16 -56.5t7 -60.5h-30zM730 496q-10 26 -25.5 49.5t-35.5 43.5l21 20q43 -45 67 -100zM652 606q-21 20 -45.5 36t-52.5 29l13 27q29 -13 56 -31t50 -40zM538 677q-51 19 -109 22l1 30q32 -1 61 -7.5t57 -16.5
zM297 678l-12 28q28 11 57.5 16.5t61.5 6.5l2 -30q-28 -1 -56 -6.5t-53 -14.5zM182 606l-21 22q45 43 100 67l13 -27q-25 -13 -48.5 -28t-43.5 -34zM104 497l-28 11q12 28 29 54t38 48l22 -21q-18 -20 -33.5 -43t-27.5 -49zM43 367q1 32 7 61.5t17 57.5l27 -12
q-9 -26 -14.5 -52.5t-6.5 -55.5zM67 222q-11 28 -17 58t-7 61h30q1 -28 6.5 -55t14.5 -53zM143 98q-20 22 -37 47.5t-30 53.5l27 12q11 -26 26.5 -49.5t34.5 -43.5zM261 12q-28 13 -53 30.5t-47 37.5l20 21q20 -19 43.5 -35t48.5 -27zM404 -22q-31 1 -61 7.5t-57 15.5l9 29
q26 -10 54 -15.5t57 -6.5z" />
    <glyph glyph-name="uniFEFF" unicode="&#xfeff;" horiz-adv-x="0" 
 />
    <glyph glyph-name="uniFFFD" unicode="&#xfffd;" horiz-adv-x="828" 
d="M333 56l-263 263q-35 35 -35 81t35 81l263 263q24 24 52.5 31.5t57.5 0t52 -31.5l263 -263q35 -35 35 -81t-35 -81l-263 -263q-23 -23 -52 -31t-57.5 0t-52.5 31zM414 174q14 0 27 9.5t13 28.5q0 20 -13 29t-27 9q-15 0 -28.5 -9t-13.5 -29q0 -19 13.5 -28.5t28.5 -9.5z
M407 274h14q0 20 12 39t43 50q45 44 62.5 71.5t17.5 55.5q0 33 -17.5 56.5t-47 36t-65.5 12.5q-35 0 -73 -13.5t-70 -44.5l55 -104h15q4 11 8.5 24t8.5 25q19 51 36 74.5t35 23.5q17 0 25.5 -9.5t8.5 -28.5q0 -25 -9 -49.5t-28 -50.5q-28 -37 -38.5 -60.5t-10.5 -45.5
q0 -15 4 -30t14 -32z" />
    <glyph glyph-name="uni01310328" horiz-adv-x="355" 
d="M10 0v10l50 10v444h-50v11l285 40v-495l50 -10v-10h-335zM345 4q-37 -19 -59 -47t-22 -57q0 -28 15 -43.5t43 -15.5q16 0 29.5 6.5t20.5 17.5l8 -7q-20 -31 -55 -50t-74 -19q-34 0 -61 10t-42 28.5t-15 41.5q0 42 53.5 78.5t151.5 62.5z" />
    <glyph glyph-name="i.loclTRK" horiz-adv-x="355" 
d="M10 0v10l50 10v444h-50v11l285 40v-495l50 -10v-10h-335zM168 738q41 0 67 -22.5t26 -58.5q0 -35 -26 -57.5t-67 -22.5t-67 22.5t-26 57.5q0 36 26 58.5t67 22.5z" />
    <glyph glyph-name="periodcentered.loclCAT" horiz-adv-x="186" 
d="M93 452q28 0 50 -10.5t35 -29.5t13 -45q0 -25 -13 -43.5t-35 -28.5t-50 -10t-50 10t-35 28.5t-13 43.5q0 26 13 45t35 29.5t50 10.5z" />
    <glyph glyph-name="periodcentered.loclCAT.case" horiz-adv-x="10" 
d="M-126 512q28 0 50 -10.5t35 -29.5t13 -45q0 -25 -13 -43.5t-35 -28.5t-50 -10t-50 10t-35 28.5t-13 43.5q0 26 13 45t35 29.5t50 10.5z" />
    <glyph glyph-name="uni030C.alt" horiz-adv-x="0" 
d="M-82 539v199h164l-120 -199h-44z" />
    </font>
</defs>
</svg>
