<?xml version="1.0" standalone="no"?>
<!DOCTYPE svg PUBLIC "-//W3C//DTD SVG 1.1//EN" "http://www.w3.org/Graphics/SVG/1.1/DTD/svg11.dtd" >
<svg xmlns="http://www.w3.org/2000/svg" xmlns:xlink="http://www.w3.org/1999/xlink" version="1.1">
<metadata>
Created by FontForge 20201107 at Thu Oct 23 17:01:11 2025
 By 
Pangram Pangram
</metadata>
<defs>
<font id="MonumentExtended-Regular" horiz-adv-x="0" >
  <font-face 
    font-family="Monument Extended"
    font-weight="400"
    font-stretch="normal"
    units-per-em="2048"
    panose-1="0 0 5 0 0 0 0 0 0 0"
    ascent="1638"
    descent="-410"
    x-height="1206"
    cap-height="1434"
    bbox="-2177 -686 4729 2216"
    underline-thickness="102"
    underline-position="-204"
    unicode-range="U+0020-25CA"
  />
<missing-glyph horiz-adv-x="1126" 
d="M924 1638v-2252h-715v2252h715zM750 1487h-371v-74h145v-84h-147v-74h373v74h-148v84h148v74zM602 1196h-225v-233h373v75h-148v158zM524 1120v-82h-73v82h73zM750 901h-373v-74h147v-84h-147v-73h225v157h148v74zM750 766h-74v-148h-299v-77h373v225zM750 492h-226v-125
h78v51h74v-107h-225v181h-74v-254h373v254zM750 102h-373v-254h373v254zM676 29v-107h-225v107h225zM750 -205h-373v-74h158l-158 -106v-74h373v74h-230l158 106h72v74z" />
    <glyph glyph-name=".notdef" horiz-adv-x="1126" 
d="M924 1638v-2252h-715v2252h715zM750 1487h-371v-74h145v-84h-147v-74h373v74h-148v84h148v74zM602 1196h-225v-233h373v75h-148v158zM524 1120v-82h-73v82h73zM750 901h-373v-74h147v-84h-147v-73h225v157h148v74zM750 766h-74v-148h-299v-77h373v225zM750 492h-226v-125
h78v51h74v-107h-225v181h-74v-254h373v254zM750 102h-373v-254h373v254zM676 29v-107h-225v107h225zM750 -205h-373v-74h158l-158 -106v-74h373v74h-230l158 106h72v74z" />
    <glyph glyph-name=".null" 
 />
    <glyph glyph-name="nonmarkingreturn" horiz-adv-x="682" 
 />
    <glyph glyph-name="space" unicode=" " horiz-adv-x="935" 
 />
    <glyph glyph-name="exclam" unicode="!" horiz-adv-x="544" 
d="M457 1434l-8 -990h-353l-8 990h369zM96 274h350v-274h-350v274z" />
    <glyph glyph-name="quotedbl" unicode="&#x22;" horiz-adv-x="1087" 
d="M457 1475l-29 -656h-311l-29 656h369zM1001 1475l-28 -656h-311l-29 656h368z" />
    <glyph glyph-name="numbersign" unicode="#" horiz-adv-x="2664" 
d="M2535 838h-467l-133 -447h396v-291h-484l-121 -407h-360l121 407h-592l-121 -407h-360l121 407h-406v291h494l133 447h-422v290h508l104 347h361l-105 -347h592l104 347h361l-105 -347h381v-290zM1575 391l133 447h-592l-133 -447h592z" />
    <glyph glyph-name="dollar" unicode="$" horiz-adv-x="2088" 
d="M1960 440q0 -88 -25 -157t-74.5 -118t-115.5 -83.5t-157 -55.5t-190 -31t-222 -13v-187h-246v187q-157 5 -277.5 22.5t-221.5 55t-166 94.5t-100.5 142t-35.5 198h369q0 -70 37 -113.5t133 -70.5t262 -34v320q-415 28 -586.5 124.5t-171.5 317.5q0 109 50.5 187t151 126
t236.5 72t320 29v186h246v-188q353 -18 537.5 -134.5t184.5 -350.5h-368q0 95 -82.5 138t-271.5 54v-301q115 -7 197.5 -14.5t170 -22t146.5 -34.5t114 -50.5t86.5 -71t50.5 -96.5t19 -127zM541 1020q0 -52 32 -79.5t112.5 -43t244.5 -25.5v289q-157 -2 -241 -17t-116 -43.5
t-32 -80.5zM1176 272q159 4 249.5 21.5t128 49.5t37.5 85q0 55 -32 83.5t-117.5 44.5t-265.5 28v-312z" />
    <glyph glyph-name="percent" unicode="%" horiz-adv-x="3461" 
d="M754 530q-162 0 -284.5 44t-195.5 122.5t-109 178.5t-36 221q0 95 22 178t70.5 154.5t120.5 122t177 79.5t235 29t235 -29t177.5 -79.5t121 -122t70.5 -154.5t22 -178q0 -121 -36 -221t-109.5 -178.5t-196 -122.5t-284.5 -44zM2175 1638l-533 -1781h-360l533 1781h360z
M754 823q274 0 274 273q0 270 -274 270q-275 0 -275 -270q0 -76 21.5 -131t61 -85t87 -43.5t105.5 -13.5zM2705 -164q-162 0 -284 43.5t-195 122t-109 178.5t-36 221q0 120 36 220t109 178t195 122t284 44t284.5 -44t196 -122t110 -178t36.5 -220q0 -121 -36.5 -221
t-110 -178.5t-196 -122t-284.5 -43.5zM2705 129q275 0 275 272q0 271 -275 271q-274 0 -274 -271q0 -272 274 -272z" />
    <glyph glyph-name="ampersand" unicode="&#x26;" horiz-adv-x="2207" 
d="M2120 256l-158 -256q-60 29 -189 90t-192 92q-326 -202 -774 -202q-719 0 -719 415q0 317 432 404q-119 134 -119 295q0 176 157 268t454 92q168 0 303 -39.5t217 -118t82 -182.5q0 -140 -129.5 -231t-386.5 -158q165 -89 401 -197q129 111 232 252l315 -118
q-101 -162 -217 -281zM1012 1196q-123 0 -191.5 -35t-68.5 -108q0 -90 122 -187q119 26 200.5 53t135.5 67.5t54 88.5q0 58 -66.5 89.5t-185.5 31.5zM821 272q207 0 402 82q-354 176 -514 287q-128 -32 -199.5 -75.5t-71.5 -112.5q0 -181 383 -181z" />
    <glyph glyph-name="quotesingle" unicode="'" horiz-adv-x="544" 
d="M457 1475l-29 -656h-311l-29 656h369z" />
    <glyph glyph-name="parenleft" unicode="(" horiz-adv-x="1343" 
d="M88 616q0 198 27 348t87.5 265t150 192t222.5 126t297.5 70t382.5 21v-309q-152 0 -262 -12.5t-203 -43.5t-153 -82.5t-102 -132t-60 -188.5t-18 -254q0 -147 18 -255.5t60.5 -189t102.5 -132t153 -83t203 -44t261 -12.5v-310q-217 0 -382 21t-298 70.5t-223 126.5
t-150 192.5t-87 266t-27 349.5z" />
    <glyph glyph-name="parenright" unicode=")" horiz-adv-x="1343" 
d="M1255 616q0 -199 -27 -349.5t-87 -266t-150 -192.5t-223 -126.5t-298 -70.5t-382 -21v310q151 0 261 12.5t203 44t153.5 83t102.5 132t60.5 189t18.5 255.5q0 146 -18 254t-60.5 188.5t-102.5 132t-153 82.5t-203 43.5t-262 12.5v309q218 0 382.5 -21t297.5 -70
t222.5 -126t150 -192t87.5 -265t27 -348z" />
    <glyph glyph-name="asterisk" unicode="*" horiz-adv-x="1193" 
d="M88 1051l293 143l-293 145l129 224l270 -181l-20 254l258 2l-20 -256l270 181l131 -224l-293 -145l293 -143l-129 -224l-272 181l20 -256h-256l20 256l-272 -181z" />
    <glyph glyph-name="plus" unicode="+" horiz-adv-x="1896" 
d="M1767 842v-291h-661v-551h-350v551h-627v291h627v551h350v-551h661z" />
    <glyph glyph-name="comma" unicode="," horiz-adv-x="526" 
d="M88 274h350v-274l-166 -403h-168l105 403h-121v274z" />
    <glyph glyph-name="hyphen" unicode="-" horiz-adv-x="1896" 
d="M129 842h1638v-291h-1638v291z" />
    <glyph glyph-name="period" unicode="." horiz-adv-x="526" 
d="M88 274h350v-274h-350v274z" />
    <glyph glyph-name="slash" unicode="/" horiz-adv-x="1067" 
d="M979 1475l-533 -1782h-360l532 1782h361z" />
    <glyph glyph-name="zero" unicode="0" horiz-adv-x="1814" 
d="M907 -20q-422 0 -630.5 188.5t-208.5 550.5q0 361 208.5 548t630.5 187q420 0 630 -188t210 -547q0 -361 -210 -550t-630 -189zM907 289q237 0 354 112t117 318q0 205 -116.5 315.5t-354.5 110.5t-354.5 -110t-116.5 -316q0 -207 116.5 -318.5t354.5 -111.5z" />
    <glyph glyph-name="one" unicode="1" horiz-adv-x="1527" 
d="M948 309h492v-309h-1352v309h494l2 676q-45 -39 -99 -66.5t-98 -41t-106.5 -20.5t-96.5 -8t-96 -1v311q47 0 73 0.5t73.5 3t76 7t69 14t65.5 23t53.5 34.5t44.5 48t26.5 63.5t10.5 81.5h368v-1125z" />
    <glyph glyph-name="two" unicode="2" horiz-adv-x="1761" 
d="M1694 1004q0 -89 -35 -160.5t-95 -118.5t-138 -84t-165.5 -61.5t-176.5 -45.5t-172.5 -41.5t-151 -44.5t-115 -59t-61.5 -80h1089v-309h-1605v186q0 95 43 172.5t115.5 130t167 94t198.5 70.5t208.5 54.5t199 51t167 54t115.5 69.5t43 93q0 63 -32 98t-118 53.5
t-243 18.5q-100 0 -170.5 -7t-129 -24.5t-92.5 -48.5t-52.5 -79t-18.5 -116h-369q0 101 20.5 182.5t57 142t92.5 105.5t122 74.5t151 47.5t173 25t195 7q155 0 272 -12.5t216 -43.5t162 -82t98 -129t35 -183z" />
    <glyph glyph-name="three" unicode="3" horiz-adv-x="1761" 
d="M1473 717q221 -106 221 -314q0 -117 -52 -199.5t-156.5 -131t-247 -70.5t-337.5 -22q-131 0 -235.5 10t-201.5 34t-167 66t-123 103.5t-79.5 149.5t-26.5 200h368q0 -68 21.5 -114.5t57.5 -74t101.5 -42t133 -19t172.5 -4.5q230 0 316.5 31.5t86.5 130.5q0 28 -5 48
t-20.5 36.5t-35 27.5t-57.5 19t-78 12.5t-107.5 7.5t-134.5 3.5t-170 0.5v221q100 0 166.5 1t133.5 3.5t107 7t79 13t59 19.5t36 27.5t21.5 37t5.5 47.5q0 64 -35.5 98t-121 49t-246.5 15q-93 0 -158 -3.5t-123 -14t-94 -28t-62.5 -46t-37.5 -68t-11 -94.5h-368
q0 112 26.5 200t79.5 149.5t123 103.5t167 66t201.5 34t235.5 10q195 0 337.5 -22t247 -71t156.5 -131.5t52 -199.5q0 -207 -221 -313z" />
    <glyph glyph-name="four" unicode="4" horiz-adv-x="1843" 
d="M1755 545v-312h-287v-233h-368v233h-1012v312l1012 889h368v-889h287zM485 545h615v520z" />
    <glyph glyph-name="five" unicode="5" horiz-adv-x="1761" 
d="M1104 967q279 0 434.5 -126t155.5 -356q0 -131 -54.5 -228.5t-158 -158t-245.5 -89.5t-325 -29q-107 0 -196.5 6.5t-178 22.5t-157.5 41.5t-128.5 66t-99 93.5t-61.5 126t-22 162h368q0 -60 31 -101t95 -64.5t150.5 -33.5t209.5 -10q218 0 310.5 60.5t92.5 176.5
q0 54 -16.5 93.5t-55 71.5t-109 48.5t-173.5 16.5q-110 0 -230.5 -28t-298.5 -99l-303 59l185 746h1267v-293h-993l-92 -305q166 71 298 101t300 30z" />
    <glyph glyph-name="six" unicode="6" horiz-adv-x="1814" 
d="M1036 967q160 0 284.5 -27.5t216.5 -85t140.5 -152t48.5 -221.5q0 -249 -198 -375t-580 -126q-452 0 -656 173.5t-204 528.5q0 173 40.5 307.5t110 221t169.5 142t211 78.5t243 23q165 0 323.5 -15.5t242 -30.5t202.5 -40v-293q-13 2 -85 16.5t-94.5 18.5t-86 15
t-100.5 15t-94 10.5t-110 8.5t-108 2q-93 0 -159.5 -8.5t-126 -31t-98.5 -61.5t-65.5 -101t-37.5 -148q90 70 235 113t336 43zM907 272q128 0 217 16t139.5 48t72.5 74.5t22 101.5t-21.5 101t-72 74t-139.5 47.5t-218 15.5q-450 0 -450 -238q0 -117 107 -178.5t343 -61.5z
" />
    <glyph glyph-name="seven" unicode="7" horiz-adv-x="1603" 
d="M41 1434h1522v-310q-170 -84 -310.5 -191.5t-237 -222t-163 -238t-97 -241.5t-30.5 -231h-369q0 115 22 231t73.5 241.5t130 238.5t199 221.5t272.5 191.5h-1012v310z" />
    <glyph glyph-name="eight" unicode="8" horiz-adv-x="1814" 
d="M1448 813q299 -107 299 -387q0 -89 -26 -157t-86.5 -123.5t-157 -91.5t-239 -55t-331.5 -19q-190 0 -332.5 19t-239 54.5t-156 91t-85.5 124t-26 157.5q0 281 299 387q-156 93 -156 264q0 196 164 286.5t532 90.5q367 0 532 -91t165 -286q0 -171 -156 -264zM907 1188
q-208 0 -285 -31t-77 -108q0 -52 31 -81.5t110 -44t221 -14.5q208 0 285.5 31.5t77.5 108.5t-77.5 108t-285.5 31zM907 264q178 0 282 23t146.5 66.5t42.5 115.5q0 70 -41.5 112.5t-146 65.5t-283.5 23t-283 -22.5t-146 -65t-42 -113.5q0 -72 42.5 -115.5t146.5 -66.5
t282 -23z" />
    <glyph glyph-name="nine" unicode="9" horiz-adv-x="1773" 
d="M846 1454q452 0 656 -173.5t204 -528.5q0 -173 -40.5 -307.5t-110 -221t-169.5 -142t-211 -78.5t-243 -23q-165 0 -323.5 15.5t-242 30.5t-202.5 40v292q13 -2 85 -16.5t94.5 -18.5t86 -15t100.5 -15t94 -10.5t110 -8.5t108 -2q93 0 159.5 8.5t126 31t98.5 62t65.5 101.5
t37.5 148q-90 -70 -235 -113t-336 -43q-160 0 -284.5 27.5t-216.5 85t-140.5 151.5t-48.5 221q0 249 198 375.5t580 126.5zM887 684q450 0 450 238q0 117 -106.5 178t-343.5 61q-128 0 -217 -16t-139.5 -48t-72.5 -74t-22 -101t21.5 -101t72 -74t139.5 -47.5t218 -15.5z" />
    <glyph glyph-name="colon" unicode=":" horiz-adv-x="526" 
d="M88 889h350v-275h-350v275zM88 274h350v-274h-350v274z" />
    <glyph glyph-name="semicolon" unicode=";" horiz-adv-x="526" 
d="M88 889h350v-275h-350v275zM88 0v274h350v-274l-166 -403h-168l105 403h-121z" />
    <glyph glyph-name="less" unicode="&#x3c;" horiz-adv-x="1712" 
d="M1583 1229v-309l-1173 -224l1173 -223v-309l-1454 287v491z" />
    <glyph glyph-name="equal" unicode="=" horiz-adv-x="1896" 
d="M129 1169h1638v-290h-1638v290zM129 514h1638v-291h-1638v291z" />
    <glyph glyph-name="greater" unicode="&#x3e;" horiz-adv-x="1712" 
d="M129 1229l1454 -287v-491l-1454 -287v309l1174 223l-1174 224v309z" />
    <glyph glyph-name="question" unicode="?" horiz-adv-x="1720" 
d="M938 444h-350q0 96 37.5 164.5t97 105.5t131.5 61.5t144 41.5t131.5 36t97 54t37.5 88q0 75 -85.5 112.5t-277.5 37.5q-118 0 -196.5 -10.5t-136.5 -38.5t-84.5 -77.5t-26.5 -125.5h-369q0 133 39.5 232.5t107 161.5t171 100t217 52.5t258.5 14.5q179 0 313.5 -22
t234.5 -70t151.5 -130t51.5 -196q0 -78 -28.5 -140t-75 -99.5t-107 -69t-123.5 -50.5t-125 -42.5t-112 -46t-83.5 -59.5t-39.5 -85zM588 274h350v-274h-350v274z" />
    <glyph glyph-name="at" unicode="@" horiz-adv-x="2525" 
d="M1356 1659q375 0 604.5 -92.5t332.5 -277.5t103 -482v-842h-352v168q-176 -185 -543 -188q-117 -1 -215 14.5t-190 57t-155.5 107.5t-101.5 171.5t-38 243.5q0 137 38 241.5t101 169.5t156 106.5t190 58t215 18.5q358 6 539 -181q-6 78 -33.5 141.5t-66.5 106t-95 74
t-110.5 48.5t-122 27.5t-120.5 13.5t-116 3q-154 0 -285 -26.5t-245.5 -88t-194.5 -154.5t-126 -232.5t-46 -315.5q0 -143 22 -257t70.5 -200t109.5 -149t157.5 -106t195 -69.5t240.5 -40.5t275 -19t317 -5l-21 -293q-241 0 -436.5 13t-364 42.5t-297.5 75t-233 112.5
t-175 153t-119 198t-69.5 246t-21.5 299q0 356 148 606.5t422 377t657 126.5zM1597 238q216 0 325.5 64t119.5 204v67q-10 139 -120 203t-325 64q-227 0 -336.5 -71t-109.5 -230t109.5 -230t336.5 -71z" />
    <glyph glyph-name="A" unicode="A" horiz-adv-x="2113" 
d="M1638 0l-153 305h-858l-154 -305h-405l739 1434h498l741 -1434h-408zM764 580h584l-291 581z" />
    <glyph glyph-name="B" unicode="B" horiz-adv-x="1933" 
d="M1663 778q203 -125 203 -360q0 -191 -116 -304.5t-351 -113.5h-1311v1434h1262q426 0 426 -377q0 -153 -113 -279zM457 1167v-297h760h2q28 0 42 0.5t37.5 3t36 8t29 16.5t24 26.5t13.5 40t6 55.5t-6 54.5t-14 39t-24 26t-28.5 16t-36.5 8t-38.5 3t-42.5 0.5h-760z
M1309 285q29 0 42 0.5t37.5 3t36.5 8t28.5 16.5t24 26.5t13.5 40t6 56.5q0 28 -3.5 50t-12.5 37.5t-17.5 27t-24.5 18.5t-27 11t-32.5 5.5t-34 2t-36.5 0.5h-852v-303h852z" />
    <glyph glyph-name="C" unicode="C" horiz-adv-x="1931" 
d="M68 719q0 364 218.5 549.5t682.5 185.5q839 0 895 -631h-375q-26 169 -155 245.5t-365 76.5q-280 0 -406.5 -102.5t-126.5 -323.5q0 -222 127.5 -326t405.5 -104q235 0 364.5 77t155.5 248h375q-56 -634 -895 -634q-464 0 -682.5 186.5t-218.5 552.5z" />
    <glyph glyph-name="D" unicode="D" horiz-adv-x="1892" 
d="M1128 1434q142 0 266 -44.5t221 -130.5t153.5 -225.5t56.5 -316.5t-56.5 -316.5t-153.5 -225.5t-221 -130.5t-266 -44.5h-1040v1434h1040zM989 309q75 0 132 6t112.5 22t94 45.5t69 74t45 109.5t14.5 151q0 102 -22.5 175.5t-60.5 118t-100 70t-127.5 34.5t-156.5 9h-532
v-815h532z" />
    <glyph glyph-name="E" unicode="E" horiz-adv-x="1671" 
d="M1604 1141h-1147v-291h1147v-266h-1147v-291h1147v-293h-1516v1434h1516v-293z" />
    <glyph glyph-name="F" unicode="F" horiz-adv-x="1671" 
d="M1604 1124h-1147v-364h1024v-311h-1024v-449h-369v1434h1516v-310z" />
    <glyph glyph-name="G" unicode="G" horiz-adv-x="1931" 
d="M954 528v240h910v-768h-273l-16 225q-225 -245 -655 -245q-400 0 -626 192t-226 545q0 356 235.5 546.5t677.5 190.5q420 0 642.5 -153t240.5 -427h-375q-7 37 -23 70.5t-53 71.5t-90.5 65.5t-141.5 45.5t-200 18q-99 0 -180.5 -15.5t-137 -40.5t-97.5 -61.5t-66.5 -74
t-39 -83t-19.5 -83t-5 -78.5q0 -60 10 -114t45 -117t91.5 -108t159 -75.5t239.5 -30.5q127 0 227.5 25.5t158.5 66t88.5 84.5t33.5 88h-535z" />
    <glyph glyph-name="H" unicode="H" horiz-adv-x="2080" 
d="M1624 1434h369v-1434h-369v561h-1167v-561h-369v1434h369v-562h1167v562z" />
    <glyph glyph-name="I" unicode="I" horiz-adv-x="544" 
d="M457 1434v-1434h-369v1434h369z" />
    <glyph glyph-name="J" unicode="J" horiz-adv-x="1896" 
d="M1808 1434v-715q0 -375 -210.5 -557t-649.5 -182q-441 0 -650.5 181.5t-209.5 557.5h369q0 -48 4 -87.5t17 -85t34.5 -81.5t59 -70t88 -56.5t124 -36t164.5 -13.5t164.5 13.5t124 36.5t88 57t59.5 70t35 81.5t17 85t4 86.5v405h-680v310h1048z" />
    <glyph glyph-name="K" unicode="K" horiz-adv-x="2105" 
d="M2038 1434l-869 -637l869 -797h-510l-631 596l-440 -322v-274h-369v1434h369v-744l1022 744h559z" />
    <glyph glyph-name="L" unicode="L" horiz-adv-x="1630" 
d="M457 309h1106v-309h-1475v1434h369v-1125z" />
    <glyph glyph-name="M" unicode="M" horiz-adv-x="2371" 
d="M2284 1434v-1434h-369v983l-596 -983h-266l-596 983v-983h-369v1434h498l600 -1012l600 1012h498z" />
    <glyph glyph-name="N" unicode="N" horiz-adv-x="2023" 
d="M1567 1434h368v-1434h-501l-977 1075v-1075h-369v1434h500l979 -1078v1078z" />
    <glyph glyph-name="O" unicode="O" horiz-adv-x="1937" 
d="M969 -20q-464 0 -682.5 186.5t-218.5 552.5q0 364 218.5 549.5t682.5 185.5q463 0 682 -186.5t219 -548.5q0 -364 -219 -551.5t-682 -187.5zM969 289q283 0 407.5 103.5t124.5 326.5q0 222 -123.5 324t-408.5 102t-409 -101.5t-124 -324.5q0 -224 124.5 -327t408.5 -103z
" />
    <glyph glyph-name="P" unicode="P" horiz-adv-x="1830" 
d="M1214 1434q246 0 397.5 -144.5t151.5 -382.5t-151.5 -381t-397.5 -143h-757v-383h-369v1434h1126zM1112 692q33 0 51.5 0.5t52.5 4.5t54.5 11.5t47 23.5t41.5 38.5t25.5 57t10.5 79.5q0 40 -7 72t-22 54t-30.5 38t-41 26t-44 15.5t-48.5 8t-45.5 3t-44.5 0.5h-655v-432
h655z" />
    <glyph glyph-name="Q" unicode="Q" horiz-adv-x="2080" 
d="M1993 78l-260 -260l-248 248q-204 -86 -516 -86q-464 0 -682.5 186.5t-218.5 552.5q0 364 218.5 549.5t682.5 185.5q463 0 682 -186.5t219 -548.5q0 -250 -103 -416zM436 719q0 -224 124.5 -327t408.5 -103q283 0 407.5 103.5t124.5 326.5q0 222 -123.5 324t-408.5 102
t-409 -101.5t-124 -324.5z" />
    <glyph glyph-name="R" unicode="R" horiz-adv-x="1830" 
d="M1763 907q0 -173 -82.5 -298t-228.5 -183l264 -426h-434l-231 383h-594v-383h-369v1434h1126q246 0 397.5 -144.5t151.5 -382.5zM457 1124v-432h655q33 0 51.5 0.5t52.5 4.5t54.5 11.5t47 23.5t41.5 38.5t25.5 57t10.5 79.5q0 40 -7 72t-22 54t-30.5 38t-41 26t-44 15.5
t-48.5 8t-45.5 3t-44.5 0.5h-655z" />
    <glyph glyph-name="S" unicode="S" horiz-adv-x="1966" 
d="M68 494h368q0 -80 49.5 -126.5t179.5 -71t361 -24.5q194 0 303.5 16t155 49t45.5 91q0 31 -7.5 51.5t-32 38t-59 27.5t-101 19t-144.5 14.5t-203 11.5q-194 9 -331.5 27t-244.5 50.5t-170 82.5t-94.5 120.5t-31.5 167.5q0 116 57.5 197.5t171.5 129t267 68.5t362 21
q208 0 365 -27t271 -84.5t173 -152t59 -225.5h-369q0 115 -121 155.5t-419 40.5q-182 0 -278.5 -13.5t-133.5 -43t-37 -84.5q0 -29 7.5 -48.5t31 -35.5t56 -26t94 -19t132.5 -14.5t183 -12.5q145 -8 230.5 -14.5t196 -20t173 -31.5t131.5 -49t103.5 -72.5t57.5 -100.5
t23 -136q0 -94 -28.5 -167t-86 -123t-132 -83.5t-179.5 -52.5t-215 -26.5t-251 -7.5q-154 0 -274.5 9.5t-229.5 31.5t-186.5 60.5t-134.5 95t-85 136t-28 181.5z" />
    <glyph glyph-name="T" unicode="T" horiz-adv-x="1896" 
d="M1829 1434v-310h-696v-1124h-369v1124h-696v310h1761z" />
    <glyph glyph-name="U" unicode="U" horiz-adv-x="1978" 
d="M1890 719q0 -377 -216.5 -558t-684.5 -181q-469 0 -685 180.5t-216 558.5v715h369v-715q0 -48 4 -87.5t18 -85.5t37 -81t63.5 -69.5t95 -57t135 -36t179.5 -13.5t179.5 14t135 36.5t95 56.5t64 69.5t37 81.5t18 85t4.5 87v715h368v-715z" />
    <glyph glyph-name="V" unicode="V" horiz-adv-x="2113" 
d="M1632 1434h414l-737 -1434h-504l-737 1434h413l576 -1162z" />
    <glyph glyph-name="W" unicode="W" horiz-adv-x="3129" 
d="M2662 1434h400l-565 -1434h-510l-422 1079l-424 -1079h-508l-565 1434h397l424 -1127l448 1127h453l451 -1129z" />
    <glyph glyph-name="X" unicode="X" horiz-adv-x="2248" 
d="M68 0l806 717l-806 717h507l549 -492l547 492h510l-807 -717l807 -717h-510l-547 492l-549 -492h-507z" />
    <glyph glyph-name="Y" unicode="Y" horiz-adv-x="2125" 
d="M879 471l-811 963h444l551 -654l551 654h444l-811 -963v-471h-368v471z" />
    <glyph glyph-name="Z" unicode="Z" horiz-adv-x="1794" 
d="M1706 1434v-310l-1090 -815h1090v-309h-1618v309l1088 815h-1088v310h1618z" />
    <glyph glyph-name="bracketleft" unicode="[" horiz-adv-x="1343" 
d="M1255 1329h-798v-1429h798v-310h-1167v2048h1167v-309z" />
    <glyph glyph-name="backslash" unicode="\" horiz-adv-x="1067" 
d="M88 1475h361l532 -1782h-360z" />
    <glyph glyph-name="bracketright" unicode="]" horiz-adv-x="1343" 
d="M1255 1638v-2048h-1167v310h799v1429h-799v309h1167z" />
    <glyph glyph-name="asciicircum" unicode="^" horiz-adv-x="1898" 
d="M1769 717h-358l-461 729l-465 -729h-356l588 921h467z" />
    <glyph glyph-name="underscore" unicode="_" horiz-adv-x="2306" 
d="M129 -129h2048v-274h-2048v274z" />
    <glyph glyph-name="grave" unicode="`" horiz-adv-x="1054" 
d="M926 1616v-242l-797 164v242z" />
    <glyph glyph-name="a" unicode="a" horiz-adv-x="1789" 
d="M907 1227q194 0 337 -33t247 -105t157 -192t54 -289v-608h-352v150q-348 -170 -734 -170q-548 0 -548 380q0 113 58.5 195.5t163 128.5t229.5 67t276 21q299 0 555 -86q0 248 -459 248q-303 0 -598 -88l-125 256q384 125 739 125zM1350 375v94q-233 74 -512 74
q-205 0 -312.5 -39.5t-107.5 -128.5q0 -31 9 -54t29 -38t43 -24t60.5 -13.5t71.5 -6t86 -1.5q141 0 318.5 39t314.5 98z" />
    <glyph glyph-name="b" unicode="b" horiz-adv-x="1826" 
d="M1040 1227q120 0 224 -20.5t196 -67.5t157.5 -117.5t103.5 -177.5t38 -242t-38 -241.5t-103.5 -177t-158 -117t-196 -66.5t-223.5 -20q-196 0 -350 53t-252 155v-188h-350v1638h350v-620q98 102 252 155.5t350 53.5zM924 272q242 0 362.5 78t120.5 252
q0 175 -120.5 253.5t-362.5 78.5t-364 -78.5t-122 -253.5q0 -174 122 -252t364 -78z" />
    <glyph glyph-name="c" unicode="c" horiz-adv-x="1796" 
d="M68 602q0 131 39 235t110.5 177t175.5 121t230.5 70t279.5 22q231 0 402.5 -50.5t283.5 -164.5t140 -287h-359q-34 113 -150.5 161t-316.5 48q-117 0 -203.5 -16.5t-151.5 -54.5t-97.5 -103t-32.5 -158q0 -179 123 -254.5t362 -75.5q200 0 316.5 48t150.5 161h359
q-21 -130 -89 -227t-177 -156.5t-248.5 -88.5t-311.5 -29q-153 0 -279.5 22t-230.5 70t-175.5 120t-110.5 176t-39 234z" />
    <glyph glyph-name="d" unicode="d" horiz-adv-x="1826" 
d="M1389 1638h350v-1638h-350v188q-98 -102 -252.5 -155t-350.5 -53q-120 0 -223.5 20t-196 66.5t-157.5 117t-103 177t-38 241.5t38 242t103 177.5t157.5 117.5t196 67.5t223.5 20.5q196 0 350.5 -53.5t252.5 -155.5v620zM903 272q242 0 364 78t122 252q0 175 -122 253.5
t-364 78.5t-362.5 -78.5t-120.5 -253.5q0 -174 120.5 -252t362.5 -78z" />
    <glyph glyph-name="e" unicode="e" horiz-adv-x="1796" 
d="M883 264q185 0 298.5 38.5t178.5 129.5h348q-59 -226 -271.5 -339t-553.5 -113q-140 0 -261 22t-224 70t-175.5 119.5t-113.5 176t-41 234.5q0 163 61 284.5t174 195t262.5 109.5t337.5 36q144 0 263 -20.5t225.5 -70.5t179.5 -129.5t115.5 -202.5t42.5 -284h-1303
q52 -256 457 -256zM901 961q-94 0 -166.5 -10.5t-133.5 -34.5t-102 -67.5t-61 -105.5h916q-22 62 -64 105.5t-102.5 67.5t-130 34.5t-156.5 10.5z" />
    <glyph glyph-name="f" unicode="f" horiz-adv-x="1314" 
d="M995 1401q-102 0 -155.5 -17.5t-76.5 -58.5t-26 -119h510v-293h-510v-913h-352v913h-317v293h317v90q0 186 119 274.5t381 88.5q175 0 362 -21v-247q-133 10 -252 10z" />
    <glyph glyph-name="g" unicode="g" horiz-adv-x="1826" 
d="M1386 1206h353v-1013q0 -145 -38 -262t-107 -199t-167.5 -137t-217 -81t-257.5 -26q-393 0 -755 96v283q8 -2 66 -13t85.5 -16t88.5 -15.5t105.5 -16.5t103.5 -12.5t116 -9.5t112 -3q267 0 384 106t128 342q-196 -215 -610 -215q-158 0 -285.5 35.5t-223 107.5
t-147.5 190t-52 274t52 273.5t147.5 189.5t223 107.5t285.5 35.5q417 0 610 -215v194zM903 307q249 0 366 74.5t117 239.5q0 164 -116.5 238.5t-366.5 74.5t-367.5 -74.5t-117.5 -238.5t117.5 -239t367.5 -75z" />
    <glyph glyph-name="h" unicode="h" horiz-adv-x="1853" 
d="M1141 1227q102 0 188.5 -15t169 -54t140 -101t92.5 -161t36 -228l-4 -668h-352v535q0 201 -83 295t-292 94q-170 0 -341 -74t-257 -174v-676h-350v1638h350v-643q296 232 703 232z" />
    <glyph glyph-name="i" unicode="i" horiz-adv-x="526" 
d="M88 1638h350v-305h-350v305zM88 1206h350v-1206h-350v1206z" />
    <glyph glyph-name="j" unicode="j" horiz-adv-x="954" 
d="M516 1638h352v-305h-352v305zM868 1206v-1151q0 -115 -14.5 -201.5t-49 -157t-91.5 -115.5t-142.5 -69t-201.5 -24q-182 0 -363 31v282q167 -20 252 -20q57 0 93.5 4t67.5 16t48 31t29 53.5t16 78.5t4 110v1132h352z" />
    <glyph glyph-name="k" unicode="k" horiz-adv-x="1982" 
d="M1915 1206l-782 -493l782 -713h-488l-577 526l-412 -247v-279h-350v1638h350v-974l879 542h598z" />
    <glyph glyph-name="l" unicode="l" horiz-adv-x="526" 
d="M88 1638h350v-1638h-350v1638z" />
    <glyph glyph-name="m" unicode="m" horiz-adv-x="2789" 
d="M2181 1227q515 0 520 -551l-4 -676h-350v535q0 83 -6.5 139.5t-24.5 107t-50.5 80t-85 46t-126.5 16.5q-130 0 -257.5 -53.5t-213.5 -131.5q2 -20 2 -63l-4 -676h-350v535q0 83 -6.5 139.5t-24.5 107t-50.5 80t-85 46t-126.5 16.5q-144 0 -281.5 -62.5t-218.5 -150.5
v-711h-350v1206h350v-196q273 217 627 217q325 0 446 -221q295 221 670 221z" />
    <glyph glyph-name="n" unicode="n" horiz-adv-x="1853" 
d="M1141 1227q102 0 188.5 -15t169 -54t140 -101t92.5 -161t36 -228l-4 -668h-352v535q0 201 -83 295t-292 94q-170 0 -341 -74t-257 -174v-676h-350v1206h350v-211q296 232 703 232z" />
    <glyph glyph-name="o" unicode="o" horiz-adv-x="1806" 
d="M903 -20q-153 0 -279.5 22t-230.5 70t-175.5 120t-110.5 176t-39 234q0 131 39 235t110.5 177t175.5 121t230.5 70t279.5 22q191 0 341.5 -36t262.5 -109.5t172 -195t60 -284.5q0 -162 -60 -283t-172 -194.5t-262.5 -109t-341.5 -35.5zM903 272q251 0 367 74t116 256
q0 183 -115.5 257.5t-367.5 74.5q-253 0 -369 -74t-116 -258q0 -182 116 -256t369 -74z" />
    <glyph glyph-name="p" unicode="p" horiz-adv-x="1826" 
d="M1040 1227q120 0 224.5 -20.5t196.5 -67.5t157 -117.5t103 -177.5t38 -242t-38 -241.5t-103 -177t-157.5 -117t-196 -66.5t-224.5 -20q-403 0 -600 206v-698h-352v1718h352v-186q98 101 251.5 154t348.5 53zM924 272q242 0 363.5 78t121.5 252q0 175 -121.5 253.5
t-363.5 78.5t-363 -78.5t-121 -253.5q0 -174 121 -252t363 -78z" />
    <glyph glyph-name="q" unicode="q" horiz-adv-x="1826" 
d="M1386 1206h353v-1718h-353v698q-197 -206 -600 -206q-121 0 -224.5 20t-196 66.5t-157.5 117t-102.5 177t-37.5 241.5t37.5 242t102.5 177.5t157.5 117.5t196.5 67.5t224 20.5q195 0 348.5 -53t251.5 -154v186zM903 272q242 0 362.5 78t120.5 252q0 175 -120.5 253.5
t-362.5 78.5t-363.5 -78.5t-121.5 -253.5q0 -174 121.5 -252t363.5 -78z" />
    <glyph glyph-name="r" unicode="r" horiz-adv-x="1449" 
d="M1057 1227q157 0 325 -41v-293q-163 41 -309 41q-364 0 -635 -211v-723h-350v1206h350v-205q251 226 619 226z" />
    <glyph glyph-name="s" unicode="s" horiz-adv-x="1802" 
d="M68 424h350q0 -98 116.5 -138t407.5 -40q192 0 284.5 11t124 34.5t31.5 73.5q0 67 -75.5 85t-405.5 39q-126 7 -211.5 14.5t-176 20t-147 29.5t-110 43.5t-82.5 62t-46 83.5t-17 110q0 77 28.5 137t83.5 100.5t125 68t164 42.5t188 21t209 6q104 0 187.5 -4t167 -15.5
t146 -30t118 -48.5t91 -70.5t55.5 -96.5t20 -126h-353q0 73 -100 99t-352 26q-167 0 -259 -9.5t-129.5 -29.5t-37.5 -56q0 -30 13.5 -46t72.5 -29.5t140 -21.5t253 -21q318 -24 421 -41q222 -36 305 -128q67 -75 67 -200q0 -84 -24 -147.5t-73.5 -107t-113 -72.5
t-155.5 -44.5t-186.5 -21.5t-219.5 -6q-108 0 -196.5 4.5t-183.5 16.5t-168 32.5t-140.5 54.5t-111 79.5t-69.5 110.5t-26 146z" />
    <glyph glyph-name="t" unicode="t" horiz-adv-x="1376" 
d="M1309 913h-572v-348q0 -91 10 -144.5t39.5 -88.5t78 -47.5t130.5 -12.5q166 0 314 21v-283q-175 -30 -412 -30q-242 0 -377 94.5t-135 287.5v551h-317v293h317v250l352 100v-350h572v-293z" />
    <glyph glyph-name="u" unicode="u" horiz-adv-x="1853" 
d="M1415 1206h350v-1206h-350v211q-294 -231 -702 -231q-102 0 -189 15t-169 54t-139.5 101t-93 161t-36.5 228l4 667h352v-534q0 -201 83 -295t292 -94q171 0 342 73.5t256 173.5v676z" />
    <glyph glyph-name="v" unicode="v" horiz-adv-x="1857" 
d="M1401 1206h389l-612 -1206h-500l-610 1206h389l473 -958z" />
    <glyph glyph-name="w" unicode="w" horiz-adv-x="2863" 
d="M2404 1206h392l-543 -1206h-467l-354 840l-355 -840h-467l-542 1206h391l395 -932l369 932h417l369 -930z" />
    <glyph glyph-name="x" unicode="x" horiz-adv-x="1961" 
d="M68 0l677 602l-677 604h471l442 -399l442 399h471l-680 -604l680 -602h-471l-442 399l-442 -399h-471z" />
    <glyph glyph-name="y" unicode="y" horiz-adv-x="1898" 
d="M1444 1206h387l-815 -1718h-387l243 512h-180l-624 1206h389l516 -995z" />
    <glyph glyph-name="z" unicode="z" horiz-adv-x="1597" 
d="M1509 1206v-293l-903 -620h903v-293h-1421v293l903 620h-903v293h1421z" />
    <glyph glyph-name="braceleft" unicode="{" horiz-adv-x="1343" 
d="M88 371v491h52.5t47.5 1.5t45 4t39 7.5t35.5 12.5t28 18.5t24.5 26.5t16.5 34.5t11.5 44.5t3 55.5q0 102 10 174.5t33 135.5t66.5 104.5t106 73.5t157 49t212.5 25.5t279 8.5v-309q-75 0 -129.5 -1.5t-109 -5.5t-92.5 -11t-75 -19.5t-60.5 -28.5t-45 -39t-33.5 -51.5
t-21.5 -66.5t-13 -82t-3.5 -100q0 -70 -20.5 -122t-49 -79t-68 -42.5t-67.5 -19.5t-59 -4v-82q25 0 48 -3t55.5 -11t59 -27t50.5 -46.5t37.5 -73.5t13.5 -105q0 -63 5 -111.5t14.5 -89t28.5 -69.5t41.5 -52t59.5 -38t76 -25t97.5 -15t117.5 -7t143 -2v-310q-146 0 -256.5 6
t-200.5 21t-152.5 35.5t-109 56.5t-74 76t-44 101t-22 125.5t-5.5 154.5q0 30 -3 55.5t-11.5 44.5t-16.5 34.5t-24.5 26.5t-28 18.5t-35.5 12.5t-39 7.5t-45 4t-47.5 1.5h-52.5z" />
    <glyph glyph-name="bar" unicode="|" horiz-adv-x="608" 
d="M129 1475h350v-1782h-350v1782z" />
    <glyph glyph-name="braceright" unicode="}" horiz-adv-x="1343" 
d="M1255 371h-52.5t-47.5 -1.5t-45 -4t-39 -7.5t-35.5 -12.5t-28 -18.5t-24.5 -26.5t-16.5 -34.5t-11.5 -44.5t-3 -55.5q0 -90 -5.5 -154.5t-22 -125.5t-44 -101t-74 -76t-109 -56.5t-152.5 -35.5t-200.5 -21t-256.5 -6v310q127 0 206 4.5t151 20t110.5 41.5t67.5 73t39 111
t10 159q0 59 13.5 105t37.5 73.5t50.5 46.5t59 27t55.5 11t48 3v82q-31 0 -59 4t-67.5 19.5t-68 42.5t-49 79t-20.5 122t-5.5 122.5t-21 95t-35.5 71.5t-56.5 50.5t-76 33.5t-102.5 19.5t-128 10t-159 2.5v309q161 0 279 -8.5t212.5 -25.5t157 -49t106 -73.5t66.5 -104.5
t33 -135.5t10 -174.5q0 -30 3 -55.5t11.5 -44.5t16.5 -34.5t24.5 -26.5t28 -18.5t35.5 -12.5t39 -7.5t45 -4t47.5 -1.5h52.5v-491z" />
    <glyph glyph-name="asciitilde" unicode="~" horiz-adv-x="1896" 
d="M129 369q0 127 14 226t46.5 181t84 136t128.5 83t178 29q74 0 138.5 -19t110 -49.5t86.5 -67.5t78 -74t73.5 -67.5t82.5 -49.5t98 -19q101 0 144 75t43 271h333q0 -160 -22.5 -276.5t-74 -204t-139.5 -131t-214 -43.5q-74 0 -138.5 19t-110.5 49.5t-87 67.5t-77.5 74
t-73.5 67.5t-83 49.5t-98 19q-101 0 -143.5 -75t-42.5 -271h-334z" />
    <glyph glyph-name="exclamdown" unicode="&#xa1;" horiz-adv-x="544" 
d="M96 954v275h350v-275h-350zM457 -205h-369l8 989h353z" />
    <glyph glyph-name="cent" unicode="&#xa2;" horiz-adv-x="1918" 
d="M1092 393q285 25 340 203h358q-37 -232 -218.5 -354.5t-479.5 -143.5v-303h-246v303q-166 10 -295.5 51.5t-225 115.5t-146 188.5t-50.5 263.5q0 150 50.5 264.5t146 189t225 115.5t295.5 51v301h246v-301q298 -21 479.5 -143t218.5 -354h-358q-54 177 -340 202v-649z
M479 717q0 -156 93.5 -233t273.5 -93v653q-180 -16 -273.5 -93t-93.5 -234z" />
    <glyph glyph-name="sterling" unicode="&#xa3;" horiz-adv-x="1773" 
d="M1159 1350q-195 0 -287 -50t-109 -157t1 -275h643v-223h-627q-3 -191 -75 -320.5t-207 -220.5h1147v-309h-1516v309q77 60 125 108.5t89.5 113t59.5 142.5t17 177h-291v223h270q-31 194 -10 341.5t97 247.5t219.5 151t357.5 51q146 0 272.5 -14.5t309.5 -47.5v-309
q-168 34 -273.5 48t-212.5 14z" />
    <glyph glyph-name="currency" unicode="&#xa4;" horiz-adv-x="1929" 
d="M1800 705q0 -339 -258 -496l256 -256l-166 -164l-327 328q-143 -35 -340 -35q-176 0 -328 31l-324 -324l-166 164l250 250q-268 154 -268 502q0 340 260 499l-242 242l166 164l316 -316q140 35 336 35t350 -37l317 318l166 -164l-248 -250q250 -158 250 -491zM479 705
q0 -182 116.5 -256t369.5 -74q251 0 367 74t116 256q0 183 -115.5 257t-367.5 74q-253 0 -369.5 -74t-116.5 -257z" />
    <glyph glyph-name="yen" unicode="&#xa5;" horiz-adv-x="2248" 
d="M2120 1638l-736 -872h545v-221h-620v-148h620v-221h-620v-381h-369v381h-616v221h616v148h-616v221h540l-735 872h449l546 -653l547 653h449z" />
    <glyph glyph-name="brokenbar" unicode="&#xa6;" horiz-adv-x="608" 
d="M129 1475h350v-707h-350v707zM129 399h350v-706h-350v706z" />
    <glyph glyph-name="section" unicode="&#xa7;" horiz-adv-x="1806" 
d="M1505 397q89 -52 130.5 -127.5t41.5 -183.5q0 -85 -27 -151.5t-79 -111t-118 -75.5t-154.5 -47.5t-177 -23.5t-195.5 -7q-142 0 -257 13.5t-215 46t-167 83.5t-105.5 129.5t-38.5 180.5h351q0 -117 104 -156t360 -39q209 0 289 31t80 119q0 33 -5.5 55t-26.5 40t-48.5 29
t-84.5 21t-121 16.5t-171 14.5q-267 18 -420 63.5t-214.5 118t-61.5 187.5q0 151 129 311q-174 102 -174 309q0 73 21 132.5t57.5 102t91.5 75t117 52.5t141 32.5t156 17t168 4.5q142 0 257 -13.5t215 -45.5t167.5 -83t106 -129.5t38.5 -181.5h-352q0 117 -104 156t-361 39
q-208 0 -288.5 -31t-80.5 -119q0 -33 6 -55t26 -40.5t48 -29.5t84.5 -21t121.5 -17t171 -15q269 -21 420.5 -64.5t213.5 -114t62 -185.5q0 -151 -127 -312zM555 846q-36 -52 -53 -92.5t-18.5 -71.5t18 -54t49 -38.5t83.5 -27.5t112 -19.5t143 -14.5q212 -15 362 -45
q36 52 53 92.5t19 71.5t-17.5 53.5t-48.5 38t-83.5 27t-112 19t-143.5 14.5q-225 16 -363 47z" />
    <glyph glyph-name="dieresis" unicode="&#xa8;" horiz-adv-x="1153" 
d="M129 1706h363v-299h-363v299zM662 1706h362v-299h-362v299z" />
    <glyph glyph-name="copyright" unicode="&#xa9;" horiz-adv-x="2316" 
d="M1159 -225q-198 0 -365 47t-288.5 132.5t-207 203t-127.5 259.5t-42 302t42 301.5t127.5 258.5t207 201.5t288.5 131.5t365 47q247 0 444 -72t323.5 -199.5t193.5 -298t67 -370.5q0 -160 -41.5 -302t-126.5 -259.5t-206.5 -203t-288.5 -132.5t-365 -47zM1159 -2
q245 0 425 82t280 245.5t100 393.5t-99.5 392.5t-279.5 243.5t-426 81q-373 0 -591 -187t-218 -530q0 -344 218.5 -532.5t590.5 -188.5zM565 717q0 236 153 344t443 108q551 0 592 -387h-295q-32 146 -297 146q-66 0 -115.5 -8t-95 -29.5t-70 -65t-24.5 -108.5t24.5 -108.5
t70 -65t95 -29.5t115.5 -8q266 0 297 145h295q-41 -387 -592 -387q-290 0 -443 108.5t-153 344.5z" />
    <glyph glyph-name="guillemotleft" unicode="&#xab;" horiz-adv-x="1931" 
d="M621 1206h477l-533 -604l533 -602h-477l-533 602zM1366 1206h477l-532 -604l532 -602h-477l-532 602z" />
    <glyph glyph-name="logicalnot" unicode="&#xac;" horiz-adv-x="1896" 
d="M1767 842v-692h-352v401h-1286v291h1638z" />
    <glyph glyph-name="registered" unicode="&#xae;" horiz-adv-x="1634" 
d="M817 1659q169 0 301 -46t216 -129t127.5 -195.5t43.5 -248.5t-43.5 -248.5t-127.5 -195.5t-216 -128.5t-301 -45.5t-301 45.5t-216 128.5t-127.5 195.5t-43.5 248.5t43.5 248.5t127.5 195.5t216 129t301 46zM817 586q246 0 385 114.5t139 339.5t-139 340t-385 115
q-247 0 -385.5 -115t-138.5 -340t138 -339.5t386 -114.5zM1163 1112q0 -65 -30.5 -112.5t-85.5 -69.5l100 -162h-166l-88 145h-225v-145h-140v543h428q93 0 150 -54.5t57 -144.5zM668 1194v-164h250q17 0 27 0.5t27.5 5t27 12.5t17 24.5t7.5 39.5t-7.5 39.5t-17 24.5
t-27 12.5t-27.5 5t-27 0.5h-250z" />
    <glyph glyph-name="macron" unicode="&#xaf;" horiz-adv-x="1218" 
d="M129 1636h961v-241h-961v241z" />
    <glyph glyph-name="degree" unicode="&#xb0;" horiz-adv-x="1509" 
d="M754 530q-162 0 -284.5 44t-195.5 122.5t-109 178.5t-36 221q0 95 22 178t70.5 154.5t120.5 122t177 79.5t235 29t235 -29t177.5 -79.5t121 -122t70.5 -154.5t22 -178q0 -121 -36 -221t-109.5 -178.5t-196 -122.5t-284.5 -44zM754 823q135 0 204.5 64t69.5 209
t-69.5 207.5t-204.5 62.5q-134 0 -204.5 -62.5t-70.5 -207.5t70.5 -209t204.5 -64z" />
    <glyph glyph-name="plusminus" unicode="&#xb1;" horiz-adv-x="1896" 
d="M1106 1108h661v-291h-661v-325h-350v325h-627v291h627v326h350v-326zM129 59v291h1638v-291h-1638z" />
    <glyph glyph-name="acute" unicode="&#xb4;" horiz-adv-x="1054" 
d="M129 1616l797 164v-242l-797 -164v242z" />
    <glyph glyph-name="paragraph" unicode="&#xb6;" horiz-adv-x="1896" 
d="M811 1475h352v-1782h-352v950q-73 0 -125 1.5t-115 6t-107.5 13.5t-94 24t-83 36.5t-65.5 53t-50.5 71.5t-30 93t-11.5 117q0 65 11.5 118t30 93t51 71.5t65.5 53t82.5 36.5t94 23.5t107.5 13t115 6t125 1.5zM1417 1475h350v-1782h-350v1782z" />
    <glyph glyph-name="periodcentered" unicode="&#xb7;" horiz-adv-x="526" 
d="M88 780h350v-274h-350v274z" />
    <glyph glyph-name="cedilla" unicode="&#xb8;" horiz-adv-x="905" 
d="M414 -96q52 16 109.5 21.5t116.5 -3t97.5 -49.5t38.5 -111q0 -68 -37.5 -117.5t-99.5 -77t-146.5 -40.5t-175 -11.5t-188.5 13.5v174q201 -26 292 -4.5t91 82.5q0 39 -46.5 47t-166.5 -18l-121 118l29 72h237z" />
    <glyph glyph-name="guillemotright" unicode="&#xbb;" horiz-adv-x="1978" 
d="M612 1206l533 -604l-533 -602h-477l533 602l-533 604h477zM1358 1206l532 -604l-532 -602h-477l532 602l-532 604h477z" />
    <glyph glyph-name="questiondown" unicode="&#xbf;" horiz-adv-x="1720" 
d="M1133 954h-351v275h351v-275zM782 784h351q0 -96 -37.5 -164.5t-97 -105.5t-131.5 -61.5t-144 -41.5t-131.5 -36t-97 -54t-37.5 -88q0 -74 85 -111.5t277 -37.5q238 0 341.5 52.5t103.5 199.5h368q0 -133 -39.5 -232.5t-107 -161.5t-170.5 -100t-216.5 -52.5
t-258.5 -14.5q-179 0 -313.5 22t-235 70t-152 130t-51.5 196q0 70 22.5 126.5t61 94t88.5 67t106 50.5t112 39.5t108.5 38t94 42.5t68.5 56.5t33 76.5z" />
    <glyph glyph-name="Agrave" unicode="&#xc0;" horiz-adv-x="2113" 
d="M1454 1843v-241l-797 163v242zM1638 0l-153 305h-858l-154 -305h-405l739 1434h498l741 -1434h-408zM764 580h584l-291 581z" />
    <glyph glyph-name="Aacute" unicode="&#xc1;" horiz-adv-x="2113" 
d="M1454 2007v-242l-797 -163v241zM1638 0l-153 305h-858l-154 -305h-405l739 1434h498l741 -1434h-408zM764 580h584l-291 581z" />
    <glyph glyph-name="Acircumflex" unicode="&#xc2;" horiz-adv-x="2113" 
d="M1481 1602l-424 163l-424 -163v241l424 164l424 -164v-241zM1638 0l-153 305h-858l-154 -305h-405l739 1434h498l741 -1434h-408zM764 580h584l-291 581z" />
    <glyph glyph-name="Atilde" unicode="&#xc3;" horiz-adv-x="2113" 
d="M874 1782q-62 0 -87 -45t-25 -138h-299q0 70 11 132t35.5 117.5t61.5 95.5t91.5 63t121.5 23q64 0 119.5 -21t94.5 -50.5t75 -59.5t77.5 -51t86.5 -21q63 0 89 45t26 137h299q0 -88 -18.5 -163.5t-56 -136t-101 -95.5t-146.5 -35q-65 0 -121 21t-95 50.5t-75 59.5
t-77.5 51t-86.5 21zM1638 0l-153 305h-858l-154 -305h-405l739 1434h498l741 -1434h-408zM764 580h584l-291 581z" />
    <glyph glyph-name="Adieresis" unicode="&#xc4;" horiz-adv-x="2113" 
d="M973 1933v-299h-363v299h363zM1505 1933v-299h-362v299h362zM1638 0l-153 305h-858l-154 -305h-405l739 1434h498l741 -1434h-408zM764 580h584l-291 581z" />
    <glyph glyph-name="Aring" unicode="&#xc5;" horiz-adv-x="2113" 
d="M1057 1579q-232 0 -331 68t-99 202t99 202.5t331 68.5q230 0 330 -68.5t100 -202.5t-100 -202t-330 -68zM1057 1958q-105 0 -157 -25t-52 -84t52 -83.5t157 -24.5t156 24.5t51 83.5t-51.5 84t-155.5 25zM1638 0l-153 305h-858l-154 -305h-405l739 1434h498l741 -1434
h-408zM764 580h584l-291 581z" />
    <glyph glyph-name="AE" unicode="&#xc6;" horiz-adv-x="2873" 
d="M2806 1141h-1147v-291h1147v-266h-1147v-291h1147v-293h-1516v303h-665l-146 -303h-411l698 1434h2040v-293zM1290 1149h-260l-272 -569h532v569z" />
    <glyph glyph-name="Ccedilla" unicode="&#xc7;" horiz-adv-x="1931" 
d="M969 289q235 0 364.5 77t155.5 248h375q-53 -590 -781 -630l-24 -80q52 16 109.5 21.5t116.5 -3t97.5 -49.5t38.5 -111q0 -68 -37.5 -117.5t-99.5 -77t-146.5 -40.5t-175 -11.5t-188.5 13.5v174q201 -26 292 -4.5t91 82.5q0 39 -46.5 47t-166.5 -18l-121 118l23 56
q-400 24 -589 209.5t-189 525.5q0 364 218.5 549.5t682.5 185.5q839 0 895 -631h-375q-26 169 -155 245.5t-365 76.5q-280 0 -406.5 -102.5t-126.5 -323.5q0 -222 127.5 -326t405.5 -104z" />
    <glyph glyph-name="Egrave" unicode="&#xc8;" horiz-adv-x="1671" 
d="M1243 1843v-241l-797 163v242zM1604 1141h-1147v-291h1147v-266h-1147v-291h1147v-293h-1516v1434h1516v-293z" />
    <glyph glyph-name="Eacute" unicode="&#xc9;" horiz-adv-x="1671" 
d="M1243 2007v-242l-797 -163v241zM1604 1141h-1147v-291h1147v-266h-1147v-291h1147v-293h-1516v1434h1516v-293z" />
    <glyph glyph-name="Ecircumflex" unicode="&#xca;" horiz-adv-x="1671" 
d="M1270 1602l-424 163l-424 -163v241l424 164l424 -164v-241zM1604 1141h-1147v-291h1147v-266h-1147v-291h1147v-293h-1516v1434h1516v-293z" />
    <glyph glyph-name="Edieresis" unicode="&#xcb;" horiz-adv-x="1671" 
d="M762 1933v-299h-363v299h363zM1294 1933v-299h-362v299h362zM1604 1141h-1147v-291h1147v-266h-1147v-291h1147v-293h-1516v1434h1516v-293z" />
    <glyph glyph-name="Igrave" unicode="&#xcc;" horiz-adv-x="544" 
d="M670 1843v-241l-797 163v242zM457 1434v-1434h-369v1434h369z" />
    <glyph glyph-name="Iacute" unicode="&#xcd;" horiz-adv-x="544" 
d="M-127 1843l797 164v-242l-797 -163v241zM457 1434v-1434h-369v1434h369z" />
    <glyph glyph-name="Icircumflex" unicode="&#xce;" horiz-adv-x="544" 
d="M272 2007l424 -164v-241l-424 163l-424 -163v241zM88 0v1434h369v-1434h-369z" />
    <glyph glyph-name="Idieresis" unicode="&#xcf;" horiz-adv-x="544" 
d="M-174 1933h362v-299h-362v299zM358 1933h363v-299h-363v299zM457 1434v-1434h-369v1434h369z" />
    <glyph glyph-name="Eth" unicode="&#xd0;" horiz-adv-x="2050" 
d="M1278 1434q113 0 215 -27.5t190 -85t152.5 -141t101.5 -202.5t37 -261t-37 -261t-101.5 -202.5t-152.5 -141t-190 -85t-215 -27.5h-1040v596h-150v242h150v596h1040zM1139 309q75 0 132 6t112.5 22t94 45.5t69 74t45 109.5t14.5 151q0 102 -22.5 175.5t-60.5 118t-100 70
t-127.5 34.5t-156.5 9h-533v-286h465v-242h-465v-287h533z" />
    <glyph glyph-name="Ntilde" unicode="&#xd1;" horiz-adv-x="2023" 
d="M829 1782q-62 0 -87 -45t-25 -138h-299q0 70 11 132t35.5 117.5t61.5 95.5t91.5 63t121.5 23q64 0 119.5 -21t94.5 -50.5t75 -59.5t77.5 -51t86.5 -21q63 0 89 45t26 137h299q0 -88 -18.5 -163.5t-56 -136t-101 -95.5t-146.5 -35q-65 0 -121 21t-95 50.5t-75 59.5
t-77.5 51t-86.5 21zM1567 1434h368v-1434h-501l-977 1075v-1075h-369v1434h500l979 -1078v1078z" />
    <glyph glyph-name="Ograve" unicode="&#xd2;" horiz-adv-x="1937" 
d="M1366 1843v-241l-797 163v242zM969 -20q-464 0 -682.5 186.5t-218.5 552.5q0 364 218.5 549.5t682.5 185.5q463 0 682 -186.5t219 -548.5q0 -364 -219 -551.5t-682 -187.5zM969 289q283 0 407.5 103.5t124.5 326.5q0 222 -123.5 324t-408.5 102t-409 -101.5t-124 -324.5
q0 -224 124.5 -327t408.5 -103z" />
    <glyph glyph-name="Oacute" unicode="&#xd3;" horiz-adv-x="1937" 
d="M569 1843l797 164v-242l-797 -163v241zM969 -20q-464 0 -682.5 186.5t-218.5 552.5q0 364 218.5 549.5t682.5 185.5q463 0 682 -186.5t219 -548.5q0 -364 -219 -551.5t-682 -187.5zM969 289q283 0 407.5 103.5t124.5 326.5q0 222 -123.5 324t-408.5 102t-409 -101.5
t-124 -324.5q0 -224 124.5 -327t408.5 -103z" />
    <glyph glyph-name="Ocircumflex" unicode="&#xd4;" horiz-adv-x="1937" 
d="M1393 1602l-424 163l-424 -163v241l424 164l424 -164v-241zM969 1454q463 0 682 -186.5t219 -548.5q0 -364 -219 -551.5t-682 -187.5q-464 0 -682.5 186.5t-218.5 552.5q0 364 218.5 549.5t682.5 185.5zM969 289q283 0 407.5 103.5t124.5 326.5q0 222 -123.5 324
t-408.5 102t-409 -101.5t-124 -324.5q0 -224 124.5 -327t408.5 -103z" />
    <glyph glyph-name="Otilde" unicode="&#xd5;" horiz-adv-x="1937" 
d="M375 1599q0 70 11 132t35.5 117.5t61.5 95.5t91.5 63t121.5 23q64 0 119.5 -21t94.5 -50.5t75 -59.5t77.5 -51t86.5 -21q63 0 89 45t26 137h299q0 -88 -18.5 -163.5t-56 -136t-101 -95.5t-146.5 -35q-65 0 -121 21t-95 50.5t-75 59.5t-77.5 51t-86.5 21q-62 0 -87 -45
t-25 -138h-299zM969 -20q-464 0 -682.5 186.5t-218.5 552.5q0 364 218.5 549.5t682.5 185.5q463 0 682 -186.5t219 -548.5q0 -364 -219 -551.5t-682 -187.5zM969 289q283 0 407.5 103.5t124.5 326.5q0 222 -123.5 324t-408.5 102t-409 -101.5t-124 -324.5q0 -224 124.5 -327
t408.5 -103z" />
    <glyph glyph-name="Odieresis" unicode="&#xd6;" horiz-adv-x="1937" 
d="M522 1933h363v-299h-363v299zM1055 1933h362v-299h-362v299zM969 -20q-464 0 -682.5 186.5t-218.5 552.5q0 364 218.5 549.5t682.5 185.5q463 0 682 -186.5t219 -548.5q0 -364 -219 -551.5t-682 -187.5zM969 289q283 0 407.5 103.5t124.5 326.5q0 222 -123.5 324
t-408.5 102t-409 -101.5t-124 -324.5q0 -224 124.5 -327t408.5 -103z" />
    <glyph glyph-name="multiply" unicode="&#xd7;" horiz-adv-x="1822" 
d="M1694 971l-492 -283l492 -285l-146 -251l-637 368l-637 -368l-145 251l492 285l-492 283l145 252l637 -369l637 369z" />
    <glyph glyph-name="Oslash" unicode="&#xd8;" horiz-adv-x="1937" 
d="M1329 1417q277 -65 409 -240t132 -458q0 -364 -219 -551.5t-682 -187.5q-48 0 -68 2l-47 -156h-303l57 190q-277 65 -408.5 241.5t-131.5 461.5q0 364 218.5 549.5t682.5 185.5q47 0 67 -2l47 156h303zM436 719q0 -161 63 -258.5t199 -138.5l246 823q-272 -4 -390 -106
t-118 -320zM993 289q270 4 389 108t119 322q0 160 -62.5 256t-199.5 137z" />
    <glyph glyph-name="Ugrave" unicode="&#xd9;" horiz-adv-x="1978" 
d="M1386 1843v-241l-796 163v242zM1890 719q0 -377 -216.5 -558t-684.5 -181q-469 0 -685 180.5t-216 558.5v715h369v-715q0 -48 4 -87.5t18 -85.5t37 -81t63.5 -69.5t95 -57t135 -36t179.5 -13.5t179.5 14t135 36.5t95 56.5t64 69.5t37 81.5t18 85t4.5 87v715h368v-715z
" />
    <glyph glyph-name="Uacute" unicode="&#xda;" horiz-adv-x="1978" 
d="M590 1843l796 164v-242l-796 -163v241zM1890 719q0 -377 -216.5 -558t-684.5 -181q-469 0 -685 180.5t-216 558.5v715h369v-715q0 -48 4 -87.5t18 -85.5t37 -81t63.5 -69.5t95 -57t135 -36t179.5 -13.5t179.5 14t135 36.5t95 56.5t64 69.5t37 81.5t18 85t4.5 87v715h368
v-715z" />
    <glyph glyph-name="Ucircumflex" unicode="&#xdb;" horiz-adv-x="1978" 
d="M1413 1602l-424 163l-424 -163v241l424 164l424 -164v-241zM1522 1434h368v-715q0 -377 -216.5 -558t-684.5 -181q-469 0 -685 180.5t-216 558.5v715h369v-715q0 -48 4 -87.5t18 -85.5t37 -81t63.5 -69.5t95 -57t135 -36t179.5 -13.5t179.5 14t135 36.5t95 56.5t64 69.5
t37 81.5t18 85t4.5 87v715z" />
    <glyph glyph-name="Udieresis" unicode="&#xdc;" horiz-adv-x="1978" 
d="M543 1933h362v-299h-362v299zM1075 1933h363v-299h-363v299zM1890 719q0 -377 -216.5 -558t-684.5 -181q-469 0 -685 180.5t-216 558.5v715h369v-715q0 -48 4 -87.5t18 -85.5t37 -81t63.5 -69.5t95 -57t135 -36t179.5 -13.5t179.5 14t135 36.5t95 56.5t64 69.5t37 81.5
t18 85t4.5 87v715h368v-715z" />
    <glyph glyph-name="Yacute" unicode="&#xdd;" horiz-adv-x="2125" 
d="M664 1843l796 164v-242l-796 -163v241zM879 471l-811 963h444l551 -654l551 654h444l-811 -963v-471h-368v471z" />
    <glyph glyph-name="Thorn" unicode="&#xde;" horiz-adv-x="1830" 
d="M1214 1245q246 0 397.5 -144t151.5 -382t-151.5 -381t-397.5 -143h-757v-195h-369v1434h369v-189h757zM1112 504q33 0 51.5 0.5t52.5 4.5t54.5 11.5t47 23.5t41.5 38.5t25.5 57t10.5 79.5t-10.5 79.5t-25.5 57t-41.5 38.5t-47 23.5t-54.5 11.5t-52.5 4.5t-51.5 0.5h-655
v-430h655z" />
    <glyph glyph-name="germandbls" unicode="&#xdf;" horiz-adv-x="1781" 
d="M1368 799q171 -37 258.5 -128t87.5 -261q0 -65 -13 -117t-34 -92.5t-63 -70.5t-84 -51.5t-114 -36t-135.5 -23t-166.5 -13t-189 -5.5t-219 -1v293q146 0 239.5 2t174.5 8.5t124.5 16.5t75 29t42 43.5t10.5 60.5q0 37 -10.5 61.5t-42 43.5t-75 29.5t-125 16.5t-174 8
t-239.5 2v224q69 0 115 1t93.5 3.5t77.5 7.5t59 13.5t44.5 20t28.5 28.5t18 39t5 50q0 85 -74.5 122.5t-222.5 37.5q-104 0 -173 -11.5t-123.5 -42.5t-80 -89.5t-25.5 -149.5v-868h-350v868q0 139 32 241t91 168t155 105.5t211 55.5t271 16q149 0 262 -20t200.5 -65
t133 -124.5t45.5 -191.5q0 -149 -121 -254z" />
    <glyph glyph-name="agrave" unicode="&#xe0;" horiz-adv-x="1789" 
d="M1319 1616v-242l-797 164v242zM907 1227q194 0 337 -33t247 -105t157 -192t54 -289v-608h-352v150q-348 -170 -734 -170q-548 0 -548 380q0 113 58.5 195.5t163 128.5t229.5 67t276 21q299 0 555 -86q0 248 -459 248q-303 0 -598 -88l-125 256q384 125 739 125zM1350 375
v94q-233 74 -512 74q-205 0 -312.5 -39.5t-107.5 -128.5q0 -31 9 -54t29 -38t43 -24t60.5 -13.5t71.5 -6t86 -1.5q141 0 318.5 39t314.5 98z" />
    <glyph glyph-name="aacute" unicode="&#xe1;" horiz-adv-x="1789" 
d="M1319 1780v-242l-797 -164v242zM907 1227q194 0 337 -33t247 -105t157 -192t54 -289v-608h-352v150q-348 -170 -734 -170q-548 0 -548 380q0 113 58.5 195.5t163 128.5t229.5 67t276 21q299 0 555 -86q0 248 -459 248q-303 0 -598 -88l-125 256q384 125 739 125z
M1350 375v94q-233 74 -512 74q-205 0 -312.5 -39.5t-107.5 -128.5q0 -31 9 -54t29 -38t43 -24t60.5 -13.5t71.5 -6t86 -1.5q141 0 318.5 39t314.5 98z" />
    <glyph glyph-name="acircumflex" unicode="&#xe2;" horiz-adv-x="1789" 
d="M1346 1374l-424 164l-424 -164v242l424 164l424 -164v-242zM907 1227q194 0 337 -33t247 -105t157 -192t54 -289v-608h-352v150q-348 -170 -734 -170q-548 0 -548 380q0 113 58.5 195.5t163 128.5t229.5 67t276 21q299 0 555 -86q0 248 -459 248q-303 0 -598 -88
l-125 256q384 125 739 125zM1350 375v94q-233 74 -512 74q-205 0 -312.5 -39.5t-107.5 -128.5q0 -31 9 -54t29 -38t43 -24t60.5 -13.5t71.5 -6t86 -1.5q141 0 318.5 39t314.5 98z" />
    <glyph glyph-name="atilde" unicode="&#xe3;" horiz-adv-x="1789" 
d="M739 1554q-62 0 -87 -45t-25 -137h-299q0 88 18 163.5t55 136t100.5 95.5t147.5 35q64 0 119.5 -21t94.5 -50.5t75 -59.5t77.5 -51t86.5 -21q63 0 89 45.5t26 137.5h299q0 -88 -18.5 -163.5t-56 -136t-101 -95.5t-146.5 -35q-65 0 -121 21t-95 50.5t-75 59t-77.5 50.5
t-86.5 21zM907 1227q194 0 337 -33t247 -105t157 -192t54 -289v-608h-352v150q-348 -170 -734 -170q-548 0 -548 380q0 113 58.5 195.5t163 128.5t229.5 67t276 21q299 0 555 -86q0 248 -459 248q-303 0 -598 -88l-125 256q384 125 739 125zM1350 375v94q-233 74 -512 74
q-205 0 -312.5 -39.5t-107.5 -128.5q0 -31 9 -54t29 -38t43 -24t60.5 -13.5t71.5 -6t86 -1.5q141 0 318.5 39t314.5 98z" />
    <glyph glyph-name="adieresis" unicode="&#xe4;" horiz-adv-x="1789" 
d="M838 1706v-299h-363v299h363zM1370 1706v-299h-362v299h362zM907 1227q194 0 337 -33t247 -105t157 -192t54 -289v-608h-352v150q-348 -170 -734 -170q-548 0 -548 380q0 113 58.5 195.5t163 128.5t229.5 67t276 21q299 0 555 -86q0 248 -459 248q-303 0 -598 -88
l-125 256q384 125 739 125zM1350 375v94q-233 74 -512 74q-205 0 -312.5 -39.5t-107.5 -128.5q0 -31 9 -54t29 -38t43 -24t60.5 -13.5t71.5 -6t86 -1.5q141 0 318.5 39t314.5 98z" />
    <glyph glyph-name="aring" unicode="&#xe5;" horiz-adv-x="1789" 
d="M922 1352q-232 0 -331 68t-99 202t99 202t331 68q230 0 330 -68t100 -202t-100 -202t-330 -68zM922 1731q-105 0 -157 -25t-52 -84t52 -84t157 -25q104 0 155 25t51 84t-51 84t-155 25zM907 1227q194 0 337 -33t247 -105t157 -192t54 -289v-608h-352v150
q-348 -170 -734 -170q-548 0 -548 380q0 113 58.5 195.5t163 128.5t229.5 67t276 21q299 0 555 -86q0 248 -459 248q-303 0 -598 -88l-125 256q384 125 739 125zM1350 375v94q-233 74 -512 74q-205 0 -312.5 -39.5t-107.5 -128.5q0 -31 9 -54t29 -38t43 -24t60.5 -13.5
t71.5 -6t86 -1.5q141 0 318.5 39t314.5 98z" />
    <glyph glyph-name="ae" unicode="&#xe6;" horiz-adv-x="3100" 
d="M2187 264q185 0 298.5 38.5t178.5 129.5h349q-59 -226 -272 -339t-554 -113q-227 0 -404.5 59t-281.5 180q-153 -120 -388 -179.5t-468 -59.5q-577 0 -577 380q0 412 727 412q299 0 555 -86q0 248 -459 248q-303 0 -598 -88l-125 256q384 125 739 125q456 0 645 -189
q212 189 656 189q144 0 262.5 -20.5t225.5 -70.5t179.5 -129.5t115 -202.5t42.5 -284h-1302q52 -256 456 -256zM2206 961q-94 0 -166.5 -10.5t-133.5 -34.5t-102 -67.5t-61 -105.5h915q-22 62 -64 105.5t-102 67.5t-129.5 34.5t-156.5 10.5zM1350 397v72q-233 74 -512 74
q-106 0 -177.5 -6t-129.5 -23t-85.5 -49.5t-27.5 -81.5q0 -46 20 -76t62.5 -44.5t91.5 -19.5t125 -5q169 0 336.5 39.5t296.5 119.5z" />
    <glyph glyph-name="ccedilla" unicode="&#xe7;" horiz-adv-x="1796" 
d="M903 272q200 0 316.5 48t150.5 161h359q-37 -235 -221 -356t-488 -141l-25 -80q52 16 109.5 21.5t117 -3t98 -49.5t38.5 -111q0 -68 -37.5 -117.5t-99.5 -77t-146.5 -40.5t-175 -11.5t-188.5 13.5v174q201 -26 292 -4.5t91 82.5q0 39 -46.5 47t-166.5 -18l-121 118l22 56
q-165 11 -294 52t-224.5 115t-145.5 188t-50 263q0 131 39 235t110.5 177t175.5 121t230.5 70t279.5 22q231 0 402.5 -50.5t283.5 -164.5t140 -287h-359q-34 113 -150.5 161t-316.5 48q-117 0 -203.5 -16.5t-151.5 -54.5t-97.5 -103t-32.5 -158q0 -179 123 -254.5t362 -75.5
z" />
    <glyph glyph-name="egrave" unicode="&#xe8;" horiz-adv-x="1796" 
d="M1298 1616v-242l-796 164v242zM883 264q185 0 298.5 38.5t178.5 129.5h348q-59 -226 -271.5 -339t-553.5 -113q-140 0 -261 22t-224 70t-175.5 119.5t-113.5 176t-41 234.5q0 163 61 284.5t174 195t262.5 109.5t337.5 36q144 0 263 -20.5t225.5 -70.5t179.5 -129.5
t115.5 -202.5t42.5 -284h-1303q52 -256 457 -256zM901 961q-94 0 -166.5 -10.5t-133.5 -34.5t-102 -67.5t-61 -105.5h916q-22 62 -64 105.5t-102.5 67.5t-130 34.5t-156.5 10.5z" />
    <glyph glyph-name="eacute" unicode="&#xe9;" horiz-adv-x="1796" 
d="M1298 1780v-242l-796 -164v242zM883 264q185 0 298.5 38.5t178.5 129.5h348q-59 -226 -271.5 -339t-553.5 -113q-140 0 -261 22t-224 70t-175.5 119.5t-113.5 176t-41 234.5q0 163 61 284.5t174 195t262.5 109.5t337.5 36q144 0 263 -20.5t225.5 -70.5t179.5 -129.5
t115.5 -202.5t42.5 -284h-1303q52 -256 457 -256zM901 961q-94 0 -166.5 -10.5t-133.5 -34.5t-102 -67.5t-61 -105.5h916q-22 62 -64 105.5t-102.5 67.5t-130 34.5t-156.5 10.5z" />
    <glyph glyph-name="ecircumflex" unicode="&#xea;" horiz-adv-x="1796" 
d="M1325 1374l-424 164l-424 -164v242l424 164l424 -164v-242zM883 264q185 0 298.5 38.5t178.5 129.5h348q-59 -226 -271.5 -339t-553.5 -113q-140 0 -261 22t-224 70t-175.5 119.5t-113.5 176t-41 234.5q0 163 61 284.5t174 195t262.5 109.5t337.5 36q144 0 263 -20.5
t225.5 -70.5t179.5 -129.5t115.5 -202.5t42.5 -284h-1303q52 -256 457 -256zM901 961q-94 0 -166.5 -10.5t-133.5 -34.5t-102 -67.5t-61 -105.5h916q-22 62 -64 105.5t-102.5 67.5t-130 34.5t-156.5 10.5z" />
    <glyph glyph-name="edieresis" unicode="&#xeb;" horiz-adv-x="1796" 
d="M817 1706v-299h-362v299h362zM1350 1706v-299h-363v299h363zM883 264q185 0 298.5 38.5t178.5 129.5h348q-59 -226 -271.5 -339t-553.5 -113q-140 0 -261 22t-224 70t-175.5 119.5t-113.5 176t-41 234.5q0 163 61 284.5t174 195t262.5 109.5t337.5 36q144 0 263 -20.5
t225.5 -70.5t179.5 -129.5t115.5 -202.5t42.5 -284h-1303q52 -256 457 -256zM901 961q-94 0 -166.5 -10.5t-133.5 -34.5t-102 -67.5t-61 -105.5h916q-22 62 -64 105.5t-102.5 67.5t-130 34.5t-156.5 10.5z" />
    <glyph glyph-name="igrave" unicode="&#xec;" horiz-adv-x="526" 
d="M662 1616v-242l-797 164v242zM88 1206h350v-1206h-350v1206z" />
    <glyph glyph-name="iacute" unicode="&#xed;" horiz-adv-x="526" 
d="M-135 1616l797 164v-242l-797 -164v242zM88 1206h350v-1206h-350v1206z" />
    <glyph glyph-name="icircumflex" unicode="&#xee;" horiz-adv-x="526" 
d="M264 1780l424 -164v-242l-424 164l-424 -164v242zM88 0v1206h350v-1206h-350z" />
    <glyph glyph-name="idieresis" unicode="&#xef;" horiz-adv-x="526" 
d="M-182 1706h362v-299h-362v299zM350 1706h363v-299h-363v299zM88 1206h350v-1206h-350v1206z" />
    <glyph glyph-name="eth" unicode="&#xf0;" horiz-adv-x="1943" 
d="M1485 1579q176 -147 273 -347t97 -441q0 -124 -28 -231t-77.5 -189t-120 -147.5t-153.5 -110.5t-180 -75.5t-197.5 -44t-207.5 -13.5q-803 0 -803 589q0 134 39 238.5t121 181.5t216 117.5t316 40.5q413 0 721 -297q-25 376 -360 582l-520 -224l-132 201l351 150
q-149 44 -351 61l50 305q395 -21 712 -190l418 180l129 -201zM866 272q204 0 351.5 62t220.5 188q-128 164 -299 248t-330 84q-178 0 -274.5 -65t-96.5 -220q0 -154 104 -225.5t324 -71.5z" />
    <glyph glyph-name="ntilde" unicode="&#xf1;" horiz-adv-x="1853" 
d="M825 1554q-62 0 -87 -45t-25 -137h-299q0 88 18 163.5t55 136t100.5 95.5t147.5 35q64 0 119.5 -21t94.5 -50.5t75 -59.5t77.5 -51t86.5 -21q63 0 89 45.5t26 137.5h299q0 -88 -18.5 -163.5t-56 -136t-101 -95.5t-146.5 -35q-65 0 -121 21t-95 50.5t-75 59t-77.5 50.5
t-86.5 21zM1141 1227q102 0 188.5 -15t169 -54t140 -101t92.5 -161t36 -228l-4 -668h-352v535q0 201 -83 295t-292 94q-170 0 -341 -74t-257 -174v-676h-350v1206h350v-211q296 232 703 232z" />
    <glyph glyph-name="ograve" unicode="&#xf2;" horiz-adv-x="1806" 
d="M1300 1616v-242l-796 164v242zM903 -20q-153 0 -279.5 22t-230.5 70t-175.5 120t-110.5 176t-39 234q0 131 39 235t110.5 177t175.5 121t230.5 70t279.5 22q191 0 341.5 -36t262.5 -109.5t172 -195t60 -284.5q0 -162 -60 -283t-172 -194.5t-262.5 -109t-341.5 -35.5z
M903 272q251 0 367 74t116 256q0 183 -115.5 257.5t-367.5 74.5q-253 0 -369 -74t-116 -258q0 -182 116 -256t369 -74z" />
    <glyph glyph-name="oacute" unicode="&#xf3;" horiz-adv-x="1806" 
d="M504 1616l796 164v-242l-796 -164v242zM903 -20q-153 0 -279.5 22t-230.5 70t-175.5 120t-110.5 176t-39 234q0 131 39 235t110.5 177t175.5 121t230.5 70t279.5 22q191 0 341.5 -36t262.5 -109.5t172 -195t60 -284.5q0 -162 -60 -283t-172 -194.5t-262.5 -109
t-341.5 -35.5zM903 272q251 0 367 74t116 256q0 183 -115.5 257.5t-367.5 74.5q-253 0 -369 -74t-116 -258q0 -182 116 -256t369 -74z" />
    <glyph glyph-name="ocircumflex" unicode="&#xf4;" horiz-adv-x="1806" 
d="M1327 1374l-424 164l-424 -164v242l424 164l424 -164v-242zM903 1227q191 0 341.5 -36t262.5 -109.5t172 -195t60 -284.5q0 -162 -60 -283t-172 -194.5t-262.5 -109t-341.5 -35.5q-153 0 -279.5 22t-230.5 70t-175.5 120t-110.5 176t-39 234q0 131 39 235t110.5 177
t175.5 121t230.5 70t279.5 22zM903 272q251 0 367 74t116 256q0 183 -115.5 257.5t-367.5 74.5q-253 0 -369 -74t-116 -258q0 -182 116 -256t369 -74z" />
    <glyph glyph-name="otilde" unicode="&#xf5;" horiz-adv-x="1806" 
d="M309 1372q0 88 18.5 163.5t55.5 136t100.5 95.5t147.5 35q64 0 119.5 -21t94 -50.5t74.5 -59.5t77.5 -51t86.5 -21q63 0 89 45.5t26 137.5h299q0 -88 -18.5 -163.5t-55.5 -136t-100.5 -95.5t-146.5 -35q-65 0 -121 21t-95 50.5t-75 59t-77.5 50.5t-86.5 21
q-62 0 -87.5 -45t-25.5 -137h-299zM903 -20q-153 0 -279.5 22t-230.5 70t-175.5 120t-110.5 176t-39 234q0 131 39 235t110.5 177t175.5 121t230.5 70t279.5 22q191 0 341.5 -36t262.5 -109.5t172 -195t60 -284.5q0 -162 -60 -283t-172 -194.5t-262.5 -109t-341.5 -35.5z
M903 272q251 0 367 74t116 256q0 183 -115.5 257.5t-367.5 74.5q-253 0 -369 -74t-116 -258q0 -182 116 -256t369 -74z" />
    <glyph glyph-name="odieresis" unicode="&#xf6;" horiz-adv-x="1806" 
d="M457 1706h362v-299h-362v299zM989 1706h363v-299h-363v299zM903 -20q-153 0 -279.5 22t-230.5 70t-175.5 120t-110.5 176t-39 234q0 131 39 235t110.5 177t175.5 121t230.5 70t279.5 22q191 0 341.5 -36t262.5 -109.5t172 -195t60 -284.5q0 -162 -60 -283t-172 -194.5
t-262.5 -109t-341.5 -35.5zM903 272q251 0 367 74t116 256q0 183 -115.5 257.5t-367.5 74.5q-253 0 -369 -74t-116 -258q0 -182 116 -256t369 -74z" />
    <glyph glyph-name="divide" unicode="&#xf7;" horiz-adv-x="1896" 
d="M772 1298h350v-274h-350v274zM129 842h1638v-291h-1638v291zM772 369h350v-275h-350v275z" />
    <glyph glyph-name="oslash" unicode="&#xf8;" horiz-adv-x="1806" 
d="M1231 1194q508 -114 508 -592q0 -162 -60 -283t-172 -194.5t-262.5 -109t-341.5 -35.5h-35l-80 -269h-303l90 301q-243 53 -375 199t-132 391q0 131 39 235t110.5 177t175.5 121t230.5 70t279.5 22h35l80 266h303zM418 602q0 -130 59 -203.5t182 -103.5l191 639
q-224 -8 -328 -83t-104 -249zM956 272q223 8 326.5 83t103.5 247q0 132 -58.5 205.5t-180.5 103.5z" />
    <glyph glyph-name="ugrave" unicode="&#xf9;" horiz-adv-x="1853" 
d="M1323 1616v-242l-797 164v242zM1415 1206h350v-1206h-350v211q-294 -231 -702 -231q-102 0 -189 15t-169 54t-139.5 101t-93 161t-36.5 228l4 667h352v-534q0 -201 83 -295t292 -94q171 0 342 73.5t256 173.5v676z" />
    <glyph glyph-name="uacute" unicode="&#xfa;" horiz-adv-x="1853" 
d="M1323 1780v-242l-797 -164v242zM1415 1206h350v-1206h-350v211q-294 -231 -702 -231q-102 0 -189 15t-169 54t-139.5 101t-93 161t-36.5 228l4 667h352v-534q0 -201 83 -295t292 -94q171 0 342 73.5t256 173.5v676z" />
    <glyph glyph-name="ucircumflex" unicode="&#xfb;" horiz-adv-x="1853" 
d="M1350 1374l-424 164l-424 -164v242l424 164l424 -164v-242zM1415 1206h350v-1206h-350v211q-294 -231 -702 -231q-102 0 -189 15t-169 54t-139.5 101t-93 161t-36.5 228l4 667h352v-534q0 -201 83 -295t292 -94q171 0 342 73.5t256 173.5v676z" />
    <glyph glyph-name="udieresis" unicode="&#xfc;" horiz-adv-x="1853" 
d="M842 1706v-299h-363v299h363zM1374 1706v-299h-362v299h362zM1415 1206h350v-1206h-350v211q-294 -231 -702 -231q-102 0 -189 15t-169 54t-139.5 101t-93 161t-36.5 228l4 667h352v-534q0 -201 83 -295t292 -94q171 0 342 73.5t256 173.5v676z" />
    <glyph glyph-name="yacute" unicode="&#xfd;" horiz-adv-x="1898" 
d="M1348 1780v-242l-797 -164v242zM1444 1206h387l-815 -1718h-387l243 512h-180l-624 1206h389l516 -995z" />
    <glyph glyph-name="thorn" unicode="&#xfe;" horiz-adv-x="1835" 
d="M1047 1227q114 0 213 -18t192.5 -63t160 -114t106.5 -179t40 -251q0 -140 -40 -249.5t-106.5 -178.5t-160 -113.5t-192.5 -62.5t-213 -18q-422 0 -609 223v-578h-350v2013h350v-634q190 223 609 223zM924 272q251 0 367 79.5t116 250.5t-116 251.5t-367 80.5
t-368.5 -80.5t-117.5 -251.5q0 -170 117 -250t369 -80z" />
    <glyph glyph-name="ydieresis" unicode="&#xff;" horiz-adv-x="1898" 
d="M866 1706v-299h-362v299h362zM1399 1706v-299h-363v299h363zM1444 1206h387l-815 -1718h-387l243 512h-180l-624 1206h389l516 -995z" />
    <glyph glyph-name="Amacron" unicode="&#x100;" horiz-adv-x="2113" 
d="M1536 1864v-242h-961v242h961zM1638 0l-153 305h-858l-154 -305h-405l739 1434h498l741 -1434h-408zM764 580h584l-291 581z" />
    <glyph glyph-name="amacron" unicode="&#x101;" horiz-adv-x="1789" 
d="M1401 1636v-241h-961v241h961zM907 1227q194 0 337 -33t247 -105t157 -192t54 -289v-608h-352v150q-348 -170 -734 -170q-548 0 -548 380q0 113 58.5 195.5t163 128.5t229.5 67t276 21q299 0 555 -86q0 248 -459 248q-303 0 -598 -88l-125 256q384 125 739 125zM1350 375
v94q-233 74 -512 74q-205 0 -312.5 -39.5t-107.5 -128.5q0 -31 9 -54t29 -38t43 -24t60.5 -13.5t71.5 -6t86 -1.5q141 0 318.5 39t314.5 98z" />
    <glyph glyph-name="Abreve" unicode="&#x102;" horiz-adv-x="2113" 
d="M1057 1571q-81 0 -146.5 11t-126.5 41t-102 78t-65.5 126t-24.5 182h221q0 -120 62.5 -173.5t181.5 -53.5t180 53.5t61 173.5h224q0 -104 -24.5 -182t-65.5 -126t-102 -78t-126.5 -41t-146.5 -11zM1638 0l-153 305h-858l-154 -305h-405l739 1434h498l741 -1434h-408z
M764 580h584l-291 581z" />
    <glyph glyph-name="abreve" unicode="&#x103;" horiz-adv-x="1789" 
d="M922 1343q-81 0 -146.5 11t-126.5 41t-102 78.5t-65.5 126.5t-24.5 182h221q0 -120 62.5 -174t181.5 -54t180 54t61 174h223q0 -104 -24.5 -182t-65 -126.5t-101.5 -78.5t-126.5 -41t-146.5 -11zM907 1227q194 0 337 -33t247 -105t157 -192t54 -289v-608h-352v150
q-348 -170 -734 -170q-548 0 -548 380q0 113 58.5 195.5t163 128.5t229.5 67t276 21q299 0 555 -86q0 248 -459 248q-303 0 -598 -88l-125 256q384 125 739 125zM1350 375v94q-233 74 -512 74q-205 0 -312.5 -39.5t-107.5 -128.5q0 -31 9 -54t29 -38t43 -24t60.5 -13.5
t71.5 -6t86 -1.5q141 0 318.5 39t314.5 98z" />
    <glyph glyph-name="Aogonek" unicode="&#x104;" horiz-adv-x="2113" 
d="M1804 -129q0 -19 6.5 -34t21.5 -25t30 -18t43 -12.5t48 -7t57 -4t58.5 -1.5h63.5v-240q-122 0 -209 5.5t-163 21t-121.5 42t-71 69t-25.5 102.5q0 69 40.5 123t123.5 108h-68l-153 305h-858l-154 -305h-405l739 1434h498l741 -1434h-145q-33 -27 -47 -39t-32 -39t-18 -51
zM764 580h584l-291 581z" />
    <glyph glyph-name="aogonek" unicode="&#x105;" horiz-adv-x="1789" 
d="M1491 -129q0 -19 6.5 -34t21.5 -25t30 -18t43 -12.5t48 -7t57 -4t58.5 -1.5h63.5v-240q-122 0 -209 5.5t-163 21t-121.5 42t-71 69t-25.5 102.5q0 69 40.5 123t123.5 108h-43v150q-348 -170 -734 -170q-548 0 -548 380q0 113 58.5 195.5t163 128.5t229.5 67t276 21
q299 0 555 -86q0 248 -459 248q-303 0 -598 -88l-125 256q384 125 739 125q194 0 337 -33t247 -105t157 -192t54 -289v-608h-115q-32 -26 -46.5 -39t-32 -39t-17.5 -51zM1350 375v94q-233 74 -512 74q-205 0 -312.5 -39.5t-107.5 -128.5q0 -31 9 -54t29 -38t43 -24
t60.5 -13.5t71.5 -6t86 -1.5q141 0 318.5 39t314.5 98z" />
    <glyph glyph-name="Cacute" unicode="&#x106;" horiz-adv-x="1931" 
d="M567 1843l797 164v-242l-797 -163v241zM68 719q0 364 218.5 549.5t682.5 185.5q839 0 895 -631h-375q-26 169 -155 245.5t-365 76.5q-280 0 -406.5 -102.5t-126.5 -323.5q0 -222 127.5 -326t405.5 -104q235 0 364.5 77t155.5 248h375q-56 -634 -895 -634
q-464 0 -682.5 186.5t-218.5 552.5z" />
    <glyph glyph-name="cacute" unicode="&#x107;" horiz-adv-x="1796" 
d="M504 1616l796 164v-242l-796 -164v242zM68 602q0 131 39 235t110.5 177t175.5 121t230.5 70t279.5 22q231 0 402.5 -50.5t283.5 -164.5t140 -287h-359q-34 113 -150.5 161t-316.5 48q-117 0 -203.5 -16.5t-151.5 -54.5t-97.5 -103t-32.5 -158q0 -179 123 -254.5
t362 -75.5q200 0 316.5 48t150.5 161h359q-21 -130 -89 -227t-177 -156.5t-248.5 -88.5t-311.5 -29q-153 0 -279.5 22t-230.5 70t-175.5 120t-110.5 176t-39 234z" />
    <glyph glyph-name="Cdotaccent" unicode="&#x10a;" horiz-adv-x="1931" 
d="M768 1933h397v-299h-397v299zM68 719q0 364 218.5 549.5t682.5 185.5q839 0 895 -631h-375q-26 169 -155 245.5t-365 76.5q-280 0 -406.5 -102.5t-126.5 -323.5q0 -222 127.5 -326t405.5 -104q235 0 364.5 77t155.5 248h375q-56 -634 -895 -634q-464 0 -682.5 186.5
t-218.5 552.5z" />
    <glyph glyph-name="cdotaccent" unicode="&#x10b;" horiz-adv-x="1796" 
d="M705 1706h397v-299h-397v299zM68 602q0 131 39 235t110.5 177t175.5 121t230.5 70t279.5 22q231 0 402.5 -50.5t283.5 -164.5t140 -287h-359q-34 113 -150.5 161t-316.5 48q-117 0 -203.5 -16.5t-151.5 -54.5t-97.5 -103t-32.5 -158q0 -179 123 -254.5t362 -75.5
q200 0 316.5 48t150.5 161h359q-21 -130 -89 -227t-177 -156.5t-248.5 -88.5t-311.5 -29q-153 0 -279.5 22t-230.5 70t-175.5 120t-110.5 176t-39 234z" />
    <glyph glyph-name="Ccaron" unicode="&#x10c;" horiz-adv-x="1931" 
d="M1391 1769l-424 -163l-424 163v242l424 -164l424 164v-242zM969 289q235 0 364.5 77t155.5 248h375q-56 -634 -895 -634q-464 0 -682.5 186.5t-218.5 552.5q0 364 218.5 549.5t682.5 185.5q839 0 895 -631h-375q-26 169 -155 245.5t-365 76.5q-280 0 -406.5 -102.5
t-126.5 -323.5q0 -222 127.5 -326t405.5 -104z" />
    <glyph glyph-name="ccaron" unicode="&#x10d;" horiz-adv-x="1796" 
d="M1327 1542l-424 -164l-424 164v242l424 -164l424 164v-242zM903 272q200 0 316.5 48t150.5 161h359q-21 -130 -89 -227t-177 -156.5t-248.5 -88.5t-311.5 -29q-153 0 -279.5 22t-230.5 70t-175.5 120t-110.5 176t-39 234q0 131 39 235t110.5 177t175.5 121t230.5 70
t279.5 22q231 0 402.5 -50.5t283.5 -164.5t140 -287h-359q-34 113 -150.5 161t-316.5 48q-117 0 -203.5 -16.5t-151.5 -54.5t-97.5 -103t-32.5 -158q0 -179 123 -254.5t362 -75.5z" />
    <glyph glyph-name="Dcaron" unicode="&#x10e;" horiz-adv-x="1892" 
d="M1237 1769l-424 -163l-424 163v242l424 -164l424 164v-242zM1128 1434q142 0 266 -44.5t221 -130.5t153.5 -225.5t56.5 -316.5t-56.5 -316.5t-153.5 -225.5t-221 -130.5t-266 -44.5h-1040v1434h1040zM989 309q75 0 132 6t112.5 22t94 45.5t69 74t45 109.5t14.5 151
q0 102 -22.5 175.5t-60.5 118t-100 70t-127.5 34.5t-156.5 9h-532v-815h532z" />
    <glyph glyph-name="dcaron" unicode="&#x10f;" horiz-adv-x="2279" 
d="M1389 1018v620h350v-1638h-350v188q-98 -102 -252.5 -155t-350.5 -53q-120 0 -223.5 20t-196 66.5t-157.5 117t-103 177t-38 241.5t38 242t103 177.5t157.5 117.5t196 67.5t223.5 20.5q196 0 350.5 -53.5t252.5 -155.5zM1841 1638h350v-274l-166 -403h-167l104 403h-121
v274zM903 272q242 0 364 78t122 252q0 175 -122 253.5t-364 78.5t-362.5 -78.5t-120.5 -253.5q0 -174 120.5 -252t362.5 -78z" />
    <glyph glyph-name="Dcroat" unicode="&#x110;" horiz-adv-x="2050" 
d="M1278 1434q113 0 215 -27.5t190 -85t152.5 -141t101.5 -202.5t37 -261t-37 -261t-101.5 -202.5t-152.5 -141t-190 -85t-215 -27.5h-1040v596h-150v242h150v596h1040zM1139 309q75 0 132 6t112.5 22t94 45.5t69 74t45 109.5t14.5 151q0 102 -22.5 175.5t-60.5 118t-100 70
t-127.5 34.5t-156.5 9h-533v-286h465v-242h-465v-287h533z" />
    <glyph glyph-name="dcroat" unicode="&#x111;" horiz-adv-x="1929" 
d="M1841 1534v-242h-102v-1292h-350v188q-98 -102 -252.5 -155t-350.5 -53q-120 0 -223.5 20t-196 66.5t-157.5 117t-103 177t-38 241.5t38 242t103 177.5t157.5 117.5t196 67.5t223.5 20.5q196 0 350.5 -53.5t252.5 -155.5v274h-531v242h531v104h350v-104h102zM903 272
q242 0 364 78t122 252q0 175 -122 253.5t-364 78.5t-362.5 -78.5t-120.5 -253.5q0 -174 120.5 -252t362.5 -78z" />
    <glyph glyph-name="Emacron" unicode="&#x112;" horiz-adv-x="1671" 
d="M1325 1864v-242h-960v242h960zM1604 1141h-1147v-291h1147v-266h-1147v-291h1147v-293h-1516v1434h1516v-293z" />
    <glyph glyph-name="emacron" unicode="&#x113;" horiz-adv-x="1796" 
d="M1380 1636v-241h-960v241h960zM883 264q185 0 298.5 38.5t178.5 129.5h348q-59 -226 -271.5 -339t-553.5 -113q-140 0 -261 22t-224 70t-175.5 119.5t-113.5 176t-41 234.5q0 163 61 284.5t174 195t262.5 109.5t337.5 36q144 0 263 -20.5t225.5 -70.5t179.5 -129.5
t115.5 -202.5t42.5 -284h-1303q52 -256 457 -256zM901 961q-94 0 -166.5 -10.5t-133.5 -34.5t-102 -67.5t-61 -105.5h916q-22 62 -64 105.5t-102.5 67.5t-130 34.5t-156.5 10.5z" />
    <glyph glyph-name="Edotaccent" unicode="&#x116;" horiz-adv-x="1671" 
d="M1044 1933v-299h-397v299h397zM1604 1141h-1147v-291h1147v-266h-1147v-291h1147v-293h-1516v1434h1516v-293z" />
    <glyph glyph-name="edotaccent" unicode="&#x117;" horiz-adv-x="1796" 
d="M1100 1706v-299h-398v299h398zM883 264q185 0 298.5 38.5t178.5 129.5h348q-59 -226 -271.5 -339t-553.5 -113q-140 0 -261 22t-224 70t-175.5 119.5t-113.5 176t-41 234.5q0 163 61 284.5t174 195t262.5 109.5t337.5 36q144 0 263 -20.5t225.5 -70.5t179.5 -129.5
t115.5 -202.5t42.5 -284h-1303q52 -256 457 -256zM901 961q-94 0 -166.5 -10.5t-133.5 -34.5t-102 -67.5t-61 -105.5h916q-22 62 -64 105.5t-102.5 67.5t-130 34.5t-156.5 10.5z" />
    <glyph glyph-name="Eogonek" unicode="&#x118;" horiz-adv-x="1671" 
d="M1323 -129q0 -19 6.5 -34t21.5 -25t30 -18t43 -12.5t48 -7t57 -4t58.5 -1.5h63.5v-240q-122 0 -209 5.5t-163 21t-121.5 42t-71 69t-25.5 102.5q0 69 40.5 123t123.5 108h-1137v1434h1516v-293h-1147v-291h1147v-266h-1147v-291h1147v-293h-185q-32 -26 -46.5 -39
t-32 -39t-17.5 -51z" />
    <glyph glyph-name="eogonek" unicode="&#x119;" horiz-adv-x="1796" 
d="M883 264q185 0 298.5 38.5t178.5 129.5h348q-92 -360 -571 -434q-31 -25 -46 -38.5t-32 -39t-17 -49.5q0 -19 6.5 -34t21.5 -25t30 -18t43 -12.5t48 -7t57 -4t58.5 -1.5h63.5v-240q-122 0 -209 5.5t-163 21t-121.5 42t-71 69t-25.5 102.5q0 62 33.5 112.5t99.5 98.5h-30
q-140 0 -261 22t-224 70t-175.5 119.5t-113.5 176t-41 234.5q0 163 61 284.5t174 195t262.5 109.5t337.5 36q144 0 263 -20.5t225.5 -70.5t179.5 -129.5t115.5 -202.5t42.5 -284h-1303q52 -256 457 -256zM901 961q-94 0 -166.5 -10.5t-133.5 -34.5t-102 -67.5t-61 -105.5
h916q-22 62 -64 105.5t-102.5 67.5t-130 34.5t-156.5 10.5z" />
    <glyph glyph-name="Ecaron" unicode="&#x11a;" horiz-adv-x="1671" 
d="M1270 1769l-424 -163l-424 163v242l424 -164l424 164v-242zM1604 1141h-1147v-291h1147v-266h-1147v-291h1147v-293h-1516v1434h1516v-293z" />
    <glyph glyph-name="ecaron" unicode="&#x11b;" horiz-adv-x="1796" 
d="M1325 1542l-424 -164l-424 164v242l424 -164l424 164v-242zM883 264q185 0 298.5 38.5t178.5 129.5h348q-59 -226 -271.5 -339t-553.5 -113q-140 0 -261 22t-224 70t-175.5 119.5t-113.5 176t-41 234.5q0 163 61 284.5t174 195t262.5 109.5t337.5 36q144 0 263 -20.5
t225.5 -70.5t179.5 -129.5t115.5 -202.5t42.5 -284h-1303q52 -256 457 -256zM901 961q-94 0 -166.5 -10.5t-133.5 -34.5t-102 -67.5t-61 -105.5h916q-22 62 -64 105.5t-102.5 67.5t-130 34.5t-156.5 10.5z" />
    <glyph glyph-name="Gbreve" unicode="&#x11e;" horiz-adv-x="1931" 
d="M967 1571q-81 0 -146.5 11t-126.5 41t-102 78t-65.5 126t-24.5 182h221q0 -120 62.5 -173.5t181.5 -53.5t180 53.5t61 173.5h224q0 -104 -24.5 -182t-65.5 -126t-102 -78t-126.5 -41t-146.5 -11zM954 528v240h910v-768h-273l-16 225q-225 -245 -655 -245q-400 0 -626 192
t-226 545q0 356 235.5 546.5t677.5 190.5q420 0 642.5 -153t240.5 -427h-375q-7 37 -23 70.5t-53 71.5t-90.5 65.5t-141.5 45.5t-200 18q-99 0 -180.5 -15.5t-137 -40.5t-97.5 -61.5t-66.5 -74t-39 -83t-19.5 -83t-5 -78.5q0 -60 10 -114t45 -117t91.5 -108t159 -75.5
t239.5 -30.5q127 0 227.5 25.5t158.5 66t88.5 84.5t33.5 88h-535z" />
    <glyph glyph-name="gbreve" unicode="&#x11f;" horiz-adv-x="1826" 
d="M903 1343q-81 0 -146.5 11t-126.5 41t-102 78.5t-65.5 126.5t-24.5 182h221q0 -120 62.5 -174t181.5 -54t180.5 54t61.5 174h223q0 -104 -24.5 -182t-65.5 -126.5t-102 -78.5t-126.5 -41t-146.5 -11zM1386 1206h353v-1013q0 -145 -38 -262t-107 -199t-167.5 -137
t-217 -81t-257.5 -26q-393 0 -755 96v283q8 -2 66 -13t85.5 -16t88.5 -15.5t105.5 -16.5t103.5 -12.5t116 -9.5t112 -3q267 0 384 106t128 342q-196 -215 -610 -215q-158 0 -285.5 35.5t-223 107.5t-147.5 190t-52 274t52 273.5t147.5 189.5t223 107.5t285.5 35.5
q417 0 610 -215v194zM903 307q249 0 366 74.5t117 239.5q0 164 -116.5 238.5t-366.5 74.5t-367.5 -74.5t-117.5 -238.5t117.5 -239t367.5 -75z" />
    <glyph glyph-name="Gdotaccent" unicode="&#x120;" horiz-adv-x="1931" 
d="M1165 1933v-299h-397v299h397zM954 528v240h910v-768h-273l-16 225q-225 -245 -655 -245q-400 0 -626 192t-226 545q0 356 235.5 546.5t677.5 190.5q420 0 642.5 -153t240.5 -427h-375q-7 37 -23 70.5t-53 71.5t-90.5 65.5t-141.5 45.5t-200 18q-99 0 -180.5 -15.5
t-137 -40.5t-97.5 -61.5t-66.5 -74t-39 -83t-19.5 -83t-5 -78.5q0 -60 10 -114t45 -117t91.5 -108t159 -75.5t239.5 -30.5q127 0 227.5 25.5t158.5 66t88.5 84.5t33.5 88h-535z" />
    <glyph glyph-name="gdotaccent" unicode="&#x121;" horiz-adv-x="1826" 
d="M1102 1706v-299h-397v299h397zM1386 1206h353v-1013q0 -145 -38 -262t-107 -199t-167.5 -137t-217 -81t-257.5 -26q-393 0 -755 96v283q8 -2 66 -13t85.5 -16t88.5 -15.5t105.5 -16.5t103.5 -12.5t116 -9.5t112 -3q267 0 384 106t128 342q-196 -215 -610 -215
q-158 0 -285.5 35.5t-223 107.5t-147.5 190t-52 274t52 273.5t147.5 189.5t223 107.5t285.5 35.5q417 0 610 -215v194zM903 307q249 0 366 74.5t117 239.5q0 164 -116.5 238.5t-366.5 74.5t-367.5 -74.5t-117.5 -238.5t117.5 -239t367.5 -75z" />
    <glyph glyph-name="Gcommaaccent" unicode="&#x122;" horiz-adv-x="1931" 
d="M954 528v240h910v-768h-273l-16 225q-225 -245 -655 -245q-400 0 -626 192t-226 545q0 356 235.5 546.5t677.5 190.5q420 0 642.5 -153t240.5 -427h-375q-7 37 -23 70.5t-53 71.5t-90.5 65.5t-141.5 45.5t-200 18q-99 0 -180.5 -15.5t-137 -40.5t-97.5 -61.5t-66.5 -74
t-39 -83t-19.5 -83t-5 -78.5q0 -60 10 -114t45 -117t91.5 -108t159 -75.5t239.5 -30.5q127 0 227.5 25.5t158.5 66t88.5 84.5t33.5 88h-535zM809 -461v221h315v-221l-163 -225h-152l115 225h-115z" />
    <glyph glyph-name="gcommaaccent" unicode="&#x123;" horiz-adv-x="1826" 
d="M1061 1667v-221h-316v221l164 225h152l-115 -225h115zM1386 1206h353v-1013q0 -145 -38 -262t-107 -199t-167.5 -137t-217 -81t-257.5 -26q-393 0 -755 96v283q8 -2 66 -13t85.5 -16t88.5 -15.5t105.5 -16.5t103.5 -12.5t116 -9.5t112 -3q267 0 384 106t128 342
q-196 -215 -610 -215q-158 0 -285.5 35.5t-223 107.5t-147.5 190t-52 274t52 273.5t147.5 189.5t223 107.5t285.5 35.5q417 0 610 -215v194zM903 307q249 0 366 74.5t117 239.5q0 164 -116.5 238.5t-366.5 74.5t-367.5 -74.5t-117.5 -238.5t117.5 -239t367.5 -75z" />
    <glyph glyph-name="Hbar" unicode="&#x126;" horiz-adv-x="2080" 
d="M2064 1288v-241h-71v-1047h-369v561h-1167v-561h-369v1047h-72v241h72v146h369v-146h1167v146h369v-146h71zM1624 872v175h-1167v-175h1167z" />
    <glyph glyph-name="hbar" unicode="&#x127;" horiz-adv-x="1972" 
d="M1257 1227q102 0 189 -15t169 -54t139.5 -101t93 -161t36.5 -228l-4 -668h-352v535q0 201 -83 295t-292 94q-170 0 -341 -74t-257 -174v-676h-350v1305h-117v241h117v92h350v-92h516v-241h-516v-310q296 232 702 232z" />
    <glyph glyph-name="Imacron" unicode="&#x12a;" horiz-adv-x="544" 
d="M-209 1864h961v-242h-961v242zM457 1434v-1434h-369v1434h369z" />
    <glyph glyph-name="imacron" unicode="&#x12b;" horiz-adv-x="526" 
d="M-217 1636h960v-241h-960v241zM88 1206h350v-1206h-350v1206z" />
    <glyph glyph-name="Iogonek" unicode="&#x12e;" horiz-adv-x="544" 
d="M317 -129q0 -19 6.5 -34t21.5 -25t30 -18t43 -12.5t48 -7t57 -4t58.5 -1.5h63.5v-240q-122 0 -209 5.5t-163 21t-121.5 42t-71 69t-25.5 102.5q0 69 40.5 123t123.5 108h-131v1434h369v-1434h-43q-33 -27 -47 -39t-32 -39t-18 -51z" />
    <glyph glyph-name="iogonek" unicode="&#x12f;" horiz-adv-x="526" 
d="M463 1706v-299h-397v299h397zM295 -129q0 -19 6.5 -34t21.5 -25t30 -18t43 -12.5t48 -7t57 -4t58.5 -1.5h63.5v-240q-122 0 -209 5.5t-163 21t-121.5 42t-71 69t-25.5 102.5q0 69 40.5 123t123.5 108h-109v1206h350v-1206h-47q-32 -26 -46.5 -39t-32 -39t-17.5 -51z" />
    <glyph glyph-name="Idotaccent" unicode="&#x130;" horiz-adv-x="544" 
d="M74 1933h397v-299h-397v299zM457 1434v-1434h-369v1434h369z" />
    <glyph glyph-name="dotlessi" unicode="&#x131;" horiz-adv-x="526" 
d="M88 1206h350v-1206h-350v1206z" />
    <glyph glyph-name="Kcommaaccent" unicode="&#x136;" horiz-adv-x="2105" 
d="M2038 1434l-869 -637l869 -797h-510l-631 596l-440 -322v-274h-369v1434h369v-744l1022 744h559zM905 -461v221h316v-221l-164 -225h-152l115 225h-115z" />
    <glyph glyph-name="kcommaaccent" unicode="&#x137;" horiz-adv-x="1982" 
d="M1915 1206l-782 -493l782 -713h-488l-577 526l-412 -247v-279h-350v1638h350v-974l879 542h598zM741 -461v221h316v-221l-164 -225h-152l115 225h-115z" />
    <glyph glyph-name="Lacute" unicode="&#x139;" horiz-adv-x="1630" 
d="M885 2007v-242l-797 -163v241zM457 309h1106v-309h-1475v1434h369v-1125z" />
    <glyph glyph-name="lacute" unicode="&#x13a;" horiz-adv-x="526" 
d="M-135 2048l797 164v-242l-797 -164v242zM88 1638h350v-1638h-350v1638z" />
    <glyph glyph-name="Lcommaaccent" unicode="&#x13b;" horiz-adv-x="1630" 
d="M457 309h1106v-309h-1475v1434h369v-1125zM668 -461v221h315v-221l-164 -225h-151l114 225h-114z" />
    <glyph glyph-name="lcommaaccent" unicode="&#x13c;" horiz-adv-x="526" 
d="M88 1638h350v-1638h-350v1638zM106 -240h316v-221l-164 -225h-152l115 225h-115v221z" />
    <glyph glyph-name="Lcaron" unicode="&#x13d;" horiz-adv-x="1630" 
d="M911 1769l-424 -163l-424 163v242l424 -164l424 164v-242zM457 309h1106v-309h-1475v1434h369v-1125z" />
    <glyph glyph-name="lcaron" unicode="&#x13e;" horiz-adv-x="526" 
d="M264 2052l424 164v-242l-424 -164l-424 164v242zM88 0v1638h350v-1638h-350z" />
    <glyph glyph-name="Lslash" unicode="&#x141;" horiz-adv-x="1820" 
d="M627 309h1106v-309h-1475v512l-170 -70v299l170 70v623h369v-471l530 219v-299l-530 -219v-355z" />
    <glyph glyph-name="lslash" unicode="&#x142;" horiz-adv-x="1245" 
d="M1157 1272v-299l-383 -158v-815h-350v672l-336 -140v299l336 140v667h350v-524z" />
    <glyph glyph-name="Nacute" unicode="&#x143;" horiz-adv-x="2023" 
d="M1409 2007v-242l-797 -163v241zM1567 1434h368v-1434h-501l-977 1075v-1075h-369v1434h500l979 -1078v1078z" />
    <glyph glyph-name="nacute" unicode="&#x144;" horiz-adv-x="1853" 
d="M1405 1780v-242l-797 -164v242zM1141 1227q102 0 188.5 -15t169 -54t140 -101t92.5 -161t36 -228l-4 -668h-352v535q0 201 -83 295t-292 94q-170 0 -341 -74t-257 -174v-676h-350v1206h350v-211q296 232 703 232z" />
    <glyph glyph-name="Ncommaaccent" unicode="&#x145;" horiz-adv-x="2023" 
d="M1567 1434h368v-1434h-501l-977 1075v-1075h-369v1434h500l979 -1078v1078zM854 -461v221h315v-221l-163 -225h-152l115 225h-115z" />
    <glyph glyph-name="ncommaaccent" unicode="&#x146;" horiz-adv-x="1853" 
d="M1141 1227q102 0 188.5 -15t169 -54t140 -101t92.5 -161t36 -228l-4 -668h-352v535q0 201 -83 295t-292 94q-170 0 -341 -74t-257 -174v-676h-350v1206h350v-211q296 232 703 232zM768 -461v221h315v-221l-163 -225h-152l115 225h-115z" />
    <glyph glyph-name="Ncaron" unicode="&#x147;" horiz-adv-x="2023" 
d="M1436 1769l-424 -163l-424 163v242l424 -164l424 164v-242zM1567 1434h368v-1434h-501l-977 1075v-1075h-369v1434h500l979 -1078v1078z" />
    <glyph glyph-name="ncaron" unicode="&#x148;" horiz-adv-x="1853" 
d="M1432 1542l-424 -164l-424 164v242l424 -164l424 164v-242zM1141 1227q102 0 188.5 -15t169 -54t140 -101t92.5 -161t36 -228l-4 -668h-352v535q0 201 -83 295t-292 94q-170 0 -341 -74t-257 -174v-676h-350v1206h350v-211q296 232 703 232z" />
    <glyph glyph-name="Eng" unicode="&#x14a;" horiz-adv-x="2023" 
d="M1567 1434h368v-1434q0 -272 -137.5 -412.5t-431.5 -140.5q-189 0 -362 43v283q65 -13 95 -18t85 -10t121 -5q80 0 132.5 17t80.5 52.5t38.5 80t10.5 110.5h-133l-977 1075v-1075h-369v1434h500l979 -1078v1078z" />
    <glyph glyph-name="eng" unicode="&#x14b;" horiz-adv-x="1853" 
d="M1141 1227q102 0 188.5 -15t169 -54t140 -101t92.5 -161t36 -228l-4 -668q0 -269 -136 -399.5t-433 -130.5q-188 0 -363 30v273q175 -21 232 -21q78 0 131 6t97 21t69 43.5t38 71.5t13 106v535q0 201 -83 295t-292 94q-170 0 -341 -74t-257 -174v-676h-350v1206h350v-211
q296 232 703 232z" />
    <glyph glyph-name="Omacron" unicode="&#x14c;" horiz-adv-x="1937" 
d="M487 1864h961v-242h-961v242zM969 -20q-464 0 -682.5 186.5t-218.5 552.5q0 364 218.5 549.5t682.5 185.5q463 0 682 -186.5t219 -548.5q0 -364 -219 -551.5t-682 -187.5zM969 289q283 0 407.5 103.5t124.5 326.5q0 222 -123.5 324t-408.5 102t-409 -101.5t-124 -324.5
q0 -224 124.5 -327t408.5 -103z" />
    <glyph glyph-name="omacron" unicode="&#x14d;" horiz-adv-x="1806" 
d="M422 1636h960v-241h-960v241zM903 -20q-153 0 -279.5 22t-230.5 70t-175.5 120t-110.5 176t-39 234q0 131 39 235t110.5 177t175.5 121t230.5 70t279.5 22q191 0 341.5 -36t262.5 -109.5t172 -195t60 -284.5q0 -162 -60 -283t-172 -194.5t-262.5 -109t-341.5 -35.5z
M903 272q251 0 367 74t116 256q0 183 -115.5 257.5t-367.5 74.5q-253 0 -369 -74t-116 -258q0 -182 116 -256t369 -74z" />
    <glyph glyph-name="Ohungarumlaut" unicode="&#x150;" horiz-adv-x="1937" 
d="M483 1868l424 164v-250l-424 -164v250zM1030 1868l424 164v-250l-424 -164v250zM969 -20q-464 0 -682.5 186.5t-218.5 552.5q0 364 218.5 549.5t682.5 185.5q463 0 682 -186.5t219 -548.5q0 -364 -219 -551.5t-682 -187.5zM969 289q283 0 407.5 103.5t124.5 326.5
q0 222 -123.5 324t-408.5 102t-409 -101.5t-124 -324.5q0 -224 124.5 -327t408.5 -103z" />
    <glyph glyph-name="ohungarumlaut" unicode="&#x151;" horiz-adv-x="1806" 
d="M418 1640l424 164v-250l-424 -163v249zM965 1640l424 164v-250l-424 -163v249zM903 -20q-153 0 -279.5 22t-230.5 70t-175.5 120t-110.5 176t-39 234q0 131 39 235t110.5 177t175.5 121t230.5 70t279.5 22q191 0 341.5 -36t262.5 -109.5t172 -195t60 -284.5
q0 -162 -60 -283t-172 -194.5t-262.5 -109t-341.5 -35.5zM903 272q251 0 367 74t116 256q0 183 -115.5 257.5t-367.5 74.5q-253 0 -369 -74t-116 -258q0 -182 116 -256t369 -74z" />
    <glyph glyph-name="OE" unicode="&#x152;" horiz-adv-x="3184" 
d="M3117 1141h-1147v-291h1147v-266h-1147v-291h1147v-293h-1515v131q-219 -151 -633 -151q-464 0 -682.5 186.5t-218.5 552.5q0 364 218.5 549.5t682.5 185.5q413 0 633 -149v129h1515v-293zM969 289q283 0 407.5 103.5t124.5 326.5q0 222 -123.5 324t-408.5 102
t-409 -101.5t-124 -324.5q0 -224 124.5 -327t408.5 -103z" />
    <glyph glyph-name="oe" unicode="&#x153;" horiz-adv-x="3160" 
d="M2247 264q185 0 298.5 38.5t178.5 129.5h348q-59 -226 -271.5 -339t-553.5 -113q-212 0 -382.5 52t-277.5 158q-210 -210 -684 -210q-153 0 -279.5 22t-230.5 70t-175.5 120t-110.5 176t-39 234q0 131 39 235t110.5 177t175.5 121t230.5 70t279.5 22q476 0 684 -211
q208 211 680 211q144 0 262.5 -20.5t225.5 -70.5t179.5 -129.5t115 -202.5t42.5 -284h-1302q52 -256 457 -256zM2265 961q-94 0 -166.5 -10.5t-133.5 -34.5t-102 -67.5t-61 -105.5h916q-22 62 -64 105.5t-102.5 67.5t-130 34.5t-156.5 10.5zM903 272q251 0 367 74t116 256
q0 183 -115.5 257.5t-367.5 74.5q-253 0 -369 -74t-116 -258q0 -182 116 -256t369 -74z" />
    <glyph glyph-name="Racute" unicode="&#x154;" horiz-adv-x="1830" 
d="M1276 2007v-242l-797 -163v241zM1763 907q0 -173 -82.5 -298t-228.5 -183l264 -426h-434l-231 383h-594v-383h-369v1434h1126q246 0 397.5 -144.5t151.5 -382.5zM457 1124v-432h655q33 0 51.5 0.5t52.5 4.5t54.5 11.5t47 23.5t41.5 38.5t25.5 57t10.5 79.5q0 40 -7 72
t-22 54t-30.5 38t-41 26t-44 15.5t-48.5 8t-45.5 3t-44.5 0.5h-655z" />
    <glyph glyph-name="racute" unicode="&#x155;" horiz-adv-x="1449" 
d="M1133 1780v-242l-797 -164v242zM1057 1227q157 0 325 -41v-293q-163 41 -309 41q-364 0 -635 -211v-723h-350v1206h350v-205q251 226 619 226z" />
    <glyph glyph-name="Rcommaaccent" unicode="&#x156;" horiz-adv-x="1830" 
d="M1763 907q0 -173 -82.5 -298t-228.5 -183l264 -426h-434l-231 383h-594v-383h-369v1434h1126q246 0 397.5 -144.5t151.5 -382.5zM457 1124v-432h655q33 0 51.5 0.5t52.5 4.5t54.5 11.5t47 23.5t41.5 38.5t25.5 57t10.5 79.5q0 40 -7 72t-22 54t-30.5 38t-41 26t-44 15.5
t-48.5 8t-45.5 3t-44.5 0.5h-655zM721 -461v221h315v-221l-164 -225h-151l115 225h-115z" />
    <glyph glyph-name="rcommaaccent" unicode="&#x157;" horiz-adv-x="1449" 
d="M1057 1227q157 0 325 -41v-293q-163 41 -309 41q-364 0 -635 -211v-723h-350v1206h350v-205q251 226 619 226zM106 -461v221h316v-221l-164 -225h-152l115 225h-115z" />
    <glyph glyph-name="Rcaron" unicode="&#x158;" horiz-adv-x="1830" 
d="M1303 1769l-424 -163l-424 163v242l424 -164l424 164v-242zM1763 907q0 -173 -82.5 -298t-228.5 -183l264 -426h-434l-231 383h-594v-383h-369v1434h1126q246 0 397.5 -144.5t151.5 -382.5zM457 1124v-432h655q33 0 51.5 0.5t52.5 4.5t54.5 11.5t47 23.5t41.5 38.5
t25.5 57t10.5 79.5q0 40 -7 72t-22 54t-30.5 38t-41 26t-44 15.5t-48.5 8t-45.5 3t-44.5 0.5h-655z" />
    <glyph glyph-name="rcaron" unicode="&#x159;" horiz-adv-x="1449" 
d="M1159 1542l-424 -164l-424 164v242l424 -164l424 164v-242zM1057 1227q157 0 325 -41v-293q-163 41 -309 41q-364 0 -635 -211v-723h-350v1206h350v-205q251 226 619 226z" />
    <glyph glyph-name="Sacute" unicode="&#x15a;" horiz-adv-x="1966" 
d="M584 1843l796 164v-242l-796 -163v241zM68 494h368q0 -80 49.5 -126.5t179.5 -71t361 -24.5q194 0 303.5 16t155 49t45.5 91q0 31 -7.5 51.5t-32 38t-59 27.5t-101 19t-144.5 14.5t-203 11.5q-194 9 -331.5 27t-244.5 50.5t-170 82.5t-94.5 120.5t-31.5 167.5
q0 116 57.5 197.5t171.5 129t267 68.5t362 21q208 0 365 -27t271 -84.5t173 -152t59 -225.5h-369q0 115 -121 155.5t-419 40.5q-182 0 -278.5 -13.5t-133.5 -43t-37 -84.5q0 -29 7.5 -48.5t31 -35.5t56 -26t94 -19t132.5 -14.5t183 -12.5q145 -8 230.5 -14.5t196 -20
t173 -31.5t131.5 -49t103.5 -72.5t57.5 -100.5t23 -136q0 -94 -28.5 -167t-86 -123t-132 -83.5t-179.5 -52.5t-215 -26.5t-251 -7.5q-154 0 -274.5 9.5t-229.5 31.5t-186.5 60.5t-134.5 95t-85 136t-28 181.5z" />
    <glyph glyph-name="sacute" unicode="&#x15b;" horiz-adv-x="1802" 
d="M502 1616l796 164v-242l-796 -164v242zM68 424h350q0 -98 116.5 -138t407.5 -40q192 0 284.5 11t124 34.5t31.5 73.5q0 67 -75.5 85t-405.5 39q-126 7 -211.5 14.5t-176 20t-147 29.5t-110 43.5t-82.5 62t-46 83.5t-17 110q0 77 28.5 137t83.5 100.5t125 68t164 42.5
t188 21t209 6q104 0 187.5 -4t167 -15.5t146 -30t118 -48.5t91 -70.5t55.5 -96.5t20 -126h-353q0 73 -100 99t-352 26q-167 0 -259 -9.5t-129.5 -29.5t-37.5 -56q0 -30 13.5 -46t72.5 -29.5t140 -21.5t253 -21q318 -24 421 -41q222 -36 305 -128q67 -75 67 -200
q0 -84 -24 -147.5t-73.5 -107t-113 -72.5t-155.5 -44.5t-186.5 -21.5t-219.5 -6q-108 0 -196.5 4.5t-183.5 16.5t-168 32.5t-140.5 54.5t-111 79.5t-69.5 110.5t-26 146z" />
    <glyph glyph-name="Scedilla" unicode="&#x15e;" horiz-adv-x="1966" 
d="M1898 440q0 -106 -38 -185t-104 -129.5t-169 -82.5t-219 -46t-268 -17l-25 -76q52 16 109.5 21.5t117 -3t98 -49.5t38.5 -111q0 -68 -37.5 -117.5t-99.5 -77t-146.5 -40.5t-175 -11.5t-188.5 13.5v174q201 -26 292 -4.5t91 82.5q0 39 -46.5 47t-166.5 -18l-121 118l20 54
q-156 5 -275 23t-219 55t-164 94.5t-99 142.5t-35 197h368q0 -80 49.5 -126.5t179.5 -71t361 -24.5q194 0 303.5 16t155 49t45.5 91q0 31 -7.5 51.5t-32 38t-59 27.5t-101 19t-144.5 14.5t-203 11.5q-194 9 -331.5 27t-244.5 50.5t-170 82.5t-94.5 120.5t-31.5 167.5
q0 116 57.5 197.5t171.5 129t267 68.5t362 21q208 0 365 -27t271 -84.5t173 -152t59 -225.5h-369q0 115 -121 155.5t-419 40.5q-182 0 -278.5 -13.5t-133.5 -43t-37 -84.5q0 -29 7.5 -48.5t31 -35.5t56 -26t94 -19t132.5 -14.5t183 -12.5q145 -8 230.5 -14.5t196 -20
t173 -31.5t131.5 -49t103.5 -72.5t57.5 -100.5t23 -136z" />
    <glyph glyph-name="scedilla" unicode="&#x15f;" horiz-adv-x="1802" 
d="M1735 379q0 -96 -34 -166t-92.5 -113.5t-152 -70t-196 -37t-242.5 -12.5l-25 -76q52 16 109.5 21.5t117 -3t98 -49.5t38.5 -111q0 -68 -37.5 -117.5t-99.5 -77t-146.5 -40.5t-175 -11.5t-188.5 13.5v174q201 -26 292 -4.5t91 82.5q0 39 -46.5 47t-166.5 -18l-121 118
l22 56q-103 5 -188.5 16t-168.5 31.5t-145.5 54t-111 79.5t-73.5 111.5t-25 147.5h350q0 -98 116.5 -138t407.5 -40q192 0 284.5 11t124 34.5t31.5 73.5q0 67 -75.5 85t-405.5 39q-126 7 -211.5 14.5t-176 20t-147 29.5t-110 43.5t-82.5 62t-46 83.5t-17 110q0 77 28.5 137
t83.5 100.5t125 68t164 42.5t188 21t209 6q104 0 187.5 -4t167 -15.5t146 -30t118 -48.5t91 -70.5t55.5 -96.5t20 -126h-353q0 73 -100 99t-352 26q-167 0 -259 -9.5t-129.5 -29.5t-37.5 -56q0 -30 13.5 -46t72.5 -29.5t140 -21.5t253 -21q318 -24 421 -41q222 -36 305 -128
q67 -75 67 -200z" />
    <glyph glyph-name="Scaron" unicode="&#x160;" horiz-adv-x="1966" 
d="M1407 1769l-424 -163l-424 163v242l424 -164l424 164v-242zM983 864q145 -8 230.5 -14.5t196 -20t173 -31.5t131.5 -49t103.5 -72.5t57.5 -100.5t23 -136q0 -94 -28.5 -167t-86 -123t-132 -83.5t-179.5 -52.5t-215 -26.5t-251 -7.5q-154 0 -274.5 9.5t-229.5 31.5
t-186.5 60.5t-134.5 95t-85 136t-28 181.5h368q0 -80 49.5 -126.5t179.5 -71t361 -24.5q194 0 303.5 16t155 49t45.5 91q0 31 -7.5 51.5t-32 38t-59 27.5t-101 19t-144.5 14.5t-203 11.5q-194 9 -331.5 27t-244.5 50.5t-170 82.5t-94.5 120.5t-31.5 167.5q0 116 57.5 197.5
t171.5 129t267 68.5t362 21q208 0 365 -27t271 -84.5t173 -152t59 -225.5h-369q0 115 -121 155.5t-419 40.5q-182 0 -278.5 -13.5t-133.5 -43t-37 -84.5q0 -29 7.5 -48.5t31 -35.5t56 -26t94 -19t132.5 -14.5t183 -12.5z" />
    <glyph glyph-name="scaron" unicode="&#x161;" horiz-adv-x="1802" 
d="M1325 1542l-424 -164l-424 164v242l424 -164l424 164v-242zM942 748q318 -24 421 -41q222 -36 305 -128q67 -75 67 -200q0 -84 -24 -147.5t-73.5 -107t-113 -72.5t-155.5 -44.5t-186.5 -21.5t-219.5 -6q-108 0 -196.5 4.5t-183.5 16.5t-168 32.5t-140.5 54.5t-111 79.5
t-69.5 110.5t-26 146h350q0 -98 116.5 -138t407.5 -40q192 0 284.5 11t124 34.5t31.5 73.5q0 67 -75.5 85t-405.5 39q-126 7 -211.5 14.5t-176 20t-147 29.5t-110 43.5t-82.5 62t-46 83.5t-17 110q0 77 28.5 137t83.5 100.5t125 68t164 42.5t188 21t209 6q104 0 187.5 -4
t167 -15.5t146 -30t118 -48.5t91 -70.5t55.5 -96.5t20 -126h-353q0 73 -100 99t-352 26q-167 0 -259 -9.5t-129.5 -29.5t-37.5 -56q0 -30 13.5 -46t72.5 -29.5t140 -21.5t253 -21z" />
    <glyph glyph-name="uni0162" unicode="&#x162;" horiz-adv-x="1896" 
d="M1133 0h-62l-31 -96q52 16 109.5 21.5t117 -3t98 -49.5t38.5 -111q0 -68 -37.5 -117.5t-99.5 -77t-146.5 -40.5t-175 -11.5t-188.5 13.5v174q201 -26 292 -4.5t91 82.5q0 39 -46.5 47t-166.5 -18l-121 118l29 72h-70v1124h-696v310h1761v-310h-696v-1124z" />
    <glyph glyph-name="uni0163" unicode="&#x163;" horiz-adv-x="1376" 
d="M1309 913h-572v-348q0 -91 10 -144.5t39.5 -88.5t78 -47.5t130.5 -12.5q166 0 314 21v-283q-147 -24 -340 -30l-25 -76q52 16 109.5 21.5t117 -3t98 -49.5t38.5 -111q0 -68 -37.5 -117.5t-99.5 -77t-147 -40.5t-175.5 -11.5t-188.5 13.5v174q201 -26 292 -4.5t91 82.5
q0 39 -46.5 47t-166.5 -18l-120 118l24 64q-167 29 -257.5 120.5t-90.5 249.5v551h-317v293h317v250l352 100v-350h572v-293z" />
    <glyph glyph-name="Tcaron" unicode="&#x164;" horiz-adv-x="1896" 
d="M1372 1769l-424 -163l-424 163v242l424 -164l424 164v-242zM1829 1434v-310h-696v-1124h-369v1124h-696v310h1761z" />
    <glyph glyph-name="tcaron" unicode="&#x165;" horiz-adv-x="1376" 
d="M985 1851l-424 -163l-424 163v242l424 -164l424 164v-242zM1309 913h-572v-348q0 -91 10 -144.5t39.5 -88.5t78 -47.5t130.5 -12.5q166 0 314 21v-283q-175 -30 -412 -30q-242 0 -377 94.5t-135 287.5v551h-317v293h317v250l352 100v-350h572v-293z" />
    <glyph glyph-name="Tbar" unicode="&#x166;" horiz-adv-x="1896" 
d="M1829 1124h-696v-409h288v-242h-288v-473h-369v473h-326v242h326v409h-696v310h1761v-310z" />
    <glyph glyph-name="tbar" unicode="&#x167;" horiz-adv-x="1376" 
d="M1309 913h-572v-178h424v-241h-422q7 -130 60.5 -176t195.5 -46q166 0 314 21v-283q-175 -30 -412 -30q-242 0 -377 94.5t-135 287.5v132h-207v241h207v178h-317v293h317v250l352 100v-350h572v-293z" />
    <glyph glyph-name="Umacron" unicode="&#x16a;" horiz-adv-x="1978" 
d="M508 1864h960v-242h-960v242zM1890 719q0 -377 -216.5 -558t-684.5 -181q-469 0 -685 180.5t-216 558.5v715h369v-715q0 -48 4 -87.5t18 -85.5t37 -81t63.5 -69.5t95 -57t135 -36t179.5 -13.5t179.5 14t135 36.5t95 56.5t64 69.5t37 81.5t18 85t4.5 87v715h368v-715z" />
    <glyph glyph-name="umacron" unicode="&#x16b;" horiz-adv-x="1853" 
d="M1405 1636v-241h-961v241h961zM1415 1206h350v-1206h-350v211q-294 -231 -702 -231q-102 0 -189 15t-169 54t-139.5 101t-93 161t-36.5 228l4 667h352v-534q0 -201 83 -295t292 -94q171 0 342 73.5t256 173.5v676z" />
    <glyph glyph-name="Uring" unicode="&#x16e;" horiz-adv-x="1978" 
d="M989 1579q-232 0 -331 68t-99 202t99 202.5t331 68.5q230 0 330 -68.5t100 -202.5t-100 -202t-330 -68zM989 1741q105 0 156 24.5t51 83.5t-51.5 84t-155.5 25q-105 0 -157 -25t-52 -84t52 -83.5t157 -24.5zM1890 719q0 -377 -216.5 -558t-684.5 -181q-469 0 -685 180.5
t-216 558.5v715h369v-715q0 -48 4 -87.5t18 -85.5t37 -81t63.5 -69.5t95 -57t135 -36t179.5 -13.5t179.5 14t135 36.5t95 56.5t64 69.5t37 81.5t18 85t4.5 87v715h368v-715z" />
    <glyph glyph-name="uring" unicode="&#x16f;" horiz-adv-x="1853" 
d="M926 1352q-232 0 -331 68t-99 202t99 202t331 68q230 0 330 -68t100 -202t-100 -202t-330 -68zM926 1731q-105 0 -157 -25t-52 -84t52 -84t157 -25q104 0 155.5 25t51.5 84t-51.5 84t-155.5 25zM1415 1206h350v-1206h-350v211q-294 -231 -702 -231q-102 0 -189 15
t-169 54t-139.5 101t-93 161t-36.5 228l4 667h352v-534q0 -201 83 -295t292 -94q171 0 342 73.5t256 173.5v676z" />
    <glyph glyph-name="Uhungarumlaut" unicode="&#x170;" horiz-adv-x="1978" 
d="M504 1868l424 164v-250l-424 -164v250zM1051 1868l424 164v-250l-424 -164v250zM1890 719q0 -377 -216.5 -558t-684.5 -181q-469 0 -685 180.5t-216 558.5v715h369v-715q0 -48 4 -87.5t18 -85.5t37 -81t63.5 -69.5t95 -57t135 -36t179.5 -13.5t179.5 14t135 36.5t95 56.5
t64 69.5t37 81.5t18 85t4.5 87v715h368v-715z" />
    <glyph glyph-name="uhungarumlaut" unicode="&#x171;" horiz-adv-x="1853" 
d="M864 1804v-250l-424 -163v249zM1411 1804v-250l-424 -163v249zM1415 1206h350v-1206h-350v211q-294 -231 -702 -231q-102 0 -189 15t-169 54t-139.5 101t-93 161t-36.5 228l4 667h352v-534q0 -201 83 -295t292 -94q171 0 342 73.5t256 173.5v676z" />
    <glyph glyph-name="Uogonek" unicode="&#x172;" horiz-adv-x="1978" 
d="M1522 1434h368v-715q0 -320 -154.5 -498t-482.5 -225q-27 -21 -44 -36.5t-32.5 -40t-15.5 -48.5q0 -19 6.5 -34t21.5 -25t30 -18t43 -12.5t48 -7t57 -4t58.5 -1.5h63.5v-240q-122 0 -209 5.5t-163 21t-121.5 42t-71 69t-25.5 102.5q0 62 34 112.5t101 98.5h-45
q-469 0 -685 180.5t-216 558.5v715h369v-715q0 -48 4 -87.5t18 -85.5t37 -81t63.5 -69.5t95 -57t135 -36t179.5 -13.5t179.5 14t135 36.5t95 56.5t64 69.5t37 81.5t18 85t4.5 87v715z" />
    <glyph glyph-name="uogonek" unicode="&#x173;" horiz-adv-x="1853" 
d="M1550 -129q0 -19 6.5 -34t21.5 -25t30 -18t43 -12.5t48 -7t57 -4t58.5 -1.5h63.5v-240q-122 0 -209 5.5t-163 21t-121.5 42t-71 69t-25.5 102.5q0 69 40.5 123t123.5 108h-37v211q-294 -231 -702 -231q-102 0 -189 15t-169 54t-139.5 101t-93 161t-36.5 228l4 667h352
v-534q0 -201 83 -295t292 -94q171 0 342 73.5t256 173.5v676h350v-1206h-118q-33 -27 -47 -39t-32 -39t-18 -51z" />
    <glyph glyph-name="Wcircumflex" unicode="&#x174;" horiz-adv-x="3129" 
d="M1989 1602l-424 163l-424 -163v241l424 164l424 -164v-241zM2662 1434h400l-565 -1434h-510l-422 1079l-424 -1079h-508l-565 1434h397l424 -1127l448 1127h453l451 -1129z" />
    <glyph glyph-name="wcircumflex" unicode="&#x175;" horiz-adv-x="2863" 
d="M1855 1374l-423 164l-424 -164v242l424 164l423 -164v-242zM2404 1206h392l-543 -1206h-467l-354 840l-355 -840h-467l-542 1206h391l395 -932l369 932h417l369 -930z" />
    <glyph glyph-name="Ycircumflex" unicode="&#x176;" horiz-adv-x="2125" 
d="M1487 1602l-424 163l-424 -163v241l424 164l424 -164v-241zM1614 1434h444l-811 -963v-471h-368v471l-811 963h444l551 -654z" />
    <glyph glyph-name="ycircumflex" unicode="&#x177;" horiz-adv-x="1898" 
d="M1374 1374l-424 164l-424 -164v242l424 164l424 -164v-242zM1444 1206h387l-815 -1718h-387l243 512h-180l-624 1206h389l516 -995z" />
    <glyph glyph-name="Ydieresis" unicode="&#x178;" horiz-adv-x="2125" 
d="M616 1933h363v-299h-363v299zM1149 1933h362v-299h-362v299zM879 471l-811 963h444l551 -654l551 654h444l-811 -963v-471h-368v471z" />
    <glyph glyph-name="Zacute" unicode="&#x179;" horiz-adv-x="1794" 
d="M1294 2007v-242l-796 -163v241zM1706 1434v-310l-1090 -815h1090v-309h-1618v309l1088 815h-1088v310h1618z" />
    <glyph glyph-name="zacute" unicode="&#x17a;" horiz-adv-x="1597" 
d="M1196 1780v-242l-797 -164v242zM1509 1206v-293l-903 -620h903v-293h-1421v293l903 620h-903v293h1421z" />
    <glyph glyph-name="Zdotaccent" unicode="&#x17b;" horiz-adv-x="1794" 
d="M1096 1933v-299h-398v299h398zM1706 1434v-310l-1090 -815h1090v-309h-1618v309l1088 815h-1088v310h1618z" />
    <glyph glyph-name="zdotaccent" unicode="&#x17c;" horiz-adv-x="1597" 
d="M997 1706v-299h-397v299h397zM1509 1206v-293l-903 -620h903v-293h-1421v293l903 620h-903v293h1421z" />
    <glyph glyph-name="Zcaron" unicode="&#x17d;" horiz-adv-x="1794" 
d="M1321 1769l-424 -163l-424 163v242l424 -164l424 164v-242zM1706 1434v-310l-1090 -815h1090v-309h-1618v309l1088 815h-1088v310h1618z" />
    <glyph glyph-name="zcaron" unicode="&#x17e;" horiz-adv-x="1597" 
d="M1223 1542l-424 -164l-424 164v242l424 -164l424 164v-242zM1509 1206v-293l-903 -620h903v-293h-1421v293l903 620h-903v293h1421z" />
    <glyph glyph-name="Scommaaccent" unicode="&#x218;" horiz-adv-x="1966" 
d="M68 494h368q0 -80 49.5 -126.5t179.5 -71t361 -24.5q194 0 303.5 16t155 49t45.5 91q0 31 -7.5 51.5t-32 38t-59 27.5t-101 19t-144.5 14.5t-203 11.5q-194 9 -331.5 27t-244.5 50.5t-170 82.5t-94.5 120.5t-31.5 167.5q0 116 57.5 197.5t171.5 129t267 68.5t362 21
q208 0 365 -27t271 -84.5t173 -152t59 -225.5h-369q0 115 -121 155.5t-419 40.5q-182 0 -278.5 -13.5t-133.5 -43t-37 -84.5q0 -29 7.5 -48.5t31 -35.5t56 -26t94 -19t132.5 -14.5t183 -12.5q145 -8 230.5 -14.5t196 -20t173 -31.5t131.5 -49t103.5 -72.5t57.5 -100.5
t23 -136q0 -94 -28.5 -167t-86 -123t-132 -83.5t-179.5 -52.5t-215 -26.5t-251 -7.5q-154 0 -274.5 9.5t-229.5 31.5t-186.5 60.5t-134.5 95t-85 136t-28 181.5zM825 -240h316v-221l-164 -225h-152l115 225h-115v221z" />
    <glyph glyph-name="scommaaccent" unicode="&#x219;" horiz-adv-x="1802" 
d="M68 424h350q0 -98 116.5 -138t407.5 -40q192 0 284.5 11t124 34.5t31.5 73.5q0 67 -75.5 85t-405.5 39q-126 7 -211.5 14.5t-176 20t-147 29.5t-110 43.5t-82.5 62t-46 83.5t-17 110q0 77 28.5 137t83.5 100.5t125 68t164 42.5t188 21t209 6q104 0 187.5 -4t167 -15.5
t146 -30t118 -48.5t91 -70.5t55.5 -96.5t20 -126h-353q0 73 -100 99t-352 26q-167 0 -259 -9.5t-129.5 -29.5t-37.5 -56q0 -30 13.5 -46t72.5 -29.5t140 -21.5t253 -21q318 -24 421 -41q222 -36 305 -128q67 -75 67 -200q0 -84 -24 -147.5t-73.5 -107t-113 -72.5
t-155.5 -44.5t-186.5 -21.5t-219.5 -6q-108 0 -196.5 4.5t-183.5 16.5t-168 32.5t-140.5 54.5t-111 79.5t-69.5 110.5t-26 146zM743 -240h316v-221l-164 -225h-152l115 225h-115v221z" />
    <glyph glyph-name="uni021A" unicode="&#x21a;" horiz-adv-x="1896" 
d="M1829 1434v-310h-696v-1124h-369v1124h-696v310h1761zM791 -461v221h315v-221l-164 -225h-151l114 225h-114z" />
    <glyph glyph-name="uni021B" unicode="&#x21b;" horiz-adv-x="1376" 
d="M1309 913h-572v-348q0 -91 10 -144.5t39.5 -88.5t78 -47.5t130.5 -12.5q166 0 314 21v-283q-175 -30 -412 -30q-242 0 -377 94.5t-135 287.5v551h-317v293h317v250l352 100v-350h572v-293zM694 -461v221h316v-221l-164 -225h-152l115 225h-115z" />
    <glyph glyph-name="circumflex" unicode="&#x2c6;" horiz-adv-x="1105" 
d="M553 1780l424 -164v-242l-424 164l-424 -164v242z" />
    <glyph glyph-name="caron" unicode="&#x2c7;" horiz-adv-x="1105" 
d="M553 1620l424 164v-242l-424 -164l-424 164v242z" />
    <glyph glyph-name="breve" unicode="&#x2d8;" horiz-adv-x="1187" 
d="M129 1782h221q0 -120 62.5 -174t181.5 -54t180.5 54t61.5 174h223q0 -104 -24.5 -182t-65.5 -126.5t-102 -78.5t-126.5 -41t-146.5 -11t-146.5 11t-126.5 41t-102 78.5t-65.5 126.5t-24.5 182z" />
    <glyph glyph-name="dotaccent" unicode="&#x2d9;" horiz-adv-x="655" 
d="M129 1706h397v-299h-397v299z" />
    <glyph glyph-name="ring" unicode="&#x2da;" horiz-adv-x="1118" 
d="M559 1352q-232 0 -331 68t-99 202t99 202t331 68q230 0 330 -68t100 -202t-100 -202t-330 -68zM559 1513q104 0 155.5 25t51.5 84t-51.5 84t-155.5 25q-105 0 -157 -25t-52 -84t52 -84t157 -25z" />
    <glyph glyph-name="ogonek" unicode="&#x2db;" horiz-adv-x="847" 
d="M719 -231v-240q-122 0 -209 5.5t-163 21t-121.5 42t-71 69t-25.5 102.5q0 69 40.5 123t123.5 108h194q-32 -26 -46.5 -39t-32 -39t-17.5 -51q0 -19 6.5 -34t21.5 -25t30 -18t43 -12.5t48 -7t57 -4t58.5 -1.5h63.5z" />
    <glyph glyph-name="tilde" unicode="&#x2dc;" horiz-adv-x="1445" 
d="M129 1372q0 88 18.5 163.5t55.5 136t100.5 95.5t147.5 35q64 0 119.5 -21t94 -50.5t74.5 -59.5t77.5 -51t86.5 -21q63 0 89 45.5t26 137.5h299q0 -88 -18.5 -163.5t-56 -136t-101 -95.5t-146.5 -35q-65 0 -121 21t-95 50.5t-74.5 59t-77 50.5t-86.5 21q-62 0 -87.5 -45
t-25.5 -137h-299z" />
    <glyph glyph-name="hungarumlaut" unicode="&#x2dd;" horiz-adv-x="1228" 
d="M129 1640l424 164v-250l-424 -163v249zM676 1640l424 164v-250l-424 -163v249z" />
    <glyph glyph-name="gravecomb" unicode="&#x300;" 
d="M-129 1616v-242l-797 164v242z" />
    <glyph glyph-name="acutecomb" unicode="&#x301;" 
d="M-926 1616l797 164v-242l-797 -164v242z" />
    <glyph glyph-name="uni0302" unicode="&#x302;" 
d="M-553 1780l424 -164v-242l-424 164l-424 -164v242z" />
    <glyph glyph-name="tildecomb" unicode="&#x303;" 
d="M-1317 1372q0 88 18.5 163.5t55.5 136t100.5 95.5t147.5 35q64 0 119.5 -21t94 -50.5t74.5 -59.5t77.5 -51t86.5 -21q63 0 89 45.5t26 137.5h299q0 -88 -18.5 -163.5t-56 -136t-101 -95.5t-146.5 -35q-65 0 -121 21t-95 50.5t-74.5 59t-77 50.5t-86.5 21q-62 0 -87.5 -45
t-25.5 -137h-299z" />
    <glyph glyph-name="uni0304" unicode="&#x304;" 
d="M-1090 1636h961v-241h-961v241z" />
    <glyph glyph-name="uni0306" unicode="&#x306;" 
d="M-1059 1782h221q0 -120 62.5 -174t181.5 -54t180.5 54t61.5 174h223q0 -104 -24.5 -182t-65.5 -126.5t-102 -78.5t-126.5 -41t-146.5 -11t-146.5 11t-126.5 41t-102 78.5t-65.5 126.5t-24.5 182z" />
    <glyph glyph-name="uni0307" unicode="&#x307;" 
d="M-526 1706h397v-299h-397v299z" />
    <glyph glyph-name="uni0308" unicode="&#x308;" 
d="M-1024 1706h362v-299h-362v299zM-492 1706h363v-299h-363v299z" />
    <glyph glyph-name="uni030A" unicode="&#x30a;" 
d="M-559 1352q-232 0 -331 68t-99 202t99 202t331 68q230 0 330 -68t100 -202t-100 -202t-330 -68zM-559 1513q104 0 155.5 25t51.5 84t-51.5 84t-155.5 25q-105 0 -157 -25t-52 -84t52 -84t157 -25z" />
    <glyph glyph-name="uni030B" unicode="&#x30b;" 
d="M-1100 1640l424 164v-250l-424 -163v249zM-553 1640l424 164v-250l-424 -163v249z" />
    <glyph glyph-name="uni030C" unicode="&#x30c;" 
d="M-553 1620l424 164v-242l-424 -164l-424 164v242z" />
    <glyph glyph-name="uni0312" unicode="&#x312;" 
d="M-129 1446h-315v221l163 225h152l-115 -225h115v-221z" />
    <glyph glyph-name="uni0326" unicode="&#x326;" 
d="M-444 -115h315v-221l-164 -225h-151l114 225h-114v221z" />
    <glyph glyph-name="uni0327" unicode="&#x327;" 
d="M-492 -96q52 16 109.5 21.5t117 -3t98 -49.5t38.5 -111q0 -68 -37.5 -117.5t-99.5 -77t-146.5 -40.5t-175 -11.5t-188.5 13.5v174q201 -26 292 -4.5t91 82.5q0 39 -46.5 47t-166.5 -18l-121 118l29 72h237z" />
    <glyph glyph-name="uni0328" unicode="&#x328;" 
d="M-129 -231v-240q-122 0 -209 5.5t-163 21t-121.5 42t-71 69t-25.5 102.5q0 69 40.5 123t123.5 108h195q-33 -27 -47 -39t-32 -39t-18 -51q0 -19 6.5 -34t21.5 -25t30 -18t43 -12.5t48 -7t57 -4t58.5 -1.5h63.5z" />
    <glyph glyph-name="uni0335" unicode="&#x335;" 
d="M-1112 817h983v-242h-983v242z" />
    <glyph glyph-name="uni0336" unicode="&#x336;" 
d="M-2177 817h2048v-242h-2048v242z" />
    <glyph glyph-name="uni0337" unicode="&#x337;" 
d="M-88 1475l-533 -1782h-360l532 1782h361z" />
    <glyph glyph-name="uni0338" unicode="&#x338;" 
d="M-145 1475l-533 -1782h-303l532 1782h304z" />
    <glyph glyph-name="Wgrave" unicode="&#x1e80;" horiz-adv-x="3129" 
d="M1962 1843v-241l-797 163v242zM2662 1434h400l-565 -1434h-510l-422 1079l-424 -1079h-508l-565 1434h397l424 -1127l448 1127h453l451 -1129z" />
    <glyph glyph-name="wgrave" unicode="&#x1e81;" horiz-adv-x="2863" 
d="M1829 1616v-242l-797 164v242zM2404 1206h392l-543 -1206h-467l-354 840l-355 -840h-467l-542 1206h391l395 -932l369 932h417l369 -930z" />
    <glyph glyph-name="Wacute" unicode="&#x1e82;" horiz-adv-x="3129" 
d="M1962 2007v-242l-797 -163v241zM2662 1434h400l-565 -1434h-510l-422 1079l-424 -1079h-508l-565 1434h397l424 -1127l448 1127h453l451 -1129z" />
    <glyph glyph-name="wacute" unicode="&#x1e83;" horiz-adv-x="2863" 
d="M1829 1780v-242l-797 -164v242zM2404 1206h392l-543 -1206h-467l-354 840l-355 -840h-467l-542 1206h391l395 -932l369 932h417l369 -930z" />
    <glyph glyph-name="Wdieresis" unicode="&#x1e84;" horiz-adv-x="3129" 
d="M1481 1933v-299h-363v299h363zM2013 1933v-299h-362v299h362zM2662 1434h400l-565 -1434h-510l-422 1079l-424 -1079h-508l-565 1434h397l424 -1127l448 1127h453l451 -1129z" />
    <glyph glyph-name="wdieresis" unicode="&#x1e85;" horiz-adv-x="2863" 
d="M1348 1706v-299h-363v299h363zM1880 1706v-299h-362v299h362zM2404 1206h392l-543 -1206h-467l-354 840l-355 -840h-467l-542 1206h391l395 -932l369 932h417l369 -930z" />
    <glyph glyph-name="Ygrave" unicode="&#x1ef2;" horiz-adv-x="2125" 
d="M1460 1843v-241l-796 163v242zM879 471l-811 963h444l551 -654l551 654h444l-811 -963v-471h-368v471z" />
    <glyph glyph-name="ygrave" unicode="&#x1ef3;" horiz-adv-x="1898" 
d="M1348 1616v-242l-797 164v242zM1444 1206h387l-815 -1718h-387l243 512h-180l-624 1206h389l516 -995z" />
    <glyph glyph-name="endash" unicode="&#x2013;" horiz-adv-x="2306" 
d="M129 842h2048v-291h-2048v291z" />
    <glyph glyph-name="emdash" unicode="&#x2014;" horiz-adv-x="2715" 
d="M129 842h2458v-291h-2458v291z" />
    <glyph glyph-name="quoteleft" unicode="&#x2018;" horiz-adv-x="632" 
d="M92 819l131 656h301l-82 -656h-350z" />
    <glyph glyph-name="quoteright" unicode="&#x2019;" horiz-adv-x="649" 
d="M541 1475l-131 -656h-301l81 656h351z" />
    <glyph glyph-name="quotesinglbase" unicode="&#x201a;" horiz-adv-x="526" 
d="M88 274h350v-274l-166 -403h-168l105 403h-121v274z" />
    <glyph glyph-name="quotedblleft" unicode="&#x201c;" horiz-adv-x="1159" 
d="M139 819l131 656h301l-82 -656h-350zM618 819l132 656h301l-82 -656h-351z" />
    <glyph glyph-name="quotedblright" unicode="&#x201d;" horiz-adv-x="1112" 
d="M541 1475l-131 -656h-301l81 656h351zM1020 1475l-131 -656h-301l82 656h350z" />
    <glyph glyph-name="quotedblbase" unicode="&#x201e;" horiz-adv-x="1005" 
d="M88 0v274h350v-274l-166 -403h-168l105 403h-121zM567 274h351v-274l-166 -403h-168l104 403h-121v274z" />
    <glyph glyph-name="dagger" unicode="&#x2020;" horiz-adv-x="1896" 
d="M1767 1006v-291h-643v-1022h-350v1022h-645v291h645v469h350v-469h643z" />
    <glyph glyph-name="daggerdbl" unicode="&#x2021;" horiz-adv-x="1896" 
d="M1767 715h-643v-262h643v-291h-643v-469h-350v469h-645v291h645v262h-645v291h645v469h350v-469h643v-291z" />
    <glyph glyph-name="bullet" unicode="&#x2022;" horiz-adv-x="823" 
d="M412 426q-166 0 -245 55.5t-79 175.5q0 118 79 174t245 56q165 0 244 -56t79 -174q0 -119 -79 -175t-244 -56z" />
    <glyph glyph-name="ellipsis" unicode="&#x2026;" horiz-adv-x="1538" 
d="M88 274h350v-274h-350v274zM594 274h350v-274h-350v274zM1100 274h350v-274h-350v274z" />
    <glyph glyph-name="perthousand" unicode="&#x2030;" horiz-adv-x="4857" 
d="M754 530q-162 0 -284.5 44t-195.5 122.5t-109 178.5t-36 221q0 95 22 178t70.5 154.5t120.5 122t177 79.5t235 29t235 -29t177.5 -79.5t121 -122t70.5 -154.5t22 -178q0 -121 -36 -221t-109.5 -178.5t-196 -122.5t-284.5 -44zM2175 1638l-533 -1781h-360l533 1781h360z
M754 823q274 0 274 273q0 270 -274 270q-275 0 -275 -270q0 -76 21.5 -131t61 -85t87 -43.5t105.5 -13.5zM2705 -164q-162 0 -284 43.5t-195 122t-109 178.5t-36 221q0 120 36 220t109 178t195 122t284 44t284.5 -44t196 -122t110 -178t36.5 -220q0 -121 -36.5 -221
t-110 -178.5t-196 -122t-284.5 -43.5zM4102 -164q-161 0 -283 43.5t-195.5 122t-109.5 178.5t-36 221q0 120 36 220t109.5 178t195.5 122t283 44q162 0 285 -44t196.5 -122t109.5 -178t36 -220q0 -121 -36 -221t-109.5 -178.5t-196.5 -122t-285 -43.5zM2705 129
q275 0 275 272q0 271 -275 271q-274 0 -274 -271q0 -272 274 -272zM4102 129q277 0 277 272q0 271 -277 271q-272 0 -272 -271q0 -272 272 -272z" />
    <glyph glyph-name="guilsinglleft" unicode="&#x2039;" horiz-adv-x="1185" 
d="M621 1206h477l-533 -604l533 -602h-477l-533 602z" />
    <glyph glyph-name="guilsinglright" unicode="&#x203a;" horiz-adv-x="1185" 
d="M565 1206l533 -604l-533 -602h-477l533 602l-533 604h477z" />
    <glyph glyph-name="fraction" unicode="&#x2044;" horiz-adv-x="1067" 
d="M979 1475l-533 -1782h-360l532 1782h361z" />
    <glyph glyph-name="Euro" unicode="&#x20ac;" horiz-adv-x="1773" 
d="M1118 1350q-208 0 -306.5 -77t-129.5 -259h725v-221h-745v-74v-74h745v-221h-727q33 -183 132 -261.5t306 -78.5q192 0 527 61v-309q-181 -33 -307.5 -47t-274.5 -14q-348 0 -527 157t-225 492h-182v221h164v74v74h-164v221h182q48 327 228 486t524 159
q146 0 272.5 -14.5t309.5 -47.5v-309q-340 62 -527 62z" />
    <glyph glyph-name="trademark" unicode="&#x2122;" horiz-adv-x="2220" 
d="M981 1636v-149h-338v-543h-178v543h-336v149h852zM2091 1636v-692h-178v475l-289 -475h-129l-287 475v-475h-178v692h240l291 -489l290 489h240z" />
    <glyph glyph-name="arrowleft" unicode="&#x2190;" horiz-adv-x="2316" 
d="M1157 -225q-198 0 -365 47t-288.5 132.5t-206.5 203t-126.5 259.5t-41.5 302q0 200 67 370.5t193.5 298t323.5 199.5t444 72q198 0 365 -47t288.5 -131.5t207 -201.5t127.5 -258.5t42 -301.5t-42 -302t-127.5 -259.5t-207 -203t-288.5 -132.5t-365 -47zM1823 582v270
h-840l266 258l-196 195l-582 -586l582 -590l196 195l-266 258h840z" />
    <glyph glyph-name="arrowup" unicode="&#x2191;" horiz-adv-x="2316" 
d="M1159 -225q-198 0 -365 47t-288.5 132.5t-207 203t-127.5 259.5t-42 302t42 301.5t127.5 258.5t207 201.5t288.5 131.5t365 47q247 0 444 -72t323.5 -199.5t193.5 -298t67 -370.5q0 -160 -41.5 -302t-126.5 -259.5t-206.5 -203t-288.5 -132.5t-365 -47zM1294 61v840
l256 -266l197 196l-590 582l-586 -582l195 -196l256 266v-840h272z" />
    <glyph glyph-name="arrowright" unicode="&#x2192;" horiz-adv-x="2316" 
d="M1159 -225q-198 0 -365 47t-288.5 132.5t-207 203t-127.5 259.5t-42 302t42 301.5t127.5 258.5t207 201.5t288.5 131.5t365 47q247 0 444 -72t323.5 -199.5t193.5 -298t67 -370.5q0 -160 -41.5 -302t-126.5 -259.5t-206.5 -203t-288.5 -132.5t-365 -47zM494 582h839
l-266 -258l197 -195l581 590l-581 586l-197 -195l266 -258h-839v-270z" />
    <glyph glyph-name="arrowdown" unicode="&#x2193;" horiz-adv-x="2316" 
d="M1159 1659q198 0 365 -47t288.5 -132.5t206.5 -203t126.5 -259.5t41.5 -302q0 -200 -67 -370.5t-193.5 -298t-323.5 -199.5t-444 -72q-198 0 -365 47t-288.5 131.5t-207 201.5t-127.5 258.5t-42 301.5t42 302t127.5 259.5t207 203t288.5 132.5t365 47zM1294 1372h-272
v-840l-256 267l-195 -197l586 -582l590 582l-197 197l-256 -267v840z" />
    <glyph glyph-name="arrowboth" unicode="&#x2194;" horiz-adv-x="2316" 
d="M1159 -225q-198 0 -365 47t-288.5 132.5t-207 203t-127.5 259.5t-42 302t42 301.5t127.5 258.5t207 201.5t288.5 131.5t365 47q247 0 444 -72t323.5 -199.5t193.5 -298t67 -370.5q0 -160 -41.5 -302t-126.5 -259.5t-206.5 -203t-288.5 -132.5t-365 -47zM1950 715
l-439 590l-202 -195l213 -268h-721l213 268l-203 195l-442 -592l442 -584l203 195l-213 268h721l-213 -268l202 -195z" />
    <glyph glyph-name="arrowupdn" unicode="&#x2195;" horiz-adv-x="2316" 
d="M1159 -225q-198 0 -365 47t-288.5 132.5t-207 203t-127.5 259.5t-42 302t42 301.5t127.5 258.5t207 201.5t288.5 131.5t365 47q247 0 444 -72t323.5 -199.5t193.5 -298t67 -370.5q0 -160 -41.5 -302t-126.5 -259.5t-206.5 -203t-288.5 -132.5t-365 -47zM1161 1464
l-590 -438l195 -205l268 213v-631l-268 213l-195 -204l590 -443l586 443l-197 204l-266 -213v631l266 -213l197 205z" />
    <glyph glyph-name="uni2196" unicode="&#x2196;" horiz-adv-x="2316" 
d="M1157 -225q-198 0 -365 47t-288.5 132.5t-206.5 203t-126.5 259.5t-41.5 302q0 200 67 370.5t193.5 298t323.5 199.5t444 72q198 0 365 -47t288.5 -131.5t207 -201.5t127.5 -258.5t42 -301.5t-42 -302t-127.5 -259.5t-207 -203t-288.5 -132.5t-365 -47zM1503 182l193 191
l-594 594l381 -6l-15 276l-825 -4l-4 -827l279 -13l-9 381z" />
    <glyph glyph-name="uni2197" unicode="&#x2197;" horiz-adv-x="2316" 
d="M1159 -225q-198 0 -365 47t-288.5 132.5t-207 203t-127.5 259.5t-42 302t42 301.5t127.5 258.5t207 201.5t288.5 131.5t365 47q247 0 444 -72t323.5 -199.5t193.5 -298t67 -370.5q0 -160 -41.5 -302t-126.5 -259.5t-206.5 -203t-288.5 -132.5t-365 -47zM813 182l594 592
l-8 -381l278 13l-4 827l-825 4l-14 -276l380 6l-593 -594z" />
    <glyph glyph-name="uni2198" unicode="&#x2198;" horiz-adv-x="2316" 
d="M1159 1659q198 0 365 -47t288.5 -132.5t206.5 -203t126.5 -259.5t41.5 -302q0 -200 -67 -370.5t-193.5 -298t-323.5 -199.5t-444 -72q-198 0 -365 47t-288.5 131.5t-207 201.5t-127.5 258.5t-42 301.5t42 302t127.5 259.5t207 203t288.5 132.5t365 47zM813 1251
l-192 -190l593 -594l-380 6l14 -276l825 4l4 827l-278 12l8 -381z" />
    <glyph glyph-name="uni2199" unicode="&#x2199;" horiz-adv-x="2316" 
d="M1157 1659q198 0 365 -47t288.5 -132.5t207 -203t127.5 -259.5t42 -302t-42 -301.5t-127.5 -258.5t-207 -201.5t-288.5 -131.5t-365 -47q-247 0 -444 72t-323.5 199.5t-193.5 298t-67 370.5q0 160 41.5 302t126.5 259.5t206.5 203t288.5 132.5t365 47zM1503 1251
l-594 -592l9 381l-279 -12l4 -827l825 -4l15 276l-381 -6l594 594z" />
    <glyph glyph-name="partialdiff" unicode="&#x2202;" horiz-adv-x="2025" 
d="M580 1638q212 -12 406.5 -67t360 -153.5t288 -230t192 -307.5t69.5 -376q0 -124 -28 -231t-77.5 -189t-120 -147.5t-153.5 -110.5t-180 -75.5t-197.5 -44t-207.5 -13.5q-803 0 -803 590q0 134 39 238t121 181t216 117.5t316 40.5q413 0 721 -297q-10 147 -69.5 269.5
t-153.5 208.5t-221.5 149t-268.5 97t-299 46zM907 -14q204 0 351.5 62t220.5 188q-128 164 -298.5 247.5t-330.5 83.5q-86 0 -151 -14t-116 -45.5t-77.5 -88t-26.5 -136.5q0 -154 104 -225.5t324 -71.5z" />
    <glyph glyph-name="emptyset" unicode="&#x2205;" horiz-adv-x="2363" 
d="M2230 1550l-223 -223q205 -246 205 -608q0 -160 -41.5 -302t-126.5 -259.5t-206.5 -203t-288.5 -132.5t-365 -47q-340 0 -590 139l-246 -246l-215 215l227 228q-206 244 -206 608q0 160 42 301.5t127.5 258.5t207 201.5t288.5 131.5t365 47q345 0 588 -137l243 243z
M504 719q0 -222 92 -373l948 948q-150 72 -360 72q-326 0 -503 -168.5t-177 -478.5zM1860 719q0 220 -91 371l-948 -949q149 -73 363 -73q325 0 500.5 170t175.5 481z" />
    <glyph glyph-name="product" unicode="&#x220f;" horiz-adv-x="2680" 
d="M2552 1475v-328h-479v-1454h-351v1454h-764v-1454h-350v1454h-479v328h2423z" />
    <glyph glyph-name="summation" unicode="&#x2211;" horiz-adv-x="1773" 
d="M1645 1638v-292h-1053l725 -680l-725 -680h1053v-293h-1516v293l725 680l-725 680v292h1516z" />
    <glyph glyph-name="minus" unicode="&#x2212;" horiz-adv-x="1896" 
d="M129 842h1638v-291h-1638v291z" />
    <glyph glyph-name="radical" unicode="&#x221a;" horiz-adv-x="2777" 
d="M2648 1638v-292h-610l-553 -1653h-492l-340 733h-524v293h756l346 -719l543 1638h874z" />
    <glyph glyph-name="infinity" unicode="&#x221e;" horiz-adv-x="2680" 
d="M129 612q0 264 158.5 422t433.5 158q192 0 335.5 -85.5t284.5 -270.5q142 185 284.5 270.5t334.5 85.5q275 0 433.5 -158t158.5 -422q0 -272 -151.5 -421.5t-440.5 -149.5q-192 0 -336 84.5t-285 267.5q-94 -122 -183 -197t-197 -115t-238 -40q-289 0 -440.5 149.5
t-151.5 421.5zM479 612q0 -151 64 -214.5t213 -63.5q105 0 202.5 60.5t198.5 219.5q-102 160 -200 222.5t-201 62.5q-277 0 -277 -287zM1524 612q100 -158 197 -218t204 -60q149 0 212 63t63 215q0 287 -275 287q-104 0 -201.5 -62.5t-199.5 -224.5z" />
    <glyph glyph-name="integral" unicode="&#x222b;" horiz-adv-x="2045" 
d="M129 -307v293q177 0 253 12q242 36 343 223q43 79 63 185l109 520q23 116 60.5 212t77 165.5t100 123.5t108.5 89t125.5 59.5t128 36.5t138.5 18t135.5 7t138.5 1h8v-292q-177 0 -253 -12q-244 -36 -346 -225q-42 -78 -63 -183l-106 -520q-30 -148 -82.5 -263.5
t-108 -190t-143.5 -126.5t-153 -77.5t-175.5 -38.5t-172 -15t-178.5 -2h-7z" />
    <glyph glyph-name="approxequal" unicode="&#x2248;" horiz-adv-x="1896" 
d="M129 778q0 159 22.5 276t74 204.5t140 131.5t214.5 44q74 0 138.5 -19t110 -49.5t86.5 -68t78 -74.5t73.5 -67.5t82.5 -49.5t98 -19q101 0 144 75.5t43 271.5h333q0 -160 -22.5 -276.5t-74 -204t-139.5 -131.5t-214 -44q-74 0 -138.5 19t-110.5 49.5t-87 67.5t-77.5 74
t-73.5 67.5t-83 49.5t-98 19q-101 0 -143.5 -75t-42.5 -271h-334zM129 0q0 127 14 226t46.5 181t84 136t128.5 83t178 29q74 0 138.5 -19t110 -49.5t86.5 -67.5t78 -74t73.5 -67.5t82.5 -49.5t98 -19q101 0 144 75t43 271h333q0 -160 -22.5 -276.5t-74 -204t-139.5 -131
t-214 -43.5q-74 0 -138.5 19t-110.5 49.5t-87 67.5t-77.5 74t-73.5 67.5t-83 49.5t-98 19q-101 0 -143.5 -75t-42.5 -271h-334z" />
    <glyph glyph-name="notequal" unicode="&#x2260;" horiz-adv-x="1896" 
d="M1767 879h-585l-111 -365h696v-291h-782l-125 -418h-360l125 418h-496v291h582l110 365h-692v290h778l125 418h361l-125 -418h499v-290z" />
    <glyph glyph-name="lessequal" unicode="&#x2264;" horiz-adv-x="1712" 
d="M1583 1434v-306l-1186 -213l1186 -213v-305l-1454 297v445zM129 0v293h1454v-293h-1454z" />
    <glyph glyph-name="greaterequal" unicode="&#x2265;" horiz-adv-x="1712" 
d="M129 1434l1454 -295v-445l-1454 -297v305l1186 213l-1186 213v306zM129 0v293h1454v-293h-1454z" />
    <glyph glyph-name="lozenge" unicode="&#x25ca;" horiz-adv-x="1898" 
d="M1184 1638l585 -921l-585 -922h-467l-588 922l588 921h467zM950 -12l461 729l-461 729l-465 -729z" />
    <glyph glyph-name="i.loclTRK" horiz-adv-x="526" 
d="M66 1706h397v-299h-397v299zM88 1206h350v-1206h-350v1206z" />
    <glyph glyph-name="a.001" horiz-adv-x="1746" 
d="M1655 252q0 -48 1 -73t7 -65t21.5 -67.5t41.5 -46.5h-366q-102 0 -149.5 32.5t-47.5 117.5q-132 -97 -283.5 -133.5t-332.5 -36.5q-109 0 -201.5 20.5t-167 62.5t-116.5 114.5t-42 168.5q0 92 42 164t110.5 116.5t165 73t196.5 39.5t214 11q239 0 415 -64
q0 36 -11.5 62.5t-35.5 43t-50 26.5t-67.5 14.5t-73.5 6t-81 1.5q-269 0 -563 -64l-160 348q384 125 739 125q194 0 337.5 -34.5t247 -109.5t156.5 -199t54 -298v-356zM1163 401v52q-117 30 -325 30q-177 0 -251.5 -20.5t-74.5 -77.5q0 -48 40.5 -63t141.5 -15
q120 0 246.5 26.5t222.5 67.5z" />
    <glyph glyph-name="b.001" horiz-adv-x="1732" 
d="M1081 1249q88 0 164.5 -13t149 -41t129 -77.5t99.5 -118t66 -166.5t23 -219q0 -634 -631 -634q-177 0 -317 55.5t-232 159.5v-195h-491v1638h494v-604q90 104 229.5 159.5t316.5 55.5zM877 389q176 0 260 48.5t84 176.5t-84 177t-260 49q-168 0 -252 -43.5t-93 -157.5
v-47q9 -115 93 -159t252 -44z" />
    <glyph glyph-name="e.001" horiz-adv-x="1748" 
d="M877 369q107 0 192 27t137 65l482 -82q-78 -186 -288 -292.5t-523 -106.5q-193 0 -343.5 35.5t-262 110t-171 198t-59.5 290.5t59.5 290.5t171 198t262 110.5t343.5 36q154 0 281 -26.5t230 -82.5t173.5 -139.5t108.5 -202t38 -266.5h-1165q25 -86 108.5 -124.5
t225.5 -38.5zM877 901q-128 0 -203.5 -26t-110.5 -97h625q-35 71 -109.5 97t-201.5 26z" />
    <glyph glyph-name="m.001" horiz-adv-x="2695" 
d="M2187 1249q80 0 147 -13.5t127.5 -46t102 -83t66 -128t24.5 -177.5v-801h-491v580q0 135 -54.5 187t-166.5 52q-148 0 -349 -135v-684h-491v580q0 135 -54.5 187t-166.5 52q-148 0 -349 -135v-684h-491v1229h491v-185q185 113 315 159t300 46q295 0 397 -207
q194 116 327 161.5t316 45.5z" />
    <glyph glyph-name="n.001" horiz-adv-x="1757" 
d="M1208 1249q508 0 508 -448v-801h-491v559q0 140 -57 200t-179 60q-196 0 -457 -135v-684h-491v1229h491v-164q343 184 676 184z" />
    </font>
</defs>
</svg>
