<?xml version="1.0" standalone="no"?>
<!DOCTYPE svg PUBLIC "-//W3C//DTD SVG 1.1//EN" "http://www.w3.org/Graphics/SVG/1.1/DTD/svg11.dtd" >
<svg xmlns="http://www.w3.org/2000/svg" xmlns:xlink="http://www.w3.org/1999/xlink" version="1.1">
<metadata>
Created by FontForge 20201107 at Fri May  5 14:18:53 2017
 By 
Copyright (c) 2011 Fontstage (info@fontstage.com), with Reserved Font Name "Passion"
</metadata>
<defs>
<font id="PassionOne-Regular" horiz-adv-x="500" >
  <font-face 
    font-family="Passion One"
    font-weight="400"
    font-stretch="normal"
    units-per-em="1000"
    panose-1="2 0 5 6 8 0 0 2 0 4"
    ascent="800"
    descent="-200"
    x-height="479"
    cap-height="621"
    bbox="-35 -198 1101 835"
    underline-thickness="50"
    underline-position="-100"
    unicode-range="U+0020-FB04"
  />
<missing-glyph horiz-adv-x="210" 
 />
    <glyph glyph-name=".notdef" horiz-adv-x="210" 
 />
    <glyph glyph-name=".null" horiz-adv-x="0" 
 />
    <glyph glyph-name="nonmarkingreturn" horiz-adv-x="333" 
 />
    <glyph glyph-name="space" unicode=" " horiz-adv-x="210" 
 />
    <glyph glyph-name="exclam" unicode="!" horiz-adv-x="298" 
d="M91 190l-11 431h170l-14 -431h-145zM78 68q0 40 21 59.5t67 19.5t67 -19.5t21 -61.5q0 -77 -88 -77t-88 79z" />
    <glyph glyph-name="quotedbl" unicode="&#x22;" horiz-adv-x="437" 
d="M134 641q89 0 89 -90.5t-126 -169.5l-59 22l62 81l-2 5q-53 11 -53 73q0 79 89 79zM334 641q89 0 89 -90.5t-126 -169.5l-59 22l62 81l-2 5q-53 11 -53 73q0 79 89 79z" />
    <glyph glyph-name="numbersign" unicode="#" horiz-adv-x="496" 
d="M472 322h-78l-8 -43h65v-125h-81l-20 -154h-126l18 154h-29l-23 -154h-132l23 154h-57v125h74l8 43h-60v123h75l22 151h130l-20 -151h27l20 151h130l-20 -151h62v-123zM271 328h-39l-9 -55h39z" />
    <glyph glyph-name="dollar" unicode="$" horiz-adv-x="459" 
d="M54.5 339q-22.5 40 -22.5 104t35.5 114.5t100.5 66.5v94h132v-90q50 -4 112 -15l-20 -160q-99 23 -136 23q-47 0 -47 -38q0 -15 22.5 -29t54.5 -29.5t64 -37t54.5 -61.5t22.5 -103.5t-32.5 -113t-94.5 -65.5v-78h-132v72q-64 7 -119 26l11 149q107 -31 149 -31t42 37
q0 19 -22.5 35t-54.5 32t-64.5 37t-55 61z" />
    <glyph glyph-name="percent" unicode="%" horiz-adv-x="811" 
d="M554 631l-180 -641h-117l179 641h118zM222 403v11q0 59 -4 79.5t-12.5 27.5t-22.5 7t-22 -7t-11 -25q-5 -23 -5 -82v-11q0 -67 4.5 -89t12.5 -28.5t22.5 -6.5t22 6.5t11.5 26.5q4 25 4 91zM334 407q0 -118 -31 -171.5t-119.5 -53.5t-120 54t-31.5 171t31 170.5t120 53.5
t120 -53t31 -171zM667 211v11q0 59 -4 79.5t-12.5 27.5t-22.5 7t-22 -7t-12 -25q-4 -23 -4 -82v-11q0 -67 4.5 -89t12.5 -28.5t22.5 -6.5t22 6.5t10.5 26.5q5 25 5 91zM779 215q0 -118 -31 -171.5t-119.5 -53.5t-120 54t-31.5 171t31 170.5t120 53.5t120 -53t31 -171z" />
    <glyph glyph-name="ampersand" unicode="&#x26;" horiz-adv-x="609" 
d="M389 25q-65 -35 -158.5 -35t-146 49t-52.5 143q0 67 27 104.5t79 64.5q-49 61 -49 137q0 156 184.5 156t184.5 -156q0 -66 -25 -104t-88 -74l76 -95h4q12 25 12 69v43h132v-34q0 -111 -59 -171v-7h82l-10 -125h-51q-54 0 -82 7t-60 28zM249 123h61v4l-94 114
q-25 -21 -25 -53q0 -65 58 -65zM313 459q0 37 -34.5 37t-34.5 -35q0 -26 33 -59q16 14 21 20q15 14 15 37z" />
    <glyph glyph-name="quotesingle" unicode="'" horiz-adv-x="237" 
d="M134 641q89 0 89 -90.5t-126 -169.5l-59 22l62 81l-2 5q-53 11 -53 73q0 79 89 79z" />
    <glyph glyph-name="parenleft" unicode="(" horiz-adv-x="330" 
d="M190 649l124 -53q-103 -156 -103 -336t103 -352l-128 -43q-80 88 -121 176t-41 214q0 236 166 394z" />
    <glyph glyph-name="parenright" unicode=")" horiz-adv-x="330" 
d="M16 596l124 53q166 -158 166 -394q0 -126 -41 -214t-121 -176l-128 43q103 172 103 352t-103 336z" />
    <glyph glyph-name="asterisk" unicode="*" horiz-adv-x="424" 
d="M404 446l-97 -36l72 -93l-90 -60l-73 84l-69 -83l-91 60l59 93l-95 36l27 98l102 -22l10 99h110l9 -100l97 20z" />
    <glyph glyph-name="plus" unicode="+" horiz-adv-x="482" 
d="M430 231h-126v-135h-130v135h-122v126h122v136h130v-136h126v-126z" />
    <glyph glyph-name="comma" unicode="," horiz-adv-x="304" 
d="M166 148q93 0 93 -92q0 -35 -20 -67.5t-42 -52t-63 -49.5l-59 22l63 83l-2 5q-54 15 -54 71q0 80 84 80z" />
    <glyph glyph-name="hyphen" unicode="-" horiz-adv-x="403" 
d="M355 193h-307v134h307v-134z" />
    <glyph glyph-name="period" unicode="." horiz-adv-x="296" 
d="M75 68q0 40 21 59.5t67 19.5t67 -19.5t21 -61.5q0 -77 -88 -77t-88 79z" />
    <glyph glyph-name="slash" unicode="/" horiz-adv-x="361" 
d="M371 621l-216 -768h-165l215 768h166z" />
    <glyph glyph-name="zero" unicode="0" horiz-adv-x="473" 
d="M294 306v15q0 98 -5.5 114.5t-11.5 28.5q-11 20 -39 20t-38 -20q-12 -26 -13 -53q-2 -50 -2 -90v-15q0 -109 5.5 -126.5t11.5 -29.5q10 -22 43 -22t41 37.5t8 140.5zM454 311q0 -83 -8.5 -138t-31.5 -99q-45 -84 -176 -84q-129 0 -174 84q-23 44 -32 99.5t-9 137.5
q0 168 44.5 244t170.5 76q132 0 176 -83q23 -44 31.5 -99t8.5 -138z" />
    <glyph glyph-name="one" unicode="1" horiz-adv-x="320" 
d="M257 0h-167v462h-72v105l102 54h137v-621z" />
    <glyph glyph-name="two" unicode="2" horiz-adv-x="413" 
d="M8 579q97 52 193.5 52t146.5 -49t50 -138.5t-31.5 -146.5t-115.5 -154h149v-143h-367l-8 102q95 101 135 153t54 86t14 63.5t-14.5 45.5t-37.5 16t-44 -6q-29 -7 -92 -36z" />
    <glyph glyph-name="three" unicode="3" horiz-adv-x="428" 
d="M217 631q188 0 188 -163q0 -49 -18 -81t-59 -58v-4q46 -21 66 -55.5t20 -89.5q0 -91 -52 -140.5t-151 -49.5q-49 0 -83.5 8.5t-88.5 31.5l35 140q83 -30 115 -30q47 0 47 52q0 56 -63 56h-62v131h63q28 0 39.5 12.5t11.5 37.5q0 48 -47 48q-33 0 -117 -34l-39 135
q55 30 98 41.5t97 11.5z" />
    <glyph glyph-name="four" unicode="4" horiz-adv-x="492" 
d="M491 121h-70v-121h-167v121h-227l-17 119l205 381h206v-365h77zM259 256v153h-6l-82 -153h88z" />
    <glyph glyph-name="five" unicode="5" horiz-adv-x="413" 
d="M396 211q0 -221 -196 -221q-91 0 -169 31l12 155q103 -31 139 -31q51 0 51 55.5t-39 55.5q-19 0 -29 -20l-133 20v365h336v-149h-181v-89q26 14 66 14q143 0 143 -186z" />
    <glyph glyph-name="six" unicode="6" horiz-adv-x="459" 
d="M280.5 248q-12.5 16 -39 16t-50.5 -7q-2 -16 -2 -26q0 -102 57 -102q25 0 36 16t11 51.5t-12.5 51.5zM280 395q80 0 124 -45.5t44 -138.5q0 -221 -204 -221q-221 0 -221 277q0 188 90.5 276t285.5 88l-10 -143q-85 0 -130.5 -22t-62.5 -78l2 -5q36 12 82 12z" />
    <glyph glyph-name="seven" unicode="7" horiz-adv-x="420" 
d="M404 528l-171 -528h-188l167 462h-202v159h394v-93z" />
    <glyph glyph-name="eight" unicode="8" horiz-adv-x="464" 
d="M80.5 587q53.5 44 151.5 44t150.5 -43.5t52.5 -121.5q0 -55 -16 -83t-59 -62v-4q43 -25 62.5 -57.5t19.5 -83.5q0 -186 -211 -186q-96 0 -152.5 45.5t-56.5 138t80 136.5v4q-41 36 -58 66t-17 87q0 76 53.5 120zM235 119q48 0 48 51q0 24 -13 39t-46 39
q-26 -24 -33 -39.5t-7 -31.5q0 -58 51 -58zM234 495q-47 0 -47 -47q0 -32 24 -52q9 -7 30 -22q23 19 33.5 33t10.5 34q0 54 -51 54z" />
    <glyph glyph-name="nine" unicode="9" horiz-adv-x="459" 
d="M183 232q-171 0 -171 193q0 206 203 206q116 0 167.5 -63t51.5 -198q0 -193 -85.5 -286.5t-292.5 -93.5l10 142q92 0 135.5 24.5t58.5 80.5l-2 5q-38 -10 -75 -10zM218 352q28 0 51 9q1 8 1 42.5t-11.5 60t-46.5 25.5q-46 0 -46 -66q0 -37 12 -54t40 -17z" />
    <glyph glyph-name="colon" unicode=":" horiz-adv-x="296" 
d="M75 68q0 40 21 59.5t67 19.5t67 -19.5t21 -61.5q0 -77 -88 -77t-88 79zM75 361q0 40 21 59.5t67 19.5t67 -19.5t21 -61.5q0 -77 -88 -77t-88 79z" />
    <glyph glyph-name="semicolon" unicode=";" horiz-adv-x="304" 
d="M164 147q89 0 89 -90.5t-126 -169.5l-59 22l62 81l-2 5q-53 11 -53 73q0 79 89 79zM75 361q0 40 21 59.5t67 19.5t67 -19.5t21 -61.5q0 -77 -88 -77t-88 79z" />
    <glyph glyph-name="less" unicode="&#x3c;" horiz-adv-x="394" 
d="M278 3l-245 229v69l249 231l82 -113l-166 -152l166 -149z" />
    <glyph glyph-name="equal" unicode="=" horiz-adv-x="454" 
d="M400 293h-346v136h346v-136zM400 91h-346v136h346v-136z" />
    <glyph glyph-name="greater" unicode="&#x3e;" horiz-adv-x="394" 
d="M361 232l-245 -229l-86 115l166 149l-166 152l82 113l249 -231v-69z" />
    <glyph glyph-name="question" unicode="?" horiz-adv-x="387" 
d="M320 601q39 -43 39 -128t-30 -127.5t-88 -77.5l-10 -6v-61h-131v95q0 32 10.5 50.5t35.5 31t36 18.5t21.5 19.5t10.5 35t-11 33t-36 11.5t-113 -23v151q84 21 142 21q85 0 124 -43zM82 64q0 79 86 79t86 -79q0 -38 -19.5 -56.5t-63.5 -18.5q-89 0 -89 75z" />
    <glyph glyph-name="at" unicode="@" horiz-adv-x="886" 
d="M627 354l-5 -203q0 -36 25 -36q33 0 54.5 45.5t21.5 118.5q0 118 -68.5 189.5t-191.5 71.5q-147 0 -223.5 -83.5t-76.5 -228t74.5 -218t204.5 -73.5q71 0 180 20v-117q-91 -22 -183 -22t-164.5 24t-129.5 72.5t-89 129.5t-32 186q0 186 121 310t315 124t298 -105
t104 -283q0 -124 -65 -205t-183 -81h-9q-84 0 -114 51h-5q-37 -51 -114 -51q-59 0 -90.5 38t-31.5 104q0 83 51.5 115t162.5 42v24q0 28 -28 28q-44 0 -146 -29l-24 143q140 36 216.5 36t110.5 -33t34 -104zM434 107q37 0 37 39v49q-37 -5 -52.5 -15.5t-15.5 -35.5
q0 -37 31 -37z" />
    <glyph glyph-name="A" unicode="A" horiz-adv-x="498" 
d="M490 0h-167l-19 98h-118l-19 -98h-159l114 621h254zM285 215l-35 222h-7l-35 -222h77z" />
    <glyph glyph-name="B" unicode="B" horiz-adv-x="495" 
d="M481 179q0 -179 -192 -179h-245v621h240q95 0 141 -38.5t46 -122.5t-69 -128v-6q79 -31 79 -147zM289.5 124.5q10.5 13.5 10.5 56t-11 60t-40 17.5h-32v-147h32q30 0 40.5 13.5zM282 369q9 14 9 49.5t-9.5 50t-32.5 14.5h-32v-128h33q23 0 32 14z" />
    <glyph glyph-name="C" unicode="C" horiz-adv-x="410" 
d="M215.5 178.5q17.5 -37.5 57.5 -37.5t113 19l26 -141q-79 -29 -159 -29q-120 0 -174.5 79.5t-54.5 237t57 241t186 83.5q76 0 145 -32l-27 -155q-78 26 -109 26q-44 0 -61 -38.5t-17 -127t17.5 -126z" />
    <glyph glyph-name="D" unicode="D" horiz-adv-x="526" 
d="M506 324q0 -324 -256 -324h-206v621h210q137 0 194.5 -76.5t57.5 -220.5zM315.5 181.5q15.5 37.5 15.5 126t-16.5 125.5t-70.5 37h-30v-326h33q53 0 68.5 37.5z" />
    <glyph glyph-name="E" unicode="E" horiz-adv-x="404" 
d="M380 0h-336v621h346l-10 -153h-165v-93h143v-132h-143v-103h175z" />
    <glyph glyph-name="F" unicode="F" horiz-adv-x="385" 
d="M380 468h-165v-93h133v-132h-133v-243h-171v621h346z" />
    <glyph glyph-name="G" unicode="G" horiz-adv-x="519" 
d="M418 436q-96 29 -140.5 29t-61 -39t-16.5 -123.5t15.5 -123t63.5 -38.5q14 0 54 8v76h-45v118h191v-343h-118l-16 32h-4q-17 -14 -27 -21q-28 -21 -79 -21q-209 0 -209 316q0 158 55 241.5t185 83.5q104 0 179 -32z" />
    <glyph glyph-name="H" unicode="H" horiz-adv-x="543" 
d="M503 0h-170v235h-117v-235h-172v621h172v-244h117v244h170v-621z" />
    <glyph glyph-name="I" unicode="I" horiz-adv-x="278" 
d="M224 0h-170v621h170v-621z" />
    <glyph glyph-name="J" unicode="J" horiz-adv-x="288" 
d="M244 621v-496q0 -77 -35 -106t-129 -29h-51l-13 136h34q17 0 21.5 4.5t4.5 19.5v471h168z" />
    <glyph glyph-name="K" unicode="K" horiz-adv-x="485" 
d="M484 0h-189l-75 234h-10v-234h-166v621h166v-260h10l90 260h184l-121 -321z" />
    <glyph glyph-name="L" unicode="L" horiz-adv-x="362" 
d="M360 0h-316v621h171v-482h155z" />
    <glyph glyph-name="M" unicode="M" horiz-adv-x="683" 
d="M645 0h-157v324h-9l-59 -324h-161l-56 324h-10v-324h-155l21 621h225l56 -336h8l54 336h222z" />
    <glyph glyph-name="N" unicode="N" horiz-adv-x="541" 
d="M497 0h-164l-129 289h-8v-289h-152v621h169l123 -298h8v298h153v-621z" />
    <glyph glyph-name="O" unicode="O" horiz-adv-x="538" 
d="M270 631q131 0 187.5 -74t56.5 -240.5t-58 -246.5t-188 -80t-187 79t-57 245.5t57.5 241.5t188.5 75zM327.5 440.5q-14.5 32.5 -59 32.5t-57.5 -32.5t-13 -123.5v-24q0 -97 14.5 -127.5t59 -30.5t57.5 29t13 120v32q0 92 -14.5 124.5z" />
    <glyph glyph-name="P" unicode="P" horiz-adv-x="464" 
d="M258 203h-46v-203h-168v621h203q107 0 159 -49t52 -161t-49 -160t-151 -48zM286 399q0 44 -10 62t-40 18h-24v-158h28q28 0 37 17t9 61z" />
    <glyph glyph-name="Q" unicode="Q" horiz-adv-x="538" 
d="M270 631q131 0 187.5 -74t56.5 -237q0 -106 -26.5 -172.5t-82.5 -109.5v-4l126 -11l-11 -129h-19q-73 0 -131 34l-107 62q-125 0 -182 82.5t-57 245.5t57.5 238t188.5 75zM327.5 440.5q-14.5 32.5 -59 32.5t-57.5 -32.5t-13 -123.5v-24q0 -97 14.5 -127.5t59 -30.5
t57.5 29t13 120v32q0 92 -14.5 124.5z" />
    <glyph glyph-name="R" unicode="R" horiz-adv-x="494" 
d="M469 424q0 -56 -17 -93t-53 -67l83 -264h-185l-62 224h-23v-224h-168v621h232q100 0 146.5 -47t46.5 -150zM275 344q11 15 11 54.5t-11 55t-36 15.5h-27v-140h26q26 0 37 15z" />
    <glyph glyph-name="S" unicode="S" horiz-adv-x="427" 
d="M68 577q52 54 142.5 54t185.5 -18l-20 -160q-99 23 -136 23q-47 0 -47 -38q0 -15 22.5 -29t54.5 -29.5t64 -37t54.5 -61.5t22.5 -92q0 -95 -51 -147t-144.5 -52t-182.5 29l11 149q107 -31 149 -31t42 37q0 19 -22.5 35t-54.5 32t-64.5 37t-55 61t-22.5 95q0 89 52 143z
" />
    <glyph glyph-name="T" unicode="T" horiz-adv-x="410" 
d="M405 470h-116v-470h-171v470h-123l10 151h410z" />
    <glyph glyph-name="U" unicode="U" horiz-adv-x="543" 
d="M232 158q13 -15 42.5 -15t41 14.5t11.5 47.5v416h172v-426q0 -107 -58.5 -156t-172 -49t-169 48.5t-55.5 154.5v428h175v-417q0 -31 13 -46z" />
    <glyph glyph-name="V" unicode="V" horiz-adv-x="505" 
d="M493 621l-105 -621h-264l-112 621h189l54 -407h17l41 407h180z" />
    <glyph glyph-name="W" unicode="W" horiz-adv-x="681" 
d="M661 621l-56 -621h-206l-54 275h-8l-45 -275h-207l-65 621h164l26 -329h10l42 329h167l46 -329h10l18 329h158z" />
    <glyph glyph-name="X" unicode="X" horiz-adv-x="488" 
d="M482 0h-195l-42 198h-8l-47 -198h-184l97 322l-89 299h202l34 -184h8l37 184h176l-81 -299z" />
    <glyph glyph-name="Y" unicode="Y" horiz-adv-x="464" 
d="M464 621l-148 -429v-192h-170v192l-146 429h188l45 -202h8l43 202h180z" />
    <glyph glyph-name="Z" unicode="Z" horiz-adv-x="452" 
d="M442 0h-408l-4 92l183 374h-193l-10 155h422l5 -98l-174 -380h179v-143z" />
    <glyph glyph-name="bracketleft" unicode="[" horiz-adv-x="316" 
d="M284 -137h-236v778h236v-129h-66v-521h66v-128z" />
    <glyph glyph-name="backslash" unicode="\" horiz-adv-x="361" 
d="M206 -147l-216 768h166l215 -768h-165z" />
    <glyph glyph-name="bracketright" unicode="]" horiz-adv-x="316" 
d="M268 -137h-236v128h66v521h-66v129h236v-778z" />
    <glyph glyph-name="asciicircum" unicode="^" 
d="M326 655l65 -135h-105l-35 56l-35 -56h-107l66 135h151z" />
    <glyph glyph-name="underscore" unicode="_" horiz-adv-x="402" 
d="M402 -137h-402v104h402v-104z" />
    <glyph glyph-name="grave" unicode="`" 
d="M223 520l-108 140h158l65 -140h-115z" />
    <glyph glyph-name="a" unicode="a" horiz-adv-x="436" 
d="M391 354l-5 -207q0 -19 9.5 -25.5t32.5 -6.5l-15 -121q-58 -4 -64 -4q-74 0 -94 51h-5q-37 -51 -114 -51q-59 0 -90.5 38t-31.5 104q0 83 51.5 115t162.5 42v24q0 28 -28 28q-48 0 -150 -29l-25 146q128 33 213 33t119 -33t34 -104zM198 107q37 0 37 39v49
q-37 -5 -52.5 -15.5t-15.5 -35.5q0 -37 31 -37z" />
    <glyph glyph-name="b" unicode="b" horiz-adv-x="466" 
d="M411 435.5q31 -54.5 31 -187t-33 -195.5t-129 -63q-75 0 -105 39h-4l-10 -29h-131v641h167v-173h4q33 22 85 22q94 0 125 -54.5zM273 185q1 17 1 64.5t-7 73t-28.5 25.5t-42.5 -12v-207q19 -9 36.5 -9t25 6.5t11 24t4.5 34.5z" />
    <glyph glyph-name="c" unicode="c" horiz-adv-x="345" 
d="M200 318.5q-10 -26.5 -10 -82.5t9.5 -81t40 -25t79.5 11l18 -128q-69 -23 -123 -23q-95 0 -143.5 64t-48.5 179t50 186.5t145 71.5q71 0 128 -24l-18 -147q-58 25 -87.5 25t-39.5 -26.5z" />
    <glyph glyph-name="d" unicode="d" horiz-adv-x="477" 
d="M454 -6l-67 -4q-77 0 -94 51h-5q-33 -51 -101 -51q-90 0 -126.5 63t-36.5 187.5t41 187.5t118 63q53 0 82 -25v175h167v-494q0 -19 8 -25.5t29 -6.5zM199 324.5q-7 -25.5 -7 -73t1 -64.5t4.5 -34.5t11 -24t25 -6.5t36.5 9v207q-21 12 -42.5 12t-28.5 -25.5z" />
    <glyph glyph-name="e" unicode="e" horiz-adv-x="442" 
d="M230 348q-26 0 -34 -17.5t-8 -53.5h87v24q0 47 -45 47zM234 491q103 0 147.5 -49.5t44.5 -141.5q0 -12 -7 -108h-228q0 -75 69 -75q33 0 129 23l14 -124q-84 -26 -168 -26q-103 0 -158 67.5t-55 183.5q0 250 212 250z" />
    <glyph glyph-name="f" unicode="f" horiz-adv-x="293" 
d="M188 648q62 0 130 -6l-14 -146q-45 5 -65.5 5t-20.5 -18v-18h82l-8 -124h-72v-341h-167v341h-44v124h44v50q0 133 135 133z" />
    <glyph glyph-name="g" unicode="g" horiz-adv-x="450" 
d="M175 -44h103q18 0 18 16v4q0 15 -18 15h-103q-16 0 -16 -16v-4q0 -15 16 -15zM215 491h236v-112h-72v-5q32 -28 32 -73q0 -160 -181 -160h-48q-18 0 -18 -16.5t17 -16.5h136q115 0 115 -100q0 -82 -55 -118.5t-152 -36.5t-146.5 20.5t-49.5 76.5q0 31 39 52v4
q-49 27 -49 78q0 60 77 91q-36 26 -53.5 60.5t-17.5 91.5q0 79 51.5 121.5t138.5 42.5zM251.5 345.5q-7.5 14.5 -27.5 14.5t-27.5 -14.5t-7.5 -44.5q0 -61 36 -61q34 0 34 59q0 32 -7.5 46.5z" />
    <glyph glyph-name="h" unicode="h" horiz-adv-x="467" 
d="M201 444q55 47 119 47t90.5 -30.5t26.5 -91.5v-369h-170v312q0 25 -22 25q-28 0 -47 -14v-323h-168v641h167v-197h4z" />
    <glyph glyph-name="i" unicode="i" horiz-adv-x="232" 
d="M199 0h-165v474h165v-474zM26 570q0 40 21 59t69 19t69 -19t21 -58.5t-21 -58t-69 -18.5t-69 18t-21 58z" />
    <glyph glyph-name="j" unicode="j" horiz-adv-x="248" 
d="M209 474v-486q0 -78 -34.5 -106.5t-128.5 -28.5h-50l-14 138h34q17 0 21.5 4.5t4.5 19.5v459h167zM33 570q0 40 21 59t69 19t69 -19t21 -58.5t-21 -58t-69 -18.5t-69 18t-21 58z" />
    <glyph glyph-name="k" unicode="k" horiz-adv-x="442" 
d="M443 0h-185l-61 184h-4v-184h-163v641h165v-353h4l73 191h175l-101 -239z" />
    <glyph glyph-name="l" unicode="l" horiz-adv-x="233" 
d="M30 110v531h165v-478q0 -17 7.5 -24t26.5 -7l-13 -142h-55q-66 0 -98.5 27.5t-32.5 92.5z" />
    <glyph glyph-name="m" unicode="m" horiz-adv-x="706" 
d="M436 444q55 47 121 47t92.5 -30.5t26.5 -91.5v-369h-170v312q0 25 -22 25q-28 0 -47 -14v-323h-170v312q0 25 -22 25q-28 0 -47 -14v-323h-168v479h153l10 -35h4q55 47 130.5 47t98.5 -56z" />
    <glyph glyph-name="n" unicode="n" horiz-adv-x="467" 
d="M197 444q55 47 121 47t92.5 -30.5t26.5 -91.5v-369h-170v312q0 25 -22 25q-28 0 -47 -14v-323h-168v479h153l10 -35h4z" />
    <glyph glyph-name="o" unicode="o" horiz-adv-x="458" 
d="M72.5 432q50.5 59 158 59t156.5 -58t49 -190.5t-48 -192.5t-157 -60t-159 60t-50 191.5t50.5 190.5zM230 356q-26 0 -33 -20t-7 -84v-24q0 -71 7 -92t32.5 -21t32.5 21t7 86v29q0 65 -6.5 85t-32.5 20z" />
    <glyph glyph-name="p" unicode="p" horiz-adv-x="466" 
d="M198 11v-148h-168v616h138l10 -30h5q28 41 110 41t115.5 -57t33.5 -187t-35.5 -193.5t-130.5 -63.5q-44 0 -74 22h-4zM273 185q1 17 1 64.5t-7 73t-28.5 25.5t-42.5 -12v-207q19 -9 36.5 -9t25 6.5t11 24t4.5 34.5z" />
    <glyph glyph-name="q" unicode="q" horiz-adv-x="466" 
d="M268 -137v152h-4q-35 -25 -76 -25q-90 0 -127 63.5t-37 186t41 187t114 64.5t104 -42h5l10 30h138v-616h-168zM199 324.5q-7 -25.5 -7 -73t1 -64.5t4.5 -34.5t11 -24t25 -6.5t36.5 9v207q-21 12 -42.5 12t-28.5 -25.5z" />
    <glyph glyph-name="r" unicode="r" horiz-adv-x="313" 
d="M196 269v-269h-166v479h146l10 -29h4q23 26 46.5 33.5t76.5 7.5l-7 -160h-46q-39 0 -51.5 -12t-12.5 -50z" />
    <glyph glyph-name="s" unicode="s" horiz-adv-x="342" 
d="M48.5 450.5q44.5 40.5 122.5 40.5t158 -20l-17 -139q-102 23 -137 23q-21 0 -21 -17q0 -11 23 -20q80 -29 120.5 -66t40.5 -111t-38 -112.5t-116.5 -38.5t-156.5 20l11 135q100 -27 129.5 -27t29.5 14t-22 22q-89 34 -130 72.5t-41 111t44.5 113z" />
    <glyph glyph-name="t" unicode="t" horiz-adv-x="317" 
d="M300 -1q-74 -9 -128.5 -9t-85 28.5t-30.5 98.5v232h-48v124h56l9 92h151v-92h89l-7 -124h-83v-199q0 -21 20 -21q2 0 62 3z" />
    <glyph glyph-name="u" unicode="u" horiz-adv-x="467" 
d="M149 -10q-119 0 -119 132v357h170v-316q0 -25 22 -25q28 0 47 14v327h168v-477h-159v35h-4q-55 -47 -125 -47z" />
    <glyph glyph-name="v" unicode="v" horiz-adv-x="441" 
d="M441 479l-102 -479h-236l-103 479h176l43 -307h13l46 307h163z" />
    <glyph glyph-name="w" unicode="w" horiz-adv-x="578" 
d="M573 479l-61 -479h-183l-39 202h-7l-38 -202h-179l-61 479h154l21 -242h8l34 242h139l33 -242h9l22 242h148z" />
    <glyph glyph-name="x" unicode="x" horiz-adv-x="433" 
d="M427 0h-177l-34 141h-6l-32 -141h-172l81 233l-81 246h182l29 -153h6l31 153h171l-80 -243z" />
    <glyph glyph-name="y" unicode="y" horiz-adv-x="445" 
d="M445 479l-124 -493q-19 -74 -56 -103.5t-121 -29.5h-100l-15 129h56q34 0 34 27q0 6 -4 26l-115 444h178l45 -299h9l49 299h164z" />
    <glyph glyph-name="z" unicode="z" horiz-adv-x="393" 
d="M381 0h-359l-4 96l148 243h-154v140h359l6 -89l-143 -252h147v-138z" />
    <glyph glyph-name="braceleft" unicode="{" horiz-adv-x="335" 
d="M293 -137h-110q-65 0 -93 30t-28 99v164q0 27 -9 32.5t-45 5.5v128q36 0 45 5t9 32v145q0 76 27 106.5t94 30.5h110v-133h-68v-160q0 -40 -11 -57.5t-37 -30.5v-7q26 -11 37 -29.5t11 -56.5v-177h68v-127z" />
    <glyph glyph-name="bar" unicode="|" horiz-adv-x="337" 
d="M247 -147h-157v768h157v-768z" />
    <glyph glyph-name="braceright" unicode="}" horiz-adv-x="335" 
d="M152 -137h-110v127h68v177q0 38 11 56.5t37 29.5v7q-26 13 -37 30.5t-11 57.5v160h-68v133h110q67 0 94 -30.5t27 -106.5v-145q0 -27 8.5 -32t45.5 -5v-128q-35 0 -44.5 -5.5t-9.5 -32.5v-164q0 -69 -28 -99t-93 -30z" />
    <glyph glyph-name="asciitilde" unicode="~" 
d="M411 660v-8q0 -64 -18 -97t-72 -33q-36 0 -80 16l-24 8v-35h-109v10q0 65 19 97.5t67 32.5q16 0 89 -19l20 -5v33h108z" />
    <glyph glyph-name="nbspace" unicode="&#xa0;" horiz-adv-x="210" 
 />
    <glyph glyph-name="exclamdown" unicode="&#xa1;" horiz-adv-x="298" 
d="M217 294l11 -431h-170l14 431h145zM230 416q0 -40 -21 -59.5t-67 -19.5t-67 19.5t-21 61.5q0 77 88 77t88 -79z" />
    <glyph glyph-name="cent" unicode="&#xa2;" horiz-adv-x="397" 
d="M212 318.5q-10 -26.5 -10 -82.5t9.5 -81t40 -25t79.5 11l18 -128q-31 -11 -69 -18v-74h-132v84q-114 48 -114 226q0 87 29 150.5t85 91.5v95h132v-81q40 -4 77 -20l-18 -147q-58 25 -87.5 25t-39.5 -26.5z" />
    <glyph glyph-name="sterling" unicode="&#xa3;" horiz-adv-x="563" 
d="M302 631q62 0 168 -19l-20 -161q-88 19 -108 19q-10 0 -10 -14.5t19 -75.5h93l-10 -100h-71v-61q0 -58 -20 -103l47 -20h7v59h150q0 -97 -33.5 -144.5t-110.5 -47.5q-42 0 -70.5 9t-70.5 30h-8q-48 -25 -107.5 -25t-97 32t-37.5 93t33 92t75.5 31t68.5 -12h4v67h-93v100
h69q-26 78 -26 109q0 142 159 142zM133 96q0 -20 21.5 -20t36.5 17q-23 23 -40.5 23t-17.5 -20z" />
    <glyph glyph-name="currency" unicode="&#xa4;" horiz-adv-x="779" 
d="M84 76l-30 50l124 72q-17 54 -17 103t12 94l-125 73l31 53l120 -69q69 90 194.5 90t193.5 -88l114 67l30 -53l-117 -68q13 -45 13 -95t-20 -108l120 -71l-32 -51l-120 71q-69 -74 -185 -74t-184 76q-43 -24 -122 -72zM391 122q174 0 174 184q0 88 -43.5 136t-130.5 48
q-172 0 -172 -185q0 -91 45 -137t127 -46z" />
    <glyph glyph-name="yen" unicode="&#xa5;" horiz-adv-x="504" 
d="M484 621l-106 -305h75v-99h-109l-8 -25v-6h117v-97h-117v-89h-170v89h-114v97h114v6l-9 25h-105v99h72l-104 305h188l45 -202h8l43 202h180z" />
    <glyph glyph-name="brokenbar" unicode="&#xa6;" horiz-adv-x="337" 
d="M247 -147h-157v324h157v-324zM247 621v-296h-157v296h157z" />
    <glyph glyph-name="section" unicode="&#xa7;" horiz-adv-x="440" 
d="M273 200q1 3 1 13.5t-2 19.5t-8.5 18t-11 14.5t-17 15t-17.5 13t-23 15t-24 15.5q-1 -6 -1 -20.5t6 -26.5t22 -26q23 -19 75 -51zM388.5 332.5q19.5 -36.5 19.5 -86.5t-10.5 -82t-35.5 -68q11 -28 11 -66q0 -84 -44 -130.5t-129 -46.5q-51 0 -153 20l12 157
q108 -29 137.5 -29t29.5 28q0 16 -20 32.5t-48.5 34t-57 39.5t-48.5 58t-20 80q0 78 47 139q-13 26 -13 62q0 83 49 128.5t128 45.5q32 0 55 -4l46 -8t38 -7l-22 -151q-91 21 -116 21t-25 -20q0 -13 19.5 -26.5t47.5 -28.5t55.5 -35t47 -56.5z" />
    <glyph glyph-name="dieresis" unicode="&#xa8;" 
d="M125.5 534.5q-16.5 15.5 -16.5 43t16.5 43t46.5 15.5t47 -15.5t17 -42.5q0 -59 -66 -59q-28 0 -44.5 15.5zM294.5 534.5q-16.5 15.5 -16.5 43t17 43t47 15.5t46.5 -15.5t16.5 -43t-16.5 -43t-47 -15.5t-47 15.5z" />
    <glyph glyph-name="copyright" unicode="&#xa9;" horiz-adv-x="940" 
d="M466 519q-266 0 -266 -287t269 -287q134 0 200 71.5t66 212t-67 215.5t-202 75zM154.5 551q114.5 116 316 116t315.5 -116t114 -317t-118 -316.5t-319 -115.5t-312 113.5t-111 316.5t114.5 319zM449 148.5q10 -23.5 37.5 -23.5t84.5 16l23 -126q-77 -25 -129 -25
q-93 0 -135 61t-42 180.5t44 183t144 63.5q58 0 118 -29l-24 -134q-63 21 -87.5 21t-34 -24.5t-9.5 -82t10 -81z" />
    <glyph glyph-name="ordfeminine" unicode="&#xaa;" horiz-adv-x="380" 
d="M314 543l-4 -145q0 -13 7 -18t23 -5l-11 -84q-30 -3 -45 -3q-52 0 -66 36h-3q-25 -36 -73 -36q-92 0 -92 99q0 58 36 80.5t114 29.5v17q0 20 -20 20q-37 0 -105 -21l-18 103q94 23 151.5 23t81.5 -23t24 -73zM179 370q25 0 25 27v34q-25 -3 -36 -10.5t-11 -24.5
q0 -26 22 -26z" />
    <glyph glyph-name="guillemotleft" unicode="&#xab;" horiz-adv-x="527" 
d="M24 207v62l176 208l75 -60l-105 -175l106 -175l-82 -63zM234 207v62l173 208l77 -60l-105 -175l106 -175l-84 -63z" />
    <glyph glyph-name="logicalnot" unicode="&#xac;" horiz-adv-x="488" 
d="M288 130v101h-236v126h378v-227h-142z" />
    <glyph glyph-name="registered" unicode="&#xae;" horiz-adv-x="940" 
d="M514 293q0 22 -7.5 32t-26.5 10h-22v-83h24q32 0 32 41zM654 314q0 -83 -46 -125l62 -161q65 79 65 210t-67 206t-202 75q-266 0 -266 -288q0 -142 67.5 -214t197.5 -72q108 0 182 55h-124l-50 146h-8v-146h-151v467h177q163 0 163 -153zM154.5 551q114.5 116 316 116
t315.5 -116t114 -317t-118 -316.5t-319 -115.5t-312 113.5t-111 316.5t114.5 319z" />
    <glyph glyph-name="macron" unicode="&#xaf;" 
d="M395 530h-270v115h270v-115z" />
    <glyph glyph-name="degree" unicode="&#xb0;" horiz-adv-x="302" 
d="M239 601q27 -30 27 -94.5t-27 -94.5t-88 -30t-88 30t-27 93.5t27.5 94.5t88 31t87.5 -30zM176 506q0 19 -5.5 27.5t-20 8.5t-20 -8t-5.5 -27.5t5.5 -27t19.5 -7.5t20 7.5t6 26.5z" />
    <glyph glyph-name="plusminus" unicode="&#xb1;" horiz-adv-x="482" 
d="M430 298h-126v-125h-130v125h-122v126h122v130h130v-130h126v-126zM430 0h-378v126h378v-126z" />
    <glyph glyph-name="twosuperior" unicode="&#xb2;" horiz-adv-x="362" 
d="M44 594q68 37 135 37t102.5 -34.5t35.5 -98.5q0 -43 -14 -79.5t-31 -59.5t-58 -70h104v-100h-257l-6 71q50 52 75 81t46.5 66t21.5 61q0 47 -40 47q-28 0 -92 -29z" />
    <glyph glyph-name="threesuperior" unicode="&#xb3;" horiz-adv-x="363" 
d="M181 631q131 0 131 -114q0 -63 -53 -98v-3q60 -27 60 -96q0 -138 -142 -138q-54 0 -121 28l25 98q57 -21 80 -21q33 0 33 36q0 40 -44 40h-43v91h44q35 0 35 34.5t-32 34.5q-24 0 -82 -24l-28 95q70 37 137 37z" />
    <glyph glyph-name="acute" unicode="&#xb4;" 
d="M376 660l-108 -140h-115l63 140h160z" />
    <glyph glyph-name="mu" unicode="&#xb5;" horiz-adv-x="519" 
d="M242 -10q-24 0 -46 10v-144h-166v618h168v-290q0 -52 48.5 -52t48.5 52v290h170v-330q0 -31 46 -31l-21 -123h-37q-69 0 -104 38h-4q-38 -38 -103 -38z" />
    <glyph glyph-name="mu" unicode="&#x3bc;" horiz-adv-x="519" 
d="M242 -10q-24 0 -46 10v-144h-166v618h168v-290q0 -52 48.5 -52t48.5 52v290h170v-330q0 -31 46 -31l-21 -123h-37q-69 0 -104 38h-4q-38 -38 -103 -38z" />
    <glyph glyph-name="paragraph" unicode="&#xb6;" horiz-adv-x="576" 
d="M522 -130h-141v645h-31v-645h-142v323q-88 0 -138 55.5t-50 161t59 165t163 59.5h280v-764z" />
    <glyph glyph-name="periodcentered" unicode="&#xb7;" horiz-adv-x="346" 
d="M177 216q-96 0 -96 89.5t96 89.5t96 -89.5t-96 -89.5z" />
    <glyph glyph-name="cedilla" unicode="&#xb8;" 
d="M336 -62.5q16 -14.5 16 -42t-24.5 -47t-73 -19.5t-91.5 29l34 63q41 -31 57 -31t16 9.5t-13 16.5l-17 10q-23 12 -23 32.5t15 33.5h65q-9 -9 -9 -16.5t16 -15.5t32 -22.5z" />
    <glyph glyph-name="onesuperior" unicode="&#xb9;" horiz-adv-x="279" 
d="M211 186h-117v323h-50v74l71 38h96v-435z" />
    <glyph glyph-name="ordmasculine" unicode="&#xba;" horiz-adv-x="388" 
d="M83.5 597.5q35.5 41.5 110.5 41.5t109.5 -40.5t34.5 -133.5t-33.5 -135t-110 -42t-111.5 42t-35 134t35.5 133.5zM194 544q-18 0 -23 -14t-5 -59v-16q0 -50 5 -65t23 -15t22.5 14.5t4.5 60.5v21q0 45 -4.5 59t-22.5 14z" />
    <glyph glyph-name="guillemotright" unicode="&#xbb;" horiz-adv-x="527" 
d="M503 269v-62l-170 -203l-82 63l106 175l-105 175l75 60zM293 269v-62l-167 -203l-84 63l106 175l-105 175l77 60z" />
    <glyph glyph-name="onequarter" unicode="&#xbc;" horiz-adv-x="800" 
d="M493 631l-180 -641h-117l179 641h118zM751 85h-49v-85h-117v85h-159l-12 83l143 267h145v-256h54zM588 179v107h-4l-57 -107h61zM211 186h-117v323h-50v74l71 38h96v-435z" />
    <glyph glyph-name="onehalf" unicode="&#xbd;" horiz-adv-x="776" 
d="M493 631l-180 -641h-117l179 641h118zM211 186h-117v323h-50v74l71 38h96v-435zM458 405q68 37 135 37t102.5 -34.5t35.5 -98.5q0 -43 -14 -79.5t-31 -59.5t-58 -70h104v-100h-257l-6 71q50 52 75 81t46.5 66t21.5 61q0 47 -40 47q-28 0 -92 -29z" />
    <glyph glyph-name="threequarters" unicode="&#xbe;" horiz-adv-x="878" 
d="M571 631l-180 -641h-117l179 641h118zM181 631q131 0 131 -114q0 -63 -53 -98v-3q60 -27 60 -96q0 -138 -142 -138q-54 0 -121 28l25 98q57 -21 80 -21q33 0 33 36q0 40 -44 40h-43v91h44q35 0 35 34.5t-32 34.5q-24 0 -82 -24l-28 95q70 37 137 37zM829 85h-49v-85h-117
v85h-159l-12 83l143 267h145v-256h54zM666 179v107h-4l-57 -107h61z" />
    <glyph glyph-name="questiondown" unicode="&#xbf;" horiz-adv-x="387" 
d="M30 21q0 75 30 116t88 76l10 6v61h131v-101q0 -31 -10 -47t-35.5 -28.5t-36.5 -18.5t-21.5 -19.5t-10.5 -35t11 -33t36 -11.5t113 23v-151q-84 -21 -142 -21q-163 0 -163 184zM307 417q0 -79 -86 -79t-86 79q0 38 19.5 56.5t63.5 18.5q89 0 89 -75z" />
    <glyph glyph-name="Agrave" unicode="&#xc0;" horiz-adv-x="498" 
d="M490 0h-167l-19 98h-118l-19 -98h-159l114 621h254zM285 215l-35 222h-7l-35 -222h77zM215 664l-103 133h150l62 -133h-109z" />
    <glyph glyph-name="Aacute" unicode="&#xc1;" horiz-adv-x="498" 
d="M490 0h-167l-19 98h-118l-19 -98h-159l114 621h254zM285 215l-35 222h-7l-35 -222h77zM383 797l-102 -133h-110l60 133h152z" />
    <glyph glyph-name="Acircumflex" unicode="&#xc2;" horiz-adv-x="498" 
d="M490 0h-167l-19 98h-118l-19 -98h-159l114 621h254zM285 215l-35 222h-7l-35 -222h77zM318 792l63 -128h-101l-33 53l-33 -53h-102l63 128h143z" />
    <glyph glyph-name="Atilde" unicode="&#xc3;" horiz-adv-x="498" 
d="M490 0h-167l-19 98h-118l-19 -98h-159l114 621h254zM285 215l-35 222h-7l-35 -222h77zM386 797v-8q0 -60 -17 -91.5t-69 -31.5q-31 0 -76 15l-23 8v-34h-103v10q0 62 18 92.5t63 30.5q18 0 85 -18l19 -4v31h103z" />
    <glyph glyph-name="Adieresis" unicode="&#xc4;" horiz-adv-x="498" 
d="M490 0h-167l-19 98h-118l-19 -98h-159l114 621h254zM285 215l-35 222h-7l-35 -222h77zM117.5 678q-15.5 15 -15.5 40.5t15.5 40.5t43.5 15t44.5 -14.5t16.5 -40.5q0 -56 -63 -56q-26 0 -41.5 15zM278 678q-16 15 -16 40.5t16 40.5t44.5 15t44.5 -14.5t16 -40.5t-16 -41
t-44.5 -15t-44.5 15z" />
    <glyph glyph-name="Aring" unicode="&#xc5;" horiz-adv-x="498" 
d="M490 0h-167l-19 98h-118l-19 -98h-159l114 621h254zM285 215l-35 222h-7l-35 -222h77zM187 786.5q23 20.5 60 20.5t59 -19.5t22 -54.5t-22 -55.5t-59 -20.5t-60 20t-23 54.5t23 55zM246 761q-21 0 -21 -28t21 -28t21 28t-21 28z" />
    <glyph glyph-name="AE" unicode="&#xc6;" horiz-adv-x="698" 
d="M674 0h-336v98h-132l-38 -98h-168l260 621h424l-10 -153h-165v-93h143v-132h-143v-103h175zM338 215v222h-7l-81 -222h88z" />
    <glyph glyph-name="Ccedilla" unicode="&#xc7;" horiz-adv-x="466" 
d="M350.5 -56q15.5 -15 15.5 -43t-25.5 -49t-76 -21t-93.5 32l36 70q35 -33 63 -33q8 0 8 7.5t-11 13.5l-21 12q-21 13 -21 31t12 30q-95 15 -153.5 95t-58.5 223.5t75.5 237.5t188.5 94t169 -59l-56 -150q-19 19 -31 29q-33 29 -75.5 29t-68.5 -51t-26 -129t26.5 -128
t70.5 -50q59 0 105 51l56 -142q-60 -47 -150 -53q-5 -7 -5 -12t15.5 -12.5t31 -22.5z" />
    <glyph glyph-name="Egrave" unicode="&#xc8;" horiz-adv-x="404" 
d="M380 0h-336v621h346l-10 -153h-165v-93h143v-132h-143v-103h175zM182 664l-103 133h150l62 -133h-109z" />
    <glyph glyph-name="Eacute" unicode="&#xc9;" horiz-adv-x="404" 
d="M380 0h-336v621h346l-10 -153h-165v-93h143v-132h-143v-103h175zM360 797l-102 -133h-110l60 133h152z" />
    <glyph glyph-name="Ecircumflex" unicode="&#xca;" horiz-adv-x="404" 
d="M380 0h-336v621h346l-10 -153h-165v-93h143v-132h-143v-103h175zM283 792l63 -128h-101l-33 53l-33 -53h-102l63 128h143z" />
    <glyph glyph-name="Edieresis" unicode="&#xcb;" horiz-adv-x="404" 
d="M380 0h-336v621h346l-10 -153h-165v-93h143v-132h-143v-103h175zM89.5 678q-15.5 15 -15.5 40.5t15.5 40.5t43.5 15t44.5 -14.5t16.5 -40.5q0 -56 -63 -56q-26 0 -41.5 15zM250 678q-16 15 -16 40.5t16 40.5t44.5 15t44.5 -14.5t16 -40.5t-16 -41t-44.5 -15t-44.5 15z
" />
    <glyph glyph-name="Igrave" unicode="&#xcc;" horiz-adv-x="272" 
d="M209 0h-170v621h170v-621zM82 664l-103 133h150l62 -133h-109z" />
    <glyph glyph-name="Iacute" unicode="&#xcd;" horiz-adv-x="272" 
d="M213 0h-170v621h170v-621zM258 797l-102 -133h-110l60 133h152z" />
    <glyph glyph-name="Icircumflex" unicode="&#xce;" horiz-adv-x="272" 
d="M209 0h-170v621h170v-621zM196 792l63 -128h-101l-33 53l-33 -53h-102l63 128h143z" />
    <glyph glyph-name="Idieresis" unicode="&#xcf;" horiz-adv-x="272" 
d="M209 0h-170v621h170v-621zM-0.5 678q-15.5 15 -15.5 40.5t15.5 40.5t43.5 15t44.5 -14.5t16.5 -40.5q0 -56 -63 -56q-26 0 -41.5 15zM160 678q-16 15 -16 40.5t16 40.5t44.5 15t44.5 -14.5t16 -40.5t-16 -41t-44.5 -15t-44.5 15z" />
    <glyph glyph-name="Eth" unicode="&#xd0;" horiz-adv-x="526" 
d="M506 324q0 -324 -256 -324h-206v250h-55v118h55v253h210q137 0 194.5 -76.5t57.5 -220.5zM269 250h-55v-106h33q53 0 68.5 37.5t15.5 126t-16.5 125.5t-70.5 37h-30v-102h55v-118z" />
    <glyph glyph-name="Ntilde" unicode="&#xd1;" horiz-adv-x="543" 
d="M498 0h-164l-129 289h-8v-289h-152v621h169l123 -298h8v298h153v-621zM419 797v-8q0 -60 -17 -91.5t-69 -31.5q-31 0 -76 15l-23 8v-34h-103v10q0 62 18 92.5t63 30.5q18 0 85 -18l19 -4v31h103z" />
    <glyph glyph-name="Ograve" unicode="&#xd2;" horiz-adv-x="538" 
d="M270 631q131 0 187.5 -74t56.5 -240.5t-58 -246.5t-188 -80t-187 79t-57 245.5t57.5 241.5t188.5 75zM327.5 440.5q-14.5 32.5 -59 32.5t-57.5 -32.5t-13 -123.5v-24q0 -97 14.5 -127.5t59 -30.5t57.5 29t13 120v32q0 92 -14.5 124.5zM229 664l-103 133h150l62 -133h-109
z" />
    <glyph glyph-name="Oacute" unicode="&#xd3;" horiz-adv-x="538" 
d="M270 631q131 0 187.5 -74t56.5 -240.5t-58 -246.5t-188 -80t-187 79t-57 245.5t57.5 241.5t188.5 75zM327.5 440.5q-14.5 32.5 -59 32.5t-57.5 -32.5t-13 -123.5v-24q0 -97 14.5 -127.5t59 -30.5t57.5 29t13 120v32q0 92 -14.5 124.5zM412 797l-102 -133h-110l60 133h152
z" />
    <glyph glyph-name="Ocircumflex" unicode="&#xd4;" horiz-adv-x="538" 
d="M270 631q131 0 187.5 -74t56.5 -240.5t-58 -246.5t-188 -80t-187 79t-57 245.5t57.5 241.5t188.5 75zM327.5 440.5q-14.5 32.5 -59 32.5t-57.5 -32.5t-13 -123.5v-24q0 -97 14.5 -127.5t59 -30.5t57.5 29t13 120v32q0 92 -14.5 124.5zM340 792l63 -128h-101l-33 53
l-33 -53h-102l63 128h143z" />
    <glyph glyph-name="Otilde" unicode="&#xd5;" horiz-adv-x="538" 
d="M270 631q131 0 187.5 -74t56.5 -240.5t-58 -246.5t-188 -80t-187 79t-57 245.5t57.5 241.5t188.5 75zM327.5 440.5q-14.5 32.5 -59 32.5t-57.5 -32.5t-13 -123.5v-24q0 -97 14.5 -127.5t59 -30.5t57.5 29t13 120v32q0 92 -14.5 124.5zM406 797v-8q0 -60 -17 -91.5
t-69 -31.5q-31 0 -76 15l-23 8v-34h-103v10q0 62 18 92.5t63 30.5q18 0 85 -18l19 -4v31h103z" />
    <glyph glyph-name="Odieresis" unicode="&#xd6;" horiz-adv-x="538" 
d="M270 631q131 0 187.5 -74t56.5 -240.5t-58 -246.5t-188 -80t-187 79t-57 245.5t57.5 241.5t188.5 75zM327.5 440.5q-14.5 32.5 -59 32.5t-57.5 -32.5t-13 -123.5v-24q0 -97 14.5 -127.5t59 -30.5t57.5 29t13 120v32q0 92 -14.5 124.5zM144.5 678q-15.5 15 -15.5 40.5
t15.5 40.5t43.5 15t44.5 -14.5t16.5 -40.5q0 -56 -63 -56q-26 0 -41.5 15zM305 678q-16 15 -16 40.5t16 40.5t44.5 15t44.5 -14.5t16 -40.5t-16 -41t-44.5 -15t-44.5 15z" />
    <glyph glyph-name="multiply" unicode="&#xd7;" horiz-adv-x="476" 
d="M334 110l-94 99l-96 -100l-92 92l100 96l-100 95l90 89l95 -99l95 99l92 -92l-99 -95l98 -95z" />
    <glyph glyph-name="Oslash" unicode="&#xd8;" horiz-adv-x="538" 
d="M270 631q26 0 50 -3l22 55h166l-50 -127q56 -73 56 -239.5t-58 -246.5t-189 -80q-12 0 -32 2l-25 -63h-168l50 126q-68 77 -68 251.5t57.5 249.5t188.5 75zM327.5 446.5q-14.5 32.5 -59 32.5t-57.5 -32.5t-13 -123.5v-24q0 -98 14.5 -131t58.5 -33t57.5 31.5t13.5 123.5
v32q0 92 -14.5 124.5z" />
    <glyph glyph-name="Ugrave" unicode="&#xd9;" horiz-adv-x="543" 
d="M232 158q13 -15 42.5 -15t41 14.5t11.5 47.5v416h172v-426q0 -107 -58.5 -156t-172 -49t-169 48.5t-55.5 154.5v428h175v-417q0 -31 13 -46zM226 664l-103 133h150l62 -133h-109z" />
    <glyph glyph-name="Uacute" unicode="&#xda;" horiz-adv-x="543" 
d="M232 158q13 -15 42.5 -15t41 14.5t11.5 47.5v416h172v-426q0 -107 -58.5 -156t-172 -49t-169 48.5t-55.5 154.5v428h175v-417q0 -31 13 -46zM425 797l-102 -133h-110l60 133h152z" />
    <glyph glyph-name="Ucircumflex" unicode="&#xdb;" horiz-adv-x="543" 
d="M232 158q13 -15 42.5 -15t41 14.5t11.5 47.5v416h172v-426q0 -107 -58.5 -156t-172 -49t-169 48.5t-55.5 154.5v428h175v-417q0 -31 13 -46zM345 792l63 -128h-101l-33 53l-33 -53h-102l63 128h143z" />
    <glyph glyph-name="Udieresis" unicode="&#xdc;" horiz-adv-x="543" 
d="M232 158q13 -15 42.5 -15t41 14.5t11.5 47.5v416h172v-426q0 -107 -58.5 -156t-172 -49t-169 48.5t-55.5 154.5v428h175v-417q0 -31 13 -46zM147.5 678q-15.5 15 -15.5 40.5t15.5 40.5t43.5 15t44.5 -14.5t16.5 -40.5q0 -56 -63 -56q-26 0 -41.5 15zM308 678
q-16 15 -16 40.5t16 40.5t44.5 15t44.5 -14.5t16 -40.5t-16 -41t-44.5 -15t-44.5 15z" />
    <glyph glyph-name="Yacute" unicode="&#xdd;" horiz-adv-x="464" 
d="M464 621l-148 -429v-192h-170v192l-146 429h188l45 -202h8l43 202h180zM389 787l-102 -133h-110l60 133h152z" />
    <glyph glyph-name="Thorn" unicode="&#xde;" horiz-adv-x="462" 
d="M250 114h-38v-114h-168v621h168v-89h27q111 0 161 -48.5t50 -160.5t-48 -160.5t-152 -48.5zM278 310q0 44 -10 62t-40 18h-16v-158h20q28 0 37 17t9 61z" />
    <glyph glyph-name="germandbls" unicode="&#xdf;" horiz-adv-x="504" 
d="M246 135l36 -3q45 0 45 59q0 70 -86 70v125q34 0 49 15.5t15 47.5q0 59 -48 59q-37 0 -37 -39v-469h-167v341h-44v124h44v16q0 90 51.5 132t157 42t161.5 -46.5t56 -135t-61 -132.5v-4q82 -42 82 -158q0 -91 -43 -140t-129 -49q-31 0 -87 10z" />
    <glyph glyph-name="agrave" unicode="&#xe0;" horiz-adv-x="436" 
d="M391 354l-5 -207q0 -19 9.5 -25.5t32.5 -6.5l-15 -121q-58 -4 -64 -4q-74 0 -94 51h-5q-37 -51 -114 -51q-59 0 -90.5 38t-31.5 104q0 83 51.5 115t162.5 42v24q0 28 -28 28q-48 0 -150 -29l-25 146q128 33 213 33t119 -33t34 -104zM198 107q37 0 37 39v49
q-37 -5 -52.5 -15.5t-15.5 -35.5q0 -37 31 -37zM180 520l-108 140h158l65 -140h-115z" />
    <glyph glyph-name="aacute" unicode="&#xe1;" horiz-adv-x="436" 
d="M391 354l-5 -207q0 -19 9.5 -25.5t32.5 -6.5l-15 -121q-58 -4 -64 -4q-74 0 -94 51h-5q-37 -51 -114 -51q-59 0 -90.5 38t-31.5 104q0 83 51.5 115t162.5 42v24q0 28 -28 28q-48 0 -150 -29l-25 146q128 33 213 33t119 -33t34 -104zM198 107q37 0 37 39v49
q-37 -5 -52.5 -15.5t-15.5 -35.5q0 -37 31 -37zM363 660l-108 -140h-115l63 140h160z" />
    <glyph glyph-name="acircumflex" unicode="&#xe2;" horiz-adv-x="436" 
d="M391 354l-5 -207q0 -19 9.5 -25.5t32.5 -6.5l-15 -121q-58 -4 -64 -4q-74 0 -94 51h-5q-37 -51 -114 -51q-59 0 -90.5 38t-31.5 104q0 83 51.5 115t162.5 42v24q0 28 -28 28q-48 0 -150 -29l-25 146q128 33 213 33t119 -33t34 -104zM198 107q37 0 37 39v49
q-37 -5 -52.5 -15.5t-15.5 -35.5q0 -37 31 -37zM291 655l66 -135h-106l-35 56l-35 -56h-107l66 135h151z" />
    <glyph glyph-name="atilde" unicode="&#xe3;" horiz-adv-x="436" 
d="M391 354l-5 -207q0 -19 9.5 -25.5t32.5 -6.5l-15 -121q-58 -4 -64 -4q-74 0 -94 51h-5q-37 -51 -114 -51q-59 0 -90.5 38t-31.5 104q0 83 51.5 115t162.5 42v24q0 28 -28 28q-48 0 -150 -29l-25 146q128 33 213 33t119 -33t34 -104zM198 107q37 0 37 39v49
q-37 -5 -52.5 -15.5t-15.5 -35.5q0 -37 31 -37zM359 660v-8q0 -64 -18 -97t-72 -33q-36 0 -80 16l-24 8v-35h-109v10q0 65 19 97.5t67 32.5q16 0 89 -19l20 -5v33h108z" />
    <glyph glyph-name="adieresis" unicode="&#xe4;" horiz-adv-x="436" 
d="M391 354l-5 -207q0 -19 9.5 -25.5t32.5 -6.5l-15 -121q-58 -4 -64 -4q-74 0 -94 51h-5q-37 -51 -114 -51q-59 0 -90.5 38t-31.5 104q0 83 51.5 115t162.5 42v24q0 28 -28 28q-48 0 -150 -29l-25 146q128 33 213 33t119 -33t34 -104zM198 107q37 0 37 39v49
q-37 -5 -52.5 -15.5t-15.5 -35.5q0 -37 31 -37zM79.5 534.5q-16.5 15.5 -16.5 43t16.5 43t46.5 15.5t47 -15.5t17 -42.5q0 -59 -66 -59q-28 0 -44.5 15.5zM248.5 534.5q-16.5 15.5 -16.5 43t17 43t47 15.5t46.5 -15.5t16.5 -43t-16.5 -43t-47 -15.5t-47 15.5z" />
    <glyph glyph-name="aring" unicode="&#xe5;" horiz-adv-x="436" 
d="M391 354l-5 -207q0 -19 9.5 -25.5t32.5 -6.5l-15 -121q-58 -4 -64 -4q-74 0 -94 51h-5q-37 -51 -114 -51q-59 0 -90.5 38t-31.5 104q0 83 51.5 115t162.5 42v24q0 28 -28 28q-48 0 -150 -29l-25 146q128 33 213 33t119 -33t34 -104zM198 107q37 0 37 39v49
q-37 -5 -52.5 -15.5t-15.5 -35.5q0 -37 31 -37zM149 649.5q24 21.5 63 21.5t62 -20.5t23 -57.5t-23 -58.5t-62 -21.5t-63 21t-24 57.5t24 58zM211 622q-22 0 -22 -29.5t22 -29.5t22 29.5t-22 29.5z" />
    <glyph glyph-name="ae" unicode="&#xe6;" horiz-adv-x="643" 
d="M47.5 27.5q-33.5 37.5 -33.5 112.5t51.5 107t162.5 42v24q0 28 -28 28q-48 0 -150 -29l-25 146q128 33 220 33q53 0 90 -25q42 25 101 25q103 0 147.5 -49.5t44.5 -141.5q0 -58 -6 -104h-229q0 -79 69 -79q33 0 129 23l18 -122q-91 -28 -179.5 -28t-136.5 62h-4
q-54 -62 -148 -62q-60 0 -93.5 37.5zM432 350q-26 0 -34 -17.5t-8 -53.5h87v24q0 47 -45 47zM198 107q37 0 37 39v49q-37 -5 -52.5 -15.5t-15.5 -35.5q0 -37 31 -37z" />
    <glyph glyph-name="ccedilla" unicode="&#xe7;" horiz-adv-x="345" 
d="M320 324q-58 25 -87.5 25t-39.5 -28t-10 -84.5t9.5 -81.5t43 -25t82.5 11l18 -128q-58 -19 -108 -22q-7 -9 -7 -16t16 -15q48 -24 48 -58t-24.5 -53.5t-72.5 -19.5t-92 29l34 63q41 -31 57 -31t16 9.5t-13 16.5l-17 10q-23 12 -23 31.5t15 36.5q-74 13 -112 75t-38 170.5
t50 180t145 71.5q71 0 128 -24z" />
    <glyph glyph-name="egrave" unicode="&#xe8;" horiz-adv-x="444" 
d="M232 348q-26 0 -34 -17.5t-8 -53.5h87v24q0 47 -45 47zM236 491q103 0 147.5 -49.5t44.5 -141.5q0 -12 -7 -108h-228q0 -75 69 -75q33 0 129 23l14 -124q-84 -26 -168 -26q-103 0 -158 67.5t-55 183.5q0 250 212 250zM204 520l-108 140h158l65 -140h-115z" />
    <glyph glyph-name="eacute" unicode="&#xe9;" horiz-adv-x="444" 
d="M232 348q-26 0 -34 -17.5t-8 -53.5h87v24q0 47 -45 47zM236 491q103 0 147.5 -49.5t44.5 -141.5q0 -12 -7 -108h-228q0 -75 69 -75q33 0 129 23l14 -124q-84 -26 -168 -26q-103 0 -158 67.5t-55 183.5q0 250 212 250zM392 660l-108 -140h-115l63 140h160z" />
    <glyph glyph-name="ecircumflex" unicode="&#xea;" horiz-adv-x="444" 
d="M232 348q-26 0 -34 -17.5t-8 -53.5h87v24q0 47 -45 47zM236 491q103 0 147.5 -49.5t44.5 -141.5q0 -12 -7 -108h-228q0 -75 69 -75q33 0 129 23l14 -124q-84 -26 -168 -26q-103 0 -158 67.5t-55 183.5q0 250 212 250zM313 655l66 -135h-106l-35 56l-35 -56h-107l66 135
h151z" />
    <glyph glyph-name="edieresis" unicode="&#xeb;" horiz-adv-x="444" 
d="M232 348q-26 0 -34 -17.5t-8 -53.5h87v24q0 47 -45 47zM236 491q103 0 147.5 -49.5t44.5 -141.5q0 -12 -7 -108h-228q0 -75 69 -75q33 0 129 23l14 -124q-84 -26 -168 -26q-103 0 -158 67.5t-55 183.5q0 250 212 250zM100.5 534.5q-16.5 15.5 -16.5 43t16.5 43t46.5 15.5
t47 -15.5t17 -42.5q0 -59 -66 -59q-28 0 -44.5 15.5zM269.5 534.5q-16.5 15.5 -16.5 43t17 43t47 15.5t46.5 -15.5t16.5 -43t-16.5 -43t-47 -15.5t-47 15.5z" />
    <glyph glyph-name="igrave" unicode="&#xec;" horiz-adv-x="232" 
d="M199 0h-165v474h165v-474zM83 520l-108 140h158l65 -140h-115z" />
    <glyph glyph-name="iacute" unicode="&#xed;" horiz-adv-x="232" 
d="M198 0h-165v474h165v-474zM262 660l-108 -140h-115l63 140h160z" />
    <glyph glyph-name="icircumflex" unicode="&#xee;" horiz-adv-x="232" 
d="M198 0h-165v474h165v-474zM192 655l66 -135h-106l-35 56l-35 -56h-107l66 135h151z" />
    <glyph glyph-name="idieresis" unicode="&#xef;" horiz-adv-x="232" 
d="M198 0h-165v474h165v-474zM-15.5 534.5q-16.5 15.5 -16.5 43t16.5 43t46.5 15.5t47 -15.5t17 -42.5q0 -59 -66 -59q-28 0 -44.5 15.5zM153.5 534.5q-16.5 15.5 -16.5 43t17 43t47 15.5t46.5 -15.5t16.5 -43t-16.5 -43t-47 -15.5t-47 15.5z" />
    <glyph glyph-name="eth" unicode="&#xf0;" horiz-adv-x="472" 
d="M183 400q38 0 74 -6l3 3q-13 37 -40 60l-106 -55v92l22 12q-33 6 -73 6v131q142 0 216 -30l93 46v-111l-16 -9q94 -94 94 -274q0 -139 -53 -207t-169 -68q-206 0 -206 218q0 94 43.5 143t117.5 49zM233 281q-25 0 -34 -21t-9 -61.5t9 -58.5t34.5 -18t33.5 22t8 64
q0 73 -42 73z" />
    <glyph glyph-name="ntilde" unicode="&#xf1;" horiz-adv-x="473" 
d="M200 444q55 47 121 47t92.5 -30.5t26.5 -91.5v-369h-170v312q0 25 -22 25q-28 0 -47 -14v-323h-168v479h153l10 -35h4zM379 660v-8q0 -64 -18 -97t-72 -33q-36 0 -80 16l-24 8v-35h-109v10q0 65 19 97.5t67 32.5q16 0 89 -19l20 -5v33h108z" />
    <glyph glyph-name="ograve" unicode="&#xf2;" horiz-adv-x="462" 
d="M74.5 432q50.5 59 158 59t156.5 -58t49 -190.5t-48 -192.5t-157 -60t-159 60t-50 191.5t50.5 190.5zM232 356q-26 0 -33 -20t-7 -84v-24q0 -71 7 -92t32.5 -21t32.5 21t7 86v29q0 65 -6.5 85t-32.5 20zM206 520l-108 140h158l65 -140h-115z" />
    <glyph glyph-name="oacute" unicode="&#xf3;" horiz-adv-x="462" 
d="M74.5 432q50.5 59 158 59t156.5 -58t49 -190.5t-48 -192.5t-157 -60t-159 60t-50 191.5t50.5 190.5zM232 356q-26 0 -33 -20t-7 -84v-24q0 -71 7 -92t32.5 -21t32.5 21t7 86v29q0 65 -6.5 85t-32.5 20zM382 660l-108 -140h-115l63 140h160z" />
    <glyph glyph-name="ocircumflex" unicode="&#xf4;" horiz-adv-x="462" 
d="M74.5 432q50.5 59 158 59t156.5 -58t49 -190.5t-48 -192.5t-157 -60t-159 60t-50 191.5t50.5 190.5zM232 356q-26 0 -33 -20t-7 -84v-24q0 -71 7 -92t32.5 -21t32.5 21t7 86v29q0 65 -6.5 85t-32.5 20zM308 655l66 -135h-106l-35 56l-35 -56h-107l66 135h151z" />
    <glyph glyph-name="otilde" unicode="&#xf5;" horiz-adv-x="462" 
d="M74.5 432q50.5 59 158 59t156.5 -58t49 -190.5t-48 -192.5t-157 -60t-159 60t-50 191.5t50.5 190.5zM232 356q-26 0 -33 -20t-7 -84v-24q0 -71 7 -92t32.5 -21t32.5 21t7 86v29q0 65 -6.5 85t-32.5 20zM381 660v-8q0 -64 -18 -97t-72 -33q-36 0 -80 16l-24 8v-35h-109v10
q0 65 19 97.5t67 32.5q16 0 89 -19l20 -5v33h108z" />
    <glyph glyph-name="odieresis" unicode="&#xf6;" horiz-adv-x="462" 
d="M74.5 432q50.5 59 158 59t156.5 -58t49 -190.5t-48 -192.5t-157 -60t-159 60t-50 191.5t50.5 190.5zM232 356q-26 0 -33 -20t-7 -84v-24q0 -71 7 -92t32.5 -21t32.5 21t7 86v29q0 65 -6.5 85t-32.5 20zM99.5 534.5q-16.5 15.5 -16.5 43t16.5 43t46.5 15.5t47 -15.5
t17 -42.5q0 -59 -66 -59q-28 0 -44.5 15.5zM268.5 534.5q-16.5 15.5 -16.5 43t17 43t47 15.5t46.5 -15.5t16.5 -43t-16.5 -43t-47 -15.5t-47 15.5z" />
    <glyph glyph-name="divide" unicode="&#xf7;" horiz-adv-x="482" 
d="M430 231h-378v126h378v-126zM154 85q0 40 21 59.5t67 19.5t67 -19.5t21 -61.5q0 -77 -88 -77t-88 79zM154 499q0 40 21 59.5t67 19.5t67 -19.5t21 -61.5q0 -77 -88 -77t-88 79z" />
    <glyph glyph-name="oslash" unicode="&#xf8;" horiz-adv-x="445" 
d="M226 491q22 0 32 -1l24 60h131l-42 -106q60 -57 60 -195.5t-48 -198.5t-157 -60q-12 0 -34 2l-24 -63h-133l43 108q-61 58 -61 197t50.5 198t158.5 59zM225 356q-26 0 -33 -20t-7 -84v-24q0 -71 7 -92t32.5 -21t32.5 21t7 86v29q0 65 -6.5 85t-32.5 20z" />
    <glyph glyph-name="ugrave" unicode="&#xf9;" horiz-adv-x="467" 
d="M149 -10q-119 0 -119 132v357h170v-316q0 -25 22 -25q28 0 47 14v327h168v-477h-159v35h-4q-55 -47 -125 -47zM189 520l-108 140h158l65 -140h-115z" />
    <glyph glyph-name="uacute" unicode="&#xfa;" horiz-adv-x="467" 
d="M149 -10q-119 0 -119 132v357h170v-316q0 -25 22 -25q28 0 47 14v327h168v-477h-159v35h-4q-55 -47 -125 -47zM403 660l-108 -140h-115l63 140h160z" />
    <glyph glyph-name="ucircumflex" unicode="&#xfb;" horiz-adv-x="467" 
d="M149 -10q-119 0 -119 132v357h170v-316q0 -25 22 -25q28 0 47 14v327h168v-477h-159v35h-4q-55 -47 -125 -47zM311 655l66 -135h-106l-35 56l-35 -56h-107l66 135h151z" />
    <glyph glyph-name="udieresis" unicode="&#xfc;" horiz-adv-x="467" 
d="M149 -10q-119 0 -119 132v357h170v-316q0 -25 22 -25q28 0 47 14v327h168v-477h-159v35h-4q-55 -47 -125 -47zM101.5 534.5q-16.5 15.5 -16.5 43t16.5 43t46.5 15.5t47 -15.5t17 -42.5q0 -59 -66 -59q-28 0 -44.5 15.5zM270.5 534.5q-16.5 15.5 -16.5 43t17 43t47 15.5
t46.5 -15.5t16.5 -43t-16.5 -43t-47 -15.5t-47 15.5z" />
    <glyph glyph-name="yacute" unicode="&#xfd;" horiz-adv-x="445" 
d="M445 479l-124 -493q-19 -74 -56 -103.5t-121 -29.5h-100l-15 129h56q34 0 34 27q0 6 -4 26l-115 444h178l45 -299h9l49 299h164zM395 660l-108 -140h-115l63 140h160z" />
    <glyph glyph-name="thorn" unicode="&#xfe;" horiz-adv-x="466" 
d="M411 435.5q31 -54.5 31 -187t-34.5 -196t-131.5 -63.5q-45 0 -78 19v-145h-168v778h167v-173h4q29 22 85 22q94 0 125 -54.5zM273 185q1 17 1 64.5t-7 73t-28.5 25.5t-42.5 -12v-207q19 -9 36.5 -9t25 6.5t11 24t4.5 34.5z" />
    <glyph glyph-name="ydieresis" unicode="&#xff;" horiz-adv-x="445" 
d="M445 479l-124 -493q-19 -74 -56 -103.5t-121 -29.5h-100l-15 129h56q34 0 34 27q0 6 -4 26l-115 444h178l45 -299h9l49 299h164zM82.5 534.5q-16.5 15.5 -16.5 43t16.5 43t46.5 15.5t47 -15.5t17 -42.5q0 -59 -66 -59q-28 0 -44.5 15.5zM251.5 534.5q-16.5 15.5 -16.5 43
t17 43t47 15.5t46.5 -15.5t16.5 -43t-16.5 -43t-47 -15.5t-47 15.5z" />
    <glyph glyph-name="hbar" unicode="&#x127;" horiz-adv-x="467" 
d="M201 444q55 47 119 47t90.5 -30.5t26.5 -91.5v-369h-170v312q0 25 -22 25q-28 0 -47 -14v-323h-168v506h-30v95h30v40h167v-40h73v-95h-73v-62h4z" />
    <glyph glyph-name="Itilde" unicode="&#x128;" horiz-adv-x="278" 
d="M224 0h-170v621h170v-621zM276 797v-8q0 -60 -17 -91.5t-69 -31.5q-31 0 -76 15l-23 8v-34h-103v10q0 62 18 92.5t63 30.5q18 0 85 -18l19 -4v31h103z" />
    <glyph glyph-name="itilde" unicode="&#x129;" horiz-adv-x="232" 
d="M199 0h-165v474h165v-474zM268 660v-8q0 -64 -18 -97t-72 -33q-36 0 -80 16l-24 8v-35h-109v10q0 65 19 97.5t67 32.5q16 0 89 -19l20 -5v33h108z" />
    <glyph glyph-name="dotlessi" unicode="&#x131;" horiz-adv-x="232" 
d="M199 0h-165v474h165v-474z" />
    <glyph glyph-name="IJ" unicode="&#x132;" horiz-adv-x="562" 
d="M224 0h-170v621h170v-621zM518 621v-496q0 -77 -35 -106t-129 -29h-51l-13 136h34q17 0 21.5 4.5t4.5 19.5v471h168z" />
    <glyph glyph-name="ij" unicode="&#x133;" horiz-adv-x="480" 
d="M439 474v-486q0 -78 -34.5 -106.5t-128.5 -28.5h-50l-14 138h34q17 0 21.5 4.5t4.5 19.5v459h167zM199 0h-165v474h165v-474zM26 570q0 40 21 59t69 19t69 -19t21 -58.5t-21 -58t-69 -18.5t-69 18t-21 58zM265 570q0 40 21 59t69 19t69 -19t21 -58.5t-21 -58t-69 -18.5
t-69 18t-21 58z" />
    <glyph glyph-name="Jcircumflex" unicode="&#x134;" horiz-adv-x="288" 
d="M244 621v-496q0 -77 -35 -106t-129 -29h-51l-13 136h34q17 0 21.5 4.5t4.5 19.5v471h168zM226 792l63 -128h-101l-33 53l-33 -53h-102l63 128h143z" />
    <glyph glyph-name="jcircumflex" unicode="&#x135;" horiz-adv-x="248" 
d="M209 474v-486q0 -78 -34.5 -106.5t-128.5 -28.5h-50l-14 138h34q17 0 21.5 4.5t4.5 19.5v459h167zM200 655l66 -135h-106l-35 56l-35 -56h-107l66 135h151z" />
    <glyph glyph-name="kcommaaccent" unicode="&#x137;" horiz-adv-x="442" 
d="M443 0h-185l-61 184h-4v-184h-163v641h165v-353h4l73 191h175l-101 -239zM129 -76q0 67 92 67t92 -69q0 -54 -77 -97l-80 6l36 41q-28 0 -45.5 13.5t-17.5 38.5z" />
    <glyph glyph-name="kgreenlandic" unicode="&#x138;" horiz-adv-x="446" 
d="M447 0h-185l-62 170h-4v-170h-166v480h168v-192h4q46 120 74 146q45 42 80.5 49.5t71.5 7.5l-7 -166q-18 0 -31.5 -11t-20 -24t-21.5 -46z" />
    <glyph glyph-name="Ldotaccent" unicode="&#x13f;" horiz-adv-x="424" 
d="M360 0h-316v621h171v-482h155zM340 216q-96 0 -96 89.5t96 89.5t96 -89.5t-96 -89.5z" />
    <glyph glyph-name="ldot" unicode="&#x140;" horiz-adv-x="420" 
d="M30 110v531h165v-478q0 -17 7.5 -24t26.5 -7l-13 -142h-55q-66 0 -98.5 27.5t-32.5 92.5zM320 216q-96 0 -96 89.5t96 89.5t96 -89.5t-96 -89.5z" />
    <glyph glyph-name="Lslash" unicode="&#x141;" horiz-adv-x="362" 
d="M360 0h-316v179l-43 -27v148l43 27v294h171v-185l53 34v-148l-53 -34v-149h155z" />
    <glyph glyph-name="lslash" unicode="&#x142;" horiz-adv-x="233" 
d="M34 110v69l-34 -21v148l34 21v314h165v-209l34 22v-148l-34 -22v-121q0 -17 7.5 -24t26.5 -7l-13 -142h-55q-66 0 -98.5 27.5t-32.5 92.5z" />
    <glyph glyph-name="Nacute" unicode="&#x143;" horiz-adv-x="541" 
d="M497 0h-164l-129 289h-8v-289h-152v621h169l123 -298h8v298h153v-621zM418 797l-102 -133h-110l60 133h152z" />
    <glyph glyph-name="nacute" unicode="&#x144;" horiz-adv-x="467" 
d="M197 444q55 47 121 47t92.5 -30.5t26.5 -91.5v-369h-170v312q0 25 -22 25q-28 0 -47 -14v-323h-168v479h153l10 -35h4zM385 660l-108 -140h-115l63 140h160z" />
    <glyph glyph-name="OE" unicode="&#x152;" horiz-adv-x="692" 
d="M271 631q44 0 86 -10h310v-147h-169q10 -40 15 -93h132v-132h-133q-4 -58 -18 -103h173v-146h-316q-40 -10 -83 -10q-129 0 -186 79t-57 245.5t57.5 241.5t188.5 75zM328.5 446.5q-14.5 32.5 -59 32.5t-57.5 -32.5t-13 -123.5v-24q0 -98 14.5 -131t58.5 -33t57.5 31.5
t13.5 123.5v32q0 92 -14.5 124.5z" />
    <glyph glyph-name="oe" unicode="&#x153;" horiz-adv-x="684" 
d="M352 451q43 40 136 40q181 0 181 -191q0 -58 -6 -104h-229q0 -79 69 -79q33 0 129 23l18 -122q-91 -28 -171.5 -28t-123.5 43q-39 -43 -138.5 -43t-149.5 60t-50 191.5t50.5 190.5t158.5 59q86 0 126 -40zM225 356q-26 0 -33 -20t-7 -84v-24q0 -71 7 -92t32.5 -21
t32.5 21t7 86v29q0 65 -6.5 85t-32.5 20zM473 350q-26 0 -34 -17.5t-8 -53.5h87v24q0 47 -45 47z" />
    <glyph glyph-name="Racute" unicode="&#x154;" horiz-adv-x="494" 
d="M469 424q0 -56 -17 -93t-53 -67l83 -264h-185l-62 224h-23v-224h-168v621h232q100 0 146.5 -47t46.5 -150zM275 344q11 15 11 54.5t-11 55t-36 15.5h-27v-140h26q26 0 37 15zM383 797l-102 -133h-110l60 133h152z" />
    <glyph glyph-name="Rcommaaccent" unicode="&#x156;" horiz-adv-x="494" 
d="M469 424q0 -56 -17 -93t-53 -67l83 -264h-185l-62 224h-23v-224h-168v621h232q100 0 146.5 -47t46.5 -150zM275 344q11 15 11 54.5t-11 55t-36 15.5h-27v-140h26q26 0 37 15zM165 -76q0 67 92 67t92 -69q0 -54 -77 -97l-80 6l36 41q-28 0 -45.5 13.5t-17.5 38.5z" />
    <glyph glyph-name="rcommaaccent" unicode="&#x157;" horiz-adv-x="313" 
d="M196 269v-269h-166v479h146l10 -29h4q23 26 46.5 33.5t76.5 7.5l-7 -160h-46q-39 0 -51.5 -12t-12.5 -50zM35 -76q0 67 92 67t92 -69q0 -54 -77 -97l-80 6l36 41q-28 0 -45.5 13.5t-17.5 38.5z" />
    <glyph glyph-name="Rcaron" unicode="&#x158;" horiz-adv-x="494" 
d="M469 424q0 -56 -17 -93t-53 -67l83 -264h-185l-62 224h-23v-224h-168v621h232q100 0 146.5 -47t46.5 -150zM275 344q11 15 11 54.5t-11 55t-36 15.5h-27v-140h26q26 0 37 15zM172 652l-55 129h93l26 -48l27 48h93l-54 -129h-130z" />
    <glyph glyph-name="rcaron" unicode="&#x159;" horiz-adv-x="313" 
d="M196 269v-269h-166v479h146l10 -29h4q23 26 46.5 33.5t76.5 7.5l-7 -160h-46q-39 0 -51.5 -12t-12.5 -50zM99 518l-58 136h98l28 -51l28 51h98l-57 -136h-137z" />
    <glyph glyph-name="Scaron" unicode="&#x160;" horiz-adv-x="427" 
d="M68 577q52 54 142.5 54t185.5 -18l-20 -160q-99 23 -136 23q-47 0 -47 -38q0 -15 22.5 -29t54.5 -29.5t64 -37t54.5 -61.5t22.5 -92q0 -95 -51 -147t-144.5 -52t-182.5 29l11 149q107 -31 149 -31t42 37q0 19 -22.5 35t-54.5 32t-64.5 37t-55 61t-22.5 95q0 89 52 143z
M146 652l-55 129h93l26 -48l27 48h93l-54 -129h-130z" />
    <glyph glyph-name="scaron" unicode="&#x161;" horiz-adv-x="371" 
d="M74.5 450.5q44.5 40.5 122.5 40.5t158 -20l-17 -139q-102 23 -137 23q-21 0 -21 -17q0 -11 23 -20q80 -29 120.5 -66t40.5 -111t-38 -112.5t-116.5 -38.5t-156.5 20l11 135q100 -27 129.5 -27t29.5 14t-22 22q-89 34 -130 72.5t-41 111t44.5 113zM131 518l-58 136h98
l28 -51l28 51h98l-57 -136h-137z" />
    <glyph glyph-name="Ydieresis" unicode="&#x178;" horiz-adv-x="464" 
d="M464 621l-148 -429v-192h-170v192l-146 429h188l45 -202h8l43 202h180zM110.5 678q-15.5 15 -15.5 40.5t15.5 40.5t43.5 15t44.5 -14.5t16.5 -40.5q0 -56 -63 -56q-26 0 -41.5 15zM271 678q-16 15 -16 40.5t16 40.5t44.5 15t44.5 -14.5t16 -40.5t-16 -41t-44.5 -15
t-44.5 15z" />
    <glyph glyph-name="Zcaron" unicode="&#x17d;" horiz-adv-x="452" 
d="M442 0h-408l-4 92l183 374h-193l-10 155h422l5 -98l-174 -380h179v-143zM172 652l-55 129h93l26 -48l27 48h93l-54 -129h-130z" />
    <glyph glyph-name="zcaron" unicode="&#x17e;" horiz-adv-x="393" 
d="M381 0h-359l-4 96l148 243h-154v140h359l6 -89l-143 -252h147v-138zM134 518l-58 136h98l28 -51l28 51h98l-57 -136h-137z" />
    <glyph glyph-name="florin" unicode="&#x192;" horiz-adv-x="369" 
d="M92 -147q-41 0 -86 10l7 143q36 -6 49 -6q10 0 12 15l25 309h-57l9 99h55l6 73q6 72 46 112t95.5 40t109.5 -9l-22 -155q-40 9 -49 9t-11 -13l-5 -57h60l-10 -99h-58l-26 -317q-6 -74 -44 -114t-106 -40z" />
    <glyph glyph-name="circumflex" unicode="&#x2c6;" 
d="M332 655l66 -135h-106l-35 56l-35 -56h-107l66 135h151z" />
    <glyph glyph-name="caron" unicode="&#x2c7;" 
d="M182 518l-58 136h98l28 -51l28 51h98l-57 -136h-137z" />
    <glyph glyph-name="breve" unicode="&#x2d8;" 
d="M269 616q27 0 27 47h109q-3 -157 -138.5 -157t-135.5 157h111q0 -47 27 -47z" />
    <glyph glyph-name="dotaccent" unicode="&#x2d9;" 
d="M169 570q0 40 21 59t69 19t69 -19t21 -58.5t-21 -58t-69 -18.5t-69 18t-21 58z" />
    <glyph glyph-name="ring" unicode="&#x2da;" 
d="M195 649.5q24 21.5 63 21.5t62 -20.5t23 -57.5t-23 -58.5t-62 -21.5t-63 21t-24 57.5t24 58zM257 622q-22 0 -22 -29.5t22 -29.5t22 29.5t-22 29.5z" />
    <glyph glyph-name="ogonek" unicode="&#x2db;" 
d="M176 -93q0 47 56 93h84q-43 -50 -43 -74q0 -9 12.5 -9t31.5 19l32 -56q-45 -43 -98 -43q-33 0 -54 17.5t-21 52.5z" />
    <glyph glyph-name="tilde" unicode="&#x2dc;" 
d="M408 660v-8q0 -64 -18 -97t-72 -33q-36 0 -80 16l-24 8v-35h-109v10q0 65 19 97.5t67 32.5q16 0 89 -19l20 -5v33h108z" />
    <glyph glyph-name="hungarumlaut" unicode="&#x2dd;" 
d="M291 659l-110 -151h-88l77 151h121zM451 659l-120 -151h-90l78 151h132z" />
    <glyph glyph-name="dotaccentcmb" unicode="&#x307;" 
d="M169 570q0 40 21 59t69 19t69 -19t21 -58.5t-21 -58t-69 -18.5t-69 18t-21 58z" />
    <glyph glyph-name="Delta" unicode="&#x394;" horiz-adv-x="498" 
d="M8 0l116 621h252l114 -621h-482zM197 150h102l-47 283h-9z" />
    <glyph glyph-name="Delta" unicode="&#x2206;" horiz-adv-x="498" 
d="M8 0l116 621h252l114 -621h-482zM197 150h102l-47 283h-9z" />
    <glyph glyph-name="Omega" unicode="&#x3a9;" horiz-adv-x="550" 
d="M274 631q242 0 242 -271q0 -73 -19.5 -124.5t-59.5 -98.5v-4h81v-133h-227v123q55 78 55 194q0 103 -18 129q-17 27 -59 27t-55 -36.5t-13 -130t56 -182.5v-124h-225v133h74v4q-74 101 -74 230q0 264 242 264z" />
    <glyph glyph-name="Omega" unicode="&#x2126;" horiz-adv-x="550" 
d="M274 631q242 0 242 -271q0 -73 -19.5 -124.5t-59.5 -98.5v-4h81v-133h-227v123q55 78 55 194q0 103 -18 129q-17 27 -59 27t-55 -36.5t-13 -130t56 -182.5v-124h-225v133h74v4q-74 101 -74 230q0 264 242 264z" />
    <glyph glyph-name="pi" unicode="&#x3c0;" horiz-adv-x="508" 
d="M457 0h-170v337h-69v-337h-168v337h-37v137h482v-137h-38v-337z" />
    <glyph glyph-name="endash" unicode="&#x2013;" horiz-adv-x="429" 
d="M381 186h-333v134h333v-134z" />
    <glyph glyph-name="emdash" unicode="&#x2014;" horiz-adv-x="639" 
d="M591 186h-543v134h543v-134z" />
    <glyph glyph-name="quoteleft" unicode="&#x2018;" horiz-adv-x="237" 
d="M103 388q-89 0 -89 90.5t126 169.5l59 -22l-62 -81l2 -5q53 -11 53 -73q0 -79 -89 -79z" />
    <glyph glyph-name="quoteright" unicode="&#x2019;" horiz-adv-x="237" 
d="M134 641q89 0 89 -90.5t-126 -169.5l-59 22l62 81l-2 5q-53 11 -53 73q0 79 89 79z" />
    <glyph glyph-name="quotesinglbase" unicode="&#x201a;" horiz-adv-x="237" 
d="M134 141q89 0 89 -90.5t-126 -169.5l-59 22l62 81l-2 5q-53 11 -53 73q0 79 89 79z" />
    <glyph glyph-name="quotedblleft" unicode="&#x201c;" horiz-adv-x="437" 
d="M303 388q-89 0 -89 90.5t126 169.5l59 -22l-62 -81l2 -5q53 -11 53 -73q0 -79 -89 -79zM103 388q-89 0 -89 90.5t126 169.5l59 -22l-62 -81l2 -5q53 -11 53 -73q0 -79 -89 -79z" />
    <glyph glyph-name="quotedblright" unicode="&#x201d;" horiz-adv-x="437" 
d="M110 641q89 0 89 -90.5t-126 -169.5l-59 22l62 81l-2 5q-53 11 -53 73q0 79 89 79zM310 641q89 0 89 -90.5t-126 -169.5l-59 22l62 81l-2 5q-53 11 -53 73q0 79 89 79z" />
    <glyph glyph-name="quotedblbase" unicode="&#x201e;" horiz-adv-x="437" 
d="M134 141q89 0 89 -90.5t-126 -169.5l-59 22l62 81l-2 5q-53 11 -53 73q0 79 89 79zM334 141q89 0 89 -90.5t-126 -169.5l-59 22l62 81l-2 5q-53 11 -53 73q0 79 89 79z" />
    <glyph glyph-name="dagger" unicode="&#x2020;" horiz-adv-x="405" 
d="M30 333v133h96v142h148v-142h101v-133h-101v-482h-148v482h-96z" />
    <glyph glyph-name="daggerdbl" unicode="&#x2021;" horiz-adv-x="418" 
d="M30 7v134h96v192h-96v133h96v142h148v-142h101v-133h-101v-192h100v-134h-100v-156h-148v156h-96z" />
    <glyph glyph-name="bullet" unicode="&#x2022;" horiz-adv-x="413" 
d="M209 171q-127 0 -127 129.5t127 129.5q122 0 122 -129.5t-122 -129.5z" />
    <glyph glyph-name="ellipsis" unicode="&#x2026;" horiz-adv-x="782" 
d="M66 68q0 40 21 59.5t67 19.5t67 -19.5t21 -61.5q0 -77 -88 -77t-88 79zM301 68q0 40 21 59.5t67 19.5t67 -19.5t21 -61.5q0 -77 -88 -77t-88 79zM540 68q0 40 21 59.5t67 19.5t67 -19.5t21 -61.5q0 -77 -88 -77t-88 79z" />
    <glyph glyph-name="perthousand" unicode="&#x2030;" horiz-adv-x="1133" 
d="M554 631l-180 -641h-117l179 641h118zM222 403v11q0 59 -4 79.5t-12.5 27.5t-22.5 7t-22 -7t-11 -25q-5 -23 -5 -82v-11q0 -67 4.5 -89t12.5 -28.5t22.5 -6.5t22 6.5t11.5 26.5q4 25 4 91zM334 407q0 -118 -31 -171.5t-119.5 -53.5t-120 54t-31.5 171t31 170.5t120 53.5
t120 -53t31 -171zM667 211v11q0 59 -4 79.5t-12.5 27.5t-22.5 7t-22 -7t-12 -25q-4 -23 -4 -82v-11q0 -67 4.5 -89t12.5 -28.5t22.5 -6.5t22 6.5t10.5 26.5q5 25 5 91zM779 215q0 -118 -31 -171.5t-119.5 -53.5t-120 54t-31.5 171t31 170.5t120 53.5t120 -53t31 -171z
M989 211v11q0 59 -4 79.5t-12.5 27.5t-22.5 7t-22 -7t-12 -25q-4 -23 -4 -82v-11q0 -67 4.5 -89t12.5 -28.5t22.5 -6.5t22 6.5t10.5 26.5q5 25 5 91zM1101 215q0 -118 -31 -171.5t-119.5 -53.5t-120 54t-31.5 171t31 170.5t120 53.5t120 -53t31 -171z" />
    <glyph glyph-name="guilsinglleft" unicode="&#x2039;" horiz-adv-x="318" 
d="M24 207v62l176 208l75 -60l-105 -175l106 -175l-82 -63z" />
    <glyph glyph-name="guilsinglright" unicode="&#x203a;" horiz-adv-x="317" 
d="M293 269v-62l-167 -203l-84 63l106 175l-105 175l77 60z" />
    <glyph glyph-name="fraction" unicode="&#x2044;" horiz-adv-x="361" 
d="M371 621l-216 -768h-165l215 768h166z" />
    <glyph glyph-name="Euro" unicode="&#x20ac;" horiz-adv-x="499" 
d="M24 416h60q35 215 235 215q76 0 145 -32l-27 -155q-78 26 -109 26q-51 0 -67 -54h172l-10 -99h-173v-31h171l-6 -97h-152q17 -48 68 -48q34 0 107 19l26 -141q-79 -29 -159 -29q-184 0 -220 199h-61v97h54v31h-54v99z" />
    <glyph glyph-name="trademark" unicode="&#x2122;" horiz-adv-x="571" 
d="M229 538h-58v-258h-86v258h-61l5 83h205zM547 280h-80v178h-4l-30 -178h-80l-28 178h-5v-178h-79l12 341h112l28 -185h4l27 185h111z" />
    <glyph glyph-name="partialdiff" unicode="&#x2202;" horiz-adv-x="468" 
d="M181 400q38 0 74 -6l3 3q-54 83 -207 83v151q397 0 397 -366q0 -139 -53 -207t-169 -68q-206 0 -206 218q0 94 43.5 143t117.5 49zM231 281q-25 0 -34 -21t-9 -61.5t9 -58.5t34.5 -18t33.5 22t8 64q0 73 -42 73z" />
    <glyph glyph-name="product" unicode="&#x220f;" horiz-adv-x="577" 
d="M568 479h-55v-479h-171v479h-97v-479h-172v479h-64v142h559v-142z" />
    <glyph glyph-name="summation" unicode="&#x2211;" horiz-adv-x="481" 
d="M459 466h-166l101 -130v-46l-117 -147h192v-143h-438l-6 113l154 194l-164 192l4 117h440v-150z" />
    <glyph glyph-name="minus" unicode="&#x2212;" horiz-adv-x="482" 
d="M430 231h-378v126h378v-126z" />
    <glyph glyph-name="radical" unicode="&#x221a;" horiz-adv-x="598" 
d="M288 111l156 721h363l-19 -135h-206l-212 -827h-186l-169 609h182l77 -368h14z" />
    <glyph glyph-name="infinity" unicode="&#x221e;" horiz-adv-x="667" 
d="M196 458q81 0 131 -77h4q50 77 137 77q71 0 113 -49.5t42 -140t-42 -140t-113 -49.5q-85 0 -133 80h-5q-55 -80 -129.5 -80t-115.5 49t-41 138.5t41.5 140.5t110.5 51zM278 268q-36 68 -72.5 68t-36.5 -68t36 -68q40 0 73 68zM460 336q-17 0 -36.5 -19t-34.5 -51
q32 -66 71 -66q37 0 37 68t-37 68z" />
    <glyph glyph-name="integral" unicode="&#x222b;" horiz-adv-x="441" 
d="M145 167l19 425q6 118 64.5 180.5t188.5 62.5h59l-8 -130q-78 0 -104 -34.5t-30 -118.5l-21 -448q-6 -134 -64 -190t-203 -56h-54q2 29 7 74t7 69q33 1 55.5 4t38 13.5t23.5 19t13 32.5q6 35 9 97z" />
    <glyph glyph-name="approxequal" unicode="&#x2248;" horiz-adv-x="492" 
d="M452 263v-13q0 -71 -24.5 -109t-98.5 -38q-44 0 -128 28v-34h-153v14q0 72 26 109t92 37q35 0 133 -28v34h153zM444 454v-13q0 -71 -24.5 -109t-98.5 -38q-44 0 -128 28v-34h-153v14q0 72 26 109.5t92 37.5q33 0 133 -28v33h153z" />
    <glyph glyph-name="notequal" unicode="&#x2260;" horiz-adv-x="454" 
d="M400 91h-154l-38 -117h-151l38 117h-41v136h86l21 66h-107v136h152l40 120h150l-39 -120h43v-136h-88l-21 -66h109v-136z" />
    <glyph glyph-name="lessequal" unicode="&#x2264;" horiz-adv-x="474" 
d="M426 157l-378 142v154l378 147v-160l-222 -63l222 -61v-159zM426 0h-378v127h378v-127z" />
    <glyph glyph-name="greaterequal" unicode="&#x2265;" horiz-adv-x="474" 
d="M426 299l-378 -142v159l222 61l-222 63v160l378 -147v-154zM426 0h-378v127h378v-127z" />
    <glyph glyph-name="lozenge" unicode="&#x25ca;" horiz-adv-x="577" 
d="M541 298l-190 -355h-118l-187 355l189 355h116zM386 298l-93 189l-91 -189l91 -190z" />
    <glyph glyph-name="ff" unicode="&#xfb00;" horiz-adv-x="553" 
d="M448 655q62 0 130 -6l-14 -146q-45 5 -65.5 5t-20.5 -18v-25h82l-8 -124h-72v-341h-167v341h-93v-341h-167v341h-44v124h44v57q0 133 135 133q36 0 102 -4l-12 -146q-33 3 -42 3q-18 0 -18 -18v-25h95v57q0 133 135 133z" />
    <glyph glyph-name="fi" unicode="&#xfb01;" horiz-adv-x="511" 
d="M188 648q46 0 102 -4l-12 -146q-35 3 -42 3q-18 0 -18 -18v-18h260v-465h-165v341h-93v-341h-167v341h-44v124h44v50q0 133 135 133zM305 570q0 40 21 59t69 19t69 -19t21 -58.5t-21 -58t-69 -18.5t-69 18t-21 58z" />
    <glyph glyph-name="fl" unicode="&#xfb02;" horiz-adv-x="516" 
d="M188 655q54 0 102 -4l-12 -146q-35 3 -42 3q-18 0 -18 -18v-25h95v176h165v-478q0 -17 7.5 -24t26.5 -7l-13 -142h-55q-66 0 -98.5 27.5t-32.5 92.5v231h-93v-341h-167v341h-44v124h44v57q0 133 135 133z" />
    <glyph glyph-name="ffi" unicode="&#xfb03;" horiz-adv-x="765" 
d="M448 655q46 0 102 -4l-12 -146q-35 3 -42 3q-18 0 -18 -18v-25h260v-465h-165v341h-93v-341h-167v341h-93v-341h-167v341h-44v124h44v57q0 133 135 133q36 0 102 -4l-12 -146q-33 3 -42 3q-18 0 -18 -18v-25h95v57q0 133 135 133zM559 576q0 40 21 59t69 19t69 -19
t21 -58.5t-21 -58t-69 -18.5t-69 18t-21 58z" />
    <glyph glyph-name="ffl" unicode="&#xfb04;" horiz-adv-x="776" 
d="M448 655q54 0 102 -4l-12 -146q-35 3 -42 3q-18 0 -18 -18v-25h95v176h165v-478q0 -17 7.5 -24t26.5 -7l-13 -142h-55q-66 0 -98.5 27.5t-32.5 92.5v231h-93v-341h-167v341h-93v-341h-167v341h-44v124h44v57q0 133 135 133q36 0 102 -4l-12 -146q-33 3 -42 3
q-18 0 -18 -18v-25h95v57q0 133 135 133z" />
  </font>
</defs>
</svg>
