<?xml version="1.0" standalone="no"?>
<!DOCTYPE svg PUBLIC "-//W3C//DTD SVG 1.1//EN" "http://www.w3.org/Graphics/SVG/1.1/DTD/svg11.dtd" >
<svg xmlns="http://www.w3.org/2000/svg" xmlns:xlink="http://www.w3.org/1999/xlink" version="1.1">
<metadata>
Created by FontForge 20201107 at Wed Jul 30 10:59:05 2025
 By 
Copyright (C) 2017 Hoefler &#38; Co. http://www.typography.com
</metadata>
<defs>
<font id="RingsideNarrow-Black" horiz-adv-x="753" >
  <font-face 
    font-family="Ringside Narrow Black"
    font-weight="475"
    font-stretch="semi-condensed"
    units-per-em="2048"
    panose-1="2 0 9 0 0 0 0 0 0 0"
    ascent="1638"
    descent="-410"
    x-height="993"
    cap-height="1364"
    bbox="-342 -686 2339 2200"
    underline-thickness="0"
    underline-position="0"
    unicode-range="U+0020-FB04"
  />
<missing-glyph horiz-adv-x="1024" 
d="M0 -410v2048h1024v-2048h-1024zM145 1536l367 -799l367 799h-734zM102 -156l353 770l-353 770v-1540zM922 1384l-353 -770l353 -770v1540zM512 492l-367 -799h734z" />
    <glyph glyph-name="f_f" unicode="ff" horiz-adv-x="1431" 
d="M582 1417h163v-227h-106q-67 0 -96 -28.5t-29 -88.5v-80h363v97q0 327 383 327h163v-227h-106q-68 0 -97.5 -28.5t-29.5 -88.5v-80h213v-231h-211v-762h-315v762h-363v-762h-313v762h-162v231h162v97q0 327 381 327z" />
    <glyph glyph-name="f_f_i" unicode="ffi" horiz-adv-x="1986" 
d="M1423 1417v-227h-106q-68 0 -97.5 -28.5t-29.5 -88.5v-80h213v-231h-211v-762h-315v762h-363v-762h-313v762h-162v231h162v97q0 327 381 327h163v-227h-106q-67 0 -96 -28.5t-29 -88.5v-80h363v97q0 327 383 327h163zM1548 1389h330v-248h-330v248zM1554 993h318v-993
h-318v993z" />
    <glyph glyph-name="f_f_l" unicode="ffl" horiz-adv-x="1986" 
d="M745 1417v-227h-106q-67 0 -96 -28.5t-29 -88.5v-80h363v97q0 327 383 327h163v-227h-106q-68 0 -97.5 -28.5t-29.5 -88.5v-80h213v-231h-211v-762h-315v762h-363v-762h-313v762h-162v231h162v97q0 327 381 327h163zM1554 1417h320v-1417h-320v1417z" />
    <glyph glyph-name=".notdef" horiz-adv-x="1024" 
d="M0 -410v2048h1024v-2048h-1024zM145 1536l367 -799l367 799h-734zM102 -156l353 770l-353 770v-1540zM922 1384l-353 -770l353 -770v1540zM512 492l-367 -799h734z" />
    <glyph glyph-name=".null" horiz-adv-x="0" 
 />
    <glyph glyph-name="nonmarkingreturn" horiz-adv-x="682" 
 />
    <glyph glyph-name="space" unicode=" " horiz-adv-x="380" 
 />
    <glyph glyph-name="exclam" unicode="!" horiz-adv-x="532" 
d="M109 1364h315v-387l-115 -549h-88l-112 549v387zM121 295h289v-295h-289v295z" />
    <glyph glyph-name="quotedbl" unicode="&#x22;" horiz-adv-x="919" 
d="M145 1364h316l-215 -625h-191zM594 1364h317l-252 -625h-190z" />
    <glyph glyph-name="numbersign" unicode="#" horiz-adv-x="1499" 
d="M758 0l59 319h-272l-62 -319h-229l61 319h-233v216h274l56 294h-273v215h314l59 320h231l-61 -320h272l62 320h231l-61 -320h231v-215h-272l-55 -294h270v-216h-311l-62 -319h-229zM586 535h272l55 294h-272z" />
    <glyph glyph-name="dollar" unicode="$" horiz-adv-x="1226" 
d="M1137 399q0 -165 -103.5 -271t-285.5 -134v-199h-246v195q-205 22 -306.5 131t-101.5 280v60h314v-33q0 -89 54.5 -138.5t158.5 -49.5q96 0 146 35t50 96q0 63 -53 99.5t-223 94.5q-237 68 -332.5 160.5t-95.5 249.5q0 155 106.5 263t290.5 136v195h246v-199
q182 -28 274 -134t92 -265v-45h-311v39q0 73 -49 116t-148 43q-87 0 -134.5 -34.5t-47.5 -88.5q0 -60 53 -95.5t220 -94.5q246 -72 339 -160.5t93 -251.5z" />
    <glyph glyph-name="percent" unicode="%" horiz-adv-x="1697" 
d="M414 1389q152 0 239.5 -83t87.5 -233v-92q0 -151 -87 -233t-240 -82q-154 0 -241 82t-87 233v92q0 150 87.5 233t240.5 83zM1507 1366l-1104 -1368h-213l1104 1368h213zM414 1212q-125 0 -125 -141v-90q0 -141 125 -141q63 0 94 37t31 104v90q0 67 -31 104t-94 37z
M1286 -25q-154 0 -242 83t-88 233v92q0 151 88 233t242 82q153 0 240.5 -82.5t87.5 -232.5v-92q0 -149 -88 -232.5t-240 -83.5zM1286 152q63 0 94 37t31 104v90q0 67 -31 104t-94 37q-64 0 -95.5 -37t-31.5 -104v-90q0 -67 31.5 -104t95.5 -37z" />
    <glyph glyph-name="ampersand" unicode="&#x26;" horiz-adv-x="1472" 
d="M1460 285q0 -318 -250 -318q-77 0 -148 28t-159 95q-182 -123 -387 -123q-213 0 -336 104.5t-123 270.5q0 127 72.5 227t241.5 183q-97 157 -97 292q0 156 112 254.5t290 98.5q186 0 291.5 -92t105.5 -230q0 -240 -328 -395q88 -126 185 -234q78 105 110 310h244
q-17 -149 -61 -263t-123 -221q72 -69 125 -69q38 0 55.5 33t17.5 102v57h162v-110zM559 1042q0 -44 18 -87t62 -103q156 81 156 203q0 43 -31 75.5t-82 32.5q-61 0 -92 -36t-31 -85zM360 381q0 -82 51 -125t136 -43q94 0 176 53q-120 125 -242 291q-121 -74 -121 -176z" />
    <glyph glyph-name="quotesingle" unicode="'" horiz-adv-x="491" 
d="M162 1364h319l-233 -625h-193z" />
    <glyph glyph-name="parenleft" unicode="(" horiz-adv-x="774" 
d="M649 1616l131 -103q-181 -203 -267.5 -431.5t-86.5 -460.5q0 -498 354 -893l-131 -105q-514 436 -514 998t514 995z" />
    <glyph glyph-name="parenright" unicode=")" horiz-adv-x="774" 
d="M125 -377l-131 105q180 203 266 431t86 462q0 496 -352 892l131 103q514 -433 514 -995t-514 -998z" />
    <glyph glyph-name="asterisk" unicode="*" horiz-adv-x="903" 
d="M532 600q0 -35 -34 -35h-92q-35 0 -35 35q0 146 35 285q-103 -101 -230 -172q-31 -20 -49 12l-45 80q-18 30 12 47q122 71 264 113q-138 40 -262 110q-31 19 -14 49l47 80q17 32 47 13q125 -70 230 -173q-35 136 -35 285q0 35 35 35h92q34 0 34 -35q0 -150 -34 -285
q105 103 227 173q30 19 49 -13l45 -80q17 -31 -12 -49q-122 -68 -264 -110q140 -40 264 -113q31 -15 14 -47l-47 -80q-17 -31 -47 -12q-125 70 -229 172q34 -135 34 -285z" />
    <glyph glyph-name="plus" unicode="+" horiz-adv-x="1128" 
d="M438 1135h252v-332h332v-240h-332v-334h-252v334h-332v240h332v332z" />
    <glyph glyph-name="comma" unicode="," horiz-adv-x="477" 
d="M82 328h313v-250q0 -99 -22.5 -171t-69.5 -121t-106 -79.5t-144 -54.5v90q101 62 131.5 110t30.5 148h-133v328z" />
    <glyph glyph-name="hyphen" unicode="-" horiz-adv-x="772" 
d="M100 737h570v-250h-570v250z" />
    <glyph glyph-name="period" unicode="." horiz-adv-x="477" 
d="M82 328h313v-328h-313v328z" />
    <glyph glyph-name="slash" unicode="/" horiz-adv-x="811" 
d="M543 1563h239l-553 -1887h-237z" />
    <glyph glyph-name="zero" unicode="0" horiz-adv-x="1288" 
d="M645 1395q257 0 405 -148.5t148 -412.5v-304q0 -264 -148 -412.5t-405 -148.5q-258 0 -406.5 148.5t-148.5 412.5v304q0 264 148.5 412.5t406.5 148.5zM645 1118q-113 0 -170 -74.5t-57 -218.5v-286q0 -144 57 -218.5t170 -74.5q225 0 225 293v286q0 293 -225 293z" />
    <glyph glyph-name="one" unicode="1" horiz-adv-x="800" 
d="M49 973v227h90q121 0 179 40.5t77 129.5h230v-1370h-332v973h-244z" />
    <glyph glyph-name="two" unicode="2" horiz-adv-x="1193" 
d="M633 1393q129 0 225.5 -32t153.5 -89t84.5 -129t27.5 -158q0 -102 -38.5 -174.5t-121.5 -136t-249 -152.5q-160 -82 -214 -127t-55 -110h664v-285h-1022v78q0 126 20.5 214.5t75.5 165t137.5 138t219.5 135.5q161 93 206.5 134.5t45.5 113.5q0 66 -44.5 101.5
t-130.5 35.5q-99 0 -150.5 -45.5t-51.5 -132.5v-61h-310v81q0 199 132.5 317t394.5 118z" />
    <glyph glyph-name="three" unicode="3" horiz-adv-x="1222" 
d="M623 1395q243 0 373 -104.5t130 -270.5v-27q0 -118 -73 -194.5t-203 -106.5q139 -22 213 -98t74 -203v-33q0 -169 -137.5 -279t-381.5 -110q-268 0 -398 113t-130 301v80h303v-60q0 -74 53.5 -118.5t159.5 -44.5q97 0 150 42t53 111v31q0 77 -55 113t-174 36h-115v226
h115q225 0 225 147v27q0 70 -52.5 110.5t-146.5 40.5q-104 0 -158.5 -45t-54.5 -118v-60h-303v80q0 89 31.5 162.5t94.5 130.5t167 89t240 32z" />
    <glyph glyph-name="four" unicode="4" horiz-adv-x="1263" 
d="M631 1364h409v-836h174v-252h-174v-276h-303v276h-680v236zM737 528v568l-383 -568h383z" />
    <glyph glyph-name="five" unicode="5" horiz-adv-x="1216" 
d="M745 881q193 0 294.5 -95t101.5 -268v-108q0 -204 -136 -322.5t-389 -118.5q-139 0 -241 31t-161.5 87.5t-87.5 128.5t-28 161v43h310v-23q0 -69 52 -111t152 -42q96 0 149.5 47t53.5 129v65q0 78 -45 122t-139 44q-75 0 -132.5 -26t-111.5 -74l-264 43l51 770h938
q-6 -88 -14.5 -136t-29 -84t-55.5 -48.5t-93 -12.5h-474l-24 -315q69 55 143 84t180 29z" />
    <glyph glyph-name="six" unicode="6" horiz-adv-x="1230" 
d="M621 -29q-262 0 -396.5 133.5t-134.5 395.5v321q0 276 142.5 425t408.5 149q107 0 193.5 -23t142.5 -61t93.5 -89t53 -104.5t15.5 -111.5v-62h-310v29q0 73 -49 113t-139 40q-238 0 -238 -249v-150q128 119 324 119q202 0 313 -94.5t111 -262.5v-73q0 -207 -139.5 -326
t-390.5 -119zM623 240q95 0 150.5 45t55.5 129v45q0 82 -54.5 126t-149.5 44q-97 0 -155 -45t-58 -125v-47q0 -83 57 -127.5t154 -44.5z" />
    <glyph glyph-name="seven" unicode="7" horiz-adv-x="1118" 
d="M610 0h-370q18 218 84 403.5t169 339.5t265 326h-695v295h1031v-170q-226 -289 -342 -561t-142 -633z" />
    <glyph glyph-name="eight" unicode="8" horiz-adv-x="1251" 
d="M625 1395q129 0 230.5 -31t165 -85t96 -124t32.5 -151v-21q0 -204 -229 -293q247 -89 247 -315v-25q0 -173 -138 -277t-404 -104q-265 0 -403 104t-138 277v25q0 225 248 315q-228 88 -228 293v21q0 169 134.5 280t386.5 111zM625 1141q-95 0 -150 -44.5t-55 -115.5v-31
q0 -74 57 -115.5t148 -41.5q92 0 149 41t57 116v31q0 71 -55 115.5t-151 44.5zM625 223q106 0 162.5 46t56.5 118v31q0 75 -59 120.5t-160 45.5q-100 0 -158.5 -45t-58.5 -121v-31q0 -72 56 -118t161 -46z" />
    <glyph glyph-name="nine" unicode="9" horiz-adv-x="1230" 
d="M610 1395q261 0 396 -134.5t135 -396.5v-321q0 -276 -142.5 -424t-410.5 -148q-109 0 -196.5 22.5t-144 60t-94 88t-53.5 102.5t-16 108v51h309v-24q0 -62 49 -100.5t150 -38.5q120 0 177.5 64t57.5 179v131q-132 -118 -325 -118q-200 0 -311 94.5t-111 263.5v92
q0 209 139.5 329t390.5 120zM608 1124q-95 0 -151 -44.5t-56 -131.5v-61q0 -84 54.5 -128t150.5 -44q97 0 155 45t58 125v65q0 84 -56.5 129t-154.5 45z" />
    <glyph glyph-name="colon" unicode=":" horiz-adv-x="501" 
d="M94 987h314v-328h-314v328zM94 328h314v-328h-314v328z" />
    <glyph glyph-name="semicolon" unicode=";" horiz-adv-x="501" 
d="M94 987h314v-328h-314v328zM94 328h314v-250q0 -99 -22.5 -171t-69.5 -121t-106 -79.5t-144 -54.5v90q101 62 131 110t30 148h-133v328z" />
    <glyph glyph-name="less" unicode="&#x3c;" horiz-adv-x="1038" 
d="M883 1182v-279l-471 -221l471 -221v-281l-777 389v226z" />
    <glyph glyph-name="equal" unicode="=" horiz-adv-x="1142" 
d="M131 1014h881v-234h-881v234zM131 584h881v-234h-881v234z" />
    <glyph glyph-name="greater" unicode="&#x3e;" horiz-adv-x="1038" 
d="M156 182v279l471 221l-471 221v281l776 -389v-226z" />
    <glyph glyph-name="question" unicode="?" horiz-adv-x="1101" 
d="M1059 1012q0 -119 -58 -196.5t-215 -164.5q-72 -39 -104 -68.5t-42 -62t-11 -94.5h-252q0 159 41 235.5t176 163.5q86 48 116.5 82t30.5 90q0 125 -184 125q-129 0 -179 -46t-50 -134v-59h-289v75q0 69 14 129t51 118t94.5 99t150.5 66t214 25q112 0 199 -21.5t142 -57.5
t91 -86.5t50 -103.5t14 -114zM358 0v295h291v-295h-291z" />
    <glyph glyph-name="at" unicode="@" horiz-adv-x="1609" 
d="M860 1397q138 0 254 -37t195 -98.5t134 -143.5t80 -171t25 -181q0 -101 -28.5 -197t-81.5 -174t-136.5 -125t-185.5 -47q-112 0 -175.5 52.5t-61.5 134.5q-87 -170 -228 -170q-108 0 -168.5 71t-60.5 199q0 59 13.5 125.5t43 134t71.5 122t105 88.5t136 34
q71 0 119.5 -35.5t62.5 -91.5l37 106h223l-125 -405q-41 -138 -28 -193t81 -55q103 0 181.5 122t78.5 300q0 242 -156 381t-405 139q-197 0 -348.5 -92t-233 -255.5t-81.5 -373.5q0 -176 72.5 -312.5t216.5 -217t341 -80.5q260 0 461 143l64 -96q-96 -70 -234.5 -116
t-294.5 -46q-172 0 -314 54.5t-238 150.5t-148.5 228.5t-52.5 287.5q0 243 99.5 434.5t280 298.5t410.5 107zM850 866q-49 0 -90 -41t-64 -100.5t-35 -115.5t-12 -95q0 -60 25 -87.5t63 -27.5q43 0 79.5 43t57.5 115l64 236q-2 30 -26.5 51.5t-61.5 21.5z" />
    <glyph glyph-name="A" unicode="A" horiz-adv-x="1335" 
d="M958 0l-71 238h-461l-72 -238h-323l442 1370h389l443 -1370h-347zM655 1008l-157 -525h317l-156 525h-4z" />
    <glyph glyph-name="B" unicode="B" horiz-adv-x="1277" 
d="M135 1364h615q211 0 318.5 -88t107.5 -246v-61q0 -114 -58 -179t-172 -96v-6q240 -60 240 -276v-74q0 -160 -108.5 -249t-319.5 -89h-623v1364zM463 1106v-305h231q74 0 115 33.5t41 95.5v53q0 59 -39.5 91t-112.5 32h-235zM463 575v-317h237q74 0 114 34.5t40 96.5v55
q0 62 -41.5 96.5t-118.5 34.5h-231z" />
    <glyph glyph-name="C" unicode="C" horiz-adv-x="1290" 
d="M678 1395q257 0 393.5 -127t136.5 -346v-58h-327v54q0 87 -55.5 139.5t-149.5 52.5q-117 0 -179.5 -78t-62.5 -209v-280q0 -129 63 -209t179 -80q94 0 149.5 52.5t55.5 139.5v54h327v-58q0 -215 -140.5 -344t-395.5 -129q-273 0 -426.5 155.5t-153.5 420.5v274
q0 262 159.5 419t426.5 157z" />
    <glyph glyph-name="D" unicode="D" horiz-adv-x="1341" 
d="M135 1364h545q277 0 423 -144.5t146 -394.5v-297q0 -250 -145.5 -389t-423.5 -139h-545v1364zM473 1087v-811h184q123 0 186.5 73t63.5 200v266q0 127 -64 199.5t-188 72.5h-182z" />
    <glyph glyph-name="E" unicode="E" horiz-adv-x="1177" 
d="M135 1364h952v-283h-622v-254h477v-268h-477v-276h625v-283h-955v1364z" />
    <glyph glyph-name="F" unicode="F" horiz-adv-x="1128" 
d="M135 1364h938v-287h-606v-291h459v-278h-459v-508h-332v1364z" />
    <glyph glyph-name="G" unicode="G" horiz-adv-x="1333" 
d="M678 1395q253 0 391.5 -121t138.5 -338v-53h-325v37q0 90 -51.5 141t-151.5 51q-119 0 -182.5 -75.5t-63.5 -207.5v-299q0 -133 63 -209.5t177 -76.5q105 0 168 61.5t63 163.5v37h-229v223h549v-729h-150l-51 201q-131 -230 -412 -230q-239 0 -379.5 148.5t-140.5 406.5
v303q0 257 159 411.5t427 154.5z" />
    <glyph glyph-name="H" unicode="H" horiz-adv-x="1380" 
d="M135 1364h338v-524h434v524h338v-1364h-338v543h-434v-543h-338v1364z" />
    <glyph glyph-name="I" unicode="I" horiz-adv-x="624" 
d="M143 1364h338v-1364h-338v1364z" />
    <glyph glyph-name="J" unicode="J" horiz-adv-x="1142" 
d="M682 1364h338v-905q0 -242 -126.5 -367t-373.5 -125q-465 0 -465 445v137h303v-125q0 -91 40.5 -132.5t121.5 -41.5q162 0 162 188v926z" />
    <glyph glyph-name="K" unicode="K" horiz-adv-x="1286" 
d="M879 0l-267 537l-141 -197v-340h-336v1364h336v-639l395 639h385l-391 -578l402 -786h-383z" />
    <glyph glyph-name="L" unicode="L" horiz-adv-x="1077" 
d="M135 1364h336v-1067h553v-297h-889v1364z" />
    <glyph glyph-name="M" unicode="M" horiz-adv-x="1769" 
d="M135 1364h473l277 -879h4l274 879h471v-1364h-313v1001h-4l-320 -1001h-249l-318 1001h-4v-1001h-291v1364z" />
    <glyph glyph-name="N" unicode="N" horiz-adv-x="1386" 
d="M135 1364h334l481 -813h4l-4 813h301v-1364h-329l-486 825h-4l4 -825h-301v1364z" />
    <glyph glyph-name="O" unicode="O" horiz-adv-x="1361" 
d="M682 1395q269 0 428.5 -151t159.5 -421v-282q0 -270 -159.5 -421t-428.5 -151q-270 0 -430 151t-160 421v282q0 270 160 421t430 151zM682 1110q-119 0 -183.5 -70.5t-64.5 -214.5v-286q0 -144 64.5 -214.5t183.5 -70.5t182.5 70.5t63.5 214.5v286q0 144 -63.5 214.5
t-182.5 70.5z" />
    <glyph glyph-name="P" unicode="P" horiz-adv-x="1220" 
d="M135 1364h580q216 0 335 -107t119 -292v-119q0 -186 -119.5 -294t-334.5 -108h-242v-444h-338v1364zM473 1100v-391h170q188 0 188 157v78q0 156 -188 156h-170z" />
    <glyph glyph-name="Q" unicode="Q" horiz-adv-x="1382" 
d="M1362 -8q-68 -35 -156 -35q-132 0 -231 86q-127 -74 -293 -74q-269 0 -429.5 152.5t-160.5 419.5v282q0 267 160.5 419.5t429.5 152.5q270 0 429 -152t159 -420v-291q0 -171 -88 -305q46 -32 131 -32q26 0 49 4v-207zM434 535q0 -140 65.5 -211.5t182.5 -71.5
q63 0 115 22l-125 150l174 137l82 -92q2 18 2 59v301q0 140 -65.5 211.5t-182.5 71.5t-182.5 -71.5t-65.5 -211.5v-294z" />
    <glyph glyph-name="R" unicode="R" horiz-adv-x="1286" 
d="M473 477v-477h-338v1364h623q208 0 325 -104t117 -285v-107q0 -126 -61.5 -217.5t-171.5 -136.5l276 -514h-364l-248 477h-158zM473 1102v-371h197q188 0 188 150v69q0 152 -186 152h-199z" />
    <glyph glyph-name="S" unicode="S" horiz-adv-x="1232" 
d="M627 1393q262 0 393 -113t131 -305v-47h-330v43q0 71 -50 113t-153 42q-90 0 -137 -33.5t-47 -88.5q0 -63 54.5 -98.5t228.5 -94.5q258 -73 354 -163t96 -257q0 -199 -146 -309.5t-398 -110.5q-276 0 -409.5 114t-133.5 312v62h332v-37q0 -89 55.5 -136.5t163.5 -47.5
q98 0 149 34t51 95q0 66 -52 100.5t-236 95.5q-250 70 -347.5 163t-97.5 257q0 182 143 296t386 114z" />
    <glyph glyph-name="T" unicode="T" horiz-adv-x="1210" 
d="M57 1364h1096v-297h-379v-1067h-338v1067h-379v297z" />
    <glyph glyph-name="U" unicode="U" horiz-adv-x="1339" 
d="M121 1364h338v-860q0 -119 55.5 -181.5t163.5 -62.5t163.5 62.5t55.5 181.5v860h322v-850q0 -265 -136 -405t-409 -140q-553 0 -553 545v850z" />
    <glyph glyph-name="V" unicode="V" horiz-adv-x="1312" 
d="M31 1364h366l269 -932h4l266 932h346l-453 -1372h-346z" />
    <glyph glyph-name="W" unicode="W" horiz-adv-x="1873" 
d="M43 1364h352l172 -928h4l230 930h299l227 -930h4l172 928h328l-332 -1372h-332l-227 870h-4l-227 -870h-334z" />
    <glyph glyph-name="X" unicode="X" horiz-adv-x="1280" 
d="M877 0l-254 469l-248 -469h-355l412 690l-399 674h385l239 -444l236 444h352l-397 -668l412 -696h-383z" />
    <glyph glyph-name="Y" unicode="Y" horiz-adv-x="1255" 
d="M10 1364h375l254 -549l256 549h350l-450 -850v-514h-338v514z" />
    <glyph glyph-name="Z" unicode="Z" horiz-adv-x="1183" 
d="M100 1364h1016v-190l-598 -873h586v-301h-1036v195l602 880h-570v289z" />
    <glyph glyph-name="bracketleft" unicode="[" horiz-adv-x="755" 
d="M135 1563h604v-199h-336v-1489h336v-199h-604v1887z" />
    <glyph glyph-name="backslash" unicode="\" horiz-adv-x="811" 
d="M29 1563h239l553 -1887h-239z" />
    <glyph glyph-name="bracketright" unicode="]" horiz-adv-x="755" 
d="M621 -324h-605v199h336v1489h-336v199h605v-1887z" />
    <glyph glyph-name="asciicircum" unicode="^" horiz-adv-x="1175" 
d="M1087 588h-276l-223 471l-223 -471h-277l379 774h244z" />
    <glyph glyph-name="underscore" unicode="_" horiz-adv-x="911" 
d="M-2 -127h913v-197h-913v197z" />
    <glyph glyph-name="grave" unicode="`" horiz-adv-x="1021" 
d="M262 1552h352l168 -411h-194z" />
    <glyph glyph-name="a" unicode="a" horiz-adv-x="1050" 
d="M651 166q-56 -90 -130.5 -136t-184.5 -46q-130 0 -203.5 69.5t-73.5 198.5q0 84 32.5 143t115.5 101q134 65 420 88v73q0 64 -28 95.5t-93 31.5q-125 0 -125 -114v-33h-279v31q0 156 103.5 256t312.5 100q213 0 316.5 -102.5t103.5 -284.5v-375q0 -41 18 -57t68 -21v-188
h-104q-133 0 -188 33.5t-81 136.5zM365 291q0 -101 104 -101q69 0 113.5 45t44.5 117v92q-130 -13 -195 -45q-38 -19 -52.5 -44.5t-14.5 -63.5z" />
    <glyph glyph-name="b" unicode="b" horiz-adv-x="1126" 
d="M109 1417h319v-534q119 137 285 137q154 0 247 -101.5t93 -283.5v-275q0 -184 -94 -285.5t-250 -101.5q-106 0 -178 44t-132 116l-18 -133h-272v1417zM586 786q-69 0 -114.5 -48t-45.5 -126v-231q0 -78 45.5 -126t114.5 -48q71 0 112 46.5t41 125.5v237q0 80 -40.5 125
t-112.5 45z" />
    <glyph glyph-name="c" unicode="c" horiz-adv-x="1017" 
d="M535 217q71 0 107 41t36 115v16h287v-27q0 -178 -112 -285.5t-321 -107.5q-219 0 -341.5 128.5t-122.5 348.5v101q0 220 123.5 348.5t340.5 128.5q211 0 322 -106.5t111 -286.5v-27h-287v17q0 74 -36.5 115.5t-106.5 41.5q-75 0 -115.5 -53.5t-40.5 -140.5v-172
q0 -88 40 -141.5t116 -53.5z" />
    <glyph glyph-name="d" unicode="d" horiz-adv-x="1126" 
d="M698 1417h320v-1417h-273l-18 141q-60 -79 -133.5 -123.5t-179.5 -44.5q-154 0 -247 101.5t-93 285.5v275q0 182 94 283.5t250 101.5q164 0 280 -129v526zM541 786q-71 0 -112.5 -45.5t-41.5 -124.5v-237q0 -79 41.5 -125.5t112.5 -46.5q69 0 114 48t45 126v231
q0 78 -45 126t-114 48z" />
    <glyph glyph-name="e" unicode="e" horiz-adv-x="1040" 
d="M977 315q0 -153 -115 -249.5t-327 -96.5q-228 0 -347.5 122.5t-119.5 346.5v105q0 221 121.5 351t336.5 130q222 0 337.5 -127t115.5 -340v-133h-619v-41q0 -178 179 -178q77 0 117 32.5t40 81.5v9h281v-13zM360 606v-16h322v16q0 182 -156 182q-81 0 -123.5 -47
t-42.5 -135z" />
    <glyph glyph-name="f" unicode="f" 
d="M745 1417v-227h-106q-67 0 -96 -28.5t-29 -88.5v-80h211v-231h-211v-762h-313v762h-162v231h162v97q0 327 381 327h163z" />
    <glyph glyph-name="g" unicode="g" horiz-adv-x="1058" 
d="M1047 -55q0 -136 -133 -208.5t-390 -72.5q-491 0 -491 199q0 60 48.5 96.5t154.5 56.5v4q-162 50 -162 164q0 104 178 181q-160 80 -160 280v31q0 163 113.5 249.5t322.5 86.5q84 0 158 -21q64 21 92.5 63.5t34.5 119.5h213q29 -60 29 -101q0 -74 -56 -113t-163 -53
q71 -49 100 -106.5t29 -145.5v-20q0 -161 -111.5 -242.5t-325.5 -81.5q-64 0 -143 11q-61 -29 -61 -58q0 -25 36.5 -37t128.5 -12h109q165 0 266.5 -34t142 -91.5t40.5 -144.5zM528 492q136 0 136 139v59q0 139 -136 139q-133 0 -133 -139v-57q0 -141 133 -141zM532 -182
q129 0 190.5 18.5t61.5 59.5q0 40 -49.5 55.5t-177.5 15.5h-47q-221 0 -221 -76q0 -38 56.5 -55.5t186.5 -17.5z" />
    <glyph glyph-name="h" unicode="h" horiz-adv-x="1128" 
d="M109 1417h319v-549q127 152 299 152q138 0 218.5 -87.5t80.5 -238.5v-694h-317v629q0 64 -31 99.5t-94 35.5q-68 0 -112 -48.5t-44 -113.5v-602h-319v1417z" />
    <glyph glyph-name="i" unicode="i" horiz-adv-x="546" 
d="M109 1389h327v-248h-327v248zM115 993h317v-993h-317v993z" />
    <glyph glyph-name="j" unicode="j" horiz-adv-x="552" 
d="M115 1389h329v-248h-329v248zM121 993h317v-973q0 -174 -94 -262t-313 -88h-80v219h18q90 0 121 34.5t31 105.5v964z" />
    <glyph glyph-name="k" unicode="k" horiz-adv-x="1064" 
d="M109 1417h317v-882l272 458h332l-264 -409l285 -584h-342l-168 367l-115 -183v-184h-317v1417z" />
    <glyph glyph-name="l" unicode="l" horiz-adv-x="546" 
d="M115 1417h317v-1417h-317v1417z" />
    <glyph glyph-name="m" unicode="m" horiz-adv-x="1697" 
d="M428 608v-608h-319v993h272l22 -151q63 84 138 131t180 47q94 0 162 -44t102 -124q131 168 318 168q135 0 213.5 -85.5t78.5 -234.5v-700h-317v635q0 60 -29 94.5t-88 34.5q-66 0 -107.5 -46.5t-41.5 -109.5v-608h-318v635q0 60 -28.5 94.5t-87.5 34.5q-66 0 -108 -46.5
t-42 -109.5z" />
    <glyph glyph-name="n" unicode="n" horiz-adv-x="1128" 
d="M109 993h272l22 -155q65 86 141 134t183 48q138 0 218.5 -87.5t80.5 -238.5v-694h-317v629q0 64 -31 99.5t-94 35.5q-68 0 -112 -48.5t-44 -113.5v-602h-319v993z" />
    <glyph glyph-name="o" unicode="o" horiz-adv-x="1071" 
d="M537 1026q218 0 343.5 -122t125.5 -349v-117q0 -225 -126.5 -347t-342.5 -122q-218 0 -344.5 122t-126.5 347v117q0 226 126.5 348.5t344.5 122.5zM537 782q-74 0 -116 -47t-42 -125v-225q0 -78 42.5 -125t115.5 -47q72 0 113.5 47t41.5 125v225q0 78 -41.5 125
t-113.5 47z" />
    <glyph glyph-name="p" unicode="p" horiz-adv-x="1126" 
d="M109 993h274l18 -141q60 79 133 123.5t179 44.5q154 0 247 -101.5t93 -283.5v-275q0 -184 -94 -285.5t-250 -101.5q-165 0 -281 129v-426h-319v1317zM586 786q-69 0 -114.5 -48t-45.5 -126v-231q0 -78 45.5 -126t114.5 -48q71 0 112 46.5t41 125.5v237q0 80 -40.5 125
t-112.5 45z" />
    <glyph glyph-name="q" unicode="q" horiz-adv-x="1126" 
d="M418 1020q56 0 104.5 -13.5t86 -39t63 -49t53.5 -56.5l18 131h273v-1317h-318v435q-57 -66 -124 -102t-160 -36q-154 0 -247 101.5t-93 283.5v275q0 184 94 285.5t250 101.5zM541 786q-72 0 -113 -45.5t-41 -124.5v-237q0 -81 41 -126.5t113 -45.5q68 0 113.5 48
t45.5 126v231q0 78 -45.5 126t-113.5 48z" />
    <glyph glyph-name="r" unicode="r" horiz-adv-x="794" 
d="M109 993h272l22 -200q85 217 271 217q38 0 88 -11v-315q-52 12 -113 12q-100 0 -160.5 -49t-60.5 -137v-510h-319v993z" />
    <glyph glyph-name="s" unicode="s" horiz-adv-x="968" 
d="M481 -31q-426 0 -426 336v39h264v-27q0 -131 166 -131q73 0 107.5 23t34.5 61q0 40 -41.5 64.5t-175.5 62.5q-176 44 -258 113t-82 201q0 137 112.5 225t304.5 88q200 0 307 -85t107 -237v-32h-264v14q0 60 -39.5 92.5t-112.5 32.5q-61 0 -95 -21.5t-34 -56.5
q0 -40 42.5 -63.5t174.5 -59.5q87 -21 146 -45t106.5 -60.5t70 -88.5t22.5 -123q0 -144 -115 -233t-322 -89z" />
    <glyph glyph-name="t" unicode="t" horiz-adv-x="786" 
d="M31 993h155v197l314 74v-271h245v-231h-245v-389q0 -81 31 -110.5t116 -29.5h43v-233h-131q-201 0 -287 82.5t-86 255.5v424h-155v231z" />
    <glyph glyph-name="u" unicode="u" horiz-adv-x="1128" 
d="M102 993h318v-628q0 -62 31.5 -98t93.5 -36q68 0 111.5 48t43.5 114v600h318v-993h-270l-23 158q-66 -87 -142 -136t-182 -49q-138 0 -218.5 87.5t-80.5 238.5v694z" />
    <glyph glyph-name="v" unicode="v" horiz-adv-x="1036" 
d="M16 993h330l178 -661h4l179 661h313l-334 -995h-338z" />
    <glyph glyph-name="w" unicode="w" horiz-adv-x="1548" 
d="M18 995h322l135 -643h4l164 643h281l166 -643h4l135 643h303l-283 -997h-303l-170 620h-4l-170 -620h-303z" />
    <glyph glyph-name="x" unicode="x" horiz-adv-x="1011" 
d="M659 0l-170 317l-170 -317h-317l320 500l-312 493h350l162 -301l164 301h318l-312 -485l318 -508h-351z" />
    <glyph glyph-name="y" unicode="y" horiz-adv-x="1034" 
d="M18 993h326l186 -682h5l174 682h315l-309 -934q-31 -89 -56 -144.5t-63 -107.5t-86 -79.5t-118 -43.5t-165 -16h-118v221h32q94 0 143.5 21.5t63.5 77.5l8 24z" />
    <glyph glyph-name="z" unicode="z" horiz-adv-x="931" 
d="M78 993h799v-157l-422 -582h411v-254h-805v160l428 592h-411v241z" />
    <glyph glyph-name="braceleft" unicode="{" horiz-adv-x="854" 
d="M657 1563h179v-199h-78q-78 0 -130 -11t-78 -32.5t-36 -45.5t-10 -56q0 -59 53 -178t53 -177q0 -92 -69.5 -151.5t-233.5 -89.5v-7q164 -30 233.5 -89.5t69.5 -153.5q0 -58 -53 -176.5t-53 -176.5q0 -32 10 -56t36 -45.5t78 -32.5t130 -11h78v-199h-179q-121 0 -209 24.5
t-136 67.5t-69.5 92t-21.5 107q0 60 24 125.5t53 112t53 101.5t24 97q0 129 -244 129h-70v175h70q244 0 244 129q0 42 -24 97t-53 101.5t-53 111.5t-24 124t21.5 108.5t69.5 92.5t136 67.5t209 24.5z" />
    <glyph glyph-name="bar" unicode="|" horiz-adv-x="655" 
d="M213 1563h229v-1887h-229v1887z" />
    <glyph glyph-name="braceright" unicode="}" horiz-adv-x="854" 
d="M16 1563h181q121 0 209 -24.5t136 -67.5t69.5 -92.5t21.5 -108.5t-24 -124t-53 -111.5t-53 -101.5t-24 -97q0 -129 244 -129h68v-175h-68q-244 0 -244 -129q0 -42 24 -97t53 -101.5t53 -112t24 -125.5q0 -58 -21.5 -107t-69.5 -92t-136 -67.5t-209 -24.5h-181v199h80
q77 0 129 11t77.5 32.5t35.5 45.5t10 56q0 58 -52 177t-52 176q0 94 69 153.5t234 89.5v7q-165 29 -234 88.5t-69 152.5q0 58 52 177t52 178q0 32 -10 56t-35.5 45.5t-77.5 32.5t-129 11h-80v199z" />
    <glyph glyph-name="asciitilde" unicode="~" horiz-adv-x="1269" 
d="M401 963q83 0 148.5 -39.5t132.5 -106.5q9 -9 37.5 -39.5t39 -40t31 -26.5t35.5 -23t31 -6q78 0 78 119q0 62 -21 149h193q45 -101 45 -227q0 -61 -16 -116.5t-48.5 -103t-89.5 -76t-131 -28.5q-79 0 -142 36.5t-126 99.5q-17 16 -50.5 51t-49.5 50t-40 29.5t-44 14.5
q-78 0 -78 -117q0 -69 20 -151h-192q-45 101 -45 227q0 61 15.5 116t47.5 103t88.5 76.5t130.5 28.5z" />
    <glyph glyph-name="asciitilde" unicode="&#x223c;" horiz-adv-x="1269" 
d="M401 963q83 0 148.5 -39.5t132.5 -106.5q9 -9 37.5 -39.5t39 -40t31 -26.5t35.5 -23t31 -6q78 0 78 119q0 62 -21 149h193q45 -101 45 -227q0 -61 -16 -116.5t-48.5 -103t-89.5 -76t-131 -28.5q-79 0 -142 36.5t-126 99.5q-17 16 -50.5 51t-49.5 50t-40 29.5t-44 14.5
q-78 0 -78 -117q0 -69 20 -151h-192q-45 101 -45 227q0 61 15.5 116t47.5 103t88.5 76.5t130.5 28.5z" />
    <glyph glyph-name="uni00A0" unicode="&#xa0;" horiz-adv-x="380" 
 />
    <glyph glyph-name="exclamdown" unicode="&#xa1;" horiz-adv-x="532" 
d="M414 1069h-291v295h291v-295zM424 0h-315v387l114 549h88l113 -549v-387z" />
    <glyph glyph-name="cent" unicode="&#xa2;" horiz-adv-x="1071" 
d="M993 551q0 -150 -82.5 -251t-238.5 -130v-180h-242v182q-163 34 -252.5 156t-89.5 309v92q0 186 90 308.5t252 156.5v180h242v-176q157 -29 239 -130t82 -255v-25h-295v15q0 71 -36 112t-105 41q-75 0 -114.5 -53.5t-39.5 -136.5v-166q0 -83 39 -135.5t115 -52.5
q69 0 105 40t36 109v19h295v-29z" />
    <glyph glyph-name="sterling" unicode="&#xa3;" horiz-adv-x="1443" 
d="M1370 354q0 -190 -85 -287.5t-281 -97.5q-66 0 -126 13t-114.5 39t-92.5 49t-89 59q-118 -160 -303 -160q-118 0 -181 60.5t-63 154.5q0 97 69.5 167.5t196.5 70.5q96 0 203 -39q10 29 10 63q0 50 -33 125h-317v177h215q-72 140 -72 260q0 168 132 278.5t382 110.5
q130 0 228 -31t157 -87.5t88 -130.5t29 -165v-70h-299v37q0 76 -49 121t-144 45q-89 0 -142.5 -37.5t-53.5 -105.5q0 -19 3 -40t6.5 -35.5t12.5 -39t12.5 -34t16.5 -39.5t16 -37h379v-177h-325q6 -30 6 -67q0 -107 -64 -201q148 -67 246 -67q86 0 121 37.5t35 119.5v51h270
v-90zM197 188q0 -32 23.5 -54.5t64.5 -22.5q93 0 164 106q-83 47 -158 47q-44 0 -69 -21.5t-25 -54.5z" />
    <glyph glyph-name="yen" unicode="&#xa5;" horiz-adv-x="1263" 
d="M1141 229h-357v-229h-311v229h-356v168h356v123l-4 8h-352v166h268l-344 670h344l258 -565l260 565h320l-349 -670h267v-166h-353l-4 -8v-123h357v-168z" />
    <glyph glyph-name="section" unicode="&#xa7;" horiz-adv-x="1257" 
d="M1149 -6q0 -73 -28 -134.5t-86.5 -111.5t-160 -78t-237.5 -28q-270 0 -401.5 107t-131.5 290v33h304v-23q0 -68 58.5 -109.5t182.5 -41.5q95 0 143 25.5t48 64.5q0 43 -54 71.5t-245 92.5q-254 73 -346.5 144.5t-92.5 192.5q0 85 49 152t156 123q-98 53 -136 122.5
t-38 160.5q0 72 28 133.5t86 111t156 77.5t228 28q256 0 384 -105t128 -280v-21h-301v15q0 59 -53 97t-173 38q-84 0 -130 -25t-46 -65q0 -42 54 -72t231 -90q254 -75 346 -146.5t92 -193.5q0 -85 -48.5 -151t-156.5 -122q108 -55 149.5 -123t41.5 -159zM369 563
q0 -40 34.5 -69.5t116.5 -61.5t264 -90q51 22 82 58.5t31 74.5q0 57 -76.5 95.5t-343.5 125.5q-50 -23 -79 -59t-29 -74z" />
    <glyph glyph-name="dieresis" unicode="&#xa8;" horiz-adv-x="1024" 
d="M176 1411h260v-270h-260v270zM588 1411h260v-270h-260v270z" />
    <glyph glyph-name="copyright" unicode="&#xa9;" horiz-adv-x="1714" 
d="M100 682q0 153 57 290.5t156 237.5t240.5 158.5t302.5 58.5t302.5 -58.5t241 -158.5t157 -237.5t57.5 -290.5t-57.5 -290.5t-157 -237.5t-241 -158.5t-302.5 -58.5t-302.5 58.5t-240.5 158.5t-156 237.5t-57 290.5zM1491 682q0 131 -46.5 247.5t-129 202t-202 135.5
t-257.5 50q-184 0 -330 -85.5t-224.5 -230t-78.5 -319.5t78.5 -319t224.5 -229t330 -85q138 0 257.5 49.5t202 134.5t129 201.5t46.5 247.5zM868 1049q144 0 218.5 -67t74.5 -181v-25h-176v19q0 42 -30.5 68t-86.5 26q-71 0 -104 -41.5t-33 -112.5v-102q0 -70 33 -113
t104 -43q57 0 87 26.5t30 69.5v19h176v-27q0 -113 -75.5 -180.5t-217.5 -67.5q-153 0 -238 84t-85 228v110q0 141 85.5 225.5t237.5 84.5z" />
    <glyph glyph-name="ordfeminine" unicode="&#xaa;" horiz-adv-x="892" 
d="M551 690q-84 -145 -266 -145q-108 0 -170 56.5t-62 160.5q0 70 27 119t96 82q103 53 359 71v43q0 97 -109 97q-53 0 -81 -23.5t-28 -60.5v-21h-227v16q0 128 88 210.5t264 82.5q179 0 266 -83.5t87 -233.5v-283q0 -34 13.5 -47t53.5 -16v-158h-90q-114 0 -156 25t-65 108
zM305 805q0 -39 24.5 -60.5t69.5 -21.5q61 0 98.5 30.5t37.5 82.5v82q-147 -14 -191 -44q-39 -19 -39 -69z" />
    <glyph glyph-name="guillemotleft" unicode="&#xab;" horiz-adv-x="1302" 
d="M496 993h137q-10 -138 -68.5 -266.5t-156.5 -230.5q97 -99 156 -228t69 -268h-137q-48 135 -152.5 243t-261.5 179v151q156 69 260.5 177.5t153.5 242.5zM1044 993h138q-25 -286 -226 -497q97 -98 155.5 -227t70.5 -269h-138q-107 284 -415 422v151q156 68 260 176
t155 244z" />
    <glyph glyph-name="registered" unicode="&#xae;" horiz-adv-x="1060" 
d="M530 1397q196 0 325.5 -129.5t129.5 -317.5q0 -189 -129 -316.5t-326 -127.5q-196 0 -324 127.5t-128 316.5q0 188 128 317.5t324 129.5zM530 1323q-168 0 -272 -106t-104 -267t104 -268t272 -107q167 0 271 107t104 268t-103.5 267t-271.5 106zM463 877v-150h-119v451
h238q159 0 159 -150q0 -104 -77 -135l81 -166h-124l-74 150h-84zM463 1085v-120h90q36 0 52 14t16 47q0 32 -15.5 45.5t-52.5 13.5h-90z" />
    <glyph glyph-name="macron" unicode="&#xaf;" horiz-adv-x="1024" 
d="M174 1356h676v-182h-676v182z" />
    <glyph glyph-name="degree" unicode="&#xb0;" horiz-adv-x="909" 
d="M453 1397q184 0 289.5 -104t105.5 -283t-105.5 -284t-289.5 -105q-183 0 -288.5 104.5t-105.5 282.5q0 181 105 285t289 104zM453 1204q-84 0 -128 -50t-44 -144t44.5 -144.5t127.5 -50.5q84 0 128 50.5t44 144.5q0 95 -43.5 144.5t-128.5 49.5z" />
    <glyph glyph-name="plusminus" unicode="&#xb1;" horiz-adv-x="1093" 
d="M430 1262h236v-289h288v-225h-288v-291h-236v291h-291v225h291v289zM139 322h815v-220h-815v220z" />
    <glyph glyph-name="two.sup" unicode="&#xb2;" 
d="M688 592h-635v47q0 148 59 230.5t226 168.5q95 53 122 78t27 70q0 39 -27.5 58.5t-76.5 19.5q-62 0 -94.5 -28.5t-32.5 -76.5v-41h-201v51q0 123 84 196t252 73q160 1 237 -66t77 -178q0 -92 -52.5 -150.5t-206.5 -142.5q-91 -48 -121.5 -72t-33.5 -55h397v-182z" />
    <glyph glyph-name="three.sup" unicode="&#xb3;" 
d="M383 1438q153 0 237.5 -63.5t84.5 -164.5v-16q0 -73 -46 -118.5t-127 -63.5q181 -29 181 -187v-14q0 -106 -88 -172t-244 -66q-168 0 -253 68.5t-85 185.5v50h199v-37q0 -44 34 -70.5t97 -26.5q60 0 91.5 24t31.5 64v21q0 82 -138 82h-73v145h73q136 0 136 84v17
q0 40 -31.5 64t-89.5 24q-62 0 -95.5 -27t-33.5 -70v-36h-199v51q0 112 86.5 182t251.5 70z" />
    <glyph glyph-name="acute" unicode="&#xb4;" horiz-adv-x="1021" 
d="M772 1552l-326 -411h-194l168 411h352z" />
    <glyph glyph-name="paragraph" unicode="&#xb6;" horiz-adv-x="1476" 
d="M1348 1364v-1688h-201v1436h-170v-1436h-203v635h-102q-292 0 -448 139t-156 371v27q0 232 157.5 374t446.5 142h676zM774 1112h-65q-213 0 -213 -240v-100q0 -115 53 -176t160 -61h65v577z" />
    <glyph glyph-name="periodcentered" unicode="&#xb7;" horiz-adv-x="477" 
d="M82 846h313v-328h-313v328z" />
    <glyph glyph-name="cedilla" unicode="&#xb8;" horiz-adv-x="1021" 
d="M795 -338q0 -105 -76 -162t-211 -57q-154 0 -279 51l33 90q106 -28 178 -28q131 0 131 100q0 88 -106 88q-40 0 -105 -20l-41 75l173 217h129l-150 -176q59 19 94 19q104 0 167 -54.5t63 -142.5z" />
    <glyph glyph-name="one.sup" unicode="&#xb9;" horiz-adv-x="638" 
d="M307 1425h158v-833h-225v563h-168v164h75q75 0 111 25.5t49 80.5z" />
    <glyph glyph-name="ordmasculine" unicode="&#xba;" horiz-adv-x="923" 
d="M461 1380q183 0 288 -100t105 -283v-84q0 -182 -104.5 -281.5t-288.5 -99.5q-182 0 -286.5 99.5t-104.5 281.5v84q0 183 104.5 283t286.5 100zM461 1169q-60 0 -93.5 -35.5t-33.5 -93.5v-170q0 -57 33.5 -91t93.5 -34q59 0 94 34.5t35 90.5v170q0 58 -35 93.5t-94 35.5z
" />
    <glyph glyph-name="guillemotright" unicode="&#xbb;" horiz-adv-x="1300" 
d="M805 0h-137q10 138 68.5 267t154.5 231q-96 101 -154.5 229t-68.5 266h137q48 -135 152.5 -243t261.5 -177v-151q-156 -70 -261 -179t-153 -243zM258 0h-137q12 139 70 268t155 230q-97 100 -155 227.5t-70 267.5h137q107 -284 414 -420v-151q-306 -138 -414 -422z" />
    <glyph glyph-name="onequarter" unicode="&#xbc;" horiz-adv-x="1597" 
d="M307 1372h158v-833h-225v563h-168v164h75q75 0 111 25.5t49 80.5zM1251 1364l-800 -1364h-166l800 1364h166zM1196 829h268v-505h105v-160h-105v-164h-198v164h-412v153zM1266 324v344l-215 -344h215z" />
    <glyph glyph-name="onehalf" unicode="&#xbd;" horiz-adv-x="1679" 
d="M307 1372h158v-833h-225v563h-168v164h75q75 0 111 25.5t49 80.5zM1251 1364l-800 -1364h-166l800 1364h166zM1614 0h-635v47q0 148 58.5 230.5t224.5 168.5q95 52 123 78t28 70q0 39 -28.5 58.5t-77.5 19.5q-61 0 -94 -27.5t-33 -77.5v-39h-201v50q0 122 84.5 195.5
t251.5 74.5q161 0 237 -67.5t76 -178.5q0 -91 -52.5 -150.5t-205.5 -142.5q-89 -45 -120.5 -70t-35.5 -55h400v-184z" />
    <glyph glyph-name="threequarters" unicode="&#xbe;" horiz-adv-x="1732" 
d="M383 1384q153 0 237.5 -63.5t84.5 -163.5v-16q0 -73 -46 -119t-127 -64q181 -29 181 -186v-14q0 -106 -88 -172t-244 -66q-168 0 -253 68.5t-85 185.5v49h199v-37q0 -44 34 -70t97 -26q60 0 91.5 24t31.5 64v21q0 82 -138 82h-73v145h73q136 0 136 84v16q0 40 -31.5 64
t-89.5 24q-62 0 -95.5 -26.5t-33.5 -69.5v-37h-199v52q0 112 86.5 181.5t251.5 69.5zM1386 1364l-800 -1364h-166l801 1364h165zM1331 829h268v-505h103v-160h-103v-164h-198v164h-412v153zM1401 324v344l-215 -344h215z" />
    <glyph glyph-name="questiondown" unicode="&#xbf;" horiz-adv-x="1101" 
d="M743 1364v-295h-288v295h288zM43 352q0 119 58 196.5t214 164.5q72 39 104 68.5t42.5 62t11.5 94.5h254q0 -158 -41.5 -235t-177.5 -164q-86 -48 -117 -82t-31 -90q0 -125 185 -125q129 0 179 46t50 134v59h289v-75q0 -69 -14 -129t-51 -118t-94 -99t-150 -66t-213 -25
q-94 0 -171 15t-130.5 42t-92.5 62t-61 79t-32.5 89.5t-10.5 95.5z" />
    <glyph glyph-name="Agrave" unicode="&#xc0;" horiz-adv-x="1335" 
d="M229 1905h357l184 -367h-207zM958 0l-71 238h-461l-72 -238h-323l442 1370h389l443 -1370h-347zM655 1008l-157 -525h317l-156 525h-4z" />
    <glyph glyph-name="Aacute" unicode="&#xc1;" horiz-adv-x="1335" 
d="M1104 1905l-332 -367h-209l185 367h356zM958 0l-71 238h-461l-72 -238h-323l442 1370h389l443 -1370h-347zM655 1008l-157 -525h317l-156 525h-4z" />
    <glyph glyph-name="Acircumflex" unicode="&#xc2;" horiz-adv-x="1335" 
d="M508 1880h319q23 -106 72.5 -170.5t134.5 -101.5v-105q-114 10 -215.5 65.5t-150.5 127.5q-49 -72 -151.5 -127.5t-217.5 -65.5v105q86 37 136 101.5t73 170.5zM958 0l-71 238h-461l-72 -238h-323l442 1370h389l443 -1370h-347zM655 1008l-157 -525h317l-156 525h-4z" />
    <glyph glyph-name="Atilde" unicode="&#xc3;" horiz-adv-x="1335" 
d="M502 1882q52 0 96 -21.5t94 -60.5q5 -4 21 -17t21.5 -17.5t19.5 -14.5t21.5 -14t19 -9.5t21.5 -7.5t20 -2q36 0 56.5 24t20.5 66q0 18 -8 64h109q20 -72 20 -141q0 -100 -53 -164t-147 -64q-91 0 -191 80q-4 3 -18.5 15t-19 15.5t-17.5 13t-19 13t-17 10t-18.5 9t-17 4.5
t-18.5 2q-37 0 -56.5 -23.5t-19.5 -66.5q0 -32 6 -62h-109q-18 87 -18 142q0 100 53 163.5t148 63.5zM958 0l-71 238h-461l-72 -238h-323l442 1370h389l443 -1370h-347zM655 1008l-157 -525h317l-156 525h-4z" />
    <glyph glyph-name="Adieresis" unicode="&#xc4;" horiz-adv-x="1335" 
d="M330 1808h260v-270h-260v270zM745 1808h261v-270h-261v270zM958 0l-71 238h-461l-72 -238h-323l442 1370h389l443 -1370h-347zM655 1008l-157 -525h317l-156 525h-4z" />
    <glyph glyph-name="Aring" unicode="&#xc5;" horiz-adv-x="1331" 
d="M948 0l-69 238h-453l-72 -238h-325l436 1341q-66 63 -66 162q0 101 73 168.5t194 67.5q120 0 193 -67.5t73 -168.5q0 -96 -66 -162l437 -1341h-355zM666 1630q-66 0 -105 -36t-39 -91t39 -91t105 -36q67 0 106 35.5t39 91.5t-39 91.5t-106 35.5zM653 993l-153 -510h305z
" />
    <glyph glyph-name="AE" unicode="&#xc6;" horiz-adv-x="1908" 
d="M-27 0l701 1364h1145v-283h-623v-254h477v-268h-477v-276h625v-283h-955v244h-428l-123 -244h-342zM862 1094l-307 -613h311v613h-4z" />
    <glyph glyph-name="Ccedilla" unicode="&#xc7;" horiz-adv-x="1290" 
d="M924 -338q0 -105 -76 -162t-209 -57q-154 0 -279 51l33 90q106 -28 176 -28q133 0 133 100q0 88 -108 88q-37 0 -102 -20l-43 75l139 174q-234 25 -365 176.5t-131 395.5v274q0 262 159.5 419t426.5 157q257 0 393.5 -127t136.5 -346v-58h-327v54q0 87 -55.5 139.5
t-149.5 52.5q-117 0 -179.5 -78t-62.5 -209v-280q0 -129 63 -209t179 -80q94 0 149.5 52.5t55.5 139.5v54h327v-58q0 -205 -130 -333t-365 -138l-113 -131q59 19 96 19q104 0 166 -54.5t62 -142.5z" />
    <glyph glyph-name="Egrave" unicode="&#xc8;" horiz-adv-x="1177" 
d="M205 1896h354l186 -366h-208zM135 1364h952v-283h-622v-254h477v-268h-477v-276h625v-283h-955v1364z" />
    <glyph glyph-name="Eacute" unicode="&#xc9;" horiz-adv-x="1177" 
d="M1026 1896l-332 -366h-209l185 366h356zM135 1364h952v-283h-622v-254h477v-268h-477v-276h625v-283h-955v1364z" />
    <glyph glyph-name="Ecircumflex" unicode="&#xca;" horiz-adv-x="1177" 
d="M449 1874h317q23 -105 73.5 -170t135.5 -102v-105q-115 10 -217.5 65.5t-149.5 127.5q-49 -72 -151 -127.5t-217 -65.5v105q86 37 136 101.5t73 170.5zM135 1364h952v-283h-622v-254h477v-268h-477v-276h625v-283h-955v1364z" />
    <glyph glyph-name="Edieresis" unicode="&#xcb;" horiz-adv-x="1177" 
d="M270 1802h260v-272h-260v272zM686 1802h260v-272h-260v272zM135 1364h952v-283h-622v-254h477v-268h-477v-276h625v-283h-955v1364z" />
    <glyph glyph-name="Igrave" unicode="&#xcc;" horiz-adv-x="624" 
d="M-125 1896h356l185 -366h-209zM143 1364h338v-1364h-338v1364z" />
    <glyph glyph-name="Iacute" unicode="&#xcd;" horiz-adv-x="624" 
d="M750 1896l-334 -366h-207l184 366h357zM143 1364h338v-1364h-338v1364z" />
    <glyph glyph-name="Icircumflex" unicode="&#xce;" horiz-adv-x="624" 
d="M156 1874h317q23 -106 73 -170.5t136 -101.5v-105q-115 10 -217.5 65.5t-151.5 127.5q-48 -72 -149.5 -127.5t-216.5 -65.5v105q85 37 134.5 101.5t74.5 170.5zM143 1364h338v-1364h-338v1364z" />
    <glyph glyph-name="Idieresis" unicode="&#xcf;" horiz-adv-x="624" 
d="M-25 1802h261v-272h-261v272zM391 1802h260v-272h-260v272zM143 1364h338v-1364h-338v1364z" />
    <glyph glyph-name="Eth" unicode="&#xd0;" horiz-adv-x="1341" 
d="M1247 528q0 -250 -144.5 -389t-422.5 -139h-545v604h-143v156h143v604h545q277 0 422 -144t145 -395v-297zM473 274h182q124 0 188 73t64 200v270q0 127 -64 200t-188 73h-182v-330h227v-156h-227v-330z" />
    <glyph glyph-name="Ntilde" unicode="&#xd1;" horiz-adv-x="1386" 
d="M528 1874q89 0 191 -82q6 -5 24.5 -19t25.5 -19.5t22.5 -15.5t24.5 -14.5t22 -8t24 -3.5q38 0 58 23.5t20 66.5q0 22 -8 62h108q21 -76 21 -142q0 -99 -53 -162t-148 -63q-90 0 -190 80q-3 3 -16.5 13.5t-17.5 13.5t-15.5 12t-16.5 12t-15.5 10t-16.5 9.5t-15 6t-17 4.5
t-16 1q-36 0 -55.5 -23.5t-19.5 -66.5q0 -35 8 -62h-111q-18 87 -18 142q0 99 52.5 162t147.5 63zM135 1364h334l481 -813h4l-4 813h301v-1364h-329l-486 825h-4l4 -825h-301v1364z" />
    <glyph glyph-name="Ograve" unicode="&#xd2;" horiz-adv-x="1361" 
d="M281 1907h354l184 -367h-207zM682 1395q269 0 428.5 -151t159.5 -421v-282q0 -270 -159.5 -421t-428.5 -151q-270 0 -430 151t-160 421v282q0 270 160 421t430 151zM682 1110q-119 0 -183.5 -70.5t-64.5 -214.5v-286q0 -144 64.5 -214.5t183.5 -70.5t182.5 70.5
t63.5 214.5v286q0 144 -63.5 214.5t-182.5 70.5z" />
    <glyph glyph-name="Oacute" unicode="&#xd3;" horiz-adv-x="1361" 
d="M1102 1907l-334 -367h-207l184 367h357zM682 1395q269 0 428.5 -151t159.5 -421v-282q0 -270 -159.5 -421t-428.5 -151q-270 0 -430 151t-160 421v282q0 270 160 421t430 151zM682 1110q-119 0 -183.5 -70.5t-64.5 -214.5v-286q0 -144 64.5 -214.5t183.5 -70.5
t182.5 70.5t63.5 214.5v286q0 144 -63.5 214.5t-182.5 70.5z" />
    <glyph glyph-name="Ocircumflex" unicode="&#xd4;" horiz-adv-x="1361" 
d="M524 1884h318q23 -105 73.5 -170t135.5 -102v-105q-115 10 -217.5 65.5t-151.5 127.5q-47 -72 -149.5 -127.5t-217.5 -65.5v105q85 37 135.5 102t73.5 170zM682 1395q269 0 428.5 -151t159.5 -421v-282q0 -270 -159.5 -421t-428.5 -151q-270 0 -430 151t-160 421v282
q0 270 160 421t430 151zM682 1110q-119 0 -183.5 -70.5t-64.5 -214.5v-286q0 -144 64.5 -214.5t183.5 -70.5t182.5 70.5t63.5 214.5v286q0 144 -63.5 214.5t-182.5 70.5z" />
    <glyph glyph-name="Otilde" unicode="&#xd5;" horiz-adv-x="1361" 
d="M516 1884q94 0 191 -82q5 -4 24 -19t26 -20t22.5 -15.5t25 -14t22.5 -7.5t25 -4q37 0 56.5 23.5t19.5 66.5q0 35 -8 62h110q19 -92 19 -141q0 -99 -53 -162.5t-148 -63.5q-93 0 -189 80q-6 5 -21.5 17t-22.5 17.5t-20 15t-21.5 13.5t-20 9.5t-21.5 7.5t-20 2
q-37 0 -56.5 -23.5t-19.5 -66.5q0 -21 8 -61h-108q-21 76 -21 141q0 99 53 162t148 63zM682 1395q269 0 428.5 -151t159.5 -421v-282q0 -270 -159.5 -421t-428.5 -151q-270 0 -430 151t-160 421v282q0 270 160 421t430 151zM682 1110q-119 0 -183.5 -70.5t-64.5 -214.5v-286
q0 -144 64.5 -214.5t183.5 -70.5t182.5 70.5t63.5 214.5v286q0 144 -63.5 214.5t-182.5 70.5z" />
    <glyph glyph-name="Odieresis" unicode="&#xd6;" horiz-adv-x="1361" 
d="M346 1812h258v-272h-258v272zM762 1812h258v-272h-258v272zM682 1395q269 0 428.5 -151t159.5 -421v-282q0 -270 -159.5 -421t-428.5 -151q-270 0 -430 151t-160 421v282q0 270 160 421t430 151zM682 1110q-119 0 -183.5 -70.5t-64.5 -214.5v-286q0 -144 64.5 -214.5
t183.5 -70.5t182.5 70.5t63.5 214.5v286q0 144 -63.5 214.5t-182.5 70.5z" />
    <glyph glyph-name="multiply" unicode="&#xd7;" horiz-adv-x="1150" 
d="M1032 399l-176 -172l-281 279l-278 -279l-178 172l282 283l-282 283l176 172l280 -281l279 281l178 -172l-282 -283z" />
    <glyph glyph-name="Oslash" unicode="&#xd8;" horiz-adv-x="1361" 
d="M682 -31q-212 0 -360 97l-119 -166l-121 86l127 184q-117 145 -117 371v282q0 270 160 421t430 151q210 0 358 -97l119 166l119 -86l-123 -184q115 -143 115 -371v-282q0 -270 -159.5 -421t-428.5 -151zM426 541q0 -39 8 -97l422 615q-66 57 -174 57q-123 0 -189.5 -72
t-66.5 -221v-282zM936 823q0 56 -8 95l-420 -613q63 -57 174 -57q122 0 188 72.5t66 220.5v282z" />
    <glyph glyph-name="Ugrave" unicode="&#xd9;" horiz-adv-x="1339" 
d="M270 1894h355l186 -366h-209zM121 1364h338v-860q0 -119 55.5 -181.5t163.5 -62.5t163.5 62.5t55.5 181.5v860h322v-850q0 -265 -136 -405t-409 -140q-553 0 -553 545v850z" />
    <glyph glyph-name="Uacute" unicode="&#xda;" horiz-adv-x="1339" 
d="M1092 1894l-332 -366h-209l184 366h357zM121 1364h338v-860q0 -119 55.5 -181.5t163.5 -62.5t163.5 62.5t55.5 181.5v860h322v-850q0 -265 -136 -405t-409 -140q-553 0 -553 545v850z" />
    <glyph glyph-name="Ucircumflex" unicode="&#xdb;" horiz-adv-x="1339" 
d="M514 1870h317q25 -106 74.5 -171t134.5 -102v-104q-115 10 -216.5 65.5t-149.5 127.5q-49 -72 -151.5 -127.5t-217.5 -65.5v104q86 37 136 102t73 171zM121 1364h338v-860q0 -119 55.5 -181.5t163.5 -62.5t163.5 62.5t55.5 181.5v860h322v-850q0 -265 -136 -405
t-409 -140q-553 0 -553 545v850z" />
    <glyph glyph-name="Udieresis" unicode="&#xdc;" horiz-adv-x="1339" 
d="M336 1798h260v-270h-260v270zM752 1798h260v-270h-260v270zM121 1364h338v-860q0 -119 55.5 -181.5t163.5 -62.5t163.5 62.5t55.5 181.5v860h322v-850q0 -265 -136 -405t-409 -140q-553 0 -553 545v850z" />
    <glyph glyph-name="Yacute" unicode="&#xdd;" horiz-adv-x="1255" 
d="M1059 1894l-332 -366h-207l185 366h354zM10 1364h375l254 -549l256 549h350l-450 -850v-514h-338v514z" />
    <glyph glyph-name="Thorn" unicode="&#xde;" horiz-adv-x="1232" 
d="M135 1364h338v-227h248q220 0 340.5 -107.5t120.5 -290.5v-108q0 -186 -120 -293t-341 -107h-248v-231h-338v1364zM473 877v-388h180q191 0 191 162v66q0 160 -193 160h-178z" />
    <glyph glyph-name="germandbls" unicode="&#xdf;" horiz-adv-x="1132" 
d="M575 1430q205 0 320 -96t115 -267v-41q0 -190 -172 -256v-4q231 -68 231 -317v-107q0 -175 -94.5 -264.5t-278.5 -89.5q-88 0 -174 16v178q10 -2 33 -2q97 0 145 41.5t48 128.5v107q0 96 -50.5 143.5t-165.5 48.5v174q104 4 145.5 44.5t41.5 131.5v52q0 76 -36.5 117.5
t-107.5 41.5q-73 0 -112 -49t-39 -141v-1020h-315v981q0 215 121 332t345 117z" />
    <glyph glyph-name="agrave" unicode="&#xe0;" horiz-adv-x="1050" 
d="M164 1561h352l168 -412h-195zM651 166q-56 -90 -130.5 -136t-184.5 -46q-130 0 -203.5 69.5t-73.5 198.5q0 84 32.5 143t115.5 101q134 65 420 88v73q0 64 -28 95.5t-93 31.5q-125 0 -125 -114v-33h-279v31q0 156 103.5 256t312.5 100q213 0 316.5 -102.5t103.5 -284.5
v-375q0 -41 18 -57t68 -21v-188h-104q-133 0 -188 33.5t-81 136.5zM365 291q0 -101 104 -101q69 0 113.5 45t44.5 117v92q-130 -13 -195 -45q-38 -19 -52.5 -44.5t-14.5 -63.5z" />
    <glyph glyph-name="aacute" unicode="&#xe1;" horiz-adv-x="1050" 
d="M903 1561l-325 -412h-195l168 412h352zM651 166q-56 -90 -130.5 -136t-184.5 -46q-130 0 -203.5 69.5t-73.5 198.5q0 84 32.5 143t115.5 101q134 65 420 88v73q0 64 -28 95.5t-93 31.5q-125 0 -125 -114v-33h-279v31q0 156 103.5 256t312.5 100q213 0 316.5 -102.5
t103.5 -284.5v-375q0 -41 18 -57t68 -21v-188h-104q-133 0 -188 33.5t-81 136.5zM365 291q0 -101 104 -101q69 0 113.5 45t44.5 117v92q-130 -13 -195 -45q-38 -19 -52.5 -44.5t-14.5 -63.5z" />
    <glyph glyph-name="acircumflex" unicode="&#xe2;" horiz-adv-x="1050" 
d="M391 1538h268q34 -132 83 -207.5t135 -113.5v-101q-107 3 -202.5 65.5t-150.5 155.5q-53 -93 -148 -155.5t-202 -65.5v101q85 38 134 114t83 207zM651 166q-56 -90 -130.5 -136t-184.5 -46q-130 0 -203.5 69.5t-73.5 198.5q0 84 32.5 143t115.5 101q134 65 420 88v73
q0 64 -28 95.5t-93 31.5q-125 0 -125 -114v-33h-279v31q0 156 103.5 256t312.5 100q213 0 316.5 -102.5t103.5 -284.5v-375q0 -41 18 -57t68 -21v-188h-104q-133 0 -188 33.5t-81 136.5zM365 291q0 -101 104 -101q69 0 113.5 45t44.5 117v92q-130 -13 -195 -45
q-38 -19 -52.5 -44.5t-14.5 -63.5z" />
    <glyph glyph-name="atilde" unicode="&#xe3;" horiz-adv-x="1050" 
d="M360 1511q41 0 83 -19t63.5 -35.5t62.5 -51.5q79 -68 121 -68q34 0 56 23t22 67q0 34 -8 74h112q23 -112 23 -151q0 -101 -55.5 -167.5t-149.5 -66.5q-77 0 -172 76q-8 7 -39 33.5t-43.5 35.5t-34.5 20t-41 11q-34 0 -55.5 -23.5t-21.5 -68.5q0 -34 8 -74h-113
q-22 107 -22 154q0 100 55 165.5t149 65.5zM651 166q-56 -90 -130.5 -136t-184.5 -46q-130 0 -203.5 69.5t-73.5 198.5q0 84 32.5 143t115.5 101q134 65 420 88v73q0 64 -28 95.5t-93 31.5q-125 0 -125 -114v-33h-279v31q0 156 103.5 256t312.5 100q213 0 316.5 -102.5
t103.5 -284.5v-375q0 -41 18 -57t68 -21v-188h-104q-133 0 -188 33.5t-81 136.5zM365 291q0 -101 104 -101q69 0 113.5 45t44.5 117v92q-130 -13 -195 -45q-38 -19 -52.5 -44.5t-14.5 -63.5z" />
    <glyph glyph-name="adieresis" unicode="&#xe4;" horiz-adv-x="1050" 
d="M190 1421h261v-272h-261v272zM600 1421h260v-272h-260v272zM651 166q-56 -90 -130.5 -136t-184.5 -46q-130 0 -203.5 69.5t-73.5 198.5q0 84 32.5 143t115.5 101q134 65 420 88v73q0 64 -28 95.5t-93 31.5q-125 0 -125 -114v-33h-279v31q0 156 103.5 256t312.5 100
q213 0 316.5 -102.5t103.5 -284.5v-375q0 -41 18 -57t68 -21v-188h-104q-133 0 -188 33.5t-81 136.5zM365 291q0 -101 104 -101q69 0 113.5 45t44.5 117v92q-130 -13 -195 -45q-38 -19 -52.5 -44.5t-14.5 -63.5z" />
    <glyph glyph-name="aring" unicode="&#xe5;" horiz-adv-x="1050" 
d="M524 1577q120 0 192 -67.5t72 -168.5t-72 -168t-192 -67q-119 0 -190.5 67t-71.5 168t71.5 168.5t190.5 67.5zM524 1468q-65 0 -103 -36t-38 -91q0 -56 38 -91.5t103 -35.5q66 0 105 35.5t39 91.5q0 55 -39 91t-105 36zM651 166q-56 -90 -130.5 -136t-184.5 -46
q-130 0 -203.5 69.5t-73.5 198.5q0 84 32.5 143t115.5 101q134 65 420 88v73q0 64 -28 95.5t-93 31.5q-125 0 -125 -114v-33h-279v31q0 156 103.5 256t312.5 100q213 0 316.5 -102.5t103.5 -284.5v-375q0 -41 18 -57t68 -21v-188h-104q-133 0 -188 33.5t-81 136.5zM365 291
q0 -101 104 -101q69 0 113.5 45t44.5 117v92q-130 -13 -195 -45q-38 -19 -52.5 -44.5t-14.5 -63.5z" />
    <glyph glyph-name="ae" unicode="&#xe6;" horiz-adv-x="1626" 
d="M1563 315q0 -152 -114.5 -249t-324.5 -97q-282 0 -391 185q-128 -183 -358 -183q-153 0 -235.5 69t-82.5 206q0 85 32 144t116 99q134 68 426 91v75q0 64 -29 96.5t-94 32.5q-63 0 -94 -30t-31 -84v-35h-279v31q0 158 101 257t293 99q218 0 311 -133q59 69 142 102
t175 33q218 0 328.5 -126.5t110.5 -340.5v-133h-617v-41q0 -178 178 -178q76 0 116 32.5t40 81.5v9h281v-13zM948 606v-16h320v16q0 182 -156 182q-81 0 -122.5 -47t-41.5 -135zM365 283q0 -105 106 -105q72 0 116 44.5t44 119.5v98q-138 -14 -199 -45q-39 -19 -53 -45.5
t-14 -66.5z" />
    <glyph glyph-name="ccedilla" unicode="&#xe7;" horiz-adv-x="1017" 
d="M788 -338q0 -105 -75.5 -162t-208.5 -57q-157 0 -279 51l31 90q106 -28 178 -28q131 0 131 100q0 88 -106 88q-41 0 -103 -20l-43 75l140 176q-184 23 -284.5 147.5t-100.5 323.5v101q0 220 123.5 348.5t340.5 128.5q211 0 322 -106.5t111 -286.5v-27h-287v17
q0 74 -36.5 115.5t-106.5 41.5q-75 0 -115.5 -53.5t-40.5 -140.5v-172q0 -88 40 -141.5t116 -53.5q71 0 107 41t36 115v16h287v-27q0 -168 -100.5 -273.5t-289.5 -117.5l-110 -131q59 19 94 19q104 0 166.5 -54.5t62.5 -142.5z" />
    <glyph glyph-name="egrave" unicode="&#xe8;" horiz-adv-x="1040" 
d="M166 1561h352l168 -410h-194zM977 315q0 -153 -115 -249.5t-327 -96.5q-228 0 -347.5 122.5t-119.5 346.5v105q0 221 121.5 351t336.5 130q222 0 337.5 -127t115.5 -340v-133h-619v-41q0 -178 179 -178q77 0 117 32.5t40 81.5v9h281v-13zM360 606v-16h322v16
q0 182 -156 182q-81 0 -123.5 -47t-42.5 -135z" />
    <glyph glyph-name="eacute" unicode="&#xe9;" horiz-adv-x="1040" 
d="M907 1561l-325 -410h-195l168 410h352zM977 315q0 -153 -115 -249.5t-327 -96.5q-228 0 -347.5 122.5t-119.5 346.5v105q0 221 121.5 351t336.5 130q222 0 337.5 -127t115.5 -340v-133h-619v-41q0 -178 179 -178q77 0 117 32.5t40 81.5v9h281v-13zM360 606v-16h322v16
q0 182 -156 182q-81 0 -123.5 -47t-42.5 -135z" />
    <glyph glyph-name="ecircumflex" unicode="&#xea;" horiz-adv-x="1040" 
d="M393 1538h271q32 -131 81 -206.5t134 -114.5v-101q-107 3 -202.5 65.5t-148.5 155.5q-55 -93 -150.5 -155.5t-201.5 -65.5v101q86 38 134.5 113.5t82.5 207.5zM977 315q0 -153 -115 -249.5t-327 -96.5q-228 0 -347.5 122.5t-119.5 346.5v105q0 221 121.5 351t336.5 130
q222 0 337.5 -127t115.5 -340v-133h-619v-41q0 -178 179 -178q77 0 117 32.5t40 81.5v9h281v-13zM360 606v-16h322v16q0 182 -156 182q-81 0 -123.5 -47t-42.5 -135z" />
    <glyph glyph-name="edieresis" unicode="&#xeb;" horiz-adv-x="1040" 
d="M193 1421h260v-270h-260v270zM602 1421h260v-270h-260v270zM977 315q0 -153 -115 -249.5t-327 -96.5q-228 0 -347.5 122.5t-119.5 346.5v105q0 221 121.5 351t336.5 130q222 0 337.5 -127t115.5 -340v-133h-619v-41q0 -178 179 -178q77 0 117 32.5t40 81.5v9h281v-13z
M360 606v-16h322v16q0 182 -156 182q-81 0 -123.5 -47t-42.5 -135z" />
    <glyph glyph-name="igrave" unicode="&#xec;" horiz-adv-x="546" 
d="M-147 1552h352l166 -411h-195zM115 993h317v-993h-317v993z" />
    <glyph glyph-name="iacute" unicode="&#xed;" horiz-adv-x="546" 
d="M696 1552l-325 -411h-195l168 411h352zM115 993h317v-993h-317v993z" />
    <glyph glyph-name="icircumflex" unicode="&#xee;" horiz-adv-x="546" 
d="M137 1528h271q34 -132 83 -208t134 -114v-100q-107 3 -203.5 65.5t-149.5 155.5q-53 -93 -149 -155.5t-203 -65.5v100q85 38 134 114t83 208zM115 993h317v-993h-317v993z" />
    <glyph glyph-name="idieresis" unicode="&#xef;" horiz-adv-x="546" 
d="M-61 1411h258v-270h-258v270zM348 1411h260v-270h-260v270zM115 993h317v-993h-317v993z" />
    <glyph glyph-name="eth" unicode="&#xf0;" horiz-adv-x="1064" 
d="M993 461q0 -227 -119.5 -359.5t-349.5 -132.5q-216 0 -336 113.5t-120 335.5v135q0 218 96 328t268 110q164 0 268 -123q-26 142 -112 269l-211 -78l-41 110l176 66q-87 97 -205 168v14h324q67 -46 114 -96l211 78l41 -111l-170 -63q166 -228 166 -557v-207zM530 793
q-71 0 -110 -46.5t-39 -123.5v-244q0 -77 39 -122.5t110 -45.5t111.5 45.5t40.5 120.5v246q0 76 -40.5 123t-111.5 47z" />
    <glyph glyph-name="ntilde" unicode="&#xf1;" horiz-adv-x="1128" 
d="M399 1528q41 0 83.5 -19.5t63 -35.5t62.5 -52q74 -67 121 -67q33 0 54.5 23t21.5 67q0 14 -6 74h110q23 -112 23 -152q0 -102 -54.5 -167.5t-150.5 -65.5q-78 0 -172 75q-10 8 -39.5 34t-42.5 36t-35 20.5t-41 10.5q-33 0 -54 -23.5t-21 -68.5q0 -14 6 -74h-111
q-22 107 -22 153q0 100 54.5 166t149.5 66zM109 993h272l22 -155q65 86 141 134t183 48q138 0 218.5 -87.5t80.5 -238.5v-694h-317v629q0 64 -31 99.5t-94 35.5q-68 0 -112 -48.5t-44 -113.5v-602h-319v993z" />
    <glyph glyph-name="ograve" unicode="&#xf2;" horiz-adv-x="1071" 
d="M174 1563h352l168 -412h-194zM537 1026q218 0 343.5 -122t125.5 -349v-117q0 -225 -126.5 -347t-342.5 -122q-218 0 -344.5 122t-126.5 347v117q0 226 126.5 348.5t344.5 122.5zM537 782q-74 0 -116 -47t-42 -125v-225q0 -78 42.5 -125t115.5 -47q72 0 113.5 47t41.5 125
v225q0 78 -41.5 125t-113.5 47z" />
    <glyph glyph-name="oacute" unicode="&#xf3;" horiz-adv-x="1071" 
d="M915 1563l-325 -412h-195l166 412h354zM537 1026q218 0 343.5 -122t125.5 -349v-117q0 -225 -126.5 -347t-342.5 -122q-218 0 -344.5 122t-126.5 347v117q0 226 126.5 348.5t344.5 122.5zM537 782q-74 0 -116 -47t-42 -125v-225q0 -78 42.5 -125t115.5 -47q72 0 113.5 47
t41.5 125v225q0 78 -41.5 125t-113.5 47z" />
    <glyph glyph-name="ocircumflex" unicode="&#xf4;" horiz-adv-x="1071" 
d="M401 1538h269q34 -130 83 -205.5t134 -113.5v-103q-107 4 -202 67t-148 156q-55 -93 -150.5 -156t-202.5 -67v103q86 38 134.5 113t82.5 206zM537 1026q218 0 343.5 -122t125.5 -349v-117q0 -225 -126.5 -347t-342.5 -122q-218 0 -344.5 122t-126.5 347v117
q0 226 126.5 348.5t344.5 122.5zM537 782q-74 0 -116 -47t-42 -125v-225q0 -78 42.5 -125t115.5 -47q72 0 113.5 47t41.5 125v225q0 78 -41.5 125t-113.5 47z" />
    <glyph glyph-name="otilde" unicode="&#xf5;" horiz-adv-x="1071" 
d="M373 1513q40 0 81.5 -18.5t66 -37t61.5 -52.5q75 -68 120 -68q33 0 54.5 24t21.5 69q0 33 -8 73h113q22 -107 22 -153q0 -100 -55 -166t-150 -66q-79 0 -172 74q-10 9 -32 29t-33.5 29t-29 21.5t-32.5 17.5t-30 5q-33 0 -54.5 -23.5t-21.5 -68.5q0 -14 6 -74h-111
q-22 86 -22 154q0 100 55 165.5t150 65.5zM537 1026q218 0 343.5 -122t125.5 -349v-117q0 -225 -126.5 -347t-342.5 -122q-218 0 -344.5 122t-126.5 347v117q0 226 126.5 348.5t344.5 122.5zM537 782q-74 0 -116 -47t-42 -125v-225q0 -78 42.5 -125t115.5 -47q72 0 113.5 47
t41.5 125v225q0 78 -41.5 125t-113.5 47z" />
    <glyph glyph-name="odieresis" unicode="&#xf6;" horiz-adv-x="1071" 
d="M201 1421h260v-270h-260v270zM610 1421h260v-270h-260v270zM537 1026q218 0 343.5 -122t125.5 -349v-117q0 -225 -126.5 -347t-342.5 -122q-218 0 -344.5 122t-126.5 347v117q0 226 126.5 348.5t344.5 122.5zM537 782q-74 0 -116 -47t-42 -125v-225q0 -78 42.5 -125
t115.5 -47q72 0 113.5 47t41.5 125v225q0 78 -41.5 125t-113.5 47z" />
    <glyph glyph-name="divide" unicode="&#xf7;" horiz-adv-x="1144" 
d="M440 1174h265v-236h-265v236zM106 797h932v-228h-932v228zM440 428h265v-235h-265v235z" />
    <glyph glyph-name="oslash" unicode="&#xf8;" horiz-adv-x="1071" 
d="M537 -31q-170 0 -285 74l-113 -139l-100 80l117 147q-90 123 -90 307v117q0 226 126.5 348.5t344.5 122.5q164 0 282 -76l113 140l100 -78l-119 -148q93 -123 93 -309v-117q0 -225 -126.5 -347t-342.5 -122zM367 387v-27l290 385q-45 48 -120 48q-79 0 -124.5 -50
t-45.5 -135v-221zM705 608v27l-291 -383q46 -49 123 -49q78 0 123 50t45 134v221z" />
    <glyph glyph-name="ugrave" unicode="&#xf9;" horiz-adv-x="1128" 
d="M199 1548h352l168 -411h-195zM102 993h318v-628q0 -62 31.5 -98t93.5 -36q68 0 111.5 48t43.5 114v600h318v-993h-270l-23 158q-66 -87 -142 -136t-182 -49q-138 0 -218.5 87.5t-80.5 238.5v694z" />
    <glyph glyph-name="uacute" unicode="&#xfa;" horiz-adv-x="1128" 
d="M940 1548l-326 -411h-194l168 411h352zM102 993h318v-628q0 -62 31.5 -98t93.5 -36q68 0 111.5 48t43.5 114v600h318v-993h-270l-23 158q-66 -87 -142 -136t-182 -49q-138 0 -218.5 87.5t-80.5 238.5v694z" />
    <glyph glyph-name="ucircumflex" unicode="&#xfb;" horiz-adv-x="1128" 
d="M426 1524h270q32 -130 81 -206t134 -116v-100q-107 4 -202 67t-148 156q-55 -93 -150 -156t-202 -67v100q86 40 134.5 115.5t82.5 206.5zM102 993h318v-628q0 -62 31.5 -98t93.5 -36q68 0 111.5 48t43.5 114v600h318v-993h-270l-23 158q-66 -87 -142 -136t-182 -49
q-138 0 -218.5 87.5t-80.5 238.5v694z" />
    <glyph glyph-name="udieresis" unicode="&#xfc;" horiz-adv-x="1128" 
d="M225 1407h260v-270h-260v270zM635 1407h260v-270h-260v270zM102 993h318v-628q0 -62 31.5 -98t93.5 -36q68 0 111.5 48t43.5 114v600h318v-993h-270l-23 158q-66 -87 -142 -136t-182 -49q-138 0 -218.5 87.5t-80.5 238.5v694z" />
    <glyph glyph-name="yacute" unicode="&#xfd;" horiz-adv-x="1034" 
d="M903 1548l-325 -411h-195l168 411h352zM18 993h326l186 -682h5l174 682h315l-309 -934q-31 -89 -56 -144.5t-63 -107.5t-86 -79.5t-118 -43.5t-165 -16h-118v221h32q94 0 143.5 21.5t63.5 77.5l8 24z" />
    <glyph glyph-name="thorn" unicode="&#xfe;" horiz-adv-x="1126" 
d="M109 1417h315v-536q57 66 125 102.5t162 36.5q154 0 248 -101.5t94 -283.5v-275q0 -183 -95 -285t-251 -102q-163 0 -279 129v-426h-319v1741zM586 786q-69 0 -114.5 -48t-45.5 -126v-231q0 -78 45.5 -126t114.5 -48q71 0 112 46.5t41 125.5v237q0 80 -40.5 125
t-112.5 45z" />
    <glyph glyph-name="ydieresis" unicode="&#xff;" horiz-adv-x="1034" 
d="M190 1407h261v-270h-261v270zM600 1407h260v-270h-260v270zM18 993h326l186 -682h5l174 682h315l-309 -934q-31 -89 -56 -144.5t-63 -107.5t-86 -79.5t-118 -43.5t-165 -16h-118v221h32q94 0 143.5 21.5t63.5 77.5l8 24z" />
    <glyph glyph-name="Amacron" unicode="&#x100;" horiz-adv-x="1335" 
d="M326 1753h684v-182h-684v182zM958 0l-71 238h-461l-72 -238h-323l442 1370h389l443 -1370h-347zM655 1008l-157 -525h317l-156 525h-4z" />
    <glyph glyph-name="amacron" unicode="&#x101;" horiz-adv-x="1050" 
d="M186 1364h678v-180h-678v180zM651 166q-56 -90 -130.5 -136t-184.5 -46q-130 0 -203.5 69.5t-73.5 198.5q0 84 32.5 143t115.5 101q134 65 420 88v73q0 64 -28 95.5t-93 31.5q-125 0 -125 -114v-33h-279v31q0 156 103.5 256t312.5 100q213 0 316.5 -102.5t103.5 -284.5
v-375q0 -41 18 -57t68 -21v-188h-104q-133 0 -188 33.5t-81 136.5zM365 291q0 -101 104 -101q69 0 113.5 45t44.5 117v92q-130 -13 -195 -45q-38 -19 -52.5 -44.5t-14.5 -63.5z" />
    <glyph glyph-name="Abreve" unicode="&#x102;" horiz-adv-x="1335" 
d="M668 1733q99 0 150.5 24.5t51.5 83.5q0 27 -6 64h107q26 -65 26 -133q0 -121 -88.5 -190t-240.5 -69q-153 0 -242.5 69t-89.5 190q0 57 26 133h107q-6 -37 -6 -64q0 -59 52.5 -83.5t152.5 -24.5zM958 0l-71 238h-461l-72 -238h-323l442 1370h389l443 -1370h-347z
M655 1008l-157 -525h317l-156 525h-4z" />
    <glyph glyph-name="abreve" unicode="&#x103;" horiz-adv-x="1050" 
d="M524 1352q193 0 193 133q0 16 -4 78h108q23 -90 23 -146q0 -134 -84 -212.5t-236 -78.5q-151 0 -235 78t-84 211q0 66 24 148h109q-6 -47 -6 -78q0 -133 192 -133zM651 166q-56 -90 -130.5 -136t-184.5 -46q-130 0 -203.5 69.5t-73.5 198.5q0 84 32.5 143t115.5 101
q134 65 420 88v73q0 64 -28 95.5t-93 31.5q-125 0 -125 -114v-33h-279v31q0 156 103.5 256t312.5 100q213 0 316.5 -102.5t103.5 -284.5v-375q0 -41 18 -57t68 -21v-188h-104q-133 0 -188 33.5t-81 136.5zM365 291q0 -101 104 -101q69 0 113.5 45t44.5 117v92
q-130 -13 -195 -45q-38 -19 -52.5 -44.5t-14.5 -63.5z" />
    <glyph glyph-name="Aogonek" unicode="&#x104;" horiz-adv-x="1335" 
d="M1384 -492q-98 -65 -225 -65q-108 0 -173.5 52t-65.5 143q0 52 24 102q23 46 73 99t173 161h-232l-71 238h-461l-72 -238h-323l442 1370h389l443 -1370q-99 -133 -131 -197q-29 -59 -29 -110q0 -54 30 -83.5t87 -29.5q42 0 86 17zM655 1008l-157 -525h317l-156 525h-4z
" />
    <glyph glyph-name="aogonek" unicode="&#x105;" horiz-adv-x="1050" 
d="M1104 -492q-95 -65 -223 -65q-108 0 -174 52t-66 143q0 56 25 102q22 45 73 99.5t168 156.5q-125 2 -178.5 36t-77.5 134q-56 -90 -130.5 -136t-184.5 -46q-130 0 -203.5 69.5t-73.5 198.5q0 84 32.5 143t115.5 101q134 65 420 88v73q0 64 -28 95.5t-93 31.5
q-125 0 -125 -114v-33h-279v31q0 156 103.5 256t312.5 100q213 0 316.5 -102.5t103.5 -284.5v-375q0 -41 18 -57t68 -21v-188q-107 -145 -129 -193q-29 -52 -29 -110q0 -54 30 -83.5t87 -29.5q42 0 86 17zM365 291q0 -101 104 -101q69 0 113.5 45t44.5 117v92
q-130 -13 -195 -45q-38 -19 -52.5 -44.5t-14.5 -63.5z" />
    <glyph glyph-name="Cacute" unicode="&#x106;" horiz-adv-x="1290" 
d="M1077 1907l-332 -367h-208l186 367h354zM678 1395q257 0 393.5 -127t136.5 -346v-58h-327v54q0 87 -55.5 139.5t-149.5 52.5q-117 0 -179.5 -78t-62.5 -209v-280q0 -129 63 -209t179 -80q94 0 149.5 52.5t55.5 139.5v54h327v-58q0 -215 -140.5 -344t-395.5 -129
q-273 0 -426.5 155.5t-153.5 420.5v274q0 262 159.5 419t426.5 157z" />
    <glyph glyph-name="cacute" unicode="&#x107;" horiz-adv-x="1017" 
d="M903 1561l-325 -410h-195l168 410h352zM535 217q71 0 107 41t36 115v16h287v-27q0 -178 -112 -285.5t-321 -107.5q-219 0 -341.5 128.5t-122.5 348.5v101q0 220 123.5 348.5t340.5 128.5q211 0 322 -106.5t111 -286.5v-27h-287v17q0 74 -36.5 115.5t-106.5 41.5
q-75 0 -115.5 -53.5t-40.5 -140.5v-172q0 -88 40 -141.5t116 -53.5z" />
    <glyph glyph-name="Cdotaccent" unicode="&#x10a;" horiz-adv-x="1290" 
d="M496 1788h327v-248h-327v248zM678 1395q257 0 393.5 -127t136.5 -346v-58h-327v54q0 87 -55.5 139.5t-149.5 52.5q-117 0 -179.5 -78t-62.5 -209v-280q0 -129 63 -209t179 -80q94 0 149.5 52.5t55.5 139.5v54h327v-58q0 -215 -140.5 -344t-395.5 -129
q-273 0 -426.5 155.5t-153.5 420.5v274q0 262 159.5 419t426.5 157z" />
    <glyph glyph-name="cdotaccent" unicode="&#x10b;" horiz-adv-x="1017" 
d="M358 1397h330v-246h-330v246zM535 217q71 0 107 41t36 115v16h287v-27q0 -178 -112 -285.5t-321 -107.5q-219 0 -341.5 128.5t-122.5 348.5v101q0 220 123.5 348.5t340.5 128.5q211 0 322 -106.5t111 -286.5v-27h-287v17q0 74 -36.5 115.5t-106.5 41.5
q-75 0 -115.5 -53.5t-40.5 -140.5v-172q0 -88 40 -141.5t116 -53.5z" />
    <glyph glyph-name="Ccaron" unicode="&#x10c;" horiz-adv-x="1290" 
d="M293 1917q115 -12 217 -67t149 -126q49 71 151.5 126t217.5 67v-105q-86 -37 -136 -102t-73 -170h-317q-25 105 -75 170t-134 102v105zM678 1395q257 0 393.5 -127t136.5 -346v-58h-327v54q0 87 -55.5 139.5t-149.5 52.5q-117 0 -179.5 -78t-62.5 -209v-280
q0 -129 63 -209t179 -80q94 0 149.5 52.5t55.5 139.5v54h327v-58q0 -215 -140.5 -344t-395.5 -129q-273 0 -426.5 155.5t-153.5 420.5v274q0 262 159.5 419t426.5 157z" />
    <glyph glyph-name="ccaron" unicode="&#x10d;" horiz-adv-x="1017" 
d="M172 1571q106 -3 201.5 -65.5t150.5 -155.5q53 93 149 155.5t201 65.5v-101q-85 -38 -134 -114t-81 -205h-270q-34 131 -82.5 206t-134.5 113v101zM535 217q71 0 107 41t36 115v16h287v-27q0 -178 -112 -285.5t-321 -107.5q-219 0 -341.5 128.5t-122.5 348.5v101
q0 220 123.5 348.5t340.5 128.5q211 0 322 -106.5t111 -286.5v-27h-287v17q0 74 -36.5 115.5t-106.5 41.5q-75 0 -115.5 -53.5t-40.5 -140.5v-172q0 -88 40 -141.5t116 -53.5z" />
    <glyph glyph-name="Dcaron" unicode="&#x10e;" horiz-adv-x="1341" 
d="M266 1907q115 -10 217.5 -65.5t151.5 -127.5q48 72 149.5 127.5t216.5 65.5v-105q-85 -37 -134 -101.5t-74 -170.5h-318q-23 106 -73 170.5t-136 101.5v105zM135 1364h545q277 0 423 -144.5t146 -394.5v-297q0 -250 -145.5 -389t-423.5 -139h-545v1364zM473 1087v-811
h184q123 0 186.5 73t63.5 200v266q0 127 -64 199.5t-188 72.5h-182z" />
    <glyph glyph-name="dcaron" unicode="&#x10f;" horiz-adv-x="1126" 
d="M1153 1417h262l-133 -344h-143zM698 1417h320v-1417h-273l-18 141q-60 -79 -133.5 -123.5t-179.5 -44.5q-154 0 -247 101.5t-93 285.5v275q0 182 94 283.5t250 101.5q164 0 280 -129v526zM541 786q-71 0 -112.5 -45.5t-41.5 -124.5v-237q0 -79 41.5 -125.5t112.5 -46.5
q69 0 114 48t45 126v231q0 78 -45 126t-114 48z" />
    <glyph glyph-name="Dcroat" unicode="&#x110;" horiz-adv-x="1341" 
d="M1247 528q0 -250 -144.5 -389t-422.5 -139h-545v604h-143v156h143v604h545q277 0 422 -144t145 -395v-297zM473 274h182q124 0 188 73t64 200v270q0 127 -64 200t-188 73h-182v-330h227v-156h-227v-330z" />
    <glyph glyph-name="dcroat" unicode="&#x111;" horiz-adv-x="1126" 
d="M727 141q-60 -79 -133.5 -123.5t-179.5 -44.5q-154 0 -247 101.5t-93 283.5v271q0 182 94 283.5t250 101.5q164 0 280 -129v239h-262v125h262v168h320v-168h133v-125h-133v-1124h-273zM541 778q-71 0 -112.5 -44.5t-41.5 -125.5v-231q0 -78 41.5 -123t112.5 -45
q69 0 114 47t45 125v225q0 78 -45 125t-114 47z" />
    <glyph glyph-name="Emacron" unicode="&#x112;" horiz-adv-x="1177" 
d="M266 1745h684v-180h-684v180zM135 1364h952v-283h-622v-254h477v-268h-477v-276h625v-283h-955v1364z" />
    <glyph glyph-name="emacron" unicode="&#x113;" horiz-adv-x="1040" 
d="M188 1366h678v-182h-678v182zM977 315q0 -153 -115 -249.5t-327 -96.5q-228 0 -347.5 122.5t-119.5 346.5v105q0 221 121.5 351t336.5 130q222 0 337.5 -127t115.5 -340v-133h-619v-41q0 -178 179 -178q77 0 117 32.5t40 81.5v9h281v-13zM360 606v-16h322v16
q0 182 -156 182q-81 0 -123.5 -47t-42.5 -135z" />
    <glyph glyph-name="Ebreve" unicode="&#x114;" horiz-adv-x="1177" 
d="M608 1726q203 0 203 109q0 25 -6 63h106q27 -79 27 -133q0 -121 -89 -189.5t-241 -68.5q-153 0 -242.5 68.5t-89.5 189.5q0 54 27 133h107q-7 -44 -7 -63q0 -59 52.5 -84t152.5 -25zM135 1364h952v-283h-622v-254h477v-268h-477v-276h625v-283h-955v1364z" />
    <glyph glyph-name="ebreve" unicode="&#x115;" horiz-adv-x="1040" 
d="M528 1352q193 0 193 135q0 29 -6 76h108q25 -97 25 -146q0 -134 -84.5 -212.5t-235.5 -78.5t-235 78t-84 211q0 62 22 148h109q-4 -62 -4 -76q0 -135 192 -135zM977 315q0 -153 -115 -249.5t-327 -96.5q-228 0 -347.5 122.5t-119.5 346.5v105q0 221 121.5 351t336.5 130
q222 0 337.5 -127t115.5 -340v-133h-619v-41q0 -178 179 -178q77 0 117 32.5t40 81.5v9h281v-13zM360 606v-16h322v16q0 182 -156 182q-81 0 -123.5 -47t-42.5 -135z" />
    <glyph glyph-name="Edotaccent" unicode="&#x116;" horiz-adv-x="1177" 
d="M442 1778h330v-248h-330v248zM135 1364h952v-283h-622v-254h477v-268h-477v-276h625v-283h-955v1364z" />
    <glyph glyph-name="edotaccent" unicode="&#x117;" horiz-adv-x="1040" 
d="M362 1397h330v-246h-330v246zM977 315q0 -153 -115 -249.5t-327 -96.5q-228 0 -347.5 122.5t-119.5 346.5v105q0 221 121.5 351t336.5 130q222 0 337.5 -127t115.5 -340v-133h-619v-41q0 -178 179 -178q77 0 117 32.5t40 81.5v9h281v-13zM360 606v-16h322v16
q0 182 -156 182q-81 0 -123.5 -47t-42.5 -135z" />
    <glyph glyph-name="Eogonek" unicode="&#x118;" horiz-adv-x="1177" 
d="M1167 -492q-95 -65 -223 -65q-108 0 -173.5 52t-65.5 143q0 52 24 102q23 46 73 99t173 161h-840v1364h952v-283h-622v-254h477v-268h-477v-276h625v-283q-102 -138 -132 -197q-28 -57 -28 -110q0 -54 30 -83.5t87 -29.5q42 0 86 17z" />
    <glyph glyph-name="eogonek" unicode="&#x119;" horiz-adv-x="1040" 
d="M985 -492q-98 -65 -225 -65q-107 0 -173.5 54t-66.5 149q0 56 29 116q45 85 188 240q-94 -33 -202 -33q-228 0 -347.5 122.5t-119.5 346.5v105q0 220 122.5 350.5t335.5 130.5q222 0 337.5 -127t115.5 -340v-133h-617v-41q0 -178 179 -178q75 0 115 32t40 80v11h281v-9
q0 -89 -43 -165q-68 -119 -100 -183q-49 -98 -69 -158t-20 -110q0 -123 119 -123q40 0 84 17zM362 606v-16h320v16q0 182 -156 182q-81 0 -122.5 -47t-41.5 -135z" />
    <glyph glyph-name="Ecaron" unicode="&#x11a;" horiz-adv-x="1177" 
d="M240 1907q115 -10 217 -65.5t151 -127.5q47 72 149.5 127.5t217.5 65.5v-105q-85 -37 -135.5 -102t-73.5 -170h-317q-23 106 -73 170.5t-136 101.5v105zM135 1364h952v-283h-622v-254h477v-268h-477v-276h625v-283h-955v1364z" />
    <glyph glyph-name="ecaron" unicode="&#x11b;" horiz-adv-x="1040" 
d="M176 1571q106 -3 201.5 -65.5t150.5 -155.5q53 93 148.5 155.5t202.5 65.5v-101q-85 -38 -134 -114t-81 -205h-271q-34 131 -82.5 206t-134.5 113v101zM977 315q0 -153 -115 -249.5t-327 -96.5q-228 0 -347.5 122.5t-119.5 346.5v105q0 221 121.5 351t336.5 130
q222 0 337.5 -127t115.5 -340v-133h-619v-41q0 -178 179 -178q77 0 117 32.5t40 81.5v9h281v-13zM360 606v-16h322v16q0 182 -156 182q-81 0 -123.5 -47t-42.5 -135z" />
    <glyph glyph-name="Gbreve" unicode="&#x11e;" horiz-adv-x="1333" 
d="M676 1735q203 0 203 110q0 18 -7 62h107q27 -74 27 -133q0 -121 -89 -189.5t-241 -68.5q-153 0 -242.5 68.5t-89.5 189.5q0 59 27 133h106q-6 -37 -6 -62q0 -110 205 -110zM678 1395q253 0 391.5 -121t138.5 -338v-53h-325v37q0 90 -51.5 141t-151.5 51
q-119 0 -182.5 -75.5t-63.5 -207.5v-299q0 -133 63 -209.5t177 -76.5q105 0 168 61.5t63 163.5v37h-229v223h549v-729h-150l-51 201q-131 -230 -412 -230q-239 0 -379.5 148.5t-140.5 406.5v303q0 257 159 411.5t427 154.5z" />
    <glyph glyph-name="gbreve" unicode="&#x11f;" horiz-adv-x="1058" 
d="M522 1360q193 0 193 133q0 31 -6 78h108q25 -85 25 -148q0 -134 -84 -211t-236 -77q-151 0 -235 77t-84 209q0 68 24 150h109q-6 -47 -6 -78q0 -133 192 -133zM1047 -55q0 -136 -133 -208.5t-390 -72.5q-491 0 -491 199q0 60 48.5 96.5t154.5 56.5v4q-162 50 -162 164
q0 104 178 181q-160 80 -160 280v31q0 163 113.5 249.5t322.5 86.5q84 0 158 -21q64 21 92.5 63.5t34.5 119.5h213q29 -60 29 -101q0 -74 -56 -113t-163 -53q71 -49 100 -106.5t29 -145.5v-20q0 -161 -111.5 -242.5t-325.5 -81.5q-64 0 -143 11q-61 -29 -61 -58
q0 -25 36.5 -37t128.5 -12h109q165 0 266.5 -34t142 -91.5t40.5 -144.5zM528 492q136 0 136 139v59q0 139 -136 139q-133 0 -133 -139v-57q0 -141 133 -141zM532 -182q129 0 190.5 18.5t61.5 59.5q0 40 -49.5 55.5t-177.5 15.5h-47q-221 0 -221 -76q0 -38 56.5 -55.5
t186.5 -17.5z" />
    <glyph glyph-name="Gdotaccent" unicode="&#x120;" horiz-adv-x="1333" 
d="M510 1788h330v-248h-330v248zM678 1395q253 0 391.5 -121t138.5 -338v-53h-325v37q0 90 -51.5 141t-151.5 51q-119 0 -182.5 -75.5t-63.5 -207.5v-299q0 -133 63 -209.5t177 -76.5q105 0 168 61.5t63 163.5v37h-229v223h549v-729h-150l-51 201q-131 -230 -412 -230
q-239 0 -379.5 148.5t-140.5 406.5v303q0 257 159 411.5t427 154.5z" />
    <glyph glyph-name="gdotaccent" unicode="&#x121;" horiz-adv-x="1058" 
d="M356 1405h330v-248h-330v248zM1047 -55q0 -136 -133 -208.5t-390 -72.5q-491 0 -491 199q0 60 48.5 96.5t154.5 56.5v4q-162 50 -162 164q0 104 178 181q-160 80 -160 280v31q0 163 113.5 249.5t322.5 86.5q84 0 158 -21q64 21 92.5 63.5t34.5 119.5h213q29 -60 29 -101
q0 -74 -56 -113t-163 -53q71 -49 100 -106.5t29 -145.5v-20q0 -161 -111.5 -242.5t-325.5 -81.5q-64 0 -143 11q-61 -29 -61 -58q0 -25 36.5 -37t128.5 -12h109q165 0 266.5 -34t142 -91.5t40.5 -144.5zM528 492q136 0 136 139v59q0 139 -136 139q-133 0 -133 -139v-57
q0 -141 133 -141zM532 -182q129 0 190.5 18.5t61.5 59.5q0 40 -49.5 55.5t-177.5 15.5h-47q-221 0 -221 -76q0 -38 56.5 -55.5t186.5 -17.5z" />
    <glyph glyph-name="Gcommaaccent" unicode="&#x122;" horiz-adv-x="1333" 
d="M678 1395q253 0 391.5 -121t138.5 -338v-53h-325v37q0 90 -51.5 141t-151.5 51q-119 0 -182.5 -75.5t-63.5 -207.5v-299q0 -133 63 -209.5t177 -76.5q105 0 168 61.5t63 163.5v37h-229v223h549v-729h-150l-51 201q-131 -230 -412 -230q-239 0 -379.5 148.5t-140.5 406.5
v303q0 257 159 411.5t427 154.5zM539 -158h274v-237q0 -116 -74.5 -191.5t-203.5 -97.5v74q64 22 106 75t39 127h-141v250z" />
    <glyph glyph-name="gcommaaccent" unicode="&#x123;" horiz-adv-x="1058" 
d="M383 1157v240q0 115 75 189.5t204 96.5v-73q-65 -22 -107 -75t-39 -128h139v-250h-272zM1047 -55q0 -136 -133 -208.5t-390 -72.5q-491 0 -491 199q0 60 48.5 96.5t154.5 56.5v4q-162 50 -162 164q0 104 178 181q-160 80 -160 280v31q0 163 113.5 249.5t322.5 86.5
q84 0 158 -21q64 21 92.5 63.5t34.5 119.5h213q29 -60 29 -101q0 -74 -56 -113t-163 -53q71 -49 100 -106.5t29 -145.5v-20q0 -161 -111.5 -242.5t-325.5 -81.5q-64 0 -143 11q-61 -29 -61 -58q0 -25 36.5 -37t128.5 -12h109q165 0 266.5 -34t142 -91.5t40.5 -144.5z
M528 492q136 0 136 139v59q0 139 -136 139q-133 0 -133 -139v-57q0 -141 133 -141zM532 -182q129 0 190.5 18.5t61.5 59.5q0 40 -49.5 55.5t-177.5 15.5h-47q-221 0 -221 -76q0 -38 56.5 -55.5t186.5 -17.5z" />
    <glyph glyph-name="Hbar" unicode="&#x126;" horiz-adv-x="1380" 
d="M473 532v-532h-338v1014h-143v157h143v193h338v-201h434v201h340v-193h144v-157h-144v-1014h-340v532h-434zM473 827h434v195h-434v-195z" />
    <glyph glyph-name="hbar" unicode="&#x127;" horiz-adv-x="1124" 
d="M428 598v-598h-319v1124h-134v125h134v168h319v-168h264v-125h-264v-264q122 154 297 154q137 0 218 -88t81 -238v-688h-319v627q0 62 -30.5 97.5t-92.5 35.5q-67 0 -110.5 -49t-43.5 -113z" />
    <glyph glyph-name="Imacron" unicode="&#x12a;" horiz-adv-x="624" 
d="M-29 1745h684v-180h-684v180zM143 1364h338v-1364h-338v1364z" />
    <glyph glyph-name="imacron" unicode="&#x12b;" horiz-adv-x="546" 
d="M-66 1356h676v-182h-676v182zM115 993h317v-993h-317v993z" />
    <glyph glyph-name="Ibreve" unicode="&#x12c;" horiz-adv-x="624" 
d="M313 1726q99 0 151 25t52 84q0 13 -4 63h106q25 -73 25 -133q0 -121 -89 -189.5t-241 -68.5t-240.5 68.5t-88.5 189.5q0 63 24 133h107q-4 -50 -4 -63q0 -59 51.5 -84t150.5 -25zM143 1364h338v-1364h-338v1364z" />
    <glyph glyph-name="ibreve" unicode="&#x12d;" horiz-adv-x="546" 
d="M272 1343q193 0 193 134q0 29 -6 75h108q25 -81 25 -145q0 -134 -84 -212.5t-236 -78.5q-151 0 -235 78t-84 211q0 69 24 147h107q-4 -62 -4 -75q0 -134 192 -134zM115 993h317v-993h-317v993z" />
    <glyph glyph-name="Iogonek" unicode="&#x12e;" horiz-adv-x="624" 
d="M121 -260q25 47 74 99t172 161h-224v1364h338v-1364q-104 -145 -131 -197q-26 -53 -26 -110q0 -113 116 -113q40 0 84 17l37 -89q-98 -65 -225 -65q-107 0 -173.5 52.5t-66.5 142.5q0 50 25 102z" />
    <glyph glyph-name="iogonek" unicode="&#x12f;" horiz-adv-x="546" 
d="M109 1389h327v-248h-327v248zM74 -260q23 47 72 98.5t173 161.5h-204v993h317v-993q-104 -145 -131 -197q-27 -61 -27 -110q0 -113 117 -113q42 0 86 17l35 -89q-95 -65 -223 -65q-108 0 -175 52t-67 143q0 52 27 102z" />
    <glyph glyph-name="Idotaccent" unicode="&#x130;" horiz-adv-x="624" 
d="M150 1778h329v-248h-329v248zM143 1364h338v-1364h-338v1364z" />
    <glyph glyph-name="dotlessi" unicode="&#x131;" horiz-adv-x="546" 
d="M115 993h317v-993h-317v993z" />
    <glyph glyph-name="Kcommaaccent" unicode="&#x136;" horiz-adv-x="1286" 
d="M879 0l-267 537l-141 -197v-340h-336v1364h336v-639l395 639h385l-391 -578l402 -786h-383zM520 -145h275v-240q0 -115 -75.5 -190.5t-203.5 -96.5v74q64 20 106.5 74t39.5 129h-142v250z" />
    <glyph glyph-name="kcommaaccent" unicode="&#x137;" horiz-adv-x="1064" 
d="M109 1417h317v-882l272 458h332l-264 -409l285 -584h-342l-168 367l-115 -183v-184h-317v1417zM418 -145h274v-240q0 -115 -76 -190.5t-204 -96.5v74q64 20 106 73.5t41 129.5h-141v250z" />
    <glyph glyph-name="Lacute" unicode="&#x139;" horiz-adv-x="1077" 
d="M739 1896l-331 -366h-209l186 366h354zM135 1364h336v-1067h553v-297h-889v1364z" />
    <glyph glyph-name="lacute" unicode="&#x13a;" horiz-adv-x="546" 
d="M696 1919l-325 -412h-195l168 412h352zM115 1417h317v-1417h-317v1417z" />
    <glyph glyph-name="Lcommaaccent" unicode="&#x13b;" horiz-adv-x="1077" 
d="M135 1364h336v-1067h553v-297h-889v1364zM434 -150h275v-239q0 -114 -75.5 -189.5t-203.5 -97.5v74q64 22 106 75t39 128h-141v249z" />
    <glyph glyph-name="lcommaaccent" unicode="&#x13c;" horiz-adv-x="546" 
d="M115 1417h317v-1417h-317v1417zM137 -150h275v-239q0 -115 -76 -190t-205 -97v74q65 22 106.5 75t38.5 128h-139v249z" />
    <glyph glyph-name="Lcaron" unicode="&#x13d;" horiz-adv-x="1077" 
d="M629 1364h260l-133 -344h-144zM135 1364h336v-1067h553v-297h-889v1364z" />
    <glyph glyph-name="lcaron" unicode="&#x13e;" horiz-adv-x="546" 
d="M571 1417h263l-134 -344h-143zM115 1417h317v-1417h-317v1417z" />
    <glyph glyph-name="Ldot" unicode="&#x13f;" horiz-adv-x="1077" 
d="M135 1364h336v-1067h553v-297h-889v1364zM717 924h258v-271h-258v271z" />
    <glyph glyph-name="ldot" unicode="&#x140;" horiz-adv-x="782" 
d="M115 1417h317v-1417h-317v1417zM535 840h260v-271h-260v271z" />
    <glyph glyph-name="Lslash" unicode="&#x141;" horiz-adv-x="1101" 
d="M1051 297v-297h-891v477l-115 -67l-78 127l193 112v715h336v-518l270 158l78 -127l-348 -203v-377h555z" />
    <glyph glyph-name="lslash" unicode="&#x142;" horiz-adv-x="614" 
d="M674 866l-207 -131v-735h-320v532l-131 -83l-69 106l200 127v735h320v-532l139 90z" />
    <glyph glyph-name="Nacute" unicode="&#x143;" horiz-adv-x="1386" 
d="M1112 1894l-332 -366h-209l187 366h354zM135 1364h334l481 -813h4l-4 813h301v-1364h-329l-486 825h-4l4 -825h-301v1364z" />
    <glyph glyph-name="nacute" unicode="&#x144;" horiz-adv-x="1128" 
d="M942 1577l-326 -412h-194l168 412h352zM109 993h272l22 -155q65 86 141 134t183 48q138 0 218.5 -87.5t80.5 -238.5v-694h-317v629q0 64 -31 99.5t-94 35.5q-68 0 -112 -48.5t-44 -113.5v-602h-319v993z" />
    <glyph glyph-name="Ncommaaccent" unicode="&#x145;" horiz-adv-x="1386" 
d="M135 1364h334l481 -813h4l-4 813h301v-1364h-329l-486 825h-4l4 -825h-301v1364zM551 -145h274v-240q0 -115 -76 -190.5t-204 -96.5v74q65 20 107.5 74t39.5 129h-141v250z" />
    <glyph glyph-name="ncommaaccent" unicode="&#x146;" horiz-adv-x="1128" 
d="M109 993h272l22 -155q65 86 141 134t183 48q138 0 218.5 -87.5t80.5 -238.5v-694h-317v629q0 64 -31 99.5t-94 35.5q-68 0 -112 -48.5t-44 -113.5v-602h-319v993zM426 -145h274v-240q0 -115 -75 -190.5t-203 -96.5v74q63 20 105.5 74t39.5 129h-141v250z" />
    <glyph glyph-name="Ncaron" unicode="&#x147;" horiz-adv-x="1386" 
d="M328 1905q115 -12 217 -68t149 -127q49 72 151.5 127.5t217.5 67.5v-107q-86 -37 -136 -101.5t-73 -168.5h-317q-25 104 -74.5 168.5t-134.5 101.5v107zM135 1364h334l481 -813h4l-4 813h301v-1364h-329l-486 825h-4l4 -825h-301v1364z" />
    <glyph glyph-name="ncaron" unicode="&#x148;" horiz-adv-x="1128" 
d="M211 1587q106 -3 201.5 -65.5t150.5 -155.5q53 93 149 155.5t201 65.5v-100q-85 -38 -134 -114.5t-81 -207.5h-270q-34 132 -82.5 208t-134.5 114v100zM109 993h272l22 -155q65 86 141 134t183 48q138 0 218.5 -87.5t80.5 -238.5v-694h-317v629q0 64 -31 99.5t-94 35.5
q-68 0 -112 -48.5t-44 -113.5v-602h-319v993z" />
    <glyph glyph-name="Omacron" unicode="&#x14c;" horiz-adv-x="1361" 
d="M342 1757h682v-182h-682v182zM682 1395q269 0 428.5 -151t159.5 -421v-282q0 -270 -159.5 -421t-428.5 -151q-270 0 -430 151t-160 421v282q0 270 160 421t430 151zM682 1110q-119 0 -183.5 -70.5t-64.5 -214.5v-286q0 -144 64.5 -214.5t183.5 -70.5t182.5 70.5
t63.5 214.5v286q0 144 -63.5 214.5t-182.5 70.5z" />
    <glyph glyph-name="omacron" unicode="&#x14d;" horiz-adv-x="1071" 
d="M197 1366h677v-182h-677v182zM537 1026q218 0 343.5 -122t125.5 -349v-117q0 -225 -126.5 -347t-342.5 -122q-218 0 -344.5 122t-126.5 347v117q0 226 126.5 348.5t344.5 122.5zM537 782q-74 0 -116 -47t-42 -125v-225q0 -78 42.5 -125t115.5 -47q72 0 113.5 47t41.5 125
v225q0 78 -41.5 125t-113.5 47z" />
    <glyph glyph-name="Obreve" unicode="&#x14e;" horiz-adv-x="1361" 
d="M682 1737q100 0 152.5 24.5t52.5 83.5q0 27 -6 64h106q27 -79 27 -133q0 -121 -89.5 -189.5t-242.5 -68.5q-152 0 -241 68.5t-89 189.5q0 66 27 133h106q-6 -37 -6 -64q0 -59 51.5 -83.5t151.5 -24.5zM682 1395q269 0 428.5 -151t159.5 -421v-282q0 -270 -159.5 -421
t-428.5 -151q-270 0 -430 151t-160 421v282q0 270 160 421t430 151zM682 1110q-119 0 -183.5 -70.5t-64.5 -214.5v-286q0 -144 64.5 -214.5t183.5 -70.5t182.5 70.5t63.5 214.5v286q0 144 -63.5 214.5t-182.5 70.5z" />
    <glyph glyph-name="obreve" unicode="&#x14f;" horiz-adv-x="1071" 
d="M537 1354q190 0 190 133q0 16 -4 78h108q25 -97 25 -148q0 -132 -84.5 -210.5t-234.5 -78.5q-152 0 -237 77.5t-85 209.5q0 18 1.5 35t4.5 34t5.5 27.5t7.5 29t6 24.5h108q-4 -62 -4 -78q0 -133 193 -133zM537 1026q218 0 343.5 -122t125.5 -349v-117q0 -225 -126.5 -347
t-342.5 -122q-218 0 -344.5 122t-126.5 347v117q0 226 126.5 348.5t344.5 122.5zM537 782q-74 0 -116 -47t-42 -125v-225q0 -78 42.5 -125t115.5 -47q72 0 113.5 47t41.5 125v225q0 78 -41.5 125t-113.5 47z" />
    <glyph glyph-name="Ohungarumlaut" unicode="&#x150;" horiz-adv-x="1361" 
d="M858 1907l-287 -367h-182l184 367h285zM1233 1907l-287 -367h-182l182 367h287zM682 1395q269 0 428.5 -151t159.5 -421v-282q0 -270 -159.5 -421t-428.5 -151q-270 0 -430 151t-160 421v282q0 270 160 421t430 151zM682 1110q-119 0 -183.5 -70.5t-64.5 -214.5v-286
q0 -144 64.5 -214.5t183.5 -70.5t182.5 70.5t63.5 214.5v286q0 144 -63.5 214.5t-182.5 70.5z" />
    <glyph glyph-name="ohungarumlaut" unicode="&#x151;" horiz-adv-x="1071" 
d="M705 1563l-285 -412h-170l174 412h281zM1069 1563l-287 -412h-168l174 412h281zM537 1026q218 0 343.5 -122t125.5 -349v-117q0 -225 -126.5 -347t-342.5 -122q-218 0 -344.5 122t-126.5 347v117q0 226 126.5 348.5t344.5 122.5zM537 782q-74 0 -116 -47t-42 -125v-225
q0 -78 42.5 -125t115.5 -47q72 0 113.5 47t41.5 125v225q0 78 -41.5 125t-113.5 47z" />
    <glyph glyph-name="OE" unicode="&#x152;" horiz-adv-x="1912" 
d="M1823 0h-1161q-277 0 -422.5 144.5t-145.5 394.5v297q0 250 145 389t423 139h1161v-283h-623v-254h475v-268h-475v-276h623v-283zM686 1090q-124 0 -188 -73t-64 -200v-270q0 -127 64 -200t188 -73h182v816h-182z" />
    <glyph glyph-name="oe" unicode="&#x153;" horiz-adv-x="1675" 
d="M1610 315q0 -153 -112 -249.5t-318 -96.5q-232 0 -334 142q-108 -142 -316 -142q-213 0 -338.5 122t-125.5 347v117q0 225 124.5 347t339.5 122q217 0 324 -147q109 147 324 147t324.5 -126.5t109.5 -340.5v-133h-617v-41q0 -86 45 -132t134 -46q77 0 117 32.5t40 81.5v9
h279v-13zM995 606v-16h320v16q0 91 -36.5 136.5t-117.5 45.5q-82 0 -124 -46.5t-42 -135.5zM535 782q-72 0 -114 -48t-42 -124v-225q0 -78 41.5 -125t114.5 -47q71 0 113 47.5t42 124.5v225q0 77 -41.5 124.5t-113.5 47.5z" />
    <glyph glyph-name="Racute" unicode="&#x154;" horiz-adv-x="1286" 
d="M1049 1896l-332 -366h-209l184 366h357zM473 477v-477h-338v1364h623q208 0 325 -104t117 -285v-107q0 -126 -61.5 -217.5t-171.5 -136.5l276 -514h-364l-248 477h-158zM473 1102v-371h197q188 0 188 150v69q0 152 -186 152h-199z" />
    <glyph glyph-name="racute" unicode="&#x155;" horiz-adv-x="794" 
d="M811 1565l-326 -412h-194l168 412h352zM109 993h272l22 -200q85 217 271 217q38 0 88 -11v-315q-52 12 -113 12q-100 0 -160.5 -49t-60.5 -137v-510h-319v993z" />
    <glyph glyph-name="Rcommaaccent" unicode="&#x156;" horiz-adv-x="1286" 
d="M473 477v-477h-338v1364h623q208 0 325 -104t117 -285v-107q0 -126 -61.5 -217.5t-171.5 -136.5l276 -514h-364l-248 477h-158zM473 1102v-371h197q188 0 188 150v69q0 152 -186 152h-199zM520 -145h275v-240q0 -115 -76.5 -190.5t-204.5 -96.5v74q64 20 106.5 73.5
t41.5 129.5h-142v250z" />
    <glyph glyph-name="rcommaaccent" unicode="&#x157;" horiz-adv-x="794" 
d="M109 993h272l22 -200q85 217 271 217q38 0 88 -11v-315q-52 12 -113 12q-100 0 -160.5 -49t-60.5 -137v-510h-319v993zM131 -150h275v-239q0 -115 -75 -190t-204 -97v74q64 22 106 75t39 128h-141v249z" />
    <glyph glyph-name="Rcaron" unicode="&#x158;" horiz-adv-x="1286" 
d="M262 1907q115 -10 217.5 -65.5t151.5 -127.5q48 72 149.5 127.5t216.5 65.5v-105q-85 -37 -135.5 -102t-73.5 -170h-317q-23 106 -73 170.5t-136 101.5v105zM473 477v-477h-338v1364h623q208 0 325 -104t117 -285v-107q0 -126 -61.5 -217.5t-171.5 -136.5l276 -514h-364
l-248 477h-158zM473 1102v-371h197q188 0 188 150v69q0 152 -186 152h-199z" />
    <glyph glyph-name="rcaron" unicode="&#x159;" horiz-adv-x="794" 
d="M80 1575q107 -3 203 -66t149 -157q55 94 150 157t202 66v-100q-85 -38 -134 -114t-83 -208h-270q-32 130 -81.5 207t-135.5 115v100zM109 993h272l22 -200q85 217 271 217q38 0 88 -11v-315q-52 12 -113 12q-100 0 -160.5 -49t-60.5 -137v-510h-319v993z" />
    <glyph glyph-name="Sacute" unicode="&#x15a;" horiz-adv-x="1232" 
d="M1036 1905l-334 -367h-206l184 367h356zM627 1393q262 0 393 -113t131 -305v-47h-330v43q0 71 -50 113t-153 42q-90 0 -137 -33.5t-47 -88.5q0 -63 54.5 -98.5t228.5 -94.5q258 -73 354 -163t96 -257q0 -199 -146 -309.5t-398 -110.5q-276 0 -409.5 114t-133.5 312v62
h332v-37q0 -89 55.5 -136.5t163.5 -47.5q98 0 149 34t51 95q0 66 -52 100.5t-236 95.5q-250 70 -347.5 163t-97.5 257q0 182 143 296t386 114z" />
    <glyph glyph-name="sacute" unicode="&#x15b;" horiz-adv-x="968" 
d="M862 1561l-325 -412h-195l168 412h352zM481 -31q-426 0 -426 336v39h264v-27q0 -131 166 -131q73 0 107.5 23t34.5 61q0 40 -41.5 64.5t-175.5 62.5q-176 44 -258 113t-82 201q0 137 112.5 225t304.5 88q200 0 307 -85t107 -237v-32h-264v14q0 60 -39.5 92.5t-112.5 32.5
q-61 0 -95 -21.5t-34 -56.5q0 -40 42.5 -63.5t174.5 -59.5q87 -21 146 -45t106.5 -60.5t70 -88.5t22.5 -123q0 -144 -115 -233t-322 -89z" />
    <glyph glyph-name="Scedilla" unicode="&#x15e;" horiz-adv-x="1232" 
d="M883 -338q0 -105 -76 -162t-211 -57q-154 0 -279 51l33 90q106 -28 178 -28q131 0 131 100q0 88 -106 88q-39 0 -104 -20l-43 75l141 176q-237 14 -352 126.5t-115 295.5v62h332v-37q0 -89 55.5 -136.5t163.5 -47.5q98 0 149 34t51 95q0 66 -52 100.5t-236 95.5
q-250 70 -347.5 163t-97.5 257q0 182 143 296t386 114q262 0 393 -113t131 -305v-47h-330v43q0 71 -50 113t-153 42q-90 0 -137 -33.5t-47 -88.5q0 -63 54.5 -98.5t228.5 -94.5q258 -73 354 -163t96 -257q0 -189 -132 -298t-363 -120l-115 -133q64 19 96 19q104 0 167 -54.5
t63 -142.5z" />
    <glyph glyph-name="scedilla" unicode="&#x15f;" horiz-adv-x="968" 
d="M750 -338q0 -105 -76.5 -162t-210.5 -57q-154 0 -279 51l33 90q106 -28 176 -28q133 0 133 100q0 88 -108 88q-38 0 -103 -20l-43 75l138 172q-355 28 -355 334v39h264v-27q0 -131 166 -131q73 0 107.5 23t34.5 61q0 40 -41.5 64.5t-175.5 62.5q-176 44 -258 113t-82 201
q0 137 112.5 225t304.5 88q200 0 307 -85t107 -237v-32h-264v14q0 60 -39.5 92.5t-112.5 32.5q-61 0 -95 -21.5t-34 -56.5q0 -40 42.5 -63.5t174.5 -59.5q87 -21 146 -45t106.5 -60.5t70 -88.5t22.5 -123q0 -134 -100 -221t-281 -99l-113 -131q59 19 96 19q104 0 167 -54.5
t63 -142.5z" />
    <glyph glyph-name="Scaron" unicode="&#x160;" horiz-adv-x="1232" 
d="M250 1915q115 -10 216.5 -65.5t149.5 -127.5q49 72 151.5 127.5t217.5 65.5v-105q-85 -37 -135.5 -102t-73.5 -170h-317q-23 105 -73.5 170t-135.5 102v105zM627 1393q262 0 393 -113t131 -305v-47h-330v43q0 71 -50 113t-153 42q-90 0 -137 -33.5t-47 -88.5
q0 -63 54.5 -98.5t228.5 -94.5q258 -73 354 -163t96 -257q0 -199 -146 -309.5t-398 -110.5q-276 0 -409.5 114t-133.5 312v62h332v-37q0 -89 55.5 -136.5t163.5 -47.5q98 0 149 34t51 95q0 66 -52 100.5t-236 95.5q-250 70 -347.5 163t-97.5 257q0 182 143 296t386 114z" />
    <glyph glyph-name="scaron" unicode="&#x161;" horiz-adv-x="968" 
d="M133 1571q105 -3 201 -65.5t149 -155.5q55 93 150.5 155.5t202.5 65.5v-101q-86 -38 -135 -113.5t-83 -207.5h-270q-32 131 -81 206.5t-134 114.5v101zM481 -31q-426 0 -426 336v39h264v-27q0 -131 166 -131q73 0 107.5 23t34.5 61q0 40 -41.5 64.5t-175.5 62.5
q-176 44 -258 113t-82 201q0 137 112.5 225t304.5 88q200 0 307 -85t107 -237v-32h-264v14q0 60 -39.5 92.5t-112.5 32.5q-61 0 -95 -21.5t-34 -56.5q0 -40 42.5 -63.5t174.5 -59.5q87 -21 146 -45t106.5 -60.5t70 -88.5t22.5 -123q0 -144 -115 -233t-322 -89z" />
    <glyph glyph-name="Tcommaaccent" unicode="&#x162;" horiz-adv-x="1210" 
d="M57 1364h1096v-297h-379v-1067h-338v1067h-379v297zM471 -150h274v-239q0 -115 -75.5 -190t-204.5 -97v74q65 22 106.5 75t38.5 128h-139v249z" />
    <glyph glyph-name="Tcommaaccent" unicode="&#x21a;" horiz-adv-x="1210" 
d="M57 1364h1096v-297h-379v-1067h-338v1067h-379v297zM471 -150h274v-239q0 -115 -75.5 -190t-204.5 -97v74q65 22 106.5 75t38.5 128h-139v249z" />
    <glyph glyph-name="tcommaaccent" unicode="&#x163;" horiz-adv-x="786" 
d="M31 993h155v197l314 74v-271h245v-231h-245v-389q0 -81 31 -110.5t116 -29.5h43v-233h-131q-201 0 -287 82.5t-86 255.5v424h-155v231zM287 -150h274v-239q0 -115 -75.5 -190t-202.5 -97v74q64 22 106 75t39 128h-141v249z" />
    <glyph glyph-name="tcommaaccent" unicode="&#x21b;" horiz-adv-x="786" 
d="M31 993h155v197l314 74v-271h245v-231h-245v-389q0 -81 31 -110.5t116 -29.5h43v-233h-131q-201 0 -287 82.5t-86 255.5v424h-155v231zM287 -150h274v-239q0 -115 -75.5 -190t-202.5 -97v74q64 22 106 75t39 128h-141v249z" />
    <glyph glyph-name="Tcaron" unicode="&#x164;" horiz-adv-x="1210" 
d="M238 1907q115 -10 217 -65.5t151 -127.5q49 72 150.5 127.5t216.5 65.5v-105q-85 -37 -134.5 -101.5t-72.5 -170.5h-320q-23 106 -72.5 170.5t-135.5 101.5v105zM57 1364h1096v-297h-379v-1067h-338v1067h-379v297z" />
    <glyph glyph-name="tcaron" unicode="&#x165;" horiz-adv-x="786" 
d="M633 1456h260l-133 -344h-144zM31 993h155v197l314 74v-271h245v-231h-245v-389q0 -81 31 -110.5t116 -29.5h43v-233h-131q-201 0 -287 82.5t-86 255.5v424h-155v231z" />
    <glyph glyph-name="Umacron" unicode="&#x16a;" horiz-adv-x="1339" 
d="M332 1743h684v-182h-684v182zM121 1364h338v-860q0 -119 55.5 -181.5t163.5 -62.5t163.5 62.5t55.5 181.5v860h322v-850q0 -265 -136 -405t-409 -140q-553 0 -553 545v850z" />
    <glyph glyph-name="umacron" unicode="&#x16b;" horiz-adv-x="1128" 
d="M221 1352h678v-183h-678v183zM102 993h318v-628q0 -62 31.5 -98t93.5 -36q68 0 111.5 48t43.5 114v600h318v-993h-270l-23 158q-66 -87 -142 -136t-182 -49q-138 0 -218.5 87.5t-80.5 238.5v694z" />
    <glyph glyph-name="Ubreve" unicode="&#x16c;" horiz-adv-x="1339" 
d="M674 1722q99 0 151 25t52 84q0 19 -7 63h107q27 -79 27 -133q0 -121 -89 -189.5t-241 -68.5q-153 0 -242.5 68.5t-89.5 189.5q0 54 27 133h106q-6 -38 -6 -63q0 -59 52.5 -84t152.5 -25zM121 1364h338v-860q0 -119 55.5 -181.5t163.5 -62.5t163.5 62.5t55.5 181.5v860
h322v-850q0 -265 -136 -405t-409 -140q-553 0 -553 545v850z" />
    <glyph glyph-name="ubreve" unicode="&#x16d;" horiz-adv-x="1128" 
d="M561 1339q193 0 193 134q0 31 -6 77h108l7.5 -30t9 -37t5.5 -34.5t3 -45.5q0 -133 -84.5 -211t-235.5 -78q-152 0 -235.5 77.5t-83.5 209.5q0 59 22 149h109q-4 -62 -4 -77q0 -134 192 -134zM102 993h318v-628q0 -62 31.5 -98t93.5 -36q68 0 111.5 48t43.5 114v600h318
v-993h-270l-23 158q-66 -87 -142 -136t-182 -49q-138 0 -218.5 87.5t-80.5 238.5v694z" />
    <glyph glyph-name="Uring" unicode="&#x16e;" horiz-adv-x="1339" 
d="M674 1956q120 0 193 -68t73 -168q0 -101 -73 -169t-193 -68q-122 0 -194 67.5t-72 169.5q0 100 72.5 168t193.5 68zM674 1847q-67 0 -106.5 -36t-39.5 -91q0 -57 39 -93t107 -36q66 0 104.5 36t38.5 93q0 55 -38.5 91t-104.5 36zM121 1364h338v-860q0 -119 55.5 -181.5
t163.5 -62.5t163.5 62.5t55.5 181.5v860h322v-850q0 -265 -136 -405t-409 -140q-553 0 -553 545v850z" />
    <glyph glyph-name="uring" unicode="&#x16f;" horiz-adv-x="1128" 
d="M561 1565q119 0 190.5 -67.5t71.5 -168.5q0 -102 -71.5 -169.5t-190.5 -67.5q-120 0 -192 67.5t-72 169.5q0 101 72 168.5t192 67.5zM561 1456q-66 0 -103.5 -35.5t-37.5 -91.5q0 -57 37.5 -93t103.5 -36q65 0 103 36t38 93q0 55 -38 91t-103 36zM102 993h318v-628
q0 -62 31.5 -98t93.5 -36q68 0 111.5 48t43.5 114v600h318v-993h-270l-23 158q-66 -87 -142 -136t-182 -49q-138 0 -218.5 87.5t-80.5 238.5v694z" />
    <glyph glyph-name="Uhungarumlaut" unicode="&#x170;" horiz-adv-x="1339" 
d="M848 1894l-287 -366h-182l184 366h285zM1223 1894l-287 -366h-182l184 366h285zM121 1364h338v-860q0 -119 55.5 -181.5t163.5 -62.5t163.5 62.5t55.5 181.5v860h322v-850q0 -265 -136 -405t-409 -140q-553 0 -553 545v850z" />
    <glyph glyph-name="uhungarumlaut" unicode="&#x171;" horiz-adv-x="1128" 
d="M731 1548l-287 -411h-168l173 411h282zM1094 1548l-287 -411h-168l174 411h281zM102 993h318v-628q0 -62 31.5 -98t93.5 -36q68 0 111.5 48t43.5 114v600h318v-993h-270l-23 158q-66 -87 -142 -136t-182 -49q-138 0 -218.5 87.5t-80.5 238.5v694z" />
    <glyph glyph-name="Uogonek" unicode="&#x172;" horiz-adv-x="1339" 
d="M934 -492q-98 -65 -225 -65q-106 0 -172 52.5t-66 144.5q0 57 27 116q42 79 184 213h-8q-553 0 -553 545v850h338v-860q0 -119 55.5 -181.5t163.5 -62.5t163.5 62.5t55.5 181.5v860h322v-850q0 -229 -103.5 -365.5t-308.5 -168.5q-43 -66 -70 -119q-43 -94 -43 -166
q0 -55 30 -85t87 -30q42 0 86 17z" />
    <glyph glyph-name="uogonek" unicode="&#x173;" horiz-adv-x="1128" 
d="M659 -260q23 46 72 97.5t174 162.5h-157l-23 158q-66 -87 -142 -136t-182 -49q-138 0 -218.5 87.5t-80.5 238.5v694h318v-628q0 -62 31.5 -98t93.5 -36q68 0 111.5 48t43.5 114v600h318v-993q-104 -145 -131 -197q-27 -55 -27 -110q0 -113 117 -113q42 0 86 17l35 -89
q-95 -65 -224 -65q-108 0 -174.5 52t-66.5 143q0 54 26 102z" />
    <glyph glyph-name="Wcircumflex" unicode="&#x174;" horiz-adv-x="1873" 
d="M795 1876h317q25 -106 74.5 -170.5t134.5 -101.5v-105q-115 10 -217.5 65.5t-149.5 127.5q-49 -72 -151 -127.5t-217 -65.5v105q86 37 136 101.5t73 170.5zM43 1364h352l172 -928h4l230 930h299l227 -930h4l172 928h328l-332 -1372h-332l-227 870h-4l-227 -870h-334z" />
    <glyph glyph-name="wcircumflex" unicode="&#x175;" horiz-adv-x="1548" 
d="M653 1528h269q34 -130 83 -206t134 -116v-100q-107 4 -202.5 67t-148.5 156q-55 -93 -150 -156t-202 -67v100q86 40 134.5 115.5t82.5 206.5zM18 995h322l135 -643h4l164 643h281l166 -643h4l135 643h303l-283 -997h-303l-170 620h-4l-170 -620h-303z" />
    <glyph glyph-name="Ycircumflex" unicode="&#x176;" horiz-adv-x="1255" 
d="M483 1870h318q23 -106 73 -171t136 -102v-104q-115 10 -217.5 65.5t-151.5 127.5q-47 -72 -149.5 -127.5t-217.5 -65.5v104q85 37 135.5 102.5t73.5 170.5zM10 1364h375l254 -549l256 549h350l-450 -850v-514h-338v514z" />
    <glyph glyph-name="ycircumflex" unicode="&#x177;" horiz-adv-x="1034" 
d="M389 1524h270q34 -131 83 -206.5t135 -115.5v-100q-107 4 -202.5 67t-150.5 156q-53 -92 -148.5 -155.5t-201.5 -67.5v100q85 40 134 116t81 206zM18 993h326l186 -682h5l174 682h315l-309 -934q-31 -89 -56 -144.5t-63 -107.5t-86 -79.5t-118 -43.5t-165 -16h-118v221
h32q94 0 143.5 21.5t63.5 77.5l8 24z" />
    <glyph glyph-name="Ydieresis" unicode="&#x178;" horiz-adv-x="1255" 
d="M303 1798h260v-270h-260v270zM719 1798h260v-270h-260v270zM10 1364h375l254 -549l256 549h350l-450 -850v-514h-338v514z" />
    <glyph glyph-name="Zacute" unicode="&#x179;" horiz-adv-x="1183" 
d="M1018 1896l-332 -366h-209l185 366h356zM100 1364h1016v-190l-598 -873h586v-301h-1036v195l602 880h-570v289z" />
    <glyph glyph-name="zacute" unicode="&#x17a;" horiz-adv-x="931" 
d="M854 1552l-326 -411h-194l168 411h352zM78 993h799v-157l-422 -582h411v-254h-805v160l428 592h-411v241z" />
    <glyph glyph-name="Zdotaccent" unicode="&#x17b;" horiz-adv-x="1183" 
d="M434 1778h330v-248h-330v248zM100 1364h1016v-190l-598 -873h586v-301h-1036v195l602 880h-570v289z" />
    <glyph glyph-name="zdotaccent" unicode="&#x17c;" horiz-adv-x="931" 
d="M309 1389h330v-248h-330v248zM78 993h799v-157l-422 -582h411v-254h-805v160l428 592h-411v241z" />
    <glyph glyph-name="Zcaron" unicode="&#x17d;" horiz-adv-x="1183" 
d="M231 1907q115 -10 217.5 -65.5t151.5 -127.5q47 72 149.5 127.5t217.5 65.5v-105q-85 -37 -134.5 -101.5t-74.5 -170.5h-318q-23 106 -73 170.5t-136 101.5v105zM100 1364h1016v-190l-598 -873h586v-301h-1036v195l602 880h-570v289z" />
    <glyph glyph-name="zcaron" unicode="&#x17e;" horiz-adv-x="931" 
d="M123 1563q107 -3 202 -66t150 -158q53 94 148 157.5t202 66.5v-101q-85 -38 -134 -114.5t-81 -206.5h-270q-34 131 -82.5 207t-134.5 114v101zM78 993h799v-157l-422 -582h411v-254h-805v160l428 592h-411v241z" />
    <glyph glyph-name="Aringacute" unicode="&#x1fa;" horiz-adv-x="1335" 
d="M1104 2200l-334 -367h-207l185 367h356zM948 0l-69 238h-453l-72 -238h-325l436 1341q-66 63 -66 162q0 101 73 168.5t194 67.5q120 0 193 -67.5t73 -168.5q0 -96 -66 -162l437 -1341h-355zM666 1630q-66 0 -105 -36t-39 -91t39 -91t105 -36q67 0 106 35.5t39 91.5
t-39 91.5t-106 35.5zM653 993l-153 -510h305z" />
    <glyph glyph-name="aringacute" unicode="&#x1fb;" horiz-adv-x="1050" 
d="M948 2083l-325 -412h-195l168 412h352zM524 1577q120 0 192 -67.5t72 -168.5t-72 -168t-192 -67q-119 0 -190.5 67t-71.5 168t71.5 168.5t190.5 67.5zM524 1468q-65 0 -103 -36t-38 -91q0 -56 38 -91.5t103 -35.5q66 0 105 35.5t39 91.5q0 55 -39 91t-105 36zM651 166
q-56 -90 -130.5 -136t-184.5 -46q-130 0 -203.5 69.5t-73.5 198.5q0 84 32.5 143t115.5 101q134 65 420 88v73q0 64 -28 95.5t-93 31.5q-125 0 -125 -114v-33h-279v31q0 156 103.5 256t312.5 100q213 0 316.5 -102.5t103.5 -284.5v-375q0 -41 18 -57t68 -21v-188h-104
q-133 0 -188 33.5t-81 136.5zM365 291q0 -101 104 -101q69 0 113.5 45t44.5 117v92q-130 -13 -195 -45q-38 -19 -52.5 -44.5t-14.5 -63.5z" />
    <glyph glyph-name="AEacute" unicode="&#x1fc;" horiz-adv-x="1908" 
d="M1470 1896l-331 -366h-209l186 366h354zM-27 0l701 1364h1145v-283h-623v-254h477v-268h-477v-276h625v-283h-955v244h-428l-123 -244h-342zM862 1094l-307 -613h311v613h-4z" />
    <glyph glyph-name="aeacute" unicode="&#x1fd;" horiz-adv-x="1626" 
d="M1198 1552l-324 -411h-194l166 411h352zM1563 315q0 -152 -114.5 -249t-324.5 -97q-282 0 -391 185q-128 -183 -358 -183q-153 0 -235.5 69t-82.5 206q0 85 32 144t116 99q134 68 426 91v75q0 64 -29 96.5t-94 32.5q-63 0 -94 -30t-31 -84v-35h-279v31q0 158 101 257
t293 99q218 0 311 -133q59 69 142 102t175 33q218 0 328.5 -126.5t110.5 -340.5v-133h-617v-41q0 -178 178 -178q76 0 116 32.5t40 81.5v9h281v-13zM948 606v-16h320v16q0 182 -156 182q-81 0 -122.5 -47t-41.5 -135zM365 283q0 -105 106 -105q72 0 116 44.5t44 119.5v98
q-138 -14 -199 -45q-39 -19 -53 -45.5t-14 -66.5z" />
    <glyph glyph-name="Oslashacute" unicode="&#x1fe;" horiz-adv-x="1361" 
d="M1100 1907l-332 -367h-209l184 367h357zM682 -31q-212 0 -360 97l-119 -166l-121 86l127 184q-117 145 -117 371v282q0 270 160 421t430 151q210 0 358 -97l119 166l119 -86l-123 -184q115 -143 115 -371v-282q0 -270 -159.5 -421t-428.5 -151zM426 541q0 -39 8 -97
l422 615q-66 57 -174 57q-123 0 -189.5 -72t-66.5 -221v-282zM936 823q0 56 -8 95l-420 -613q63 -57 174 -57q122 0 188 72.5t66 220.5v282z" />
    <glyph glyph-name="oslashacute" unicode="&#x1ff;" horiz-adv-x="1071" 
d="M913 1563l-323 -412h-195l166 412h352zM537 -31q-170 0 -285 74l-113 -139l-100 80l117 147q-90 123 -90 307v117q0 226 126.5 348.5t344.5 122.5q164 0 282 -76l113 140l100 -78l-119 -148q93 -123 93 -309v-117q0 -225 -126.5 -347t-342.5 -122zM367 387v-27l290 385
q-45 48 -120 48q-79 0 -124.5 -50t-45.5 -135v-221zM705 608v27l-291 -383q46 -49 123 -49q78 0 123 50t45 134v221z" />
    <glyph glyph-name="Scommaaccent" unicode="&#x218;" horiz-adv-x="1232" 
d="M627 1393q262 0 393 -113t131 -305v-47h-330v43q0 71 -50 113t-153 42q-90 0 -137 -33.5t-47 -88.5q0 -63 54.5 -98.5t228.5 -94.5q258 -73 354 -163t96 -257q0 -199 -146 -309.5t-398 -110.5q-276 0 -409.5 114t-133.5 312v62h332v-37q0 -89 55.5 -136.5t163.5 -47.5
q98 0 149 34t51 95q0 66 -52 100.5t-236 95.5q-250 70 -347.5 163t-97.5 257q0 182 143 296t386 114zM481 -158h275v-237q0 -116 -75.5 -191.5t-203.5 -97.5v74q64 22 106.5 75.5t39.5 126.5h-142v250z" />
    <glyph glyph-name="scommaaccent" unicode="&#x219;" horiz-adv-x="968" 
d="M481 -31q-426 0 -426 336v39h264v-27q0 -131 166 -131q73 0 107.5 23t34.5 61q0 40 -41.5 64.5t-175.5 62.5q-176 44 -258 113t-82 201q0 137 112.5 225t304.5 88q200 0 307 -85t107 -237v-32h-264v14q0 60 -39.5 92.5t-112.5 32.5q-61 0 -95 -21.5t-34 -56.5
q0 -40 42.5 -63.5t174.5 -59.5q87 -21 146 -45t106.5 -60.5t70 -88.5t22.5 -123q0 -144 -115 -233t-322 -89zM348 -160h275v-239q0 -115 -76 -190t-205 -97v74q65 22 106.5 74.5t40.5 127.5h-141v250z" />
    <glyph glyph-name="schwa" unicode="&#x259;" horiz-adv-x="1040" 
d="M975 453q0 -220 -123 -351t-338 -131q-222 0 -336.5 126t-114.5 341v131h617v43q0 179 -178 179q-78 0 -118 -33t-40 -84v-8h-281v14q0 151 115.5 247.5t327.5 96.5q228 0 348.5 -122.5t120.5 -344.5v-104zM514 207q81 0 123.5 47t42.5 135v17h-322v-17q0 -182 156 -182z
" />
    <glyph glyph-name="circumflex" unicode="&#x2c6;" horiz-adv-x="1024" 
d="M377 1528h270q34 -132 83 -208t134 -114v-100q-107 3 -203 65.5t-149 155.5q-53 -93 -149 -155.5t-203 -65.5v100q85 38 134 114t83 208z" />
    <glyph glyph-name="caron" unicode="&#x2c7;" horiz-adv-x="1024" 
d="M160 1563q107 -3 203 -66.5t149 -157.5q53 94 149 157.5t203 66.5v-101q-86 -38 -134.5 -114t-82.5 -207h-270q-34 131 -82.5 207t-134.5 114v101z" />
    <glyph glyph-name="breve" unicode="&#x2d8;" horiz-adv-x="1024" 
d="M512 1341q193 0 193 136q0 21 -7 75h109q24 -78 24 -145q0 -134 -83.5 -212.5t-235.5 -78.5q-151 0 -235 78t-84 211q0 69 24 147h107q-1 -11 -2 -25t-2 -25t-1 -25q0 -136 193 -136z" />
    <glyph glyph-name="dotaccent" unicode="&#x2d9;" horiz-adv-x="1021" 
d="M346 1389h330v-248h-330v248z" />
    <glyph glyph-name="ring" unicode="&#x2da;" horiz-adv-x="1024" 
d="M512 1569q119 0 190.5 -67.5t71.5 -168.5q0 -102 -71.5 -169.5t-190.5 -67.5t-190.5 67.5t-71.5 169.5q0 101 71.5 168.5t190.5 67.5zM512 1460q-66 0 -103.5 -35.5t-37.5 -91.5q0 -57 37.5 -93t103.5 -36t103.5 36t37.5 93q0 56 -37.5 91.5t-103.5 35.5z" />
    <glyph glyph-name="ogonek" unicode="&#x2db;" horiz-adv-x="1024" 
d="M711 -403l37 -89q-98 -65 -226 -65q-106 0 -172.5 52t-66.5 143q0 52 24 102q25 47 76 101t174 163l111 -4q-99 -133 -131 -197q-27 -55 -27 -110q0 -113 117 -113q40 0 84 17z" />
    <glyph glyph-name="tilde" unicode="&#x2dc;" horiz-adv-x="1024" 
d="M348 1501q41 0 83 -19t63.5 -35.5t62.5 -51.5q75 -68 121 -68q33 0 54.5 23t21.5 67q0 20 -6 74h110q23 -112 23 -152q0 -102 -54.5 -167.5t-150.5 -65.5q-77 0 -172 76q-8 7 -39 33.5t-43.5 35.5t-34.5 20t-41 11q-33 0 -54.5 -23.5t-21.5 -68.5q0 -14 6 -74h-110
q-23 112 -23 154q0 100 55 165.5t150 65.5z" />
    <glyph glyph-name="hungarumlaut" unicode="&#x2dd;" horiz-adv-x="1024" 
d="M557 1552l-287 -411h-168l172 411h283zM922 1552l-287 -411h-168l172 411h283z" />
    <glyph glyph-name="commaaccent" unicode="&#x326;" horiz-adv-x="1024" 
d="M381 -150h274v-239q0 -115 -75.5 -190t-204.5 -97v74q65 22 106.5 75t38.5 128h-139v249z" />
    <glyph glyph-name="baht" unicode="&#xe3f;" horiz-adv-x="1333" 
d="M1227 338q0 -158 -109 -246.5t-332 -91.5v-213h-245v213h-369v1364h377v213h244v-213q214 -4 317.5 -93t103.5 -243v-61q0 -113 -59 -177.5t-174 -95.5v-6q124 -31 185 -98t61 -178v-74zM487 1118v-327h248q82 0 125 34.5t43 100.5v63q0 62 -41.5 95.5t-122.5 33.5h-252z
M487 586v-340h254q82 0 125 36t43 101v66q0 65 -44.5 101t-129.5 36h-248z" />
    <glyph glyph-name="Wgrave" unicode="&#x1e80;" horiz-adv-x="1873" 
d="M514 1898h356l185 -364h-207zM43 1364h352l172 -928h4l230 930h299l227 -930h4l172 928h328l-332 -1372h-332l-227 870h-4l-227 -870h-334z" />
    <glyph glyph-name="wgrave" unicode="&#x1e81;" horiz-adv-x="1548" 
d="M360 1552h353l168 -411h-195zM18 995h322l135 -643h4l164 643h281l166 -643h4l135 643h303l-283 -997h-303l-170 620h-4l-170 -620h-303z" />
    <glyph glyph-name="Wacute" unicode="&#x1e82;" horiz-adv-x="1873" 
d="M1389 1898l-332 -364h-209l184 364h357zM43 1364h352l172 -928h4l230 930h299l227 -930h4l172 928h328l-332 -1372h-332l-227 870h-4l-227 -870h-334z" />
    <glyph glyph-name="wacute" unicode="&#x1e83;" horiz-adv-x="1548" 
d="M1206 1552l-325 -411h-195l168 411h352zM18 995h322l135 -643h4l164 643h281l166 -643h4l135 643h303l-283 -997h-303l-170 620h-4l-170 -620h-303z" />
    <glyph glyph-name="Wdieresis" unicode="&#x1e84;" horiz-adv-x="1873" 
d="M616 1804h261v-270h-261v270zM1032 1804h260v-270h-260v270zM43 1364h352l172 -928h4l230 930h299l227 -930h4l172 928h328l-332 -1372h-332l-227 870h-4l-227 -870h-334z" />
    <glyph glyph-name="wdieresis" unicode="&#x1e85;" horiz-adv-x="1548" 
d="M453 1411h260v-270h-260v270zM862 1411h260v-270h-260v270zM18 995h322l135 -643h4l164 643h281l166 -643h4l135 643h303l-283 -997h-303l-170 620h-4l-170 -620h-303z" />
    <glyph glyph-name="Ygrave" unicode="&#x1ef2;" horiz-adv-x="1255" 
d="M238 1894h356l184 -366h-207zM10 1364h375l254 -549l256 549h350l-450 -850v-514h-338v514z" />
    <glyph glyph-name="ygrave" unicode="&#x1ef3;" horiz-adv-x="1034" 
d="M164 1548h352l168 -411h-195zM18 993h326l186 -682h5l174 682h315l-309 -934q-31 -89 -56 -144.5t-63 -107.5t-86 -79.5t-118 -43.5t-165 -16h-118v221h32q94 0 143.5 21.5t63.5 77.5l8 24z" />
    <glyph glyph-name="enspace" unicode="&#x2002;" horiz-adv-x="1024" 
 />
    <glyph glyph-name="emspace" unicode="&#x2003;" horiz-adv-x="2048" 
 />
    <glyph glyph-name="threeperemspace" unicode="&#x2004;" horiz-adv-x="681" 
 />
    <glyph glyph-name="fourperemspace" unicode="&#x2005;" horiz-adv-x="512" 
 />
    <glyph glyph-name="thinspace" unicode="&#x2009;" horiz-adv-x="272" 
 />
    <glyph glyph-name="hairspace" unicode="&#x200a;" horiz-adv-x="153" 
 />
    <glyph glyph-name="endash" unicode="&#x2013;" horiz-adv-x="1173" 
d="M129 737h913v-250h-913v250z" />
    <glyph glyph-name="emdash" unicode="&#x2014;" horiz-adv-x="1703" 
d="M129 737h1446v-250h-1446v250z" />
    <glyph glyph-name="quoteleft" unicode="&#x2018;" horiz-adv-x="483" 
d="M395 696h-313v250q0 99 22.5 171t69.5 121t106 79.5t144 54.5v-90q-101 -62 -131.5 -110t-30.5 -148h133v-328z" />
    <glyph glyph-name="quoteright" unicode="&#x2019;" horiz-adv-x="483" 
d="M88 1364h311v-250q0 -99 -22.5 -171t-69 -121t-105 -79.5t-143.5 -54.5v90q100 62 130 109.5t30 148.5h-131v328z" />
    <glyph glyph-name="quotesinglbase" unicode="&#x201a;" horiz-adv-x="477" 
d="M86 328h311v-250q0 -99 -22.5 -171t-69 -121t-105 -79.5t-143.5 -54.5v90q100 62 130 110t30 148h-131v328z" />
    <glyph glyph-name="quotedblleft" unicode="&#x201c;" horiz-adv-x="915" 
d="M827 696h-307v250q0 99 22 171t68.5 121t104 79.5t141.5 54.5v-90q-98 -61 -128 -109.5t-30 -148.5h129v-328zM389 696h-307v250q0 99 22.5 171.5t69 121t104.5 78.5t142 55v-90q-98 -61 -128 -109.5t-30 -148.5h127v-328z" />
    <glyph glyph-name="quotedblright" unicode="&#x201d;" horiz-adv-x="915" 
d="M88 1364h307v-250q0 -99 -22 -171t-68.5 -121t-104 -79.5t-141.5 -54.5v90q98 61 128 109.5t30 148.5h-129v328zM526 1364h308v-250q0 -99 -22 -171t-68.5 -121t-104.5 -79.5t-143 -54.5v90q98 61 128.5 109.5t30.5 148.5h-129v328z" />
    <glyph glyph-name="quotedblbase" unicode="&#x201e;" horiz-adv-x="911" 
d="M86 328h307v-250q0 -99 -22 -171t-68.5 -121t-104 -79.5t-141.5 -54.5v90q98 61 128 109.5t30 148.5h-129v328zM522 328h307v-250q0 -99 -22 -171t-68 -121t-103.5 -79.5t-141.5 -54.5v90q97 60 127 108.5t30 149.5h-129v328z" />
    <glyph glyph-name="dagger" unicode="&#x2020;" horiz-adv-x="958" 
d="M381 666q0 120 49 270q-117 -47 -307 -47q-35 0 -35 33v120q0 33 35 33q182 0 309 -47q-51 166 -51 301q0 35 35 35h127q35 0 35 -35q0 -132 -52 -301q124 47 310 47q34 0 34 -33v-120q0 -33 -34 -33q-191 0 -308 47q50 -153 50 -270q0 -52 -4 -112.5t-8 -94.5t-14 -115
t-13 -104q-3 -35 -31 -35h-59q-16 0 -21.5 8.5t-7.5 26.5q-3 23 -13 104t-14 115t-8 94.5t-4 112.5z" />
    <glyph glyph-name="daggerdbl" unicode="&#x2021;" horiz-adv-x="958" 
d="M399 784q0 52 31 152q-117 -47 -307 -47q-35 0 -35 33v120q0 33 35 33q182 0 309 -47q-51 166 -51 301q0 35 35 35h127q35 0 35 -35q0 -132 -52 -301q124 47 310 47q34 0 34 -33v-120q0 -33 -34 -33q-191 0 -308 47q29 -93 29 -152q0 -58 -29 -151q117 47 308 47
q34 0 34 -33v-121q0 -32 -34 -32q-186 0 -310 47q52 -169 52 -301q0 -35 -35 -35h-127q-35 0 -35 35q0 135 51 301q-127 -47 -309 -47q-35 0 -35 32v121q0 33 35 33q190 0 307 -47q-31 100 -31 151z" />
    <glyph glyph-name="bullet" unicode="&#x2022;" horiz-adv-x="716" 
d="M641 682q0 -127 -79.5 -207t-201.5 -80q-125 0 -204.5 80t-79.5 207q0 128 79.5 207.5t204.5 79.5q123 0 202 -79.5t79 -207.5z" />
    <glyph glyph-name="ellipsis" unicode="&#x2026;" horiz-adv-x="1419" 
d="M84 328h303v-328h-303v328zM1032 328h303v-328h-303v328zM559 328h301v-328h-301v328z" />
    <glyph glyph-name="guilsinglleft" unicode="&#x2039;" 
d="M496 993h137q-10 -138 -68.5 -266.5t-156.5 -230.5q97 -99 156 -228t69 -268h-137q-48 135 -152.5 243t-261.5 179v151q156 69 260.5 177.5t153.5 242.5z" />
    <glyph glyph-name="guilsinglright" unicode="&#x203a;" 
d="M258 0h-137q12 139 70 268t155 230q-97 100 -155 227.5t-70 267.5h137q107 -284 414 -420v-151q-306 -138 -414 -422z" />
    <glyph glyph-name="fraction" unicode="&#x2044;" horiz-adv-x="284" 
d="M625 1364l-801 -1364h-166l801 1364h166z" />
    <glyph glyph-name="zero.sup" unicode="&#x2070;" 
d="M377 1442q160 0 251 -92.5t91 -259.5v-166q0 -169 -91.5 -262t-252.5 -93q-160 0 -251 93t-91 262v166q0 167 91.5 259.5t252.5 92.5zM377 1257q-129 0 -129 -172v-157q0 -174 127 -174q131 0 131 174v157q0 172 -129 172z" />
    <glyph glyph-name="four.sup" unicode="&#x2074;" 
d="M352 1419h269v-504h102v-159h-102v-164h-199v164h-412v153zM422 915v345l-215 -345h215z" />
    <glyph glyph-name="five.sup" unicode="&#x2075;" 
d="M104 1419h584q-10 -109 -34 -146.5t-97 -37.5h-274l-13 -174q45 32 90.5 47.5t110.5 15.5q114 0 174 -58t60 -163v-57q0 -126 -83 -199.5t-243 -73.5q-171 0 -246.5 67t-75.5 181v31h205v-14q0 -40 29 -66.5t84 -26.5q56 0 85 29t29 76v37q0 42 -25.5 68t-78.5 26
q-80 0 -137 -57l-174 26z" />
    <glyph glyph-name="six.sup" unicode="&#x2076;" 
d="M379 571q-330 0 -330 338v172q0 171 86.5 264t251.5 93q85 0 147.5 -21.5t97 -57.5t50.5 -77t16 -86v-27h-202v13q0 38 -27.5 62t-83.5 24q-71 0 -103 -41.5t-32 -108.5v-82q71 66 194 66q124 0 193.5 -58.5t69.5 -158.5v-41q0 -126 -86 -199.5t-242 -73.5zM377 745
q56 0 87.5 28t31.5 73v18q0 45 -30.5 73t-86.5 28q-57 0 -90 -27t-33 -72v-18q0 -46 32.5 -74.5t88.5 -28.5z" />
    <glyph glyph-name="seven.sup" unicode="&#x2077;" 
d="M61 1419h656v-112q-151 -166 -219.5 -327.5t-83.5 -387.5h-246q15 198 92.5 345t235.5 290h-435v192z" />
    <glyph glyph-name="eight.sup" unicode="&#x2078;" 
d="M377 1440q157 0 240 -68t83 -172v-12q0 -121 -139 -178q152 -56 152 -193v-12q0 -105 -86.5 -169.5t-249.5 -64.5q-164 0 -250 64t-86 170v12q0 137 152 193q-142 57 -142 178v12q0 104 84.5 172t241.5 68zM377 1272q-54 0 -85.5 -25.5t-31.5 -62.5v-21q0 -41 32.5 -65.5
t84.5 -24.5t84.5 24.5t32.5 65.5v21q0 37 -31.5 62.5t-85.5 25.5zM377 739q60 0 91.5 26t31.5 64v23q0 40 -33.5 66t-89.5 26t-89.5 -26t-33.5 -66v-23q0 -38 31.5 -64t91.5 -26z" />
    <glyph glyph-name="nine.sup" unicode="&#x2079;" 
d="M375 1440q332 0 332 -338v-172q0 -171 -88.5 -264t-256.5 -93q-86 0 -150 21t-98.5 57t-50.5 76.5t-16 85.5v23h201v-9q0 -35 26.5 -59.5t87.5 -24.5q76 0 110 41t34 107v74q-71 -66 -201 -66q-124 0 -193 58.5t-69 158.5v49q0 128 87 201.5t245 73.5zM375 1264
q-55 0 -88 -28t-33 -71v-28q0 -45 32.5 -72t88.5 -27q57 0 91 26.5t34 70.5v28q0 46 -33.5 73.5t-91.5 27.5z" />
    <glyph glyph-name="zero.inf" unicode="&#x2080;" 
d="M377 526q159 0 250.5 -93t91.5 -259v-166q0 -169 -91.5 -261.5t-252.5 -92.5q-160 0 -251 92.5t-91 261.5v166q0 166 91.5 259t252.5 93zM377 342q-129 0 -129 -172v-160q0 -172 127 -172q131 0 131 172v160q0 172 -129 172z" />
    <glyph glyph-name="one.inf" unicode="&#x2081;" horiz-adv-x="638" 
d="M307 510h158v-834h-225v564h-168v163h75q75 0 111 26t49 81z" />
    <glyph glyph-name="two.inf" unicode="&#x2082;" 
d="M688 -324h-635v48q0 147 58.5 229t226.5 168q96 55 122.5 79.5t26.5 69.5q0 39 -27.5 58.5t-76.5 19.5q-62 0 -94.5 -28t-32.5 -76v-41h-201v51q0 123 84 195.5t252 72.5q160 1 237 -66.5t77 -179.5q0 -90 -52 -148t-207 -142q-90 -47 -121 -72t-34 -55h397v-183z" />
    <glyph glyph-name="three.inf" unicode="&#x2083;" 
d="M383 522q153 0 237.5 -63.5t84.5 -163.5v-16q0 -73 -46 -119t-127 -64q181 -29 181 -186v-16q0 -104 -88 -170t-244 -66q-167 0 -252.5 68.5t-85.5 183.5v49h199v-35q0 -44 34 -70t97 -26q60 0 91.5 24t31.5 64v21q0 42 -33 61.5t-105 19.5h-73v146h73q136 0 136 84v16
q0 40 -31.5 63t-89.5 23q-62 0 -95.5 -26t-33.5 -68v-37h-199v49q0 114 86.5 184t251.5 70z" />
    <glyph glyph-name="four.inf" unicode="&#x2084;" 
d="M352 504h269v-504h102v-162h-102v-162h-199v162h-412v156zM422 0v344l-215 -344h215z" />
    <glyph glyph-name="five.inf" unicode="&#x2085;" 
d="M104 504h584q-9 -110 -33.5 -147.5t-97.5 -37.5h-274l-13 -176q45 33 90.5 49.5t110.5 16.5q114 0 174 -58t60 -165v-56q0 -125 -83 -198.5t-243 -73.5q-171 0 -246.5 67t-75.5 181v31h205v-17q0 -38 29 -64t84 -26q56 0 85 28.5t29 75.5v35q0 44 -25.5 70.5t-78.5 26.5
q-46 0 -76.5 -15t-60.5 -43l-174 27z" />
    <glyph glyph-name="six.inf" unicode="&#x2086;" 
d="M379 -344q-330 0 -330 338v172q0 171 86.5 263.5t251.5 92.5q85 0 147.5 -21.5t97 -57.5t50.5 -76.5t16 -85.5v-29h-202v14q0 38 -27.5 61t-83.5 23q-135 0 -135 -147v-82q70 65 194 65t193.5 -58.5t69.5 -158.5v-41q0 -126 -86 -199t-242 -73zM377 -170q56 0 87.5 27
t31.5 73v19q0 45 -30.5 72.5t-86.5 27.5q-57 0 -90 -26.5t-33 -71.5v-19q0 -46 32.5 -74t88.5 -28z" />
    <glyph glyph-name="seven.inf" unicode="&#x2087;" 
d="M61 504h656v-113q-151 -166 -219.5 -327.5t-83.5 -387.5h-246q15 198 92.5 345t235.5 290h-435v193z" />
    <glyph glyph-name="eight.inf" unicode="&#x2088;" 
d="M377 524q157 0 240 -68t83 -173v-11q0 -121 -139 -178q152 -56 152 -192v-15q0 -105 -86 -168t-250 -63q-165 0 -250.5 63t-85.5 168v15q0 136 152 192q-142 57 -142 178v11q0 105 84 173t242 68zM377 356q-54 0 -85.5 -26t-31.5 -64v-18q0 -41 32.5 -65.5t84.5 -24.5
t84.5 24.5t32.5 65.5v18q0 38 -31.5 64t-85.5 26zM377 -176q60 0 91.5 26t31.5 64v23q0 40 -33.5 65t-89.5 25t-89.5 -25t-33.5 -65v-23q0 -38 31.5 -64t91.5 -26z" />
    <glyph glyph-name="nine.inf" unicode="&#x2089;" 
d="M375 522q332 0 332 -336v-172q0 -172 -88.5 -264t-256.5 -92q-86 0 -150 21t-98.5 57t-50.5 76.5t-16 85.5v20h201v-6q0 -36 26 -60t88 -24q144 0 144 147v74q-70 -65 -201 -65q-125 0 -193.5 58t-68.5 159v49q0 127 87 199.5t245 72.5zM375 348q-55 0 -88 -27.5
t-33 -70.5v-31q0 -43 32.5 -69.5t88.5 -26.5q57 0 91 26t34 70v27q0 46 -33.5 74t-91.5 28z" />
    <glyph glyph-name="colonmonetary" unicode="&#x20a1;" horiz-adv-x="1286" 
d="M625 -221l39 192q-74 0 -154 17l-43 -209h-150l56 260q-132 70 -203.5 200t-71.5 306v274q0 257 151 412.5t404 161.5l37 176h148l-37 -185q79 -12 147 -43l47 228h148l-64 -314q123 -126 123 -335v-56h-313v58q0 86 -58 141t-155 55q-120 0 -184 -80.5t-64 -214.5v-280
q0 -131 64.5 -214t183.5 -83q97 0 155 55t58 141v58h313v-56q0 -183 -100 -305t-287 -157l-43 -203h-147z" />
    <glyph glyph-name="naira" unicode="&#x20a6;" horiz-adv-x="1642" 
d="M561 879l6 -879h-293v420h-231v158h231v167h-231v158h231v461h342l459 -881h4l-6 881h293v-461h233v-158h-233v-167h233v-158h-233v-420h-342l-459 879h-4z" />
    <glyph glyph-name="rupee" unicode="&#x20a8;" horiz-adv-x="2279" 
d="M489 479v-479h-317v1364h616q209 0 326 -102.5t117 -284.5v-107q0 -129 -64.5 -222t-181.5 -136l277 -512h-340l-250 479h-183zM487 727h228q190 0 190 158v65q0 158 -188 158h-230v-381zM1755 -31q-428 0 -428 336v39h266v-27q0 -131 166 -131q139 0 139 84
q0 40 -41 64.5t-174 62.5q-177 44 -259.5 113t-82.5 201q0 137 114 225t306 88q199 0 305.5 -85t106.5 -237v-32h-264v14q0 60 -38.5 92.5t-113.5 32.5q-60 0 -93.5 -21.5t-33.5 -56.5q0 -40 42 -63.5t173 -59.5q178 -43 262 -112t84 -205q0 -143 -115 -232.5t-321 -89.5z
" />
    <glyph glyph-name="won" unicode="&#x20a9;" horiz-adv-x="1906" 
d="M950 907l-174 -913h-340l-78 424h-292v157h262l-31 166h-231v156h202l-86 467h305l150 -948h4l168 950h319l166 -950h4l148 948h276l-86 -467h205v-156h-235l-29 -166h264v-157h-295l-78 -424h-340l-174 913h-4z" />
    <glyph glyph-name="sheqel" unicode="&#x20aa;" horiz-adv-x="1490" 
d="M119 1085h493q101 0 166.5 -13t113 -46.5t68.5 -91.5t21 -148v-389h-152v279q0 78 -32 111.5t-121 33.5h-303v-821h-254v1085zM1384 1085v-770q0 -92 -23 -154.5t-71 -97t-110 -49t-150 -14.5h-500v688h152v-424h295q87 0 119 33t32 119v669h256z" />
    <glyph glyph-name="Euro" unicode="&#x20ac;" horiz-adv-x="1372" 
d="M1278 426q0 -206 -136.5 -331.5t-385.5 -125.5q-255 0 -401.5 135.5t-161.5 384.5h-144v136h141v112h-141v135h144q15 248 162.5 385.5t400.5 137.5q255 0 388.5 -123t133.5 -334v-12h-299v8q0 87 -56 138.5t-163 51.5q-122 0 -183.5 -62t-72.5 -190h430v-135h-432v-112
h432v-136h-430q22 -249 256 -249q107 0 163 51.5t56 138.5v8h299v-12z" />
    <glyph glyph-name="peso" unicode="&#x20b1;" horiz-adv-x="1486" 
d="M565 449v-449h-325v811h-220v188h220v365h569q210 0 329.5 -98t131.5 -267h205v-188h-205q-11 -167 -131 -264.5t-330 -97.5h-244zM565 1114v-420h189q95 0 143.5 43.5t48.5 124.5v86q0 79 -48.5 122.5t-143.5 43.5h-189z" />
    <glyph glyph-name="rupeeindia" unicode="&#x20b9;" horiz-adv-x="1300" 
d="M1241 805h-266q-16 -149 -131 -237.5t-322 -88.5l600 -479h-444l-555 467v201h278q120 0 174 36.5t66 120.5h-520v170h520q-11 86 -63 122.5t-172 35.5h-285v211h1118v-211h-373q82 -66 105 -147h270v-201z" />
    <glyph glyph-name="ruble" unicode="&#x20bd;" horiz-adv-x="1382" 
d="M1143 258h-543v-258h-326v258h-231v156h231v143h-231v156h231v651h586q206 0 321 -97.5t115 -271.5v-77q0 -177 -110.5 -269t-325.5 -92h-260v-143h543v-156zM600 1116v-403h191q184 0 184 166v84q0 76 -41.5 114.5t-130.5 38.5h-203z" />
    <glyph glyph-name="published" unicode="&#x2117;" horiz-adv-x="1714" 
d="M100 682q0 153 57 290.5t156 237.5t240.5 158.5t302.5 58.5t302.5 -58.5t241 -158.5t157 -237.5t57.5 -290.5t-57.5 -290.5t-157 -237.5t-241 -158.5t-302.5 -58.5t-302.5 58.5t-240.5 158.5t-156 237.5t-57 290.5zM1491 682q0 131 -46.5 247.5t-129 202t-202 135.5
t-257.5 50q-184 0 -330 -85.5t-224.5 -230t-78.5 -319.5t78.5 -319t224.5 -229t330 -85q138 0 257.5 49.5t202 134.5t129 201.5t46.5 247.5zM596 1036h330q264 0 264 -250q0 -251 -266 -251h-142v-207h-186v708zM782 887v-201h105q64 0 89 23t25 77q0 56 -24 78.5t-90 22.5
h-105z" />
    <glyph glyph-name="servicemark" unicode="&#x2120;" horiz-adv-x="1507" 
d="M332 1380q260 0 260 -225h-162q0 48 -23 69t-77 21q-44 0 -68 -16t-24 -39q0 -27 25.5 -42t111.5 -42q130 -38 176.5 -80.5t46.5 -120.5q0 -98 -69 -150.5t-195 -52.5q-271 0 -271 236h162q1 -54 27 -77t82 -23q100 0 100 57q0 28 -26.5 44.5t-112.5 43.5
q-125 34 -174 78t-49 121q0 87 70 142.5t190 55.5zM702 1364h248l113 -399h4l109 399h239v-647h-155v461h-11l-131 -461h-131l-133 461h-10v-461h-142v647z" />
    <glyph glyph-name="trademark" unicode="&#x2122;" horiz-adv-x="1486" 
d="M47 1364h539v-150h-189v-497h-161v497h-189v150zM682 1364h248l112 -399h2l111 399h240v-647h-156v461h-10l-133 -461h-129l-133 461h-11v-461h-141v647z" />
    <glyph glyph-name="onethird" unicode="&#x2153;" horiz-adv-x="1689" 
d="M307 1372h158v-833h-225v563h-168v164h75q75 0 111 25.5t49 80.5zM1251 1364l-800 -1364h-166l800 1364h166zM1319 848q153 0 238 -64.5t85 -165.5v-14q0 -72 -46.5 -118t-127.5 -64q181 -29 181 -189v-14q0 -106 -88 -171.5t-244 -65.5q-166 0 -251 68.5t-85 185.5v49
h199v-37q0 -44 33.5 -70t95.5 -26q60 0 92.5 24.5t32.5 65.5v18q0 84 -140 84h-73v143h73q136 0 136 84v17q0 40 -31.5 64t-89.5 24q-62 0 -95.5 -26t-33.5 -68v-39h-199v51q0 114 86.5 184t251.5 70z" />
    <glyph glyph-name="twothirds" unicode="&#x2154;" horiz-adv-x="1875" 
d="M688 539h-635v47q0 148 59 230.5t226 168.5q95 53 122 78t27 70q0 77 -104 77q-62 0 -94.5 -28t-32.5 -76v-41h-201v51q0 123 84 195.5t252 72.5q160 1 237 -66t77 -177q0 -92 -52.5 -150.5t-206.5 -142.5q-91 -48 -121.5 -72t-33.5 -55h397v-182zM1438 1364l-801 -1364
h-166l801 1364h166zM1505 848q153 0 237.5 -64.5t84.5 -165.5v-14q0 -73 -45.5 -118.5t-126.5 -63.5q180 -29 180 -189v-14q0 -106 -88 -171.5t-244 -65.5q-168 0 -253 68.5t-85 185.5v49h199v-37q0 -44 34 -70t97 -26q60 0 91.5 24.5t31.5 65.5v18q0 43 -33 63.5t-104 20.5
h-74v143h74q135 0 135 84v17q0 40 -31.5 64t-89.5 24q-62 0 -95.5 -26t-33.5 -68v-39h-199v51q0 114 86.5 184t251.5 70z" />
    <glyph glyph-name="onefifth" unicode="&#x2155;" horiz-adv-x="1699" 
d="M307 1372h158v-833h-225v563h-168v164h75q75 0 111 25.5t49 80.5zM1251 1364l-800 -1364h-166l800 1364h166zM1051 829h581q-8 -109 -31.5 -146.5t-97.5 -37.5h-274l-12 -176q90 66 198 66q115 0 175.5 -59t60.5 -165v-57q0 -126 -83.5 -199t-244.5 -73q-319 0 -319 247
v31h202v-14q0 -40 29 -66t86 -26q56 0 85.5 29t29.5 77v35q0 43 -26.5 69.5t-80.5 26.5q-76 0 -135 -59l-174 26z" />
    <glyph glyph-name="twofifths" unicode="&#x2156;" horiz-adv-x="1884" 
d="M688 539h-635v47q0 148 59 230.5t226 168.5q95 53 122 78t27 70q0 77 -104 77q-62 0 -94.5 -28t-32.5 -76v-41h-201v51q0 123 84 195.5t252 72.5q160 1 237 -66t77 -177q0 -92 -52.5 -150.5t-206.5 -142.5q-91 -48 -121.5 -72t-33.5 -55h397v-182zM1438 1364l-801 -1364
h-166l801 1364h166zM1237 829h582q-8 -109 -31.5 -146.5t-97.5 -37.5h-275l-14 -176q47 33 92 49.5t109 16.5q114 0 174.5 -59t60.5 -165v-57q0 -126 -83.5 -199t-244.5 -73q-170 0 -245.5 67t-75.5 180v31h205v-14q0 -40 28.5 -66t85.5 -26q56 0 85.5 29t29.5 77v35
q0 43 -26 69.5t-80 26.5q-79 0 -138 -59l-174 26z" />
    <glyph glyph-name="threefifths" unicode="&#x2157;" horiz-adv-x="1835" 
d="M383 1384q153 0 237.5 -63.5t84.5 -163.5v-16q0 -73 -46 -119t-127 -64q181 -29 181 -186v-14q0 -106 -88 -172t-244 -66q-168 0 -253 68.5t-85 185.5v49h199v-37q0 -44 34 -70t97 -26q60 0 91.5 24t31.5 64v21q0 82 -138 82h-73v145h73q136 0 136 84v16q0 40 -31.5 64
t-89.5 24q-62 0 -95.5 -26.5t-33.5 -69.5v-37h-199v52q0 112 86.5 181.5t251.5 69.5zM1386 1364l-800 -1364h-166l801 1364h165zM1186 829h581q-8 -109 -31.5 -146.5t-97.5 -37.5h-274l-12 -176q90 66 198 66q115 0 175.5 -59t60.5 -165v-57q0 -126 -83.5 -199t-244.5 -73
q-319 0 -319 247v31h202v-14q0 -40 29 -66t86 -26q56 0 85.5 29t29.5 77v35q0 43 -26.5 69.5t-80.5 26.5q-76 0 -135 -59l-176 26z" />
    <glyph glyph-name="fourfifths" unicode="&#x2158;" horiz-adv-x="1855" 
d="M352 1366h269v-504h102v-160h-102v-163h-199v163h-412v154zM1407 1364l-801 -1364h-166l801 1364h166zM422 862v344l-215 -344h215zM1206 829h582q-8 -109 -31.5 -146.5t-97.5 -37.5h-275l-12 -176q90 66 199 66q115 0 175 -59t60 -165v-57q0 -126 -82.5 -199t-242.5 -73
q-322 0 -322 247v31h205v-14q0 -40 28 -66t85 -26q56 0 85 29t29 77v35q0 43 -25.5 69.5t-78.5 26.5q-78 0 -137 -59l-174 26z" />
    <glyph glyph-name="onesixth" unicode="&#x2159;" horiz-adv-x="1658" 
d="M307 1372h158v-833h-225v563h-168v164h75q75 0 111 25.5t49 80.5zM1251 1364l-800 -1364h-166l800 1364h166zM1284 -18q-330 0 -330 335v175q0 171 86.5 262.5t251.5 91.5q85 0 148 -21.5t97.5 -57.5t50.5 -77t16 -86v-26h-201v12q0 39 -27.5 62.5t-83.5 23.5
q-135 0 -135 -150v-82q71 66 193 66q125 0 193.5 -58t68.5 -159v-41q0 -125 -86 -197.5t-242 -72.5zM1284 154q55 0 87 28t32 74v16q0 46 -31.5 73.5t-87.5 27.5t-88.5 -27t-32.5 -70v-20q0 -46 32.5 -74t88.5 -28z" />
    <glyph glyph-name="fivesixths" unicode="&#x215a;" horiz-adv-x="1800" 
d="M104 1366h584q-10 -109 -34 -146.5t-97 -37.5h-274l-13 -174q45 32 90.5 47.5t110.5 15.5q114 0 174 -58t60 -163v-57q0 -126 -83 -199.5t-243 -73.5q-171 0 -246.5 67t-75.5 181v31h205v-15q0 -40 29 -66t84 -26q56 0 85 29t29 76v37q0 42 -25.5 68t-78.5 26
q-79 0 -137 -58l-174 27zM1393 1364l-801 -1364h-166l801 1364h166zM1425 -18q-329 0 -329 335v175q0 171 86.5 262.5t251.5 91.5q85 0 147.5 -21.5t97 -57.5t50.5 -77t16 -86v-26h-203v12q0 39 -27 62.5t-83 23.5q-71 0 -103.5 -42t-32.5 -108v-82q71 66 195 66t192 -58
t68 -159v-41q0 -125 -85 -197.5t-241 -72.5zM1423 154q56 0 87.5 27.5t31.5 74.5v16q0 47 -30.5 74t-86.5 27t-89 -27t-33 -70v-20q0 -46 32 -74t88 -28z" />
    <glyph glyph-name="oneeighth" unicode="&#x215b;" horiz-adv-x="1685" 
d="M307 1372h158v-833h-225v563h-168v164h75q75 0 111 25.5t49 80.5zM1251 1364l-800 -1364h-166l800 1364h166zM1309 850q157 0 240 -68t83 -174v-12q0 -122 -139 -176q152 -56 152 -193v-14q0 -105 -86.5 -169t-249.5 -64q-165 0 -250.5 64t-85.5 169v14q0 137 151 193
q-141 54 -141 176v12q0 105 84.5 173.5t241.5 68.5zM1309 680q-55 0 -86 -25t-31 -63v-21q0 -39 33 -63.5t84 -24.5t83.5 24.5t32.5 63.5v21q0 38 -31 63t-85 25zM1309 147q60 0 91.5 26.5t31.5 66.5v22q0 39 -33.5 64.5t-89.5 25.5q-57 0 -90 -25.5t-33 -64.5v-22
q0 -40 31.5 -66.5t91.5 -26.5z" />
    <glyph glyph-name="threeeighths" unicode="&#x215c;" horiz-adv-x="1820" 
d="M383 1384q153 0 237.5 -63.5t84.5 -163.5v-16q0 -73 -46 -119t-127 -64q181 -29 181 -186v-14q0 -106 -88 -172t-244 -66q-168 0 -253 68.5t-85 185.5v49h199v-37q0 -44 34 -70t97 -26q60 0 91.5 24t31.5 64v21q0 82 -138 82h-73v145h73q136 0 136 84v16q0 40 -31.5 64
t-89.5 24q-62 0 -95.5 -26.5t-33.5 -69.5v-37h-199v52q0 112 86.5 181.5t251.5 69.5zM1386 1364l-800 -1364h-166l801 1364h165zM1444 850q157 0 240 -68t83 -174v-12q0 -122 -139 -176q150 -55 150 -193v-14q0 -105 -85.5 -169t-248.5 -64q-165 0 -250.5 64t-85.5 169v14
q0 137 152 193q-142 54 -142 176v12q0 105 84.5 173.5t241.5 68.5zM1444 680q-55 0 -86 -25t-31 -63v-21q0 -39 33 -63.5t84 -24.5q50 0 83.5 24.5t33.5 63.5v21q0 38 -31.5 63t-85.5 25zM1444 147q60 0 91.5 26.5t31.5 66.5v22q0 39 -33.5 64.5t-89.5 25.5q-57 0 -90 -25.5
t-33 -64.5v-22q0 -40 31.5 -66.5t91.5 -26.5z" />
    <glyph glyph-name="fiveeighths" unicode="&#x215d;" horiz-adv-x="1826" 
d="M104 1366h584q-10 -109 -34 -146.5t-97 -37.5h-274l-13 -174q45 32 90.5 47.5t110.5 15.5q114 0 174 -58t60 -163v-57q0 -126 -83 -199.5t-243 -73.5q-171 0 -246.5 67t-75.5 181v31h205v-15q0 -40 29 -66t84 -26q56 0 85 29t29 76v37q0 42 -25.5 68t-78.5 26
q-79 0 -137 -58l-174 27zM1393 1364l-801 -1364h-166l801 1364h166zM1450 850q157 0 240.5 -68t83.5 -174v-12q0 -122 -142 -176q152 -56 152 -193v-14q0 -105 -85.5 -169t-248.5 -64q-165 0 -250.5 64t-85.5 169v14q0 137 152 193q-142 54 -142 176v12q0 106 83.5 174
t242.5 68zM1450 680q-55 0 -86 -25t-31 -63v-21q0 -39 33 -63.5t84 -24.5q50 0 82.5 24.5t32.5 63.5v21q0 38 -30.5 63t-84.5 25zM1450 147q58 0 89.5 27t31.5 66v22q0 39 -32.5 64.5t-88.5 25.5q-57 0 -91 -25.5t-34 -64.5v-22q0 -39 32.5 -66t92.5 -27z" />
    <glyph glyph-name="seveneighths" unicode="&#x215e;" horiz-adv-x="1675" 
d="M61 1366h656v-113q-151 -166 -219.5 -327.5t-83.5 -386.5h-246q15 198 92.5 345t235.5 290h-435v192zM1241 1364l-801 -1364h-166l801 1364h166zM1298 850q157 0 240.5 -68t83.5 -174v-12q0 -122 -139 -176q149 -55 149 -193v-14q0 -105 -85.5 -169t-248.5 -64
q-164 0 -249.5 63.5t-85.5 169.5v14q0 137 151 193q-141 54 -141 176v12q0 105 84 173.5t241 68.5zM1298 680q-55 0 -85.5 -25t-30.5 -63v-21q0 -39 32.5 -63.5t83.5 -24.5q50 0 82.5 24.5t32.5 63.5v21q0 38 -30.5 63t-84.5 25zM1298 147q60 0 90.5 26.5t30.5 66.5v22
q0 39 -32.5 64.5t-88.5 25.5q-57 0 -89.5 -25.5t-32.5 -64.5v-22q0 -40 31 -66.5t91 -26.5z" />
    <glyph glyph-name="minus" unicode="&#x2212;" horiz-adv-x="1077" 
d="M106 809h867v-252h-867v252z" />
    <glyph glyph-name="hcoslug" unicode="&#xe10b;" horiz-adv-x="1421" 
d="M1319 1434v-1639h-1217v1639h1217zM782 541q42 55 95 86q30 -52 88 -52q43 0 72.5 32t29.5 79t-29.5 77t-72.5 30q-70 0 -123 -78q-3 40 -30.5 59t-70.5 17q19 32 19 69q0 59 -52.5 105.5t-142.5 46.5q-99 0 -161 -52.5t-62 -121.5q0 -43 15 -75t49 -67
q-168 -57 -168 -186q0 -81 65 -136t158 -55q129 0 213 93q51 -52 89.5 -72.5t84.5 -20.5q68 0 114.5 53t49.5 140l-15 4q-34 -59 -88 -59q-30 0 -59 19.5t-68 64.5zM506 877q0 26 15 42.5t40 16.5q26 0 43 -21.5t17 -56.5q0 -46 -37 -102q-30 29 -42.5 42.5t-24 35
t-11.5 43.5zM639 700q61 42 86 70q23 -23 29 -49t-2 -52.5t-29 -62.5q-68 78 -84 94zM535 449q-46 0 -76.5 31.5t-30.5 78.5q0 49 33 82q72 -68 151 -168q-31 -24 -77 -24zM721 256v-106h12l8 16q10 -16 29 -16q17 0 25 13.5t8 29.5q0 18 -8.5 29t-22.5 11q-21 0 -27 -18v55
h-36v-14h12zM256 166v-14h61v14h-20v33h8q7 0 8.5 -3t3.5 -14h15v47h-15q-1 -8 -2 -10.5t-3 -4t-7 -1.5h-8v37h25q11 0 15 -5t7 -22h16v41h-104v-14h14v-84h-14zM586 254l-25 -4v-19h-14v-14h14v-41q0 -26 25 -26q22 0 28 26l-10 4q-3 -14 -10 -14q-8 0 -8 10v41h26v14h-26
v23zM356 193q0 -20 12 -31.5t31 -11.5t31 12t12 31q0 18 -12 29t-31 11t-31 -11t-12 -29zM618 180v-28h15l2 8q15 -10 27 -10q13 0 20.5 7.5t7.5 18.5q0 19 -24.5 25t-24.5 12q0 8 10 8q11 0 21 -14h14v26h-12l-4 -10q-7 10 -23 10q-13 0 -21 -7t-8 -17q0 -19 25 -26t25 -13
q0 -8 -11 -8q-12 0 -24 18h-15zM449 166v-14h45v14h-9v31q0 20 15 20q12 0 12 -14v-37h-8v-14h45v14h-12v39q0 28 -25 28q-20 0 -29 -22v20h-34v-14h12v-51h-12zM829 133q5 5 2.5 13t-12.5 8q-14 0 -14 -15q0 -18 22 -18q24 0 37 33l27 63h10v14h-35v-14h11l-17 -41l-18 41
h12v14h-51v-14h10q25 -47 33 -67q-3 -17 -17 -17zM416 193q0 -33 -17 -33q-16 0 -16 33q0 30 16 30q17 0 17 -30zM776 190q0 -26 -14 -26q-17 0 -17 26q0 27 17 27q14 0 14 -27zM565 14v-14h47v14h-10v52h29v-52h-10v-14h47v14h-13v107l-20 -4q-8 4 -19 4q-16 0 -27 -10
t-11 -29v-2h-15v-14h15v-52h-13zM961 55q0 -26 15.5 -41.5t43.5 -15.5q46 0 49 47h-16q-4 -33 -29 -33q-33 0 -33 45t29 45q12 0 18.5 -6.5t12.5 -25.5h16v45h-16l-2 -13q-15 15 -33 15q-22 0 -38.5 -17.5t-16.5 -44.5zM254 14v-14h59v14h-16v37h45v-37h-16v-14h59v14h-16
v84h16v15h-59v-15h16v-32h-45v32h16v15h-59v-15h16v-84h-16zM950 68h-37v-15h13q-2 -7 -13 -18q-4 4 -11.5 12.5t-12.5 13.5q22 9 22 25q0 10 -7.5 17.5t-20.5 7.5q-14 0 -24.5 -9t-10.5 -20q0 -13 12 -25q-26 -7 -26 -30q0 -29 36 -29q19 0 31 12q10 -12 25 -12q19 0 26 25
l-10 2q-3 -11 -8 -11t-12 11q12 16 18 28h10v15zM602 80v6q0 25 12 25l7 -2q-3 -3 -3 -7q0 -12 13 -12v-10h-29zM883 68q-13 13 -13 20q0 10 11 10q12 0 12 -12q0 -11 -10 -18zM506 37h53q3 45 -39 45q-17 0 -29 -12t-12 -31t11.5 -30t31.5 -11q30 0 37 29h-14
q-3 -15 -19 -15q-20 0 -20 25zM754 14v-14h53v14h-16v33q8 19 14 19v-3q0 -12 12 -12q14 0 14 15q0 16 -16 16q-15 0 -24 -23v21h-37v-14h12v-52h-12zM1075 41q0 -20 12 -31.5t31 -11.5t31 12t12 31t-12 30t-31 11t-31 -11t-12 -30zM387 41q0 -20 12 -31.5t31 -11.5t31 12
t12 31t-12 30t-31 11t-31 -11t-12 -30zM696 37h54q3 45 -39 45q-17 0 -29 -12t-12 -31t11.5 -30t31.5 -11q30 0 37 29h-15q-3 -15 -18 -15q-21 0 -21 25zM1135 41q0 -33 -17 -33q-16 0 -16 33q0 31 16 31q17 0 17 -31zM446 41q0 -33 -16 -33t-16 33q0 31 16 31t16 -31z
M696 47q0 25 15 25q14 0 14 -25h-29zM506 47q0 25 14 25q15 0 15 -25h-29zM895 18q-9 -6 -16 -6q-9 0 -15 6t-6 15q0 10 8 18q9 -9 29 -33zM1194 12q0 15 -14 15q-6 0 -10.5 -4.5t-4.5 -10.5q0 -14 15 -14q14 0 14 14z" />
    <glyph glyph-name="fi" unicode="&#xfb01;" horiz-adv-x="1308" 
d="M745 1417v-227h-106q-67 0 -96 -28.5t-29 -88.5v-80h211v-231h-211v-762h-313v762h-162v231h162v97q0 327 381 327h163zM872 1389h328v-248h-328v248zM877 993h319v-993h-319v993z" />
    <glyph glyph-name="fl" unicode="&#xfb02;" horiz-adv-x="1308" 
d="M745 1417v-227h-106q-67 0 -96 -28.5t-29 -88.5v-80h211v-231h-211v-762h-313v762h-162v231h162v97q0 327 381 327h163zM1196 1417v-1417h-319v1417h319z" />
    <glyph glyph-name="NUL" horiz-adv-x="0" 
 />
    <glyph glyph-name="Q.alt" horiz-adv-x="1363" 
d="M1087 -119v-209h-141q-233 0 -323.5 74t-90.5 244v8q-205 39 -322.5 183t-117.5 366v284q0 262 160.5 413t429.5 151t429.5 -151t160.5 -413v-284q0 -222 -117.5 -366t-320.5 -183v-18q0 -61 50.5 -80t182.5 -19h20zM682 1112q-117 0 -182.5 -70.5t-65.5 -207.5v-293
q0 -137 66 -208t182 -71q118 0 183 70.5t65 208.5v293q0 137 -65 207.5t-183 70.5z" />
    <glyph glyph-name="Q.alt2" horiz-adv-x="1384" 
d="M1370 -10q-26 -14 -69.5 -24.5t-81.5 -10.5q-72 0 -125.5 21t-106.5 75q-130 -82 -305 -82q-269 0 -429.5 152.5t-160.5 419.5v282q0 267 160.5 419.5t429.5 152.5q268 0 427 -152.5t159 -419.5v-276q0 -171 -88 -314q31 -27 59.5 -35t73.5 -8q5 0 14 1t22 2t21 2v-205z
M651 670q88 0 156.5 -41t128.5 -131q2 16 2 24v307q0 141 -68 214t-188 73q-119 0 -186.5 -73t-67.5 -214v-227q0 -33 2 -51q67 119 221 119zM504 360q0 -58 44.5 -93.5t133.5 -35.5q97 0 160 48l-4 8q-54 100 -100 143t-109 43q-57 0 -91 -32t-34 -81z" />
    <glyph glyph-name="R.alt" horiz-adv-x="1304" 
d="M135 1364h627q208 0 324 -97.5t116 -273.5v-47q0 -131 -59.5 -203.5t-167.5 -109.5v-4q103 -29 154 -93.5t51 -177.5v-151q0 -68 14.5 -107t50.5 -69v-31h-241q-86 0 -124 48t-38 153v147q0 150 -162 150h-207v-498h-338v1364zM473 1100v-359h207q89 0 135.5 39t46.5 113
v59q0 148 -178 148h-211z" />
    <glyph glyph-name="t.alt" horiz-adv-x="763" 
d="M195 1192l313 72v-271h231v-231h-231v-400q0 -123 33 -192t114 -135v-35h-346q-66 69 -90 143t-24 224v395h-158v231h158v199z" />
    <glyph glyph-name="Racute.alt" horiz-adv-x="1304" 
d="M1038 1896l-333 -366h-207l184 366h356zM135 1364h627q208 0 324 -97.5t116 -273.5v-47q0 -131 -59.5 -203.5t-167.5 -109.5v-4q103 -29 154 -93.5t51 -177.5v-151q0 -68 14.5 -107t50.5 -69v-31h-241q-86 0 -124 48t-38 153v147q0 150 -162 150h-207v-498h-338v1364z
M473 1100v-359h207q89 0 135.5 39t46.5 113v59q0 148 -178 148h-211z" />
    <glyph glyph-name="Rcaron.alt" horiz-adv-x="1304" 
d="M252 1907q115 -10 217.5 -65.5t151.5 -127.5q48 72 149.5 127.5t216.5 65.5v-105q-85 -37 -135.5 -102t-73.5 -170h-317q-23 105 -73.5 170t-135.5 102v105zM135 1364h627q208 0 324 -97.5t116 -273.5v-47q0 -131 -59.5 -203.5t-167.5 -109.5v-4q103 -29 154 -93.5
t51 -177.5v-151q0 -68 14.5 -107t50.5 -69v-31h-241q-86 0 -124 48t-38 153v147q0 150 -162 150h-207v-498h-338v1364zM473 1100v-359h207q89 0 135.5 39t46.5 113v59q0 148 -178 148h-211z" />
    <glyph glyph-name="Rcommaaccent.alt" horiz-adv-x="1304" 
d="M135 1364h627q208 0 324 -97.5t116 -273.5v-47q0 -131 -59.5 -203.5t-167.5 -109.5v-4q103 -29 154 -93.5t51 -177.5v-151q0 -68 14.5 -107t50.5 -69v-31h-241q-86 0 -124 48t-38 153v147q0 150 -162 150h-207v-498h-338v1364zM473 1100v-359h207q89 0 135.5 39t46.5 113
v59q0 148 -178 148h-211zM535 -145h274v-240q0 -115 -76.5 -190.5t-204.5 -96.5v74q64 20 106.5 74t39.5 129h-139v250z" />
    <glyph glyph-name="tcaron.alt" horiz-adv-x="763" 
d="M643 1450h260l-131 -344h-143zM195 1192l313 72v-271h231v-231h-231v-400q0 -123 33 -192t114 -135v-35h-346q-66 69 -90 143t-24 224v395h-158v231h158v199z" />
    <glyph glyph-name="tcommaaccent.alt" horiz-adv-x="763" 
d="M195 1192l313 72v-271h231v-231h-231v-400q0 -123 33 -192t114 -135v-35h-346q-66 69 -90 143t-24 224v395h-158v231h158v199zM276 -150h275v-239q0 -115 -75 -190t-204 -97v74q64 22 106.5 75t39.5 128h-142v249z" />
    <glyph glyph-name="one.alt" horiz-adv-x="1021" 
d="M977 0h-858v260h272v692h-293v248h117q135 0 197 40.5t80 129.5h231v-1110h254v-260z" />
    <glyph glyph-name="one.alt2" horiz-adv-x="673" 
d="M172 1206q78 1 116 46.5t38 117.5h176v-1370h-330v1206z" />
    <glyph glyph-name="colon.alt" horiz-adv-x="501" 
d="M94 1176h314v-328h-314v328zM94 518h314v-328h-314v328z" />
    <glyph glyph-name="guillemotleft.cap" horiz-adv-x="1302" 
d="M496 1180h137q-10 -137 -69 -265.5t-156 -230.5q97 -100 156 -228.5t69 -267.5h-137q-49 134 -153.5 242.5t-260.5 177.5v152q156 69 260.5 177.5t153.5 242.5zM1044 1180h138q-12 -138 -70.5 -266.5t-155.5 -229.5q97 -100 155.5 -228.5t70.5 -267.5h-138
q-51 136 -155 244t-260 176v152q156 68 260 176t155 244z" />
    <glyph glyph-name="guillemotright.cap" horiz-adv-x="1300" 
d="M805 186h-137q10 138 68.5 267t154.5 231q-96 101 -154.5 229.5t-68.5 266.5h137q48 -135 152.5 -243t261.5 -177v-154q-156 -69 -260.5 -177.5t-153.5 -242.5zM258 186h-137q12 139 70 268t155 230q-97 100 -155 228t-70 268h137q107 -284 414 -420v-154
q-155 -68 -259 -176.5t-155 -243.5z" />
    <glyph glyph-name="guilsinglleft.cap" 
d="M496 1180h137q-10 -137 -69 -265.5t-156 -230.5q97 -100 156 -228.5t69 -267.5h-137q-49 134 -153.5 242.5t-260.5 177.5v152q156 69 260.5 177.5t153.5 242.5z" />
    <glyph glyph-name="guilsinglright.cap" 
d="M258 188h-137q12 138 70 266.5t155 229.5q-97 100 -155 228t-70 268h137q51 -135 155 -243.5t259 -176.5v-152q-155 -70 -259 -178t-155 -242z" />
    <glyph glyph-name="hyphen.cap" horiz-adv-x="772" 
d="M100 809h570v-250h-570v250z" />
    <glyph glyph-name="endash.cap" horiz-adv-x="1173" 
d="M129 809h913v-250h-913v250z" />
    <glyph glyph-name="emdash.cap" horiz-adv-x="1703" 
d="M129 809h1446v-250h-1446v250z" />
    <glyph glyph-name="at.cap" horiz-adv-x="1609" 
d="M860 1464q138 0 254 -36.5t195 -98.5t134 -143.5t80 -170.5t25 -181q0 -101 -28.5 -197t-81.5 -174t-136.5 -125t-185.5 -47q-113 0 -176 52t-61 134q-87 -170 -228 -170q-108 0 -168.5 70.5t-60.5 200.5q0 59 13.5 125t43 134t71.5 122t105 88t136 34q71 0 119.5 -35.5
t62.5 -91.5l37 107h223l-125 -406q-41 -138 -28 -192.5t81 -54.5q103 0 181.5 121.5t78.5 299.5q0 242 -156 381.5t-405 139.5q-198 0 -349 -92t-232.5 -256t-81.5 -375q0 -175 72.5 -311.5t217 -217t340.5 -80.5q259 0 461 144l64 -96q-96 -70 -234.5 -116t-294.5 -46
q-172 0 -314 54.5t-238 150.5t-148.5 228.5t-52.5 287.5q0 182 58 338t161.5 266t250.5 172.5t320 62.5zM850 934q-49 0 -90 -41t-64 -100.5t-35 -115.5t-12 -95q0 -60 25 -87.5t63 -27.5q43 0 79.5 43t57.5 115l64 235q-2 30 -26.5 52t-61.5 22z" />
    <glyph glyph-name="registered.large" horiz-adv-x="1714" 
d="M100 682q0 153 57 290.5t156 237.5t240.5 158.5t302.5 58.5t302.5 -58.5t241 -158.5t157 -237.5t57.5 -290.5t-57.5 -290.5t-157 -237.5t-241 -158.5t-302.5 -58.5t-302.5 58.5t-240.5 158.5t-156 237.5t-57 290.5zM1491 682q0 131 -46.5 247.5t-129 202t-202 135.5
t-257.5 50q-184 0 -330 -85.5t-224.5 -230t-78.5 -319.5t78.5 -319t224.5 -229t330 -85q138 0 257.5 49.5t202 134.5t129 201.5t46.5 247.5zM756 565v-237h-189v708h369q240 0 240 -235q0 -166 -127 -215l135 -258h-199l-123 237h-106zM754 885v-183h133q52 0 76 21.5
t24 67.5q0 47 -23.5 70.5t-76.5 23.5h-133z" />
    <glyph glyph-name="registered.large_alt" horiz-adv-x="1714" 
d="M100 682q0 153 57 290.5t156 237.5t240.5 158.5t302.5 58.5t302.5 -58.5t241 -158.5t157 -237.5t57.5 -290.5t-57.5 -290.5t-157 -237.5t-241 -158.5t-302.5 -58.5t-302.5 58.5t-240.5 158.5t-156 237.5t-57 290.5zM1491 682q0 131 -46.5 247.5t-129 202t-202 135.5
t-257.5 50q-184 0 -330 -85.5t-224.5 -230t-78.5 -319.5t78.5 -319t224.5 -229t330 -85q138 0 257.5 49.5t202 134.5t129 201.5t46.5 247.5zM567 1036h365q119 0 181.5 -54t62.5 -157q0 -81 -31 -120.5t-98 -61.5v-2q110 -31 110 -143v-39q0 -38 8 -58.5t29 -35.5v-37h-135
q-47 0 -68.5 25t-21.5 79v60q0 37 -21 55t-69 18h-123v-237h-189v708zM754 887v-182h131q54 0 78 21t24 67q0 48 -23.5 71t-76.5 23h-133z" />
    <glyph glyph-name="registered.alt" horiz-adv-x="1060" 
d="M530 1397q196 0 325.5 -129.5t129.5 -317.5q0 -189 -129 -316.5t-326 -127.5q-196 0 -324 127.5t-128 316.5q0 188 128 317.5t324 129.5zM530 1323q-168 0 -272 -106t-104 -267t104 -268t272 -107q167 0 271 107t104 268t-103.5 267t-271.5 106zM344 1178h236
q78 0 119.5 -35t41.5 -101q0 -93 -84 -116v-2q74 -16 74 -90v-19q0 -42 25 -61v-27h-84q-62 0 -62 64v38q0 50 -57 50h-90v-152h-119v451zM463 1085v-120h88q37 0 53.5 14t16.5 47q0 32 -15.5 45.5t-52.5 13.5h-90z" />
    <glyph glyph-name="R_p" horiz-adv-x="2414" 
d="M489 479v-479h-317v1364h616q209 0 326 -102.5t117 -284.5v-107q0 -129 -64.5 -222t-181.5 -136l277 -512h-340l-250 479h-183zM487 727h228q190 0 190 158v65q0 158 -188 158h-230v-381zM1974 -27q-162 0 -278 129v-426h-318v1317h273l18 -141q61 80 132 124t177 44
q155 0 248.5 -100.5t93.5 -282.5v-281q0 -181 -95 -282t-251 -101zM1853 207q71 0 112.5 46.5t41.5 125.5v237q0 79 -41.5 125.5t-112.5 46.5q-69 0 -114 -48t-45 -128v-229q0 -80 45 -128t114 -48z" />
    <glyph glyph-name="R_p.alt" horiz-adv-x="2433" 
d="M172 1364h614q208 0 324.5 -97t116.5 -274v-45q0 -131 -60.5 -203t-169.5 -112v-4q104 -27 156.5 -91.5t52.5 -177.5v-153q0 -68 15 -107t51 -69v-31h-228q-86 0 -123.5 47.5t-37.5 153.5v157q0 74 -39.5 111t-126.5 37h-228v-506h-317v1364zM487 1108v-373h232
q89 0 136.5 39.5t47.5 114.5v69q0 150 -180 150h-236zM1397 993h272l19 -141q61 80 133 124t178 44q154 0 247 -100.5t93 -282.5v-281q0 -181 -95 -282t-251 -101q-93 0 -158 34.5t-121 94.5v-426h-317v1317zM1872 788q-69 0 -114.5 -48t-45.5 -128v-229q0 -80 45.5 -128
t114.5 -48q71 0 112 46.5t41 125.5v237q0 79 -41 125.5t-112 46.5z" />
    <glyph glyph-name="rupee.alt" horiz-adv-x="2301" 
d="M172 1364h614q208 0 324.5 -97t116.5 -274v-45q0 -131 -60.5 -203t-169.5 -112v-4q104 -27 156.5 -91.5t52.5 -177.5v-153q0 -68 15 -107t51 -69v-31h-228q-86 0 -123.5 47.5t-37.5 153.5v157q0 74 -39.5 111t-126.5 37h-228v-506h-317v1364zM487 1108v-373h232
q89 0 136.5 39.5t47.5 114.5v69q0 150 -180 150h-236zM1778 -31q-426 0 -426 336v39h266v-27q0 -131 166 -131q71 0 105 23t34 61q0 40 -41.5 64.5t-175.5 62.5q-176 44 -258 113t-82 201q0 137 113 225t305 88q200 0 307 -85t107 -237v-32h-265v14q0 61 -38.5 93t-112.5 32
q-61 0 -95 -21.5t-34 -56.5q0 -40 42.5 -63.5t174.5 -59.5q87 -21 146 -45t106 -60.5t69.5 -88.5t22.5 -123q0 -144 -114.5 -233t-321.5 -89z" />
    <glyph glyph-name="rupeeindia.alt" horiz-adv-x="1300" 
d="M1094 31v-31h-263q-85 0 -121 40.5t-42 141.5l-4 78q-6 92 -60 135t-182 43h-299v230h283q121 0 175 36.5t66 120.5h-526v170h526q-11 85 -63.5 121.5t-171.5 36.5h-291v211h1118v-211h-365q86 -64 115 -147h252v-201h-256q-54 -161 -268 -225v-7q158 -32 222.5 -102
t72.5 -192l6 -80q3 -66 18.5 -102.5t57.5 -65.5z" />
    <glyph glyph-name="onehalf.alt" horiz-adv-x="1839" 
d="M649 539h-583v170h190v389h-201v168h99q81 0 116.5 25t48.5 81h154v-663h176v-170zM1407 1364l-801 -1364h-166l801 1364h166zM1774 0h-633v47q0 148 58 230.5t224 168.5q96 52 124 78t28 70q0 38 -29 58t-78 20q-61 0 -94 -27.5t-33 -77.5v-39h-200v50q0 123 84 196
t252 74q161 0 237 -67.5t76 -178.5q0 -91 -52.5 -150.5t-205.5 -142.5q-90 -45 -121.5 -70t-34.5 -55h398v-184z" />
    <glyph glyph-name="onethird.alt" horiz-adv-x="1892" 
d="M692 539h-583v170h190v389h-201v168h99q81 0 116.5 25t48.5 81h154v-663h176v-170zM1448 1364l-799 -1364h-166l799 1364h166zM1524 848q152 0 236.5 -64.5t84.5 -165.5v-14q0 -72 -46.5 -118t-127.5 -64q180 -28 180 -189v-14q0 -106 -86.5 -171.5t-242.5 -65.5
q-168 0 -253 68.5t-85 185.5v49h198v-37q0 -44 34 -70t97 -26q59 0 91 24.5t32 65.5v18q0 43 -33 63.5t-104 20.5h-76v143h76q133 0 133 84v17q0 40 -31.5 64t-87.5 24q-62 0 -96.5 -26.5t-34.5 -67.5v-39h-196v51q0 114 85.5 184t252.5 70z" />
    <glyph glyph-name="onequarter.alt" horiz-adv-x="1800" 
d="M692 539h-583v170h190v389h-201v168h99q81 0 116.5 25t48.5 81h154v-663h176v-170zM1448 1364l-799 -1364h-166l799 1364h166zM1401 829h266v-505h105v-160h-105v-164h-199v164h-409v153zM1468 324v344l-215 -344h215z" />
    <glyph glyph-name="onefifth.alt" horiz-adv-x="1900" 
d="M692 539h-583v170h190v389h-201v168h99q81 0 116.5 25t48.5 81h154v-663h176v-170zM1448 1364l-799 -1364h-166l799 1364h166zM1253 829h584q-9 -110 -33.5 -147t-97.5 -37h-274l-13 -176q47 33 92 49.5t109 16.5q114 0 173.5 -59t59.5 -165v-57q0 -126 -82.5 -199
t-242.5 -73q-322 0 -322 247v31h205v-14q0 -40 29 -66t84 -26q56 0 85 29t29 77v35q0 43 -25.5 69.5t-78.5 26.5q-78 0 -137 -59l-174 26z" />
    <glyph glyph-name="onesixth.alt" horiz-adv-x="1861" 
d="M692 539h-583v170h190v389h-201v168h99q81 0 116.5 25t48.5 81h154v-663h176v-170zM1448 1364l-799 -1364h-166l799 1364h166zM1487 -18q-328 0 -328 335v175q0 171 86.5 262.5t251.5 91.5q83 0 146 -21.5t97.5 -57.5t51 -77t16.5 -86v-26h-202v12q0 39 -27.5 62.5
t-83.5 23.5q-71 0 -103 -41.5t-32 -108.5v-82q71 66 194 66q125 0 193 -58t68 -159v-41q0 -125 -85.5 -197.5t-242.5 -72.5zM1487 154q56 0 87.5 27.5t31.5 74.5v16q0 46 -31 73.5t-86 27.5q-57 0 -90 -26.5t-33 -70.5v-20q0 -46 32.5 -74t88.5 -28z" />
    <glyph glyph-name="oneeighth.alt" horiz-adv-x="1888" 
d="M692 539h-583v170h190v389h-201v168h99q81 0 116.5 25t48.5 81h154v-663h176v-170zM1448 1364l-799 -1364h-166l799 1364h166zM1511 850q157 0 241.5 -68.5t84.5 -173.5v-12q0 -122 -141 -176q151 -56 151 -193v-14q0 -105 -85.5 -169t-250.5 -64q-163 0 -249 64t-86 169
v14q0 137 151 193q-139 54 -139 176v12q0 106 83 174t240 68zM1511 680q-54 0 -85 -25t-31 -63v-21q0 -39 32.5 -63.5t83.5 -24.5t84 24.5t33 63.5v21q0 38 -31 63t-86 25zM1511 147q60 0 91.5 26.5t31.5 66.5v22q0 39 -33.5 64.5t-89.5 25.5t-89 -25.5t-33 -64.5v-22
q0 -40 31 -66.5t91 -26.5z" />
    <glyph glyph-name="one.sup_alt" 
d="M692 592h-583v170h190v389h-201v168h99q81 0 116.5 25t48.5 81h154v-663h176v-170z" />
    <glyph glyph-name="one.inf_alt" 
d="M692 -324h-583v170h190v390h-201v167h99q81 0 116.5 25t48.5 82h154v-664h176v-170z" />
    <glyph glyph-name="zero.tab" horiz-adv-x="1196" 
d="M598 1395q253 0 390.5 -146t137.5 -411v-312q0 -263 -138.5 -410t-389.5 -147t-388.5 146.5t-137.5 410.5v318q0 263 136.5 407t389.5 144zM598 1126q-211 0 -211 -292v-304q0 -290 211 -290q213 0 213 290v304q0 292 -213 292z" />
    <glyph glyph-name="one.tab" horiz-adv-x="1196" 
d="M590 1370h235v-1114h332v-256h-1007v256h356v694h-387v248h198q135 0 195 41t78 131z" />
    <glyph glyph-name="two.tab" horiz-adv-x="1196" 
d="M618 1397q127 0 223 -32t152 -89t83.5 -129t27.5 -158q0 -68 -15 -122t-42 -97t-77 -84.5t-107.5 -76.5t-145.5 -81q-158 -82 -215 -133t-58 -112h641v-283h-995v78q0 126 19 212.5t71.5 161t132.5 134t213 131.5q64 37 99 59t69.5 48.5t50 48.5t24.5 49t9 61
q0 137 -174 137q-190 0 -190 -172v-71h-305v86q0 199 128 316.5t381 117.5z" />
    <glyph glyph-name="three.tab" horiz-adv-x="1196" 
d="M604 1395q234 0 363 -105.5t129 -269.5v-27q0 -233 -267 -301q144 -31 210.5 -104t66.5 -197v-33q0 -169 -134 -279t-370 -110q-265 0 -390.5 111t-125.5 303v80h301v-60q0 -77 51 -121t150 -44q91 0 141.5 41t50.5 114v31q0 78 -51 113.5t-162 35.5h-114v226h114
q209 0 209 147v29q0 71 -49 111t-139 40q-100 0 -150.5 -44.5t-50.5 -118.5v-62h-301v78q0 89 30.5 163.5t92 131.5t162.5 89t233 32z" />
    <glyph glyph-name="four.tab" horiz-adv-x="1196" 
d="M580 1364h403v-858h178v-248h-178v-258h-291v258h-645v231zM692 506v602l-368 -602h368z" />
    <glyph glyph-name="five.tab" horiz-adv-x="1196" 
d="M733 881q190 0 290.5 -97t100.5 -278v-88q0 -210 -134.5 -329.5t-381.5 -119.5q-137 0 -237.5 31t-159 87.5t-86 128.5t-27.5 161v41h308v-21q0 -153 198 -153q93 0 146 44.5t53 131.5v65q0 77 -45.5 121.5t-132.5 44.5q-128 0 -240 -98l-262 43l51 768h924
q-5 -70 -11.5 -112t-19 -78t-33.5 -53.5t-52 -26.5t-79 -9h-459l-24 -317q136 113 313 113z" />
    <glyph glyph-name="six.tab" horiz-adv-x="1196" 
d="M600 -29q-512 0 -512 533v327q0 268 138 416t395 148q103 0 186 -22.5t137 -60t90 -88.5t51 -105t15 -113v-62h-301v27q0 157 -181 157q-225 0 -225 -249v-156q121 121 314 121q192 0 298.5 -95.5t106.5 -265.5v-65q0 -207 -135 -327t-377 -120zM602 233q92 0 145.5 43.5
t53.5 129.5v53q0 84 -52.5 127t-144.5 43q-93 0 -148 -43.5t-55 -124.5v-55q0 -87 53.5 -130t147.5 -43z" />
    <glyph glyph-name="seven.tab" horiz-adv-x="1196" 
d="M662 0h-367q17 218 82 402t171 340.5t273 330.5h-737v291h1069v-170q-153 -191 -250.5 -362.5t-159.5 -378t-81 -453.5z" />
    <glyph glyph-name="eight.tab" horiz-adv-x="1196" 
d="M598 1395q247 0 375.5 -108.5t128.5 -282.5v-21q0 -101 -58.5 -176t-166.5 -117q243 -92 243 -315v-25q0 -176 -132.5 -278.5t-389.5 -102.5q-255 0 -387.5 102.5t-132.5 278.5v25q0 225 244 315q-107 42 -166.5 117.5t-59.5 175.5v21q0 174 128.5 282.5t373.5 108.5z
M598 1143q-89 0 -140.5 -42.5t-51.5 -117.5v-35q0 -80 53 -120t139 -40q88 0 141.5 40t53.5 120v35q0 75 -52 117.5t-143 42.5zM598 219q100 0 153.5 44.5t53.5 123.5v33q0 80 -56 124t-151 44q-94 0 -149.5 -44t-55.5 -124v-33q0 -79 53 -123.5t152 -44.5z" />
    <glyph glyph-name="nine.tab" horiz-adv-x="1196" 
d="M598 1395q252 0 382 -134t130 -395v-327q0 -273 -138 -420.5t-399 -147.5q-103 0 -187 23t-138 61t-90.5 88.5t-52 103t-15.5 107.5v45h301v-18q0 -71 46 -109.5t138 -38.5q230 0 230 250v135q-115 -120 -303 -120q-198 0 -307 95t-109 261v94q0 208 134.5 327.5
t377.5 119.5zM596 1130q-92 0 -145.5 -43t-53.5 -133v-73q0 -84 52 -126t145 -42t148 43.5t55 124.5v73q0 89 -53.5 132.5t-147.5 43.5z" />
    <glyph glyph-name="dollar.tab" horiz-adv-x="1196" 
d="M1108 397q0 -165 -98 -269t-275 -134v-199h-246v195q-199 24 -295 131t-96 278v54h308v-31q0 -89 51 -137.5t149 -48.5q187 0 187 131q0 68 -53.5 109.5t-213.5 96.5q-228 66 -318.5 155.5t-90.5 246.5q0 154 101.5 262t279.5 135v197h243v-199q180 -27 266.5 -131
t86.5 -266v-37h-303v35q0 74 -45.5 115.5t-141.5 41.5q-85 0 -128.5 -33.5t-43.5 -90.5q0 -67 50 -105.5t206 -91.5q237 -72 328.5 -160.5t91.5 -249.5z" />
    <glyph glyph-name="sterling.tab" horiz-adv-x="1196" 
d="M834 -31q-95 0 -168.5 38.5t-149.5 107.5q-42 -70 -108 -108t-142 -38q-117 0 -179 58.5t-62 156.5t64.5 162t178.5 64q62 0 140 -29q2 10 2 37q0 79 -37 155h-264v177h172q-74 137 -74 270q0 168 116.5 272.5t331.5 104.5q222 0 334.5 -113.5t112.5 -300.5v-72h-279v39
q0 82 -40.5 129t-123.5 47q-67 0 -106 -38.5t-39 -108.5q0 -24 3.5 -47t11.5 -49t13.5 -41.5t19 -47.5t18.5 -44h317v-177h-268q6 -41 6 -90q0 -110 -45 -202q99 -56 170 -56q74 0 101.5 38t27.5 118v41h260v-68q0 -191 -72.5 -288t-242.5 -97zM180 182q0 -37 23 -59.5
t67 -22.5q42 0 75 30t50 89q-67 43 -123 43q-43 0 -67.5 -22t-24.5 -58z" />
    <glyph glyph-name="Euro.tab" horiz-adv-x="1196" 
d="M1128 418q0 -205 -121 -327t-343 -122q-236 0 -365.5 134t-140.5 386h-135v136h133v112h-133v135h135q11 251 141.5 387t364.5 136q229 0 346.5 -119t117.5 -330v-22h-286v22q0 86 -42 136.5t-134 50.5q-107 0 -156 -64t-55 -197h346v-135h-346v-112h346v-136h-346
q6 -128 55.5 -193t155.5 -65q173 0 176 189v20h286v-22z" />
    <glyph glyph-name="yen.tab" horiz-adv-x="1196" 
d="M1098 221h-346v-221h-306v221h-348v162h348v88l-22 47h-326v162h250l-317 684h334l245 -598l246 598h318l-324 -684h248v-162h-324l-22 -47v-88h346v-162z" />
    <glyph glyph-name="cent.tab" horiz-adv-x="1196" 
d="M1063 557q0 -151 -86 -254.5t-246 -132.5v-180h-239v180q-169 34 -262 157.5t-93 311.5v88q0 187 93.5 310t261.5 157v180h239v-178q162 -27 247 -130t85 -257v-18h-291v14q0 68 -39.5 108.5t-114.5 40.5q-83 0 -125 -53t-42 -139v-158q0 -86 42 -139t125 -53
q73 0 113.5 40.5t40.5 106.5v16h291v-18z" />
    <glyph glyph-name="numbersign.tab" horiz-adv-x="1196" 
d="M631 0l41 334h-232l-41 -334h-213l41 334h-190v198h215l37 299h-207v199h229l41 334h215l-41 -334h230l41 334h215l-41 -334h190v-199h-215l-37 -299h205v-198h-229l-41 -334h-213zM465 532h229l37 299h-229z" />
    <glyph glyph-name="degree.tab" horiz-adv-x="1196" 
d="M598 1397q206 0 321 -111.5t115 -300.5q0 -187 -116 -299.5t-320 -112.5t-319 111.5t-115 300.5q0 187 115 299.5t319 112.5zM598 1200q-103 0 -155 -56t-52 -159t53 -159t154 -56q103 0 155 56t52 159t-51.5 159t-155.5 56z" />
    <glyph glyph-name="percent.tab" horiz-adv-x="1796" 
d="M461 1389q151 0 238 -84.5t87 -237.5v-84q0 -153 -87 -237t-238 -84t-238.5 84t-87.5 237v84q0 153 87.5 237.5t238.5 84.5zM1573 1366l-1139 -1368h-211l1139 1368h211zM461 1214q-125 0 -125 -149v-80q0 -149 125 -149q123 0 123 149v80q0 149 -123 149zM1335 -25
q-151 0 -239 84.5t-88 237.5v84q0 153 88 237t239 84t238.5 -84t87.5 -237v-84q0 -153 -87.5 -237.5t-238.5 -84.5zM1335 150q123 0 123 149v80q0 149 -123 149q-125 0 -125 -149v-80q0 -149 125 -149z" />
    <glyph glyph-name="quotedbl.tab" horiz-adv-x="1196" 
d="M285 1364h317l-225 -651h-187zM756 1364h317l-264 -651h-184z" />
    <glyph glyph-name="quotesingle.tab" horiz-adv-x="598" 
d="M229 1364h320l-227 -651h-193z" />
    <glyph glyph-name="period.tab" horiz-adv-x="598" 
d="M143 328h312v-328h-312v328z" />
    <glyph glyph-name="comma.tab" horiz-adv-x="598" 
d="M145 328h312v-250q0 -99 -22.5 -171t-69 -121t-105 -79.5t-143.5 -54.5v90q100 62 129.5 109.5t29.5 148.5h-131v328z" />
    <glyph glyph-name="colon.tab" horiz-adv-x="598" 
d="M143 987h312v-328h-312v328zM143 328h312v-328h-312v328z" />
    <glyph glyph-name="semicolon.tab" horiz-adv-x="598" 
d="M145 987h312v-328h-312v328zM145 328h312v-250q0 -99 -22.5 -171t-69 -121t-105 -79.5t-143.5 -54.5v90q100 62 129.5 109.5t29.5 148.5h-131v328z" />
    <glyph glyph-name="periodcentered.tab" horiz-adv-x="598" 
d="M143 846h312v-328h-312v328z" />
    <glyph glyph-name="slash.tab" horiz-adv-x="1196" 
d="M874 1563h254l-802 -1887h-254z" />
    <glyph glyph-name="bar.tab" horiz-adv-x="598" 
d="M184 1563h230v-1887h-230v1887z" />
    <glyph glyph-name="underscore.tab" horiz-adv-x="1196" 
d="M61 -129h1076v-195h-1076v195z" />
    <glyph glyph-name="plus.tab" horiz-adv-x="1196" 
d="M473 1153h252v-350h340v-242h-340v-348h-252v348h-342v242h342v350z" />
    <glyph glyph-name="minus.tab" horiz-adv-x="1196" 
d="M158 805h882v-246h-882v246z" />
    <glyph glyph-name="divide.tab" horiz-adv-x="1196" 
d="M471 1176h254v-238h-254v238zM139 795h920v-226h-920v226zM471 426h254v-236h-254v236z" />
    <glyph glyph-name="equal.tab" horiz-adv-x="1196" 
d="M178 1016h842v-234h-842v234zM178 582h842v-234h-842v234z" />
    <glyph glyph-name="multiply.tab" horiz-adv-x="1196" 
d="M1065 385l-174 -174l-297 297l-295 -297l-174 174l297 297l-297 297l176 172l295 -295l295 295l172 -172l-295 -297z" />
    <glyph glyph-name="less.tab" horiz-adv-x="1196" 
d="M983 1196v-276l-516 -238l516 -240v-274l-825 399v232z" />
    <glyph glyph-name="greater.tab" horiz-adv-x="1196" 
d="M211 1196l825 -399v-232l-825 -397v274l514 240l-514 238v276z" />
    <glyph glyph-name="plusminus.tab" horiz-adv-x="1196" 
d="M483 1276h232v-303h301v-223h-301v-304h-232v304h-301v223h301v303zM182 313h834v-217h-834v217z" />
    <glyph glyph-name="onehalf.tab" horiz-adv-x="1796" 
d="M692 539h-583v170h190v389h-201v168h99q81 0 116.5 25t48.5 81h154v-663h176v-170zM1389 1364l-801 -1364h-164l799 1364h166zM1731 0h-635v47q0 148 58 230.5t224 168.5q96 52 124 78t28 70q0 38 -29 58t-78 20q-61 0 -94 -27.5t-33 -77.5v-39h-200v50q0 122 84.5 195.5
t251.5 74.5q161 0 237 -67.5t76 -178.5q0 -91 -52.5 -150.5t-205.5 -142.5q-90 -45 -121.5 -70t-34.5 -55h400v-184z" />
    <glyph glyph-name="onethird.tab" horiz-adv-x="1796" 
d="M692 539h-583v170h190v389h-201v168h99q81 0 116.5 25t48.5 81h154v-663h176v-170zM1395 1364l-801 -1364h-166l801 1364h166zM1423 848q153 0 237.5 -64.5t84.5 -165.5v-14q0 -73 -45.5 -118.5t-126.5 -63.5q180 -29 180 -189v-14q0 -106 -88 -171.5t-244 -65.5
q-166 0 -251 68.5t-85 185.5v49h199v-37q0 -44 33 -70t96 -26q60 0 92.5 24.5t32.5 65.5v18q0 84 -139 84h-74v143h74q135 0 135 84v17q0 40 -31.5 64t-89.5 24q-62 0 -95.5 -26t-33.5 -68v-39h-199v51q0 114 86.5 184t251.5 70z" />
    <glyph glyph-name="twothirds.tab" horiz-adv-x="1796" 
d="M688 539h-635v47q0 148 59 230.5t226 168.5q95 53 122 78t27 70q0 77 -104 77q-62 0 -94.5 -28t-32.5 -76v-41h-201v51q0 123 84 195.5t252 72.5q160 1 237 -66t77 -177q0 -92 -52.5 -150.5t-206.5 -142.5q-91 -48 -121.5 -72t-33.5 -55h397v-182zM1391 1364l-801 -1364
h-166l801 1364h166zM1423 848q153 0 237.5 -64.5t84.5 -165.5v-14q0 -73 -45.5 -118.5t-126.5 -63.5q180 -29 180 -189v-14q0 -106 -88 -171.5t-244 -65.5q-166 0 -251 68.5t-85 185.5v49h199v-37q0 -44 33 -70t96 -26q60 0 92.5 24.5t32.5 65.5v18q0 84 -139 84h-74v143h74
q135 0 135 84v17q0 40 -31.5 64t-89.5 24q-62 0 -95.5 -26t-33.5 -68v-39h-199v51q0 114 86.5 184t251.5 70z" />
    <glyph glyph-name="onequarter.tab" horiz-adv-x="1796" 
d="M692 539h-583v170h190v389h-201v168h99q81 0 116.5 25t48.5 81h154v-663h176v-170zM1442 1364l-801 -1364h-166l801 1364h166zM1393 829h268v-505h104v-160h-104v-164h-199v164h-411v153zM1462 324v344l-215 -344h215z" />
    <glyph glyph-name="threequarters.tab" horiz-adv-x="1796" 
d="M383 1384q153 0 237.5 -63.5t84.5 -163.5v-16q0 -73 -46 -119t-127 -64q181 -29 181 -186v-14q0 -106 -88 -172t-244 -66q-168 0 -253 68.5t-85 185.5v49h199v-37q0 -44 34 -70t97 -26q60 0 91.5 24t31.5 64v21q0 82 -138 82h-73v145h73q136 0 136 84v16q0 40 -31.5 64
t-89.5 24q-62 0 -95.5 -26.5t-33.5 -69.5v-37h-199v52q0 112 86.5 181.5t251.5 69.5zM1430 1364l-799 -1364h-166l799 1364h166zM1393 829h268v-505h104v-160h-104v-164h-199v164h-411v153zM1462 324v344l-215 -344h215z" />
    <glyph glyph-name="onefifth.tab" horiz-adv-x="1796" 
d="M692 539h-583v170h190v389h-201v168h99q81 0 116.5 25t48.5 81h154v-663h176v-170zM1395 1364l-801 -1364h-166l801 1364h166zM1147 829h582q-8 -109 -32 -146.5t-98 -37.5h-274l-14 -176q47 33 91.5 49.5t108.5 16.5q114 0 175 -59t61 -165v-57q0 -126 -83.5 -199
t-244.5 -73q-170 0 -245.5 67t-75.5 180v31h205v-14q0 -40 28.5 -66t85.5 -26q56 0 85.5 29t29.5 77v35q0 43 -26.5 69.5t-80.5 26.5q-78 0 -137 -59l-174 26z" />
    <glyph glyph-name="twofifths.tab" horiz-adv-x="1796" 
d="M688 539h-635v47q0 148 59 230.5t226 168.5q95 53 122 78t27 70q0 77 -104 77q-62 0 -94.5 -28t-32.5 -76v-41h-201v51q0 123 84 195.5t252 72.5q160 1 237 -66t77 -177q0 -92 -52.5 -150.5t-206.5 -142.5q-91 -48 -121.5 -72t-33.5 -55h397v-182zM1386 1364l-800 -1364
h-166l801 1364h165zM1147 829h582q-8 -109 -32 -146.5t-98 -37.5h-274l-14 -176q47 33 91.5 49.5t108.5 16.5q114 0 175 -59t61 -165v-57q0 -126 -83.5 -199t-244.5 -73q-170 0 -245.5 67t-75.5 180v31h205v-14q0 -40 28.5 -66t85.5 -26q56 0 85.5 29t29.5 77v35
q0 43 -26.5 69.5t-80.5 26.5q-78 0 -137 -59l-174 26z" />
    <glyph glyph-name="threefifths.tab" horiz-adv-x="1796" 
d="M383 1384q153 0 237.5 -63.5t84.5 -163.5v-16q0 -73 -46 -119t-127 -64q181 -29 181 -186v-14q0 -106 -88 -172t-244 -66q-168 0 -253 68.5t-85 185.5v49h199v-37q0 -44 34 -70t97 -26q60 0 91.5 24t31.5 64v21q0 82 -138 82h-73v145h73q136 0 136 84v16q0 40 -31.5 64
t-89.5 24q-62 0 -95.5 -26.5t-33.5 -69.5v-37h-199v52q0 112 86.5 181.5t251.5 69.5zM1370 1364l-801 -1364h-163l798 1364h166zM1147 829h582q-8 -109 -32 -146.5t-98 -37.5h-274l-14 -176q47 33 91.5 49.5t108.5 16.5q114 0 175 -59t61 -165v-57q0 -126 -83.5 -199
t-244.5 -73q-170 0 -245.5 67t-75.5 180v31h205v-14q0 -40 28.5 -66t85.5 -26q56 0 85.5 29t29.5 77v35q0 43 -26.5 69.5t-80.5 26.5q-78 0 -137 -59l-174 26z" />
    <glyph glyph-name="fourfifths.tab" horiz-adv-x="1796" 
d="M352 1366h269v-504h102v-160h-102v-163h-199v163h-412v154zM1380 1364l-800 -1364h-166l800 1364h166zM422 862v344l-215 -344h215zM1147 829h582q-8 -109 -32 -146.5t-98 -37.5h-274l-14 -176q47 33 91.5 49.5t108.5 16.5q114 0 175 -59t61 -165v-57q0 -126 -83.5 -199
t-244.5 -73q-170 0 -245.5 67t-75.5 180v31h205v-14q0 -40 28.5 -66t85.5 -26q56 0 85.5 29t29.5 77v35q0 43 -26.5 69.5t-80.5 26.5q-78 0 -137 -59l-174 26z" />
    <glyph glyph-name="onesixth.tab" horiz-adv-x="1796" 
d="M692 539h-583v170h190v389h-201v168h99q81 0 116.5 25t48.5 81h154v-663h176v-170zM1413 1364l-801 -1364h-163l798 1364h166zM1419 -18q-329 0 -329 335v175q0 171 86 262.5t251 91.5q85 0 148 -21.5t97.5 -57.5t50.5 -77t16 -86v-26h-201v12q0 39 -27.5 62.5
t-83.5 23.5q-135 0 -135 -150v-82q71 66 193 66q125 0 193.5 -58t68.5 -159v-41q0 -125 -86 -197.5t-242 -72.5zM1419 154q55 0 87 28t32 74v16q0 46 -31.5 73.5t-87.5 27.5t-88.5 -27t-32.5 -70v-20q0 -46 32.5 -74t88.5 -28z" />
    <glyph glyph-name="fivesixths.tab" horiz-adv-x="1796" 
d="M104 1366h584q-10 -109 -34 -146.5t-97 -37.5h-274l-13 -174q45 32 90.5 47.5t110.5 15.5q114 0 174 -58t60 -163v-57q0 -126 -83 -199.5t-243 -73.5q-171 0 -246.5 67t-75.5 181v31h205v-15q0 -40 29 -66t84 -26q56 0 85 29t29 76v37q0 42 -25.5 68t-78.5 26
q-79 0 -137 -58l-174 27zM1397 1364l-801 -1364h-166l801 1364h166zM1419 -18q-329 0 -329 335v175q0 171 86 262.5t251 91.5q85 0 148 -21.5t97.5 -57.5t50.5 -77t16 -86v-26h-201v12q0 39 -27.5 62.5t-83.5 23.5q-135 0 -135 -150v-82q71 66 193 66q125 0 193.5 -58
t68.5 -159v-41q0 -125 -86 -197.5t-242 -72.5zM1419 154q55 0 87 28t32 74v16q0 46 -31.5 73.5t-87.5 27.5t-88.5 -27t-32.5 -70v-20q0 -46 32.5 -74t88.5 -28z" />
    <glyph glyph-name="oneeighth.tab" horiz-adv-x="1796" 
d="M692 539h-583v170h190v389h-201v168h99q81 0 116.5 25t48.5 81h154v-663h176v-170zM1401 1364l-801 -1364h-164l799 1364h166zM1417 850q159 0 242.5 -68t83.5 -174v-12q0 -122 -141 -176q151 -56 151 -193v-14q0 -105 -85.5 -169t-250.5 -64q-163 0 -249.5 64t-86.5 169
v14q0 136 152 193q-139 54 -139 176v12q0 106 83 174t240 68zM1417 680q-54 0 -85.5 -25t-31.5 -63v-21q0 -39 33.5 -63.5t83.5 -24.5q51 0 84 24.5t33 63.5v21q0 38 -31 63t-86 25zM1417 147q60 0 91.5 26.5t31.5 66.5v22q0 39 -33.5 64.5t-89.5 25.5t-89.5 -25.5
t-33.5 -64.5v-22q0 -40 31.5 -66.5t91.5 -26.5z" />
    <glyph glyph-name="threeeighths.tab" horiz-adv-x="1796" 
d="M383 1384q153 0 237.5 -63.5t84.5 -163.5v-16q0 -73 -46 -119t-127 -64q181 -29 181 -186v-14q0 -106 -88 -172t-244 -66q-168 0 -253 68.5t-85 185.5v49h199v-37q0 -44 34 -70t97 -26q60 0 91.5 24t31.5 64v21q0 82 -138 82h-73v145h73q136 0 136 84v16q0 40 -31.5 64
t-89.5 24q-62 0 -95.5 -26.5t-33.5 -69.5v-37h-199v52q0 112 86.5 181.5t251.5 69.5zM1380 1364l-800 -1364h-166l800 1364h166zM1417 850q159 0 242.5 -68t83.5 -174v-12q0 -122 -141 -176q151 -56 151 -193v-14q0 -105 -85.5 -169t-250.5 -64q-163 0 -249.5 64t-86.5 169
v14q0 136 152 193q-139 54 -139 176v12q0 106 83 174t240 68zM1417 680q-54 0 -85.5 -25t-31.5 -63v-21q0 -39 33.5 -63.5t83.5 -24.5q51 0 84 24.5t33 63.5v21q0 38 -31 63t-86 25zM1417 147q60 0 91.5 26.5t31.5 66.5v22q0 39 -33.5 64.5t-89.5 25.5t-89.5 -25.5
t-33.5 -64.5v-22q0 -40 31.5 -66.5t91.5 -26.5z" />
    <glyph glyph-name="fiveeighths.tab" horiz-adv-x="1796" 
d="M104 1366h584q-10 -109 -34 -146.5t-97 -37.5h-274l-13 -174q45 32 90.5 47.5t110.5 15.5q114 0 174 -58t60 -163v-57q0 -126 -83 -199.5t-243 -73.5q-171 0 -246.5 67t-75.5 181v31h205v-15q0 -40 29 -66t84 -26q56 0 85 29t29 76v37q0 42 -25.5 68t-78.5 26
q-79 0 -137 -58l-174 27zM1380 1364l-800 -1364h-166l800 1364h166zM1417 850q159 0 242.5 -68t83.5 -174v-12q0 -122 -141 -176q151 -56 151 -193v-14q0 -105 -85.5 -169t-250.5 -64q-163 0 -249.5 64t-86.5 169v14q0 136 152 193q-139 54 -139 176v12q0 106 83 174t240 68
zM1417 680q-54 0 -85.5 -25t-31.5 -63v-21q0 -39 33.5 -63.5t83.5 -24.5q51 0 84 24.5t33 63.5v21q0 38 -31 63t-86 25zM1417 147q60 0 91.5 26.5t31.5 66.5v22q0 39 -33.5 64.5t-89.5 25.5t-89.5 -25.5t-33.5 -64.5v-22q0 -40 31.5 -66.5t91.5 -26.5z" />
    <glyph glyph-name="seveneighths.tab" horiz-adv-x="1796" 
d="M61 1366h656v-113q-151 -166 -219.5 -327.5t-83.5 -386.5h-246q15 198 92.5 345t235.5 290h-435v192zM1303 1364l-801 -1364h-166l801 1364h166zM1417 850q159 0 242.5 -68t83.5 -174v-12q0 -122 -141 -176q151 -56 151 -193v-14q0 -105 -85.5 -169t-250.5 -64
q-163 0 -249.5 64t-86.5 169v14q0 136 152 193q-139 54 -139 176v12q0 106 83 174t240 68zM1417 680q-54 0 -85.5 -25t-31.5 -63v-21q0 -39 33.5 -63.5t83.5 -24.5q51 0 84 24.5t33 63.5v21q0 38 -31 63t-86 25zM1417 147q60 0 91.5 26.5t31.5 66.5v22q0 39 -33.5 64.5
t-89.5 25.5t-89.5 -25.5t-33.5 -64.5v-22q0 -40 31.5 -66.5t91.5 -26.5z" />
    <glyph glyph-name="i.dot" horiz-adv-x="546" 
d="M109 1389h327v-248h-327v248zM115 993h317v-993h-317v993z" />
    <glyph glyph-name="fraction.tab" horiz-adv-x="286" 
d="M627 1364l-801 -1364h-166l801 1364h166z" />
    <glyph glyph-name="zero.num" 
d="M377 1389q160 0 251 -93t91 -260v-166q0 -169 -91.5 -261.5t-252.5 -92.5q-160 0 -251 92.5t-91 261.5v166q0 168 91.5 260.5t252.5 92.5zM377 1204q-129 0 -129 -172v-158q0 -174 127 -174q131 0 131 174v158q0 172 -129 172z" />
    <glyph glyph-name="one.num" horiz-adv-x="638" 
d="M307 1372h158v-833h-225v563h-168v164h75q75 0 111 25.5t49 80.5z" />
    <glyph glyph-name="one.num_alt" 
d="M692 539h-583v170h190v389h-201v168h99q81 0 116.5 25t48.5 81h154v-663h176v-170z" />
    <glyph glyph-name="two.num" 
d="M688 539h-635v47q0 148 59 230.5t226 168.5q95 53 122 78t27 70q0 77 -104 77q-62 0 -94.5 -28t-32.5 -76v-41h-201v51q0 123 84 195.5t252 72.5q160 1 237 -66t77 -177q0 -92 -52.5 -150.5t-206.5 -142.5q-91 -48 -121.5 -72t-33.5 -55h397v-182z" />
    <glyph glyph-name="three.num" 
d="M383 1384q153 0 237.5 -63.5t84.5 -163.5v-16q0 -73 -46 -119t-127 -64q181 -29 181 -186v-14q0 -106 -88 -172t-244 -66q-168 0 -253 68.5t-85 185.5v49h199v-37q0 -44 34 -70t97 -26q60 0 91.5 24t31.5 64v21q0 82 -138 82h-73v145h73q136 0 136 84v16q0 40 -31.5 64
t-89.5 24q-62 0 -95.5 -26.5t-33.5 -69.5v-37h-199v52q0 112 86.5 181.5t251.5 69.5z" />
    <glyph glyph-name="four.num" 
d="M352 1366h269v-504h102v-160h-102v-163h-199v163h-412v154zM422 862v344l-215 -344h215z" />
    <glyph glyph-name="five.num" 
d="M104 1366h584q-10 -109 -34 -146.5t-97 -37.5h-274l-13 -174q45 32 90.5 47.5t110.5 15.5q114 0 174 -58t60 -163v-57q0 -126 -83 -199.5t-243 -73.5q-171 0 -246.5 67t-75.5 181v31h205v-15q0 -40 29 -66t84 -26q56 0 85 29t29 76v37q0 42 -25.5 68t-78.5 26
q-79 0 -137 -58l-174 27z" />
    <glyph glyph-name="six.num" 
d="M379 518q-330 0 -330 338v172q0 171 86.5 263.5t251.5 92.5q85 0 147.5 -21.5t97 -57.5t50.5 -76.5t16 -85.5v-27h-202v12q0 38 -27.5 62t-83.5 24q-71 0 -103 -41t-32 -108v-82q71 66 194 66q124 0 193.5 -59t69.5 -159v-40q0 -126 -86 -199.5t-242 -73.5zM377 692
q56 0 87.5 28t31.5 73v18q0 45 -30.5 72.5t-86.5 27.5q-57 0 -90 -26.5t-33 -71.5v-18q0 -46 32.5 -74.5t88.5 -28.5z" />
    <glyph glyph-name="seven.num" 
d="M61 1366h656v-113q-151 -166 -219.5 -327.5t-83.5 -386.5h-246q15 198 92.5 345t235.5 290h-435v192z" />
    <glyph glyph-name="eight.num" 
d="M377 1386q157 0 240 -67.5t83 -171.5v-12q0 -122 -139 -179q152 -56 152 -192v-12q0 -105 -86.5 -169.5t-249.5 -64.5q-164 0 -250 64t-86 170v12q0 136 152 192q-142 57 -142 179v12q0 104 84.5 171.5t241.5 67.5zM377 1219q-53 0 -85 -26t-32 -63v-20q0 -41 32.5 -65.5
t84.5 -24.5t84.5 24.5t32.5 65.5v20q0 37 -32 63t-85 26zM377 686q60 0 91.5 26t31.5 64v23q0 40 -33.5 66t-89.5 26t-89.5 -26t-33.5 -66v-23q0 -38 31.5 -64t91.5 -26z" />
    <glyph glyph-name="nine.num" 
d="M375 1386q332 0 332 -337v-172q0 -171 -88.5 -264t-256.5 -93q-86 0 -150 21t-98.5 57t-50.5 76.5t-16 85.5v22h201v-8q0 -35 26.5 -59.5t87.5 -24.5q76 0 110 41t34 107v73q-70 -65 -201 -65q-124 0 -193 58.5t-69 158.5v49q0 127 87 200.5t245 73.5zM375 1210
q-55 0 -88 -27.5t-33 -70.5v-29q0 -45 32.5 -71.5t88.5 -26.5q57 0 91 26t34 70v29q0 46 -33.5 73t-91.5 27z" />
    <glyph glyph-name="zero.den" 
d="M377 852q159 0 250.5 -93t91.5 -261v-166q0 -169 -91.5 -262t-252.5 -93q-160 0 -251 93t-91 262v166q0 168 91.5 261t252.5 93zM377 666q-129 0 -129 -172v-158q0 -172 127 -172q131 0 131 172v158q0 172 -129 172z" />
    <glyph glyph-name="one.den" horiz-adv-x="638" 
d="M307 834h158v-834h-225v563h-168v166h75q75 0 111.5 25t48.5 80z" />
    <glyph glyph-name="one.den_alt" 
d="M692 0h-583v172h190v387h-201v170h99q81 0 116.5 25t48.5 80h154v-662h176v-172z" />
    <glyph glyph-name="two.den" 
d="M688 0h-635v47q0 148 59 230.5t226 168.5q94 52 121.5 78t27.5 70q0 39 -27.5 58.5t-76.5 19.5q-62 0 -94.5 -27.5t-32.5 -77.5v-39h-201v50q0 123 84 196t252 74q160 0 237 -68t77 -178q0 -91 -52.5 -150.5t-206.5 -142.5q-89 -45 -120.5 -70t-34.5 -55h397v-184z" />
    <glyph glyph-name="three.den" 
d="M383 848q153 0 237.5 -64.5t84.5 -165.5v-14q0 -73 -46 -118.5t-127 -63.5q181 -29 181 -189v-14q0 -106 -88 -171.5t-244 -65.5q-168 0 -253 68.5t-85 185.5v49h199v-37q0 -44 34 -70t97 -26q60 0 91.5 24.5t31.5 65.5v18q0 43 -33 63.5t-105 20.5h-73v143h73
q136 0 136 84v17q0 40 -31.5 64t-89.5 24q-62 0 -95.5 -26t-33.5 -68v-39h-199v51q0 114 86.5 184t251.5 70z" />
    <glyph glyph-name="four.den" 
d="M352 829h269v-505h102v-160h-102v-164h-199v164h-412v153zM422 324v344l-215 -344h215z" />
    <glyph glyph-name="five.den" 
d="M104 829h584q-9 -110 -33.5 -147t-97.5 -37h-274l-13 -176q47 33 92 49.5t109 16.5q114 0 174 -59t60 -165v-57q0 -125 -83 -198.5t-243 -73.5q-322 0 -322 247v31h205v-14q0 -40 29 -66t84 -26q56 0 85 29t29 77v35q0 43 -25.5 69.5t-78.5 26.5q-78 0 -137 -59l-174 26z
" />
    <glyph glyph-name="six.den" 
d="M379 -18q-330 0 -330 335v175q0 171 86.5 262.5t251.5 91.5q85 0 147.5 -21.5t97 -57.5t50.5 -77t16 -86v-26h-202v12q0 39 -27.5 62.5t-83.5 23.5q-71 0 -103 -41.5t-32 -108.5v-82q71 66 194 66q125 0 194 -58t69 -159v-41q0 -125 -86 -197.5t-242 -72.5zM377 154
q56 0 87.5 27.5t31.5 74.5v16q0 47 -30.5 74t-86.5 27t-89.5 -27t-33.5 -70v-20q0 -46 32.5 -74t88.5 -28z" />
    <glyph glyph-name="seven.den" 
d="M61 829h656v-114q-151 -166 -219.5 -327.5t-83.5 -387.5h-246q15 198 92.5 345t235.5 290h-435v194z" />
    <glyph glyph-name="eight.den" 
d="M377 850q157 0 240 -68t83 -174v-12q0 -122 -139 -176q152 -56 152 -193v-14q0 -105 -86.5 -169t-249.5 -64q-165 0 -250.5 64t-85.5 169v14q0 137 152 193q-142 54 -142 176v12q0 105 84.5 173.5t241.5 68.5zM377 680q-54 0 -85.5 -25t-31.5 -63v-21q0 -39 33 -63.5
t84 -24.5t84 24.5t33 63.5v21q0 38 -31.5 63t-85.5 25zM377 147q60 0 91.5 26.5t31.5 66.5v22q0 39 -33.5 64.5t-89.5 25.5t-89.5 -25.5t-33.5 -64.5v-22q0 -40 31.5 -66.5t91.5 -26.5z" />
    <glyph glyph-name="nine.den" 
d="M375 848q332 0 332 -336v-174q0 -171 -88.5 -263.5t-256.5 -92.5q-86 0 -150 21t-98.5 56.5t-50.5 76t-16 85.5v23h201v-8q0 -35 26 -58.5t88 -23.5q144 0 144 147v72q-71 -66 -201 -66q-124 0 -193 58.5t-69 158.5v51q0 126 87 199.5t245 73.5zM375 672q-55 0 -88 -28
t-33 -71v-28q0 -45 32.5 -72t88.5 -27q57 0 91 27t34 70v28q0 46 -33.5 73.5t-91.5 27.5z" />
    <glyph glyph-name="caron.alt" horiz-adv-x="1024" 
d="M393 1458h260l-131 -344h-143z" />
    <glyph glyph-name="acute.cap" horiz-adv-x="1021" 
d="M782 1896l-333 -366h-207l184 366h356z" />
    <glyph glyph-name="hungarumlaut.cap" horiz-adv-x="1021" 
d="M559 1896l-287 -366h-182l182 366h287zM932 1896l-287 -366h-182l184 366h285z" />
    <glyph glyph-name="grave.cap" horiz-adv-x="1021" 
d="M242 1896h354l186 -366h-209z" />
    <glyph glyph-name="circumflex.cap" horiz-adv-x="1024" 
d="M354 1874h318q23 -106 73 -170.5t136 -101.5v-105q-115 10 -217.5 65.5t-151.5 127.5q-47 -72 -149.5 -127.5t-217.5 -65.5v105q85 37 135.5 102t73.5 170z" />
    <glyph glyph-name="caron.cap" horiz-adv-x="1024" 
d="M145 1907q113 -10 215.5 -65.5t151.5 -127.5q49 72 151.5 127.5t215.5 65.5v-105q-85 -37 -134.5 -101.5t-72.5 -170.5h-320q-23 106 -72.5 170.5t-134.5 101.5v105z" />
    <glyph glyph-name="breve.cap" horiz-adv-x="1024" 
d="M512 1724q203 0 203 111q0 11 -4 61h106q25 -69 25 -133q0 -120 -89 -188t-241 -68t-242 68t-90 188q0 59 27 133h106q-4 -50 -4 -61q0 -111 203 -111z" />
    <glyph glyph-name="tilde.cap" horiz-adv-x="1021" 
d="M346 1874q89 0 191 -82q6 -5 24.5 -19t25.5 -19.5t22.5 -15.5t24.5 -14.5t22 -8t24 -3.5q38 0 58 23.5t20 66.5q0 22 -8 62h108q21 -76 21 -142q0 -99 -53 -162t-148 -63q-91 0 -191 80q-4 3 -18.5 15t-19 15.5t-17.5 13t-19 13t-17 10t-18.5 9t-17 4.5t-18.5 2
q-37 0 -56.5 -23.5t-19.5 -66.5q0 -35 8 -62h-110q-19 92 -19 142q0 99 53 162t148 63z" />
    <glyph glyph-name="macron.cap" horiz-adv-x="1024" 
d="M170 1745h684v-180h-684v180z" />
    <glyph glyph-name="dieresis.cap" horiz-adv-x="1024" 
d="M174 1802h260v-272h-260v272zM590 1802h260v-272h-260v272z" />
    <glyph glyph-name="dotaccent.cap" horiz-adv-x="1021" 
d="M346 1778h330v-248h-330v248z" />
    <glyph glyph-name="ring.cap" horiz-adv-x="1024" 
d="M512 1958q120 0 193 -67.5t73 -168.5t-73 -168t-193 -67q-121 0 -193.5 67t-72.5 168t72.5 168.5t193.5 67.5zM512 1849q-67 0 -106 -35.5t-39 -91.5q0 -55 39.5 -91t105.5 -36t105.5 36t39.5 91t-39.5 91t-105.5 36z" />
    <glyph glyph-name="commaaccent.rot" horiz-adv-x="1024" 
d="M369 1141v237q0 116 75.5 191.5t204.5 97.5v-74q-65 -22 -106.5 -75t-38.5 -127h139v-250h-274z" />
    </font>
</defs>
</svg>
