<?xml version="1.0" standalone="no"?>
<!DOCTYPE svg PUBLIC "-//W3C//DTD SVG 1.1//EN" "http://www.w3.org/Graphics/SVG/1.1/DTD/svg11.dtd" >
<svg xmlns="http://www.w3.org/2000/svg" xmlns:xlink="http://www.w3.org/1999/xlink" version="1.1">
<metadata>
Created by FontForge 20201107 at Wed Jul 30 10:59:07 2025
 By 
Copyright (C) 2017 Hoefler &#38; Co. http://www.typography.com
</metadata>
<defs>
<font id="RingsideNarrow-Med" horiz-adv-x="753" >
  <font-face 
    font-family="Ringside Narrow Med"
    font-weight="350"
    font-stretch="semi-condensed"
    units-per-em="2048"
    panose-1="2 0 6 0 0 0 0 0 0 0"
    ascent="1638"
    descent="-410"
    x-height="971"
    cap-height="1364"
    bbox="-354 -666 2191 2134"
    underline-thickness="0"
    underline-position="0"
    unicode-range="U+0020-FB04"
  />
<missing-glyph horiz-adv-x="1024" 
d="M0 -410v2048h1024v-2048h-1024zM145 1536l367 -799l367 799h-734zM102 -156l353 770l-353 770v-1540zM922 1384l-353 -770l353 -770v1540zM512 492l-367 -799h734z" />
    <glyph glyph-name="f_f" unicode="ff" horiz-adv-x="1300" 
d="M553 1417h104v-151h-73q-90 0 -130 -39t-40 -117v-139h422v147q0 299 331 299h105v-151h-74q-90 0 -130 -39t-40 -117v-139h236v-154h-236v-817h-192v817h-422v-817h-193v817h-160v154h160v147q0 299 332 299z" />
    <glyph glyph-name="f_f_i" unicode="ffi" horiz-adv-x="1792" 
d="M1272 1417v-151h-74q-90 0 -130 -39t-40 -117v-139h236v-154h-236v-817h-192v817h-422v-817h-193v817h-160v154h160v147q0 299 332 299h104v-151h-73q-90 0 -130 -39t-40 -117v-139h422v147q0 299 331 299h105zM1442 1358h211v-197h-211v197zM1450 971h195v-971h-195v971
z" />
    <glyph glyph-name="f_f_l" unicode="ffl" horiz-adv-x="1792" 
d="M657 1417v-151h-73q-90 0 -130 -39t-40 -117v-139h422v147q0 299 331 299h105v-151h-74q-90 0 -130 -39t-40 -117v-139h236v-154h-236v-817h-192v817h-422v-817h-193v817h-160v154h160v147q0 299 332 299h104zM1450 1417h195v-1417h-195v1417z" />
    <glyph glyph-name=".notdef" horiz-adv-x="1024" 
d="M0 -410v2048h1024v-2048h-1024zM145 1536l367 -799l367 799h-734zM102 -156l353 770l-353 770v-1540zM922 1384l-353 -770l353 -770v1540zM512 492l-367 -799h734z" />
    <glyph glyph-name=".null" horiz-adv-x="0" 
 />
    <glyph glyph-name="nonmarkingreturn" horiz-adv-x="682" 
 />
    <glyph glyph-name="space" unicode=" " horiz-adv-x="399" 
 />
    <glyph glyph-name="exclam" unicode="!" horiz-adv-x="503" 
d="M154 1364h196v-426l-67 -537h-62l-67 537v426zM147 240h207v-240h-207v240z" />
    <glyph glyph-name="quotedbl" unicode="&#x22;" horiz-adv-x="843" 
d="M186 1364h211l-184 -606h-127zM571 1364h211l-198 -606h-129z" />
    <glyph glyph-name="numbersign" unicode="#" horiz-adv-x="1480" 
d="M780 0l66 356h-330l-65 -356h-152l63 356h-274v144h301l68 364h-312v144h338l66 356h151l-63 -356h328l65 356h154l-66 -356h275v-144h-301l-68 -364h311v-144h-338l-65 -356h-152zM543 500h329l66 364h-328z" />
    <glyph glyph-name="dollar" unicode="$" horiz-adv-x="1193" 
d="M1073 373q0 -161 -104 -261.5t-281 -121.5v-215h-162v213q-200 18 -302.5 124t-102.5 271v63h196v-45q0 -117 73 -183t216 -66q125 0 196.5 54t71.5 152q0 93 -66 141t-251 109q-220 66 -317 152t-97 239q0 150 103.5 253t281.5 122v213h164v-213q184 -22 275.5 -126.5
t91.5 -260.5v-49h-195v41q0 104 -64 168.5t-204 64.5q-118 0 -186 -55t-68 -143t66.5 -136.5t244.5 -107.5q114 -35 187.5 -68.5t129 -79.5t79.5 -106.5t24 -142.5z" />
    <glyph glyph-name="percent" unicode="%" horiz-adv-x="1644" 
d="M401 1391q139 0 218 -81.5t79 -217.5v-99q0 -136 -79.5 -217.5t-217.5 -81.5q-140 0 -219.5 81.5t-79.5 217.5v99q0 136 79.5 217.5t219.5 81.5zM1440 1376l-1078 -1388h-157l1079 1388h156zM401 1266q-78 0 -117.5 -47t-39.5 -125v-103q0 -78 40 -125t117 -47
t115.5 46.5t38.5 125.5v103q0 77 -39 124.5t-115 47.5zM1245 -27q-139 0 -218 81t-79 218v99q0 136 79 217.5t218 81.5t218 -81.5t79 -217.5v-99q0 -136 -79.5 -217.5t-217.5 -81.5zM1245 98q77 0 116.5 47t39.5 125v103q0 78 -39 125t-117 47t-116.5 -47t-38.5 -125v-103
q0 -78 39 -125t116 -47z" />
    <glyph glyph-name="ampersand" unicode="&#x26;" horiz-adv-x="1409" 
d="M1380 272q0 -147 -51 -225t-166 -78q-139 0 -305 150q-186 -150 -391 -150q-182 0 -287.5 100t-105.5 253q0 135 79.5 235t249.5 184q-96 167 -96 318q0 143 96.5 239.5t258.5 96.5q161 0 251.5 -84.5t90.5 -208.5q0 -122 -83.5 -224.5t-277.5 -193.5q99 -168 231 -324
q123 152 185 396h162q-67 -297 -240 -512q114 -123 186 -123q50 0 72.5 43t22.5 147v54h118v-93zM489 1055q0 -118 86 -252q248 115 248 287q0 62 -39.5 107.5t-119.5 45.5q-89 0 -132 -54.5t-43 -133.5zM262 342q0 -105 62.5 -160t156.5 -55q138 0 269 109
q-139 157 -277 376q-211 -108 -211 -270z" />
    <glyph glyph-name="quotesingle" unicode="'" horiz-adv-x="466" 
d="M193 1364h213l-193 -606h-127z" />
    <glyph glyph-name="parenleft" unicode="(" horiz-adv-x="786" 
d="M686 1604l90 -86q-426 -362 -426 -897t426 -897l-90 -86q-261 199 -392.5 448t-131.5 535t131.5 535t392.5 448z" />
    <glyph glyph-name="parenright" unicode=")" horiz-adv-x="786" 
d="M102 -362l-92 86q426 365 426 897q0 535 -426 897l92 86q261 -197 393 -447t132 -536q0 -284 -132 -534t-393 -449z" />
    <glyph glyph-name="asterisk" unicode="*" horiz-adv-x="876" 
d="M502 631q0 -35 -35 -35h-59q-33 0 -33 35q0 139 37 303q-129 -116 -246 -184q-28 -16 -45 12l-31 53q-17 28 12 45q119 69 281 121q-154 47 -281 119q-29 16 -10 47l29 51q17 28 45 12q123 -71 246 -182q-37 161 -37 303q0 33 33 33h59q17 0 26 -10t9 -23
q0 -139 -37 -303q120 110 244 182q28 16 47 -12l28 -51q16 -31 -12 -47q-122 -70 -280 -119q157 -50 280 -121q29 -17 12 -45l-28 -53q-18 -26 -47 -12q-112 64 -244 184q37 -164 37 -303z" />
    <glyph glyph-name="plus" unicode="+" horiz-adv-x="1122" 
d="M481 1100h162v-340h344v-156h-344v-340h-162v340h-346v156h346v340z" />
    <glyph glyph-name="comma" unicode="," horiz-adv-x="434" 
d="M109 254h217v-184q0 -89 -17 -153.5t-53 -108.5t-84.5 -71.5t-118.5 -47.5v63q92 50 122 101t30 147h-96v254z" />
    <glyph glyph-name="hyphen" unicode="-" horiz-adv-x="774" 
d="M115 698h544v-157h-544v157z" />
    <glyph glyph-name="period" unicode="." horiz-adv-x="434" 
d="M109 254h217v-254h-217v254z" />
    <glyph glyph-name="slash" unicode="/" horiz-adv-x="825" 
d="M606 1559h164l-592 -1878h-164z" />
    <glyph glyph-name="zero" unicode="0" horiz-adv-x="1257" 
d="M629 1395q241 0 375.5 -147.5t134.5 -407.5v-316q0 -260 -134.5 -407.5t-375.5 -147.5t-375.5 147.5t-134.5 407.5v316q0 260 134.5 407.5t375.5 147.5zM629 1221q-151 0 -230.5 -99.5t-79.5 -281.5v-316q0 -182 79.5 -281.5t230.5 -99.5t230 99.5t79 281.5v316
q0 182 -79 281.5t-230 99.5z" />
    <glyph glyph-name="one" unicode="1" horiz-adv-x="743" 
d="M51 1059v141h70q135 0 195.5 38.5t72.5 139.5h143v-1378h-202v1059h-279z" />
    <glyph glyph-name="two" unicode="2" horiz-adv-x="1148" 
d="M606 1393q227 0 339 -105t112 -276q0 -56 -9.5 -100.5t-34.5 -85t-54 -72t-82.5 -69t-105.5 -68t-136 -76.5q-185 -97 -246 -167t-61 -194h719v-180h-938v76q0 156 38 255.5t127.5 180t268.5 180.5q80 44 127.5 73t87.5 59t58.5 57t28 58t9.5 71q0 102 -68.5 155.5
t-187.5 53.5q-129 0 -202.5 -62.5t-73.5 -175.5v-74h-193v80q0 184 124 295t353 111z" />
    <glyph glyph-name="three" unicode="3" horiz-adv-x="1163" 
d="M590 1393q113 0 202 -29.5t143.5 -80t83 -115t28.5 -138.5v-31q0 -108 -72 -191.5t-201 -113.5q137 -28 208 -107t71 -200v-35q0 -164 -121.5 -272.5t-343.5 -108.5q-105 0 -188 20.5t-137.5 55.5t-90.5 84.5t-51 104.5t-15 118v66h193v-55q0 -101 69 -161.5t210 -60.5
q131 0 201.5 59.5t70.5 164.5v32q0 213 -301 213h-125v154h125q152 0 224.5 57t72.5 156v27q0 102 -70.5 158.5t-197.5 56.5q-135 0 -206 -62.5t-71 -159.5v-55h-192v64q0 60 16 115t53 105t91.5 86t136.5 57.5t184 21.5z" />
    <glyph glyph-name="four" unicode="4" horiz-adv-x="1193" 
d="M696 1364h250v-879h193v-168h-193v-317h-190v317h-690v150zM756 485v678l-484 -678h484z" />
    <glyph glyph-name="five" unicode="5" horiz-adv-x="1173" 
d="M680 879q197 0 296 -103t99 -280v-95q0 -194 -123.5 -312t-355.5 -118q-124 0 -217 29.5t-148 83t-81.5 121.5t-26.5 151v27h192v-16q0 -106 73 -165t206 -59q126 0 203 66.5t77 191.5v74q0 115 -60.5 178.5t-186.5 63.5q-97 0 -173 -35t-151 -102l-160 32l54 752h852
q-8 -108 -36 -143t-118 -35h-528l-33 -443q69 62 149.5 99t196.5 37z" />
    <glyph glyph-name="six" unicode="6" horiz-adv-x="1198" 
d="M606 -29q-242 0 -364.5 128t-122.5 364v391q0 255 130.5 397t381.5 142q97 0 175 -22t127.5 -58t83 -84t47 -96t13.5 -99v-53h-192v27q0 99 -67 157t-185 58q-318 0 -318 -353v-184q127 162 359 162q200 0 310 -104t110 -275v-68q0 -191 -128.5 -310.5t-359.5 -119.5z
M606 143q129 0 208 65t79 193v41q0 124 -73 188t-204 64q-128 0 -212.5 -63.5t-84.5 -177.5v-47q0 -128 80.5 -195.5t206.5 -67.5z" />
    <glyph glyph-name="seven" unicode="7" horiz-adv-x="1069" 
d="M518 0h-221q24 310 151 593.5t367 586.5h-745v184h962v-121q-234 -312 -359 -605.5t-155 -637.5z" />
    <glyph glyph-name="eight" unicode="8" horiz-adv-x="1216" 
d="M608 1395q231 0 355 -108t124 -275v-19q0 -106 -58.5 -184t-170.5 -121q250 -87 250 -319v-25q0 -170 -130.5 -272.5t-369.5 -102.5t-369 102.5t-130 272.5v25q0 232 249 319q-112 43 -170.5 121t-58.5 184v19q0 167 124 275t355 108zM608 1229q-129 0 -204.5 -59
t-75.5 -164v-27q0 -104 76.5 -161.5t203.5 -57.5t204 57.5t77 161.5v27q0 105 -76 164t-205 59zM608 135q139 0 219 59.5t80 167.5v25q0 108 -80.5 167.5t-218.5 59.5t-218.5 -59.5t-80.5 -167.5v-25q0 -108 80 -167.5t219 -59.5z" />
    <glyph glyph-name="nine" unicode="9" horiz-adv-x="1198" 
d="M592 1393q241 0 364 -128t123 -364v-391q0 -253 -131 -396t-383 -143q-99 0 -178 22t-129 57.5t-84 82.5t-47.5 94t-13.5 95v49h194v-27q0 -91 67.5 -147t192.5 -56q155 0 235.5 88.5t80.5 262.5v165q-129 -159 -361 -159q-200 0 -309 104t-109 277v82q0 193 128 312.5
t360 119.5zM590 1223q-126 0 -206.5 -65.5t-80.5 -199.5v-51q0 -130 74.5 -194t204.5 -64q126 0 211.5 65t85.5 181v57q0 134 -81.5 202.5t-207.5 68.5z" />
    <glyph glyph-name="colon" unicode=":" horiz-adv-x="458" 
d="M121 956h215v-254h-215v254zM121 254h215v-254h-215v254z" />
    <glyph glyph-name="semicolon" unicode=";" horiz-adv-x="458" 
d="M121 956h215v-254h-215v254zM121 254h215v-184q0 -173 -64.5 -257t-205.5 -124v63q91 50 121 101t30 147h-96v254z" />
    <glyph glyph-name="less" unicode="&#x3c;" horiz-adv-x="1042" 
d="M866 1141v-183l-555 -276l555 -276v-183l-749 385v148z" />
    <glyph glyph-name="equal" unicode="=" horiz-adv-x="1159" 
d="M160 965h841v-158h-841v158zM160 555h841v-156h-841v156z" />
    <glyph glyph-name="greater" unicode="&#x3e;" horiz-adv-x="1042" 
d="M174 223v183l555 276l-555 276v183l752 -385v-148z" />
    <glyph glyph-name="question" unicode="?" horiz-adv-x="1054" 
d="M983 1034q0 -117 -55 -199t-207 -173q-56 -34 -86 -58t-47 -55.5t-21.5 -61.5t-5.5 -86h-168q0 106 17 166.5t63.5 112t147.5 121.5q95 61 127 109.5t32 117.5q0 191 -245 191q-154 0 -217.5 -64.5t-63.5 -183.5v-62h-186v80q0 64 13.5 120.5t47.5 110t86 91.5t135 61
t189 23q122 0 211 -29.5t138.5 -81.5t72 -114t22.5 -136zM375 0v240h205v-240h-205z" />
    <glyph glyph-name="at" unicode="@" horiz-adv-x="1599" 
d="M864 1370q164 0 293.5 -52.5t207 -139.5t117.5 -192.5t40 -219.5q0 -149 -53.5 -274t-147.5 -198t-207 -73q-101 0 -157.5 50.5t-53.5 131.5q-92 -167 -233 -167q-102 0 -159.5 68t-57.5 192q0 78 24.5 162.5t68.5 158t114 121t151 47.5q70 0 118.5 -37.5t63.5 -99.5
l39 123h152l-123 -404q-38 -129 -19.5 -190.5t95.5 -61.5q106 0 191 130t85 319q0 230 -150 370t-401 140q-190 0 -340.5 -96t-234.5 -267t-84 -385q0 -277 161.5 -441.5t446.5 -164.5q138 0 265 45.5t212 112.5l55 -82q-96 -75 -239 -124.5t-295 -49.5q-327 0 -521 192
t-194 510q0 183 58.5 341t160.5 268.5t244.5 173.5t306.5 63zM842 870q-56 0 -103 -40t-75 -99.5t-43 -121.5t-15 -113q0 -72 30.5 -109t84.5 -37q58 0 107.5 55t74.5 144l58 201q0 47 -32.5 83.5t-86.5 36.5z" />
    <glyph glyph-name="A" unicode="A" horiz-adv-x="1288" 
d="M1010 0l-103 317h-536l-103 -317h-207l467 1376h230l467 -1376h-215zM637 1124l-211 -645h426l-211 645h-4z" />
    <glyph glyph-name="B" unicode="B" horiz-adv-x="1236" 
d="M172 1364h535q194 0 296.5 -86t102.5 -240v-55q0 -120 -57.5 -189.5t-169.5 -99.5v-6q243 -62 243 -293v-67q0 -155 -103.5 -241.5t-295.5 -86.5h-551v1364zM375 1198v-434h295q113 0 173 51.5t60 145.5v57q0 86 -57 133t-166 47h-305zM375 612v-446h317q112 0 169 48
t57 136v64q0 95 -62.5 146.5t-183.5 51.5h-297z" />
    <glyph glyph-name="C" unicode="C" horiz-adv-x="1263" 
d="M662 1393q236 0 361.5 -119t125.5 -313v-80h-203v65q0 120 -75.5 196.5t-211.5 76.5q-152 0 -239.5 -102.5t-87.5 -266.5v-336q0 -162 87.5 -265.5t239.5 -103.5q135 0 211 76.5t76 196.5v65h203v-80q0 -192 -128.5 -312t-365.5 -120q-247 0 -389.5 152t-142.5 401v316
q0 249 145.5 401t393.5 152z" />
    <glyph glyph-name="D" unicode="D" horiz-adv-x="1306" 
d="M172 1364h471q263 0 402 -145t139 -394v-293q0 -246 -140.5 -389t-402.5 -143h-469v1364zM379 1190v-1016h252q171 0 257.5 99t86.5 268v282q0 170 -87 268.5t-259 98.5h-250z" />
    <glyph glyph-name="E" unicode="E" horiz-adv-x="1140" 
d="M172 1364h875v-178h-672v-410h528v-170h-528v-428h674v-178h-877v1364z" />
    <glyph glyph-name="F" unicode="F" horiz-adv-x="1079" 
d="M172 1364h854v-178h-651v-438h506v-175h-506v-573h-203v1364z" />
    <glyph glyph-name="G" unicode="G" horiz-adv-x="1304" 
d="M662 1393q237 0 364 -121t127 -316v-45h-205v29q0 124 -72.5 201.5t-213.5 77.5q-157 0 -243.5 -102t-86.5 -271v-330q0 -171 87 -272t234 -101q139 0 223.5 86.5t84.5 225.5v88h-293v153h493v-696h-104l-31 217q-129 -246 -408 -246q-224 0 -359.5 149t-135.5 400v320
q0 248 145.5 400.5t393.5 152.5z" />
    <glyph glyph-name="H" unicode="H" horiz-adv-x="1345" 
d="M172 1364h207v-582h588v582h209v-1364h-209v600h-588v-600h-207v1364z" />
    <glyph glyph-name="I" unicode="I" horiz-adv-x="569" 
d="M180 1364h209v-1364h-209v1364z" />
    <glyph glyph-name="J" unicode="J" horiz-adv-x="1103" 
d="M737 1364h209v-907q0 -236 -111 -361t-331 -125q-212 0 -318 109.5t-106 316.5v125h194v-114q0 -128 56 -193t176 -65q231 0 231 290v924z" />
    <glyph glyph-name="K" unicode="K" horiz-adv-x="1212" 
d="M934 0q-266 443 -375 621l-180 -236v-385h-207v1364h207v-727l543 727h239l-456 -592l466 -772h-237z" />
    <glyph glyph-name="L" unicode="L" horiz-adv-x="1038" 
d="M172 1364h207v-1182h602v-182h-809v1364z" />
    <glyph glyph-name="M" unicode="M" horiz-adv-x="1697" 
d="M172 1364h295l381 -1065h4l377 1065h297v-1364h-197v1122h-4l-401 -1124h-160l-404 1124h-4v-1122h-184v1364z" />
    <glyph glyph-name="N" unicode="N" horiz-adv-x="1353" 
d="M172 1364h203l616 -1004h4l-2 1004h189v-1364h-197l-623 1016h-4v-1016h-186v1364z" />
    <glyph glyph-name="O" unicode="O" horiz-adv-x="1335" 
d="M668 1395q253 0 398.5 -149.5t145.5 -416.5v-294q0 -267 -145.5 -416.5t-398.5 -149.5q-254 0 -399.5 149.5t-145.5 416.5v294q0 267 145.5 416.5t399.5 149.5zM668 1217q-159 0 -247.5 -99t-88.5 -280v-312q0 -181 88.5 -280t247.5 -99t247.5 99t88.5 280v312
q0 181 -88.5 280t-247.5 99z" />
    <glyph glyph-name="P" unicode="P" horiz-adv-x="1167" 
d="M172 1364h496q210 0 319 -99t109 -278v-102q0 -182 -110 -280.5t-320 -98.5h-287v-506h-207v1364zM379 1194v-518h256q133 0 192.5 56t59.5 165v80q0 217 -252 217h-256z" />
    <glyph glyph-name="Q" unicode="Q" horiz-adv-x="1343" 
d="M1298 -20q-67 -29 -131 -29q-112 0 -209 94q-127 -76 -290 -76q-251 0 -398 150.5t-147 410.5v301q0 262 147 413t398 151q253 0 398.5 -150.5t145.5 -413.5v-307q0 -221 -120 -366q35 -31 65.5 -42.5t69.5 -11.5q27 0 71 9v-133zM332 518q0 -172 90.5 -272.5
t245.5 -100.5q103 0 176 43l-176 205l106 92l176 -194q56 94 56 221v334q0 171 -91 272t-247 101q-155 0 -245.5 -101t-90.5 -272v-328z" />
    <glyph glyph-name="R" unicode="R" horiz-adv-x="1234" 
d="M379 543v-543h-207v1364h526q210 0 317 -95t107 -268v-92q0 -129 -72 -220t-202 -126l317 -563h-225l-303 543h-258zM379 1196v-487h276q127 0 193.5 55.5t66.5 153.5v73q0 104 -60.5 154.5t-190.5 50.5h-285z" />
    <glyph glyph-name="S" unicode="S" horiz-adv-x="1193" 
d="M606 1391q123 0 216 -30.5t149 -85.5t84 -126.5t28 -157.5v-51h-204v45q0 104 -67.5 170t-211.5 66q-121 0 -189.5 -56t-68.5 -147q0 -49 15.5 -82.5t58.5 -62.5t96 -50.5t152 -54.5q241 -71 337.5 -157t96.5 -249q0 -183 -132.5 -286t-353.5 -103q-248 0 -373.5 109.5
t-125.5 296.5v65h206v-49q0 -120 74.5 -186t224.5 -66q127 0 199 54t72 153q0 42 -11 73t-31 54.5t-63 46t-92 41t-133 45.5q-115 32 -190.5 65.5t-131 80.5t-80 108.5t-24.5 145.5q0 169 127.5 275t345.5 106z" />
    <glyph glyph-name="T" unicode="T" horiz-adv-x="1148" 
d="M61 1364h1026v-182h-409v-1182h-207v1182h-410v182z" />
    <glyph glyph-name="U" unicode="U" horiz-adv-x="1302" 
d="M156 1364h206v-899q0 -152 77 -232.5t216 -80.5q141 0 217 80t76 233v899h199v-893q0 -240 -128 -370t-368 -130q-243 0 -369 128.5t-126 369.5v895z" />
    <glyph glyph-name="V" unicode="V" horiz-adv-x="1273" 
d="M63 1364h224l352 -1085h4l352 1085h215l-473 -1376h-200z" />
    <glyph glyph-name="W" unicode="W" horiz-adv-x="1841" 
d="M80 1364h217l242 -1077h4l288 1083h189l291 -1083h4l241 1077h207l-350 -1376h-205l-284 1044h-4l-291 -1044h-205z" />
    <glyph glyph-name="X" unicode="X" horiz-adv-x="1232" 
d="M938 0l-332 551l-321 -551h-228l432 692l-417 672h235l320 -526l307 526h227l-418 -670l433 -694h-238z" />
    <glyph glyph-name="Y" unicode="Y" horiz-adv-x="1198" 
d="M43 1364h229l332 -647l330 647h221l-453 -838v-526h-206v526z" />
    <glyph glyph-name="Z" unicode="Z" horiz-adv-x="1146" 
d="M121 1364h940v-117l-696 -1063h682v-184h-961v117l705 1069h-670v178z" />
    <glyph glyph-name="bracketleft" unicode="[" horiz-adv-x="765" 
d="M195 1559h550v-138h-378v-1603h378v-137h-550v1878z" />
    <glyph glyph-name="backslash" unicode="\" horiz-adv-x="825" 
d="M55 1559h164l590 -1878h-162z" />
    <glyph glyph-name="bracketright" unicode="]" horiz-adv-x="765" 
d="M571 -319h-551v137h379v1603h-379v138h551v-1878z" />
    <glyph glyph-name="asciicircum" unicode="^" horiz-adv-x="1161" 
d="M1036 618h-180l-274 549l-277 -549h-182l379 746h160z" />
    <glyph glyph-name="underscore" unicode="_" horiz-adv-x="880" 
d="M-2 -184h885v-135h-885v135z" />
    <glyph glyph-name="grave" unicode="`" horiz-adv-x="1021" 
d="M299 1536h229l207 -385h-129z" />
    <glyph glyph-name="a" unicode="a" horiz-adv-x="1007" 
d="M680 174q-116 -192 -326 -192q-125 0 -194.5 67.5t-69.5 190.5q0 86 36 147t120 102q132 65 426 93v77q0 181 -180 181q-89 0 -138 -43.5t-49 -120.5v-21h-176v23q0 141 93.5 230t273.5 89q183 0 273.5 -90t90.5 -256v-411q0 -71 22.5 -94t86.5 -25v-127h-68
q-103 0 -155 38.5t-66 141.5zM281 256q0 -133 139 -133q100 0 176 72.5t76 166.5v111q-216 -24 -297 -65q-52 -27 -73 -63t-21 -89z" />
    <glyph glyph-name="b" unicode="b" horiz-adv-x="1079" 
d="M143 1417h195v-600q56 85 126.5 131.5t176.5 46.5q156 0 248 -109t92 -286v-227q0 -178 -94.5 -287t-251.5 -109q-111 0 -184 50.5t-129 136.5l-15 -164h-164v1417zM573 842q-96 0 -166.5 -76.5t-70.5 -190.5v-178q0 -114 71 -191t166 -77q100 0 156.5 71t56.5 183v205
q0 113 -56.5 183.5t-156.5 70.5z" />
    <glyph glyph-name="c" unicode="c" horiz-adv-x="966" 
d="M508 133q101 0 151 56.5t50 146.5v6h180v-23q0 -150 -99 -248t-282 -98q-199 0 -307.5 118.5t-108.5 326.5v131q0 207 111.5 327.5t306.5 120.5q184 0 281.5 -96.5t97.5 -251.5v-22h-180v8q0 90 -49 146.5t-150 56.5q-110 0 -167.5 -73t-57.5 -200v-162
q0 -127 56.5 -198.5t166.5 -71.5z" />
    <glyph glyph-name="d" unicode="d" horiz-adv-x="1079" 
d="M741 1417h195v-1417h-164l-14 174q-57 -94 -133 -146.5t-187 -52.5q-157 0 -248.5 109.5t-91.5 288.5v225q0 178 94 286.5t250 108.5q104 0 174 -44.5t125 -121.5v590zM506 842q-101 0 -158 -70.5t-57 -183.5v-205q0 -113 57 -183.5t158 -70.5q96 0 165.5 75.5
t69.5 190.5v178q0 115 -69.5 192t-165.5 77z" />
    <glyph glyph-name="e" unicode="e" horiz-adv-x="991" 
d="M901 293q0 -141 -103 -230.5t-284 -89.5q-209 0 -316.5 116.5t-107.5 318.5v143q0 200 110.5 323t301.5 123q196 0 298.5 -118.5t102.5 -315.5v-123h-627v-55q0 -119 59 -186.5t181 -67.5q102 0 156.5 47t54.5 121v6h174v-12zM276 578v-19h441v25q0 122 -53 190t-162 68
q-108 0 -167 -70.5t-59 -193.5z" />
    <glyph glyph-name="f" unicode="f" horiz-adv-x="686" 
d="M657 1417v-151h-73q-90 0 -130 -39t-40 -117v-139h235v-154h-235v-817h-193v817h-160v154h160v147q0 299 332 299h104z" />
    <glyph glyph-name="g" unicode="g" horiz-adv-x="997" 
d="M967 -80q0 -122 -120 -188t-341 -66q-455 0 -455 209q0 130 207 170v4q-154 51 -154 148q0 92 156 155q-143 82 -143 258v64q0 144 104 229.5t277 85.5q77 0 145 -22q104 20 136 58.5t32 115.5h143q15 -47 15 -78q0 -72 -51 -108t-160 -54q62 -42 91.5 -98t29.5 -139v-56
q0 -145 -101.5 -229t-279.5 -84q-82 0 -146 18q-88 -32 -88 -75q0 -35 65 -54.5t175 -19.5h45q418 0 418 -244zM498 430q93 0 142.5 47t49.5 127v76q0 79 -49.5 126.5t-142.5 47.5t-143 -46.5t-50 -125.5v-78q0 -80 50 -127t143 -47zM508 -217q289 0 289 115q0 54 -67 79
t-210 25h-31q-132 0 -200 -29.5t-68 -81.5q0 -108 287 -108z" />
    <glyph glyph-name="h" unicode="h" horiz-adv-x="1075" 
d="M143 1417h195v-608q60 90 136.5 137t180.5 47q132 0 209.5 -84t77.5 -227v-682h-197v649q0 84 -42.5 132t-122.5 48q-100 0 -171 -74.5t-71 -166.5v-588h-195v1417z" />
    <glyph glyph-name="i" unicode="i" horiz-adv-x="489" 
d="M139 1358h211v-197h-211v197zM147 971h195v-971h-195v971z" />
    <glyph glyph-name="j" unicode="j" horiz-adv-x="495" 
d="M145 1358h211v-197h-211v197zM154 971h194v-985q0 -155 -80 -231.5t-252 -76.5h-49v146h17q97 0 133.5 41t36.5 125v981z" />
    <glyph glyph-name="k" unicode="k" horiz-adv-x="978" 
d="M143 1417h195v-977l364 531h213l-282 -396l305 -575h-213l-227 434l-160 -225v-209h-195v1417z" />
    <glyph glyph-name="l" unicode="l" horiz-adv-x="489" 
d="M147 1417h195v-1417h-195v1417z" />
    <glyph glyph-name="m" unicode="m" horiz-adv-x="1644" 
d="M338 592v-592h-195v971h164l17 -180q63 100 138 151t183 51q99 0 166.5 -48.5t95.5 -137.5q62 90 138 138t184 48q130 0 205 -82.5t75 -224.5v-686h-194v651q0 82 -41 130t-117 48q-98 0 -165.5 -73t-67.5 -164v-592h-195v651q0 82 -41 130t-117 48q-98 0 -165.5 -73
t-67.5 -164z" />
    <glyph glyph-name="n" unicode="n" horiz-adv-x="1075" 
d="M143 971h164l17 -185q63 101 141.5 154t189.5 53q132 0 209.5 -84t77.5 -227v-682h-197v649q0 84 -42.5 132t-122.5 48q-100 0 -171 -74.5t-71 -166.5v-588h-195v971z" />
    <glyph glyph-name="o" unicode="o" horiz-adv-x="1024" 
d="M512 999q194 0 308 -117.5t114 -318.5v-157q0 -199 -115.5 -317t-306.5 -118q-193 0 -307.5 116.5t-114.5 315.5v160q0 200 114.5 318t307.5 118zM512 842q-107 0 -168 -70.5t-61 -183.5v-205q0 -115 62 -184.5t167 -69.5q104 0 165.5 69.5t61.5 184.5v205
q0 113 -61 183.5t-166 70.5z" />
    <glyph glyph-name="p" unicode="p" horiz-adv-x="1079" 
d="M143 971h164l15 -174q58 94 132 146t187 52q157 0 248.5 -109t91.5 -288v-225q0 -178 -94.5 -287t-251.5 -109q-105 0 -174.5 44.5t-122.5 121.5v-462h-195v1290zM573 842q-96 0 -166.5 -76.5t-70.5 -190.5v-178q0 -114 71 -191t166 -77q100 0 156.5 71t56.5 183v205
q0 113 -56.5 183.5t-156.5 70.5z" />
    <glyph glyph-name="q" unicode="q" horiz-adv-x="1077" 
d="M442 993q111 0 184.5 -50.5t129.5 -135.5l14 164h166v-1290h-197v473q-56 -85 -126.5 -132t-176.5 -47q-155 0 -247.5 109.5t-92.5 286.5v227q0 178 94.5 286.5t251.5 108.5zM504 842q-100 0 -156.5 -71t-56.5 -183v-205q0 -113 56.5 -183.5t156.5 -70.5q96 0 166.5 76
t70.5 190v178q0 115 -70.5 192t-166.5 77z" />
    <glyph glyph-name="r" unicode="r" horiz-adv-x="724" 
d="M143 971h164l17 -226q96 240 292 240q40 0 76 -8v-195q-53 11 -86 11q-114 0 -191 -78t-77 -187v-528h-195v971z" />
    <glyph glyph-name="s" unicode="s" horiz-adv-x="929" 
d="M469 -27q-193 0 -290 87t-97 233v37h170v-29q0 -85 55 -133.5t164 -48.5q91 0 141 36.5t50 100.5q0 62 -49.5 94.5t-184.5 67.5q-169 41 -248.5 106t-79.5 187t98.5 204t266.5 82q174 0 268 -82t94 -221v-30h-168v18q0 81 -50 125.5t-146 44.5q-83 0 -132.5 -36.5
t-49.5 -94.5q0 -61 50.5 -93.5t182.5 -66.5q171 -41 250.5 -105.5t79.5 -187.5q0 -132 -99 -213.5t-276 -81.5z" />
    <glyph glyph-name="t" unicode="t" horiz-adv-x="720" 
d="M53 971h156v205l194 53v-258h263v-154h-263v-487q0 -102 35 -140t129 -38h49v-154h-94q-163 0 -238 70t-75 227v522h-156v154z" />
    <glyph glyph-name="u" unicode="u" horiz-adv-x="1075" 
d="M135 971h195v-649q0 -84 43 -132.5t123 -48.5q99 0 170 75.5t71 166.5v588h197v-971h-164l-16 184q-65 -101 -143 -154t-189 -53q-132 0 -209.5 84.5t-77.5 227.5v682z" />
    <glyph glyph-name="v" unicode="v" horiz-adv-x="964" 
d="M39 971h205l241 -752h2l242 752h195l-340 -977h-203z" />
    <glyph glyph-name="w" unicode="w" horiz-adv-x="1449" 
d="M47 971h197l192 -742h4l199 742h178l203 -742h4l188 742h191l-289 -977h-180l-209 723h-4l-207 -723h-180z" />
    <glyph glyph-name="x" unicode="x" horiz-adv-x="935" 
d="M684 0l-225 371l-221 -371h-205l319 494l-311 477h219l215 -359l215 359h205l-311 -482l319 -489h-219z" />
    <glyph glyph-name="y" unicode="y" horiz-adv-x="964" 
d="M47 971h201l246 -758h2l235 758h197l-328 -953q-35 -96 -65 -153t-74.5 -103.5t-105 -66t-146.5 -19.5h-80v150h39q88 0 135 30t70 101l14 43z" />
    <glyph glyph-name="z" unicode="z" horiz-adv-x="901" 
d="M100 971h727v-107l-499 -704h487v-160h-733v106l504 709h-486v156z" />
    <glyph glyph-name="braceleft" unicode="{" horiz-adv-x="841" 
d="M678 1559h131v-134h-70q-165 0 -234 -44.5t-69 -133.5q0 -49 22 -106t49 -100t49 -97.5t22 -99.5q0 -83 -62 -139t-205 -84v-3q143 -28 205 -84t62 -139q0 -45 -22 -99.5t-49 -97.5t-49 -100t-22 -106q0 -88 69.5 -133t233.5 -45h70v-133h-131q-120 0 -206.5 24.5
t-132.5 67.5t-66.5 91.5t-20.5 106.5q0 62 25.5 130t55.5 116.5t55.5 105.5t25.5 99q0 62 -71.5 97.5t-195.5 35.5h-47v129h47q124 0 195.5 36.5t71.5 98.5q0 42 -25.5 98t-55.5 105t-55.5 117t-25.5 131q0 57 20.5 105.5t66.5 91.5t132.5 67.5t206.5 24.5z" />
    <glyph glyph-name="bar" unicode="|" horiz-adv-x="702" 
d="M270 1559h162v-1878h-162v1878z" />
    <glyph glyph-name="braceright" unicode="}" horiz-adv-x="841" 
d="M33 1559h129q97 0 173 -17t123 -44t77.5 -65.5t42.5 -78t12 -84.5q0 -63 -25.5 -131t-55.5 -117t-55.5 -105t-25.5 -98q0 -62 71 -98.5t195 -36.5h47v-129h-47q-124 0 -195 -35.5t-71 -97.5q0 -42 25.5 -99t55.5 -105.5t55.5 -116.5t25.5 -130q0 -58 -20.5 -106.5
t-66.5 -91.5t-133 -67.5t-208 -24.5h-129v133h69q164 0 232.5 45t68.5 133q0 49 -21.5 106t-48 100t-48 97.5t-21.5 99.5q0 83 61.5 139t204.5 84v3q-143 28 -204.5 84t-61.5 139q0 45 21.5 99.5t48 97.5t48 100t21.5 106q0 89 -68 133.5t-233 44.5h-69v134z" />
    <glyph glyph-name="asciitilde" unicode="~" horiz-adv-x="1263" 
d="M391 926q79 0 142.5 -43.5t136.5 -122.5q79 -86 107 -108q49 -40 91 -40q44 0 70.5 36t26.5 102q0 70 -31 172h137q41 -89 41 -205q0 -76 -23 -137t-78.5 -101.5t-136.5 -40.5q-77 0 -139 41.5t-133 116.5q-9 9 -35.5 37.5t-36 38.5t-31.5 30t-35.5 28t-32.5 15t-36 7
q-44 0 -70 -36.5t-26 -103.5q0 -85 33 -170h-139q-41 100 -41 205q0 56 14 105t41.5 88.5t74.5 62.5t109 23z" />
    <glyph glyph-name="asciitilde" unicode="&#x223c;" horiz-adv-x="1263" 
d="M391 926q79 0 142.5 -43.5t136.5 -122.5q79 -86 107 -108q49 -40 91 -40q44 0 70.5 36t26.5 102q0 70 -31 172h137q41 -89 41 -205q0 -76 -23 -137t-78.5 -101.5t-136.5 -40.5q-77 0 -139 41.5t-133 116.5q-9 9 -35.5 37.5t-36 38.5t-31.5 30t-35.5 28t-32.5 15t-36 7
q-44 0 -70 -36.5t-26 -103.5q0 -85 33 -170h-139q-41 100 -41 205q0 56 14 105t41.5 88.5t74.5 62.5t109 23z" />
    <glyph glyph-name="uni00A0" unicode="&#xa0;" horiz-adv-x="399" 
 />
    <glyph glyph-name="exclamdown" unicode="&#xa1;" horiz-adv-x="503" 
d="M354 1124h-204v240h204v-240zM350 0h-196v426l67 537h62l67 -537v-426z" />
    <glyph glyph-name="cent" unicode="&#xa2;" horiz-adv-x="1015" 
d="M915 522q0 -133 -79 -227t-226 -115v-192h-166v192q-161 24 -248 140t-87 298v127q0 181 88 297t247 142v190h166v-188q149 -21 227 -114t78 -230v-21h-186v6q0 85 -50 142t-149 57q-109 0 -167 -72.5t-58 -193.5v-156q0 -120 57 -193t166 -73q100 0 150.5 57t50.5 142v8
h186v-23z" />
    <glyph glyph-name="sterling" unicode="&#xa3;" horiz-adv-x="1388" 
d="M1288 330q0 -185 -75.5 -273t-237.5 -88q-62 0 -119.5 13t-113 41t-90.5 49.5t-91 60.5q-52 -79 -126 -121.5t-159 -42.5q-108 0 -166.5 56.5t-58.5 144.5q0 90 62 151.5t174 61.5q100 0 213 -55q14 46 14 94q0 90 -49 186h-289v127h221q-73 146 -73 277q0 79 29 147.5
t85 121.5t147 83.5t206 30.5q228 0 341 -103t113 -286v-60h-188v39q0 115 -68 174.5t-196 59.5q-119 0 -193 -56.5t-74 -165.5q0 -48 13.5 -100t24.5 -77t40 -85h412v-127h-361q23 -90 23 -159q0 -103 -49 -191q60 -34 81.5 -45.5t69.5 -34t86 -31t78 -8.5q83 0 125.5 44.5
t42.5 160.5v80h176v-94zM174 172q0 -38 28 -65t77 -27q111 0 182 123q-100 63 -180 63q-51 0 -79 -26.5t-28 -67.5z" />
    <glyph glyph-name="yen" unicode="&#xa5;" horiz-adv-x="1218" 
d="M1081 250h-374v-250h-193v250h-379v119h379v166l-6 10h-373v121h309l-372 698h215l329 -651l326 651h205l-371 -698h305v-121h-368l-6 -10v-166h374v-119z" />
    <glyph glyph-name="section" unicode="&#xa7;" horiz-adv-x="1214" 
d="M1071 -33q0 -140 -114.5 -228.5t-346.5 -88.5q-243 0 -362 99t-119 265v39h188v-30q0 -95 73 -151t231 -56q126 0 191 40t65 107q0 66 -62.5 104t-271.5 109q-118 39 -190 71t-126.5 71.5t-77 86.5t-22.5 111q0 186 250 279q-115 55 -164 120.5t-49 161.5q0 140 112 229
t332 89q231 0 347 -100t116 -261v-24h-188v14q0 92 -69 148.5t-216 56.5q-115 0 -178.5 -41t-63.5 -107q0 -67 62 -106.5t258 -108.5q234 -76 326 -146t92 -192q0 -183 -250 -278q122 -55 174.5 -121t52.5 -162zM692 307q3 -1 10.5 -3t10.5 -3q92 27 147 77t55 114
q0 74 -78 121.5t-309 123.5q-8 2 -20 6q-93 -27 -148 -76.5t-55 -113.5q0 -74 78 -122t309 -124z" />
    <glyph glyph-name="dieresis" unicode="&#xa8;" horiz-adv-x="1024" 
d="M246 1366h182v-205h-182v205zM596 1366h182v-205h-182v205z" />
    <glyph glyph-name="copyright" unicode="&#xa9;" horiz-adv-x="1748" 
d="M127 682q0 210 95.5 379t266 265.5t383.5 96.5q214 0 385.5 -96.5t268 -266t96.5 -378.5t-96.5 -378.5t-268 -266t-385.5 -96.5q-213 0 -383.5 96.5t-266 265.5t-95.5 379zM1520 682q0 184 -81.5 332.5t-230 233.5t-336.5 85q-187 0 -334.5 -85t-228 -233.5t-80.5 -332.5
t80.5 -332.5t228 -233.5t334.5 -85q188 0 336.5 85t230 233.5t81.5 332.5zM885 1049q134 0 203 -65t69 -173v-27h-129v17q0 58 -37 93.5t-108 35.5q-81 0 -122.5 -50t-41.5 -135v-127q0 -82 42 -132t122 -50q71 0 108 34.5t37 92.5v19h129v-29q0 -107 -70.5 -172.5
t-203.5 -65.5q-141 0 -220 81.5t-79 221.5v130q0 139 79 220t222 81z" />
    <glyph glyph-name="ordfeminine" unicode="&#xaa;" horiz-adv-x="878" 
d="M588 731q-91 -158 -283 -158q-109 0 -168 53.5t-59 153.5q0 66 28.5 114t98.5 83q105 52 375 80v45q0 68 -36.5 100.5t-117.5 32.5q-76 0 -117 -34.5t-41 -92.5v-14h-155v18q0 116 82.5 190t238.5 74q158 0 236 -73.5t78 -206.5v-320q0 -46 18.5 -62t69.5 -18v-112h-66
q-92 0 -132 30t-50 117zM248 803q0 -47 30.5 -75t88.5 -28q91 0 152 52t61 129v80q-212 -23 -273 -64q-59 -30 -59 -94z" />
    <glyph glyph-name="guillemotleft" unicode="&#xab;" horiz-adv-x="1253" 
d="M506 967h112q-60 -289 -299 -482q239 -193 299 -481h-112q-95 276 -404 424v115q309 148 404 424zM1018 967h110q-56 -285 -297 -482q241 -197 297 -481h-110q-98 277 -406 424v115q308 147 406 424z" />
    <glyph glyph-name="registered" unicode="&#xae;" horiz-adv-x="1060" 
d="M530 1395q189 0 314 -124.5t125 -307.5t-125 -307t-314 -124q-190 0 -314 124t-124 307t124 307.5t314 124.5zM530 1327q-165 0 -264.5 -102.5t-99.5 -261.5q0 -158 99.5 -260.5t264.5 -102.5q163 0 263 102.5t100 260.5q0 159 -99.5 261.5t-263.5 102.5zM455 907v-153
h-90v430h204q152 0 152 -137q0 -100 -84 -129l92 -164h-98l-86 153h-90zM455 1108v-129h94q41 0 60.5 15t19.5 50q0 34 -18 49t-58 15h-98z" />
    <glyph glyph-name="macron" unicode="&#xaf;" horiz-adv-x="1024" 
d="M201 1323h622v-127h-622v127z" />
    <glyph glyph-name="degree" unicode="&#xb0;" horiz-adv-x="886" 
d="M442 1395q163 0 259 -98.5t96 -254.5t-97.5 -254t-259.5 -98q-161 0 -256.5 97.5t-95.5 254.5t95 255t259 98zM440 1260q-93 0 -145.5 -59.5t-52.5 -158.5q0 -100 53 -157.5t145 -57.5q94 0 147.5 57.5t53.5 157.5q0 99 -53.5 158.5t-147.5 59.5z" />
    <glyph glyph-name="plusminus" unicode="&#xb1;" horiz-adv-x="1144" 
d="M494 1245h157v-321h328v-150h-328v-325h-157v325h-330v150h330v321zM164 281h815v-152h-815v152z" />
    <glyph glyph-name="two.sup" unicode="&#xb2;" 
d="M668 612h-594v45q0 137 55 213t217 160q114 59 148 90.5t34 83.5q0 56 -39.5 83.5t-103.5 27.5q-75 0 -119.5 -35t-44.5 -98v-39h-141v47q0 111 80.5 179.5t228.5 68.5q145 0 218 -63.5t73 -166.5q0 -90 -54 -144.5t-208 -137.5q-108 -54 -143.5 -89.5t-36.5 -95.5h430
v-129z" />
    <glyph glyph-name="three.sup" unicode="&#xb3;" 
d="M379 1438q140 0 218.5 -62t78.5 -157v-17q0 -65 -44.5 -113t-123.5 -65q84 -17 128 -64.5t44 -121.5v-15q0 -99 -79.5 -163t-221.5 -64q-157 0 -234 64.5t-77 168.5v41h141v-32q0 -56 41.5 -88.5t122.5 -32.5q70 0 112.5 31t42.5 86v16q0 115 -174 115h-80v108h80
q87 0 129.5 32t42.5 83v16q0 53 -41.5 83t-111.5 30q-79 0 -121.5 -34t-42.5 -87v-35h-139v43q0 100 78.5 167t230.5 67z" />
    <glyph glyph-name="acute" unicode="&#xb4;" horiz-adv-x="1021" 
d="M729 1536l-309 -385h-127l205 385h231z" />
    <glyph glyph-name="paragraph" unicode="&#xb6;" horiz-adv-x="1419" 
d="M1255 1364v-1683h-147v1515h-195v-1515h-147v669h-104q-137 1 -246.5 39t-180.5 104.5t-109 156t-38 194.5v26q0 216 152.5 355t421.5 139h593zM766 1196h-80q-142 0 -209 -78.5t-67 -232.5v-74q0 -152 67 -228.5t209 -76.5h80v690z" />
    <glyph glyph-name="periodcentered" unicode="&#xb7;" horiz-adv-x="434" 
d="M109 811h217v-256h-217v256z" />
    <glyph glyph-name="cedilla" unicode="&#xb8;" horiz-adv-x="1024" 
d="M766 -332q0 -96 -68 -148t-192 -52q-132 0 -252 51l29 75q99 -36 190 -36q143 0 143 108q0 96 -118 96q-39 0 -111 -22l-37 61l168 219h98l-149 -188q50 16 94 16q94 0 149.5 -48.5t55.5 -131.5z" />
    <glyph glyph-name="one.sup" unicode="&#xb9;" horiz-adv-x="600" 
d="M305 1430h111v-818h-158v588h-184v115h73q75 0 111.5 26t46.5 89z" />
    <glyph glyph-name="ordmasculine" unicode="&#xba;" horiz-adv-x="880" 
d="M440 1378q166 0 261.5 -95t95.5 -257v-113q0 -163 -96.5 -257.5t-260.5 -94.5q-165 0 -260.5 94t-95.5 256v113q0 164 95 259t261 95zM440 1231q-86 0 -132 -50t-46 -134v-156q0 -83 46.5 -131.5t131.5 -48.5q83 0 130.5 49t47.5 131v156q0 84 -46.5 134t-131.5 50z" />
    <glyph glyph-name="guillemotright" unicode="&#xbb;" horiz-adv-x="1245" 
d="M737 4h-110q60 287 297 481q-237 194 -297 482h110q98 -277 406 -424v-115q-308 -147 -406 -424zM236 4h-113q60 288 299 481q-239 193 -299 482h113q95 -276 403 -424v-115q-308 -148 -403 -424z" />
    <glyph glyph-name="onequarter" unicode="&#xbc;" horiz-adv-x="1548" 
d="M305 1376h111v-817h-158v588h-184v115h73q75 0 111.5 25.5t46.5 88.5zM1231 1364l-864 -1364h-127l866 1364h125zM1202 809h191v-516h112v-117h-112v-176h-142v176h-430v113zM1251 293v397l-288 -397h288z" />
    <glyph glyph-name="onehalf" unicode="&#xbd;" horiz-adv-x="1646" 
d="M305 1376h111v-817h-158v588h-184v115h73q75 0 111.5 25.5t46.5 88.5zM1231 1364l-864 -1364h-127l866 1364h125zM1561 0h-594v45q0 138 54.5 213.5t217.5 159.5q114 60 148 91t34 83q0 56 -39.5 83t-103.5 27q-76 0 -120 -34.5t-44 -98.5v-39h-141v48q0 111 80 179
t229 68q145 0 218 -63t73 -166q0 -90 -54.5 -145.5t-209.5 -137.5q-107 -54 -142.5 -89t-36.5 -95h431v-129z" />
    <glyph glyph-name="threequarters" unicode="&#xbe;" horiz-adv-x="1720" 
d="M379 1384q140 0 218.5 -62t78.5 -157v-16q0 -65 -44.5 -113t-123.5 -65q84 -17 128 -65t44 -122v-14q0 -99 -79.5 -163t-221.5 -64q-157 0 -234 64.5t-77 168.5v41h141v-33q0 -56 41.5 -88t122.5 -32q70 0 112.5 30.5t42.5 85.5v17q0 114 -174 114h-80v109h80
q87 0 129.5 32t42.5 83v16q0 53 -41.5 83t-111.5 30q-79 0 -121.5 -34t-42.5 -87v-35h-139v43q0 100 78.5 166.5t230.5 66.5zM1403 1364l-866 -1364h-125l864 1364h127zM1374 809h189v-516h112v-117h-112v-176h-142v176h-430v113zM1421 293v397l-288 -397h288z" />
    <glyph glyph-name="questiondown" unicode="&#xbf;" horiz-adv-x="1054" 
d="M680 1364v-240h-205v240h205zM72 330q0 117 55 199t207 173q56 34 86 58t47 55.5t21.5 61.5t5.5 86h170q0 -81 -7.5 -130t-34 -95.5t-69 -84t-119.5 -90.5q-95 -61 -127.5 -109.5t-32.5 -117.5q0 -191 246 -191q154 0 217.5 64.5t63.5 183.5v62h186v-80
q0 -64 -13.5 -120.5t-47.5 -110t-86 -91.5t-134.5 -61t-187.5 -23q-98 0 -175.5 19.5t-127.5 53t-83 80.5t-46.5 98t-13.5 110z" />
    <glyph glyph-name="Agrave" unicode="&#xc0;" horiz-adv-x="1288" 
d="M272 1909h232l207 -338h-136zM1010 0l-103 317h-536l-103 -317h-207l467 1376h230l467 -1376h-215zM637 1124l-211 -645h426l-211 645h-4z" />
    <glyph glyph-name="Aacute" unicode="&#xc1;" horiz-adv-x="1288" 
d="M1016 1909l-305 -338h-133l206 338h232zM1010 0l-103 317h-536l-103 -317h-207l467 1376h230l467 -1376h-215zM637 1124l-211 -645h426l-211 645h-4z" />
    <glyph glyph-name="Acircumflex" unicode="&#xc2;" horiz-adv-x="1288" 
d="M543 1896h202q55 -193 234 -266v-82q-111 19 -199.5 78.5t-134.5 132.5q-48 -73 -137 -132.5t-199 -78.5v82q183 74 234 266zM1010 0l-103 317h-536l-103 -317h-207l467 1376h230l467 -1376h-215zM637 1124l-211 -645h426l-211 645h-4z" />
    <glyph glyph-name="Atilde" unicode="&#xc3;" horiz-adv-x="1288" 
d="M477 1882q60 0 105 -26.5t88 -71.5q6 -6 23.5 -23t24.5 -23.5t22 -18.5t24.5 -17t23.5 -9.5t27 -4.5q37 0 56.5 24.5t19.5 69.5q0 37 -17 90h89q22 -64 22 -129q0 -88 -46.5 -141.5t-127.5 -53.5q-60 0 -104 26t-91 73l-15.5 15.5l-15.5 15.5t-14.5 14t-15.5 14t-14.5 11
t-16.5 10t-16 7t-17.5 5.5t-17.5 1.5q-76 0 -76 -94q0 -35 17 -88h-88q-23 67 -23 127q0 89 46.5 142.5t127.5 53.5zM1010 0l-103 317h-536l-103 -317h-207l467 1376h230l467 -1376h-215zM637 1124l-211 -645h426l-211 645h-4z" />
    <glyph glyph-name="Adieresis" unicode="&#xc4;" horiz-adv-x="1288" 
d="M365 1786h182v-205h-182v205zM741 1786h183v-205h-183v205zM1010 0l-103 317h-536l-103 -317h-207l467 1376h230l467 -1376h-215zM637 1124l-211 -645h426l-211 645h-4z" />
    <glyph glyph-name="Aring" unicode="&#xc5;" horiz-adv-x="1288" 
d="M1010 0l-105 317h-532l-105 -317h-207l449 1321q-47 29 -73.5 76t-26.5 102q0 89 64.5 151t168.5 62q106 0 171 -62t65 -151q0 -55 -26.5 -102t-74.5 -76l447 -1321h-215zM643 1626q-63 0 -101 -36.5t-38 -90.5t38 -90.5t101 -36.5q64 0 102.5 36.5t38.5 90.5t-38.5 90.5
t-102.5 36.5zM639 1126l-213 -647h426z" />
    <glyph glyph-name="AE" unicode="&#xc6;" horiz-adv-x="1847" 
d="M-18 0l778 1364h993v-178h-672v-410h527v-170h-527v-428h674v-178h-878v324h-494l-180 -324h-221zM872 1196l-401 -719h406v719h-5z" />
    <glyph glyph-name="Ccedilla" unicode="&#xc7;" horiz-adv-x="1263" 
d="M887 -332q0 -96 -69 -148t-193 -52q-130 0 -250 51l28 75q99 -36 189 -36q73 0 108 26t35 82q0 96 -117 96q-42 0 -110 -22l-37 61l129 172q-222 17 -349.5 167t-127.5 384v316q0 249 145.5 401t393.5 152q236 0 361.5 -119t125.5 -313v-80h-203v65q0 120 -75.5 196.5
t-211.5 76.5q-152 0 -239.5 -102.5t-87.5 -266.5v-336q0 -162 87.5 -265.5t239.5 -103.5q135 0 211 76.5t76 196.5v65h203v-80q0 -183 -117.5 -301.5t-333.5 -130.5l-110 -139q46 16 92 16q95 0 151 -48.5t56 -131.5z" />
    <glyph glyph-name="Egrave" unicode="&#xc8;" horiz-adv-x="1140" 
d="M281 1898h231l207 -339h-133zM172 1364h875v-178h-672v-410h528v-170h-528v-428h674v-178h-877v1364z" />
    <glyph glyph-name="Eacute" unicode="&#xc9;" horiz-adv-x="1140" 
d="M948 1898l-303 -339h-135l207 339h231zM172 1364h875v-178h-672v-410h528v-170h-528v-428h674v-178h-877v1364z" />
    <glyph glyph-name="Ecircumflex" unicode="&#xca;" horiz-adv-x="1140" 
d="M506 1884h203q56 -195 233 -264v-84q-110 21 -199 80t-135 131q-48 -72 -137 -131.5t-199 -79.5v84q182 71 234 264zM172 1364h875v-178h-672v-410h528v-170h-528v-428h674v-178h-877v1364z" />
    <glyph glyph-name="Edieresis" unicode="&#xcb;" horiz-adv-x="1140" 
d="M330 1776h180v-205h-180v205zM705 1776h182v-205h-182v205zM172 1364h875v-178h-672v-410h528v-170h-528v-428h674v-178h-877v1364z" />
    <glyph glyph-name="Igrave" unicode="&#xcc;" horiz-adv-x="569" 
d="M-86 1898h231l207 -339h-135zM180 1364h209v-1364h-209v1364z" />
    <glyph glyph-name="Iacute" unicode="&#xcd;" horiz-adv-x="569" 
d="M657 1898l-305 -339h-133l205 339h233zM180 1364h209v-1364h-209v1364z" />
    <glyph glyph-name="Icircumflex" unicode="&#xce;" horiz-adv-x="569" 
d="M184 1884h203q52 -193 234 -264v-84q-110 20 -199 79.5t-137 131.5q-46 -72 -135 -131t-199 -80v84q177 69 233 264zM180 1364h209v-1364h-209v1364z" />
    <glyph glyph-name="Idieresis" unicode="&#xcf;" horiz-adv-x="569" 
d="M6 1776h182v-205h-182v205zM383 1776h180v-205h-180v205zM180 1364h209v-1364h-209v1364z" />
    <glyph glyph-name="Eth" unicode="&#xd0;" horiz-adv-x="1310" 
d="M1190 532q0 -247 -139.5 -389.5t-401.5 -142.5h-471v627h-160v121h160v616h471q263 0 402 -145t139 -394v-293zM385 172h250q171 0 258.5 99t87.5 268v286q0 170 -87 268.5t-259 98.5h-250v-444h332v-121h-332v-455z" />
    <glyph glyph-name="Ntilde" unicode="&#xd1;" horiz-adv-x="1353" 
d="M508 1872q60 0 104.5 -26.5t87.5 -73.5q5 -4 20.5 -19.5t21 -20.5t18.5 -16.5t21 -16t20 -11t23 -9t22 -2.5q35 0 54.5 25.5t19.5 69.5q0 30 -15 88h88q23 -62 23 -127q0 -89 -46.5 -143t-127.5 -54q-61 0 -104.5 25.5t-90.5 72.5l-20.5 20.5l-20.5 20.5t-18.5 17.5
t-20.5 16.5t-19.5 11t-22.5 8.5t-23 2.5q-35 0 -54.5 -25.5t-19.5 -69.5q0 -40 16 -90h-90q-20 72 -20 129q0 89 46 143t128 54zM172 1364h203l616 -1004h4l-2 1004h189v-1364h-197l-623 1016h-4v-1016h-186v1364z" />
    <glyph glyph-name="Ograve" unicode="&#xd2;" horiz-adv-x="1335" 
d="M342 1909h231l207 -340h-135zM668 1395q253 0 398.5 -149.5t145.5 -416.5v-294q0 -267 -145.5 -416.5t-398.5 -149.5q-254 0 -399.5 149.5t-145.5 416.5v294q0 267 145.5 416.5t399.5 149.5zM668 1217q-159 0 -247.5 -99t-88.5 -280v-312q0 -181 88.5 -280t247.5 -99
t247.5 99t88.5 280v312q0 181 -88.5 280t-247.5 99z" />
    <glyph glyph-name="Oacute" unicode="&#xd3;" horiz-adv-x="1335" 
d="M1010 1909l-303 -340h-136l207 340h232zM668 1395q253 0 398.5 -149.5t145.5 -416.5v-294q0 -267 -145.5 -416.5t-398.5 -149.5q-254 0 -399.5 149.5t-145.5 416.5v294q0 267 145.5 416.5t399.5 149.5zM668 1217q-159 0 -247.5 -99t-88.5 -280v-312q0 -181 88.5 -280
t247.5 -99t247.5 99t88.5 280v312q0 181 -88.5 280t-247.5 99z" />
    <glyph glyph-name="Ocircumflex" unicode="&#xd4;" horiz-adv-x="1335" 
d="M567 1894h203q55 -194 234 -264v-84q-110 19 -198.5 79t-135.5 132q-49 -73 -137.5 -132.5t-198.5 -78.5v84q178 69 233 264zM668 1395q253 0 398.5 -149.5t145.5 -416.5v-294q0 -267 -145.5 -416.5t-398.5 -149.5q-254 0 -399.5 149.5t-145.5 416.5v294
q0 267 145.5 416.5t399.5 149.5zM668 1217q-159 0 -247.5 -99t-88.5 -280v-312q0 -181 88.5 -280t247.5 -99t247.5 99t88.5 280v312q0 181 -88.5 280t-247.5 99z" />
    <glyph glyph-name="Otilde" unicode="&#xd5;" horiz-adv-x="1335" 
d="M502 1880q60 0 104 -26t88 -72q4 -4 23 -22.5t25 -24t22 -18.5t25.5 -17.5t23.5 -9t27 -4.5q35 0 54 25t19 71q0 34 -14 88h88q23 -67 23 -129q0 -88 -46.5 -141.5t-127.5 -53.5q-60 0 -104 26t-91 73l-27 27t-30 28.5t-25 19t-32 17t-31 4.5q-35 0 -54.5 -25t-19.5 -71
q0 -39 16 -89h-90q-20 73 -20 130q0 88 46 141t128 53zM668 1395q253 0 398.5 -149.5t145.5 -416.5v-294q0 -267 -145.5 -416.5t-398.5 -149.5q-254 0 -399.5 149.5t-145.5 416.5v294q0 267 145.5 416.5t399.5 149.5zM668 1217q-159 0 -247.5 -99t-88.5 -280v-312
q0 -181 88.5 -280t247.5 -99t247.5 99t88.5 280v312q0 181 -88.5 280t-247.5 99z" />
    <glyph glyph-name="Odieresis" unicode="&#xd6;" horiz-adv-x="1335" 
d="M389 1786h182v-207h-182v207zM766 1786h182v-207h-182v207zM668 1395q253 0 398.5 -149.5t145.5 -416.5v-294q0 -267 -145.5 -416.5t-398.5 -149.5q-254 0 -399.5 149.5t-145.5 416.5v294q0 267 145.5 416.5t399.5 149.5zM668 1217q-159 0 -247.5 -99t-88.5 -280v-312
q0 -181 88.5 -280t247.5 -99t247.5 99t88.5 280v312q0 181 -88.5 280t-247.5 99z" />
    <glyph glyph-name="multiply" unicode="&#xd7;" horiz-adv-x="1118" 
d="M844 285l-285 284l-285 -284l-114 110l286 287l-286 287l114 110l285 -284l285 286l114 -110l-286 -289l286 -287z" />
    <glyph glyph-name="Oslash" unicode="&#xd8;" horiz-adv-x="1335" 
d="M668 -31q-201 0 -336 97l-113 -164l-100 65l123 183q-119 150 -119 385v294q0 267 145.5 416.5t399.5 149.5q199 0 336 -95l112 162l98 -65l-120 -183q118 -142 118 -385v-294q0 -267 -145.5 -416.5t-398.5 -149.5zM328 526q0 -115 39 -204l526 823q-86 74 -225 74
q-160 0 -250 -99t-90 -282v-312zM1008 838q0 125 -39 204l-527 -823q86 -74 226 -74q161 0 250.5 99.5t89.5 281.5v312z" />
    <glyph glyph-name="Ugrave" unicode="&#xd9;" horiz-adv-x="1302" 
d="M326 1890h231l207 -340h-135zM156 1364h206v-899q0 -152 77 -232.5t216 -80.5q141 0 217 80t76 233v899h199v-893q0 -240 -128 -370t-368 -130q-243 0 -369 128.5t-126 369.5v895z" />
    <glyph glyph-name="Uacute" unicode="&#xda;" horiz-adv-x="1302" 
d="M993 1890l-303 -340h-135l207 340h231zM156 1364h206v-899q0 -152 77 -232.5t216 -80.5q141 0 217 80t76 233v899h199v-893q0 -240 -128 -370t-368 -130q-243 0 -369 128.5t-126 369.5v895z" />
    <glyph glyph-name="Ucircumflex" unicode="&#xdb;" horiz-adv-x="1302" 
d="M551 1876h203q56 -195 233 -264v-84q-110 21 -199 80t-135 131q-48 -72 -137 -131.5t-199 -79.5v84q178 69 234 264zM156 1364h206v-899q0 -152 77 -232.5t216 -80.5q141 0 217 80t76 233v899h199v-893q0 -240 -128 -370t-368 -130q-243 0 -369 128.5t-126 369.5v895z
" />
    <glyph glyph-name="Udieresis" unicode="&#xdc;" horiz-adv-x="1302" 
d="M373 1767h182v-204h-182v204zM750 1767h182v-204h-182v204zM156 1364h206v-899q0 -152 77 -232.5t216 -80.5q141 0 217 80t76 233v899h199v-893q0 -240 -128 -370t-368 -130q-243 0 -369 128.5t-126 369.5v895z" />
    <glyph glyph-name="Yacute" unicode="&#xdd;" horiz-adv-x="1198" 
d="M948 1890l-305 -340h-133l207 340h231zM43 1364h229l332 -647l330 647h221l-453 -838v-526h-206v526z" />
    <glyph glyph-name="Thorn" unicode="&#xde;" horiz-adv-x="1189" 
d="M172 1364h207v-258h305q215 0 324.5 -98t109.5 -275v-98q0 -180 -110 -277.5t-328 -97.5h-301v-260h-207v1364zM379 942v-518h274q135 0 195.5 55t60.5 168v74q0 110 -62 165.5t-196 55.5h-272z" />
    <glyph glyph-name="germandbls" unicode="&#xdf;" horiz-adv-x="1081" 
d="M547 1427q182 0 281.5 -91t99.5 -249v-38q0 -217 -197 -275v-4q130 -33 194 -121.5t64 -216.5v-86q0 -169 -93 -262.5t-271 -93.5q-85 0 -162 18v127q44 -10 98 -10q223 0 223 225v86q0 244 -286 252v125q129 6 186 59t57 162v43q0 96 -49 149.5t-145 53.5
q-102 0 -156.5 -63.5t-54.5 -186.5v-1030h-193v1012q0 200 105 307.5t299 107.5z" />
    <glyph glyph-name="agrave" unicode="&#xe0;" horiz-adv-x="1007" 
d="M188 1542h232l205 -385h-127zM680 174q-116 -192 -326 -192q-125 0 -194.5 67.5t-69.5 190.5q0 86 36 147t120 102q132 65 426 93v77q0 181 -180 181q-89 0 -138 -43.5t-49 -120.5v-21h-176v23q0 141 93.5 230t273.5 89q183 0 273.5 -90t90.5 -256v-411q0 -71 22.5 -94
t86.5 -25v-127h-68q-103 0 -155 38.5t-66 141.5zM281 256q0 -133 139 -133q100 0 176 72.5t76 166.5v111q-216 -24 -297 -65q-52 -27 -73 -63t-21 -89z" />
    <glyph glyph-name="aacute" unicode="&#xe1;" horiz-adv-x="1007" 
d="M827 1542l-309 -385h-127l205 385h231zM680 174q-116 -192 -326 -192q-125 0 -194.5 67.5t-69.5 190.5q0 86 36 147t120 102q132 65 426 93v77q0 181 -180 181q-89 0 -138 -43.5t-49 -120.5v-21h-176v23q0 141 93.5 230t273.5 89q183 0 273.5 -90t90.5 -256v-411
q0 -71 22.5 -94t86.5 -25v-127h-68q-103 0 -155 38.5t-66 141.5zM281 256q0 -133 139 -133q100 0 176 72.5t76 166.5v111q-216 -24 -297 -65q-52 -27 -73 -63t-21 -89z" />
    <glyph glyph-name="acircumflex" unicode="&#xe2;" horiz-adv-x="1007" 
d="M412 1530h174q31 -125 85 -201t142 -112v-82q-103 17 -187.5 83t-127.5 160q-43 -93 -127.5 -159.5t-186.5 -83.5v82q86 36 140.5 112t87.5 201zM680 174q-116 -192 -326 -192q-125 0 -194.5 67.5t-69.5 190.5q0 86 36 147t120 102q132 65 426 93v77q0 181 -180 181
q-89 0 -138 -43.5t-49 -120.5v-21h-176v23q0 141 93.5 230t273.5 89q183 0 273.5 -90t90.5 -256v-411q0 -71 22.5 -94t86.5 -25v-127h-68q-103 0 -155 38.5t-66 141.5zM281 256q0 -133 139 -133q100 0 176 72.5t76 166.5v111q-216 -24 -297 -65q-52 -27 -73 -63t-21 -89z
" />
    <glyph glyph-name="atilde" unicode="&#xe3;" horiz-adv-x="1007" 
d="M344 1487q27 0 53 -9t42 -17.5t39.5 -31t31 -31t31.5 -36.5q23 -28 37 -42.5t35 -27t42 -12.5q32 0 53 23t21 71t-12 101h88q22 -77 22 -138q0 -93 -48.5 -147.5t-125.5 -54.5q-55 0 -94.5 27t-83.5 77q-5 5 -18.5 21t-19 22t-17.5 18t-19.5 17l-18 12t-21 9.5t-21.5 2.5
q-31 0 -51.5 -23t-20.5 -71q0 -43 13 -100h-91q-20 87 -20 137q0 94 48 148.5t126 54.5zM680 174q-116 -192 -326 -192q-125 0 -194.5 67.5t-69.5 190.5q0 86 36 147t120 102q132 65 426 93v77q0 181 -180 181q-89 0 -138 -43.5t-49 -120.5v-21h-176v23q0 141 93.5 230
t273.5 89q183 0 273.5 -90t90.5 -256v-411q0 -71 22.5 -94t86.5 -25v-127h-68q-103 0 -155 38.5t-66 141.5zM281 256q0 -133 139 -133q100 0 176 72.5t76 166.5v111q-216 -24 -297 -65q-52 -27 -73 -63t-21 -89z" />
    <glyph glyph-name="adieresis" unicode="&#xe4;" horiz-adv-x="1007" 
d="M231 1374h183v-207h-183v207zM582 1374h182v-207h-182v207zM680 174q-116 -192 -326 -192q-125 0 -194.5 67.5t-69.5 190.5q0 86 36 147t120 102q132 65 426 93v77q0 181 -180 181q-89 0 -138 -43.5t-49 -120.5v-21h-176v23q0 141 93.5 230t273.5 89q183 0 273.5 -90
t90.5 -256v-411q0 -71 22.5 -94t86.5 -25v-127h-68q-103 0 -155 38.5t-66 141.5zM281 256q0 -133 139 -133q100 0 176 72.5t76 166.5v111q-216 -24 -297 -65q-52 -27 -73 -63t-21 -89z" />
    <glyph glyph-name="aring" unicode="&#xe5;" horiz-adv-x="1007" 
d="M498 1548q104 0 168.5 -61.5t64.5 -151.5q0 -89 -65 -150t-168 -61t-167.5 61t-64.5 150q0 90 64.5 151.5t167.5 61.5zM498 1462q-62 0 -100 -36.5t-38 -90.5t38 -90.5t100 -36.5q63 0 100 36.5t37 90.5t-37 90.5t-100 36.5zM680 174q-116 -192 -326 -192
q-125 0 -194.5 67.5t-69.5 190.5q0 86 36 147t120 102q132 65 426 93v77q0 181 -180 181q-89 0 -138 -43.5t-49 -120.5v-21h-176v23q0 141 93.5 230t273.5 89q183 0 273.5 -90t90.5 -256v-411q0 -71 22.5 -94t86.5 -25v-127h-68q-103 0 -155 38.5t-66 141.5zM281 256
q0 -133 139 -133q100 0 176 72.5t76 166.5v111q-216 -24 -297 -65q-52 -27 -73 -63t-21 -89z" />
    <glyph glyph-name="ae" unicode="&#xe6;" horiz-adv-x="1579" 
d="M1491 297q0 -142 -104 -233t-285 -91q-280 0 -369 213q-113 -211 -360 -211q-138 0 -210.5 67.5t-72.5 190.5q0 88 35 149t119 103q133 67 430 95v79q0 91 -43.5 135t-138.5 44q-89 0 -138 -43.5t-49 -120.5v-21h-176v25q0 140 92 228.5t268 88.5q227 0 299 -153
q52 76 132 115.5t178 39.5q194 0 294.5 -119t100.5 -315v-123h-629v-55q0 -119 59 -186.5t181 -67.5q100 0 155.5 48.5t55.5 121.5v6h176v-10zM864 580v-21h443l-2 25q0 122 -53 190t-162 68q-108 0 -167 -69.5t-59 -192.5zM279 252q0 -64 36 -100.5t109 -36.5
q105 0 177.5 71.5t72.5 175.5v107q-213 -20 -297 -63q-55 -28 -76.5 -64t-21.5 -90z" />
    <glyph glyph-name="ccedilla" unicode="&#xe7;" horiz-adv-x="966" 
d="M739 -332q0 -96 -69 -148t-193 -52q-130 0 -250 51l29 75q99 -36 188 -36q74 0 109 26.5t35 81.5q0 96 -119 96q-41 0 -109 -22l-38 61l133 174q-175 15 -269 132t-94 311v131q0 207 111.5 327.5t306.5 120.5q184 0 281.5 -96.5t97.5 -251.5v-22h-180v8q0 90 -49 146.5
t-150 56.5q-110 0 -167.5 -73t-57.5 -200v-162q0 -127 56.5 -198.5t166.5 -71.5q101 0 151 56.5t50 146.5v6h180v-23q0 -140 -87.5 -236.5t-248.5 -109.5l-113 -141q46 16 92 16q94 0 150.5 -48.5t56.5 -131.5z" />
    <glyph glyph-name="egrave" unicode="&#xe8;" horiz-adv-x="991" 
d="M195 1542h231l207 -385h-129zM901 293q0 -141 -103 -230.5t-284 -89.5q-209 0 -316.5 116.5t-107.5 318.5v143q0 200 110.5 323t301.5 123q196 0 298.5 -118.5t102.5 -315.5v-123h-627v-55q0 -119 59 -186.5t181 -67.5q102 0 156.5 47t54.5 121v6h174v-12zM276 578v-19
h441v25q0 122 -53 190t-162 68q-108 0 -167 -70.5t-59 -193.5z" />
    <glyph glyph-name="eacute" unicode="&#xe9;" horiz-adv-x="991" 
d="M834 1542l-310 -385h-127l207 385h230zM901 293q0 -141 -103 -230.5t-284 -89.5q-209 0 -316.5 116.5t-107.5 318.5v143q0 200 110.5 323t301.5 123q196 0 298.5 -118.5t102.5 -315.5v-123h-627v-55q0 -119 59 -186.5t181 -67.5q102 0 156.5 47t54.5 121v6h174v-12z
M276 578v-19h441v25q0 122 -53 190t-162 68q-108 0 -167 -70.5t-59 -193.5z" />
    <glyph glyph-name="ecircumflex" unicode="&#xea;" horiz-adv-x="991" 
d="M418 1530h174q33 -126 86.5 -201.5t140.5 -111.5v-82q-103 17 -187.5 83t-127.5 160q-44 -94 -127.5 -160t-186.5 -83v82q86 36 140.5 112t87.5 201zM901 293q0 -141 -103 -230.5t-284 -89.5q-209 0 -316.5 116.5t-107.5 318.5v143q0 200 110.5 323t301.5 123
q196 0 298.5 -118.5t102.5 -315.5v-123h-627v-55q0 -119 59 -186.5t181 -67.5q102 0 156.5 47t54.5 121v6h174v-12zM276 578v-19h441v25q0 122 -53 190t-162 68q-108 0 -167 -70.5t-59 -193.5z" />
    <glyph glyph-name="edieresis" unicode="&#xeb;" horiz-adv-x="991" 
d="M238 1374h182v-207h-182v207zM590 1374h180v-207h-180v207zM901 293q0 -141 -103 -230.5t-284 -89.5q-209 0 -316.5 116.5t-107.5 318.5v143q0 200 110.5 323t301.5 123q196 0 298.5 -118.5t102.5 -315.5v-123h-627v-55q0 -119 59 -186.5t181 -67.5q102 0 156.5 47
t54.5 121v6h174v-12zM276 578v-19h441v25q0 122 -53 190t-162 68q-108 0 -167 -70.5t-59 -193.5z" />
    <glyph glyph-name="igrave" unicode="&#xec;" horiz-adv-x="489" 
d="M-127 1536h229l207 -385h-129zM147 971h195v-971h-195v971z" />
    <glyph glyph-name="iacute" unicode="&#xed;" horiz-adv-x="489" 
d="M618 1536l-309 -385h-127l205 385h231zM147 971h195v-971h-195v971z" />
    <glyph glyph-name="icircumflex" unicode="&#xee;" horiz-adv-x="489" 
d="M158 1522h174q33 -125 86.5 -200.5t140.5 -111.5v-84q-103 17 -187.5 84t-127.5 162q-43 -95 -127 -162t-187 -84v84q87 36 141 111.5t87 200.5zM147 971h195v-971h-195v971z" />
    <glyph glyph-name="idieresis" unicode="&#xef;" horiz-adv-x="489" 
d="M-23 1366h183v-205h-183v205zM330 1366h180v-205h-180v205zM147 971h195v-971h-195v971z" />
    <glyph glyph-name="eth" unicode="&#xf0;" horiz-adv-x="1021" 
d="M928 424q0 -210 -111 -331.5t-311 -121.5q-192 0 -303 110.5t-111 311.5v168q0 200 100 310t269 110q180 0 284 -150q-37 185 -155 340l-228 -90l-34 86l198 78q-85 94 -194 162v10h207q70 -47 135 -112l225 88l33 -86l-195 -76q191 -240 191 -572v-235zM510 844
q-105 0 -165 -66.5t-60 -183.5v-219q0 -116 60 -182t165 -66q103 0 164 66t61 180v223q0 113 -61 180.5t-164 67.5z" />
    <glyph glyph-name="ntilde" unicode="&#xf1;" horiz-adv-x="1075" 
d="M379 1501q44 0 84.5 -21.5t60.5 -42t54 -59.5q23 -28 37 -42.5t35 -27t42 -12.5q31 0 51.5 23t20.5 72q0 47 -12 100h90q20 -93 20 -137q0 -94 -48 -148.5t-126 -54.5q-55 0 -94.5 27t-83.5 77q-3 3 -12.5 15t-13 15.5t-12.5 14t-13 14t-12.5 11.5t-13.5 11.5t-13 8.5
t-14 7.5t-13.5 4t-15.5 1.5q-32 0 -53 -23t-21 -71q0 -52 12 -101h-88q-22 77 -22 137q0 92 49 146.5t125 54.5zM143 971h164l17 -185q63 101 141.5 154t189.5 53q132 0 209.5 -84t77.5 -227v-682h-197v649q0 84 -42.5 132t-122.5 48q-100 0 -171 -74.5t-71 -166.5v-588
h-195v971z" />
    <glyph glyph-name="ograve" unicode="&#xf2;" horiz-adv-x="1024" 
d="M203 1544h231l205 -385h-127zM512 999q194 0 308 -117.5t114 -318.5v-157q0 -199 -115.5 -317t-306.5 -118q-193 0 -307.5 116.5t-114.5 315.5v160q0 200 114.5 318t307.5 118zM512 842q-107 0 -168 -70.5t-61 -183.5v-205q0 -115 62 -184.5t167 -69.5q104 0 165.5 69.5
t61.5 184.5v205q0 113 -61 183.5t-166 70.5z" />
    <glyph glyph-name="oacute" unicode="&#xf3;" horiz-adv-x="1024" 
d="M842 1544l-310 -385h-126l204 385h232zM512 999q194 0 308 -117.5t114 -318.5v-157q0 -199 -115.5 -317t-306.5 -118q-193 0 -307.5 116.5t-114.5 315.5v160q0 200 114.5 318t307.5 118zM512 842q-107 0 -168 -70.5t-61 -183.5v-205q0 -115 62 -184.5t167 -69.5
q104 0 165.5 69.5t61.5 184.5v205q0 113 -61 183.5t-166 70.5z" />
    <glyph glyph-name="ocircumflex" unicode="&#xf4;" horiz-adv-x="1024" 
d="M426 1530h172q33 -124 87 -199.5t140 -111.5v-84q-101 17 -185 84t-128 161q-44 -94 -128 -161t-185 -84v84q86 36 140 111.5t87 199.5zM512 999q194 0 308 -117.5t114 -318.5v-157q0 -199 -115.5 -317t-306.5 -118q-193 0 -307.5 116.5t-114.5 315.5v160
q0 200 114.5 318t307.5 118zM512 842q-107 0 -168 -70.5t-61 -183.5v-205q0 -115 62 -184.5t167 -69.5q104 0 165.5 69.5t61.5 184.5v205q0 113 -61 183.5t-166 70.5z" />
    <glyph glyph-name="otilde" unicode="&#xf5;" horiz-adv-x="1024" 
d="M358 1487q33 0 61.5 -9.5t55.5 -32t40 -36.5t40 -45q34 -41 59.5 -61.5t55.5 -20.5q32 0 52.5 22.5t20.5 71.5q0 48 -12 101h88q23 -85 23 -138q0 -94 -49 -148t-127 -54q-38 0 -73 17t-55 35.5t-49 51.5q-5 5 -18.5 21t-19 22t-17.5 18t-19.5 17l-18 12t-21 9.5
t-21.5 2.5q-31 0 -52 -23t-21 -71q0 -30 12 -100h-88q-21 73 -21 137q0 92 48 146.5t126 54.5zM512 999q194 0 308 -117.5t114 -318.5v-157q0 -199 -115.5 -317t-306.5 -118q-193 0 -307.5 116.5t-114.5 315.5v160q0 200 114.5 318t307.5 118zM512 842q-107 0 -168 -70.5
t-61 -183.5v-205q0 -115 62 -184.5t167 -69.5q104 0 165.5 69.5t61.5 184.5v205q0 113 -61 183.5t-166 70.5z" />
    <glyph glyph-name="odieresis" unicode="&#xf6;" horiz-adv-x="1024" 
d="M246 1374h182v-205h-182v205zM596 1374h182v-205h-182v205zM512 999q194 0 308 -117.5t114 -318.5v-157q0 -199 -115.5 -317t-306.5 -118q-193 0 -307.5 116.5t-114.5 315.5v160q0 200 114.5 318t307.5 118zM512 842q-107 0 -168 -70.5t-61 -183.5v-205q0 -115 62 -184.5
t167 -69.5q104 0 165.5 69.5t61.5 184.5v205q0 113 -61 183.5t-166 70.5z" />
    <glyph glyph-name="divide" unicode="&#xf7;" horiz-adv-x="1144" 
d="M471 1114h203v-184h-203v184zM135 760h877v-154h-877v154zM471 436h203v-186h-203v186z" />
    <glyph glyph-name="oslash" unicode="&#xf8;" horiz-adv-x="1024" 
d="M512 -29q-153 0 -256 74l-100 -133l-84 59l106 146q-88 114 -88 286v160q0 200 114.5 318t307.5 118q155 0 256 -73l98 133l84 -60l-106 -145q90 -117 90 -291v-157q0 -199 -115.5 -317t-306.5 -118zM274 383q0 -63 23 -121l371 531q-61 55 -156 55q-111 0 -174.5 -71.5
t-63.5 -188.5v-205zM748 588q0 62 -23 123l-369 -531q58 -55 156 -55q107 0 171.5 70.5t64.5 187.5v205z" />
    <glyph glyph-name="ugrave" unicode="&#xf9;" horiz-adv-x="1075" 
d="M225 1528h232l205 -385h-127zM135 971h195v-649q0 -84 43 -132.5t123 -48.5q99 0 170 75.5t71 166.5v588h197v-971h-164l-16 184q-65 -101 -143 -154t-189 -53q-132 0 -209.5 84.5t-77.5 227.5v682z" />
    <glyph glyph-name="uacute" unicode="&#xfa;" horiz-adv-x="1075" 
d="M864 1528l-309 -385h-127l205 385h231zM135 971h195v-649q0 -84 43 -132.5t123 -48.5q99 0 170 75.5t71 166.5v588h197v-971h-164l-16 184q-65 -101 -143 -154t-189 -53q-132 0 -209.5 84.5t-77.5 227.5v682z" />
    <glyph glyph-name="ucircumflex" unicode="&#xfb;" horiz-adv-x="1075" 
d="M446 1513h175q33 -124 87 -199.5t140 -111.5v-84q-103 17 -186 84t-127 162q-43 -95 -128 -162t-188 -84v84q88 36 142 111.5t85 199.5zM135 971h195v-649q0 -84 43 -132.5t123 -48.5q99 0 170 75.5t71 166.5v588h197v-971h-164l-16 184q-65 -101 -143 -154t-189 -53
q-132 0 -209.5 84.5t-77.5 227.5v682z" />
    <glyph glyph-name="udieresis" unicode="&#xfc;" horiz-adv-x="1075" 
d="M268 1358h181v-205h-181v205zM618 1358h183v-205h-183v205zM135 971h195v-649q0 -84 43 -132.5t123 -48.5q99 0 170 75.5t71 166.5v588h197v-971h-164l-16 184q-65 -101 -143 -154t-189 -53q-132 0 -209.5 84.5t-77.5 227.5v682z" />
    <glyph glyph-name="yacute" unicode="&#xfd;" horiz-adv-x="964" 
d="M821 1528l-309 -385h-127l205 385h231zM47 971h201l246 -758h2l235 758h197l-328 -953q-35 -96 -65 -153t-74.5 -103.5t-105 -66t-146.5 -19.5h-80v150h39q88 0 135 30t70 101l14 43z" />
    <glyph glyph-name="thorn" unicode="&#xfe;" horiz-adv-x="1079" 
d="M143 1417h191v-602q58 86 129 133t176 47q157 0 249.5 -109t92.5 -288v-225q0 -178 -94.5 -287t-251.5 -109q-104 0 -172.5 44t-124.5 122v-462h-195v1736zM573 842q-96 0 -166.5 -76.5t-70.5 -190.5v-178q0 -114 71 -191t166 -77q100 0 156.5 71t56.5 183v205
q0 113 -56.5 183.5t-156.5 70.5z" />
    <glyph glyph-name="ydieresis" unicode="&#xff;" horiz-adv-x="964" 
d="M225 1358h181v-205h-181v205zM575 1358h183v-205h-183v205zM47 971h201l246 -758h2l235 758h197l-328 -953q-35 -96 -65 -153t-74.5 -103.5t-105 -66t-146.5 -19.5h-80v150h39q88 0 135 30t70 101l14 43z" />
    <glyph glyph-name="Amacron" unicode="&#x100;" horiz-adv-x="1288" 
d="M326 1743h637v-127h-637v127zM1010 0l-103 317h-536l-103 -317h-207l467 1376h230l467 -1376h-215zM637 1124l-211 -645h426l-211 645h-4z" />
    <glyph glyph-name="amacron" unicode="&#x101;" horiz-adv-x="1007" 
d="M186 1331h623v-129h-623v129zM680 174q-116 -192 -326 -192q-125 0 -194.5 67.5t-69.5 190.5q0 86 36 147t120 102q132 65 426 93v77q0 181 -180 181q-89 0 -138 -43.5t-49 -120.5v-21h-176v23q0 141 93.5 230t273.5 89q183 0 273.5 -90t90.5 -256v-411q0 -71 22.5 -94
t86.5 -25v-127h-68q-103 0 -155 38.5t-66 141.5zM281 256q0 -133 139 -133q100 0 176 72.5t76 166.5v111q-216 -24 -297 -65q-52 -27 -73 -63t-21 -89z" />
    <glyph glyph-name="Abreve" unicode="&#x102;" horiz-adv-x="1288" 
d="M643 1704q207 0 207 121q0 37 -10 86h82q26 -69 26 -133q0 -106 -84 -165t-221 -59q-136 0 -219.5 59t-83.5 165q0 62 27 133h82q-11 -54 -11 -86q0 -121 205 -121zM1010 0l-103 317h-536l-103 -317h-207l467 1376h230l467 -1376h-215zM637 1124l-211 -645h426l-211 645
h-4z" />
    <glyph glyph-name="abreve" unicode="&#x103;" horiz-adv-x="1007" 
d="M498 1294q96 0 141 35.5t45 108.5q0 41 -8 98h84q22 -79 22 -147q0 -120 -76.5 -184t-207.5 -64q-130 0 -207.5 64t-77.5 184q0 65 23 147h83q-8 -57 -8 -98q0 -73 45.5 -108.5t141.5 -35.5zM680 174q-116 -192 -326 -192q-125 0 -194.5 67.5t-69.5 190.5q0 86 36 147
t120 102q132 65 426 93v77q0 181 -180 181q-89 0 -138 -43.5t-49 -120.5v-21h-176v23q0 141 93.5 230t273.5 89q183 0 273.5 -90t90.5 -256v-411q0 -71 22.5 -94t86.5 -25v-127h-68q-103 0 -155 38.5t-66 141.5zM281 256q0 -133 139 -133q100 0 176 72.5t76 166.5v111
q-216 -24 -297 -65q-52 -27 -73 -63t-21 -89z" />
    <glyph glyph-name="Aogonek" unicode="&#x104;" horiz-adv-x="1288" 
d="M1317 -473q-83 -59 -195 -59q-102 0 -162.5 50.5t-60.5 135.5q0 59 29 113q22 44 66.5 96.5t133.5 136.5h-118l-103 317h-536l-103 -317h-207l467 1376h230l467 -1376q-116 -145 -144 -199q-28 -60 -28 -116t30.5 -84.5t85.5 -28.5q57 0 111 29zM637 1124l-211 -645h426
l-211 645h-4z" />
    <glyph glyph-name="aogonek" unicode="&#x105;" horiz-adv-x="1007" 
d="M1061 -473q-83 -59 -195 -59q-102 0 -162.5 50.5t-60.5 135.5q0 59 29 113q39 79 194 229q-85 5 -129 44t-57 134q-116 -192 -326 -192q-125 0 -194.5 67.5t-69.5 190.5q0 86 36 147t120 102q132 65 426 93v77q0 181 -180 181q-89 0 -138 -43.5t-49 -120.5v-21h-176v23
q0 141 93.5 230t273.5 89q183 0 273.5 -90t90.5 -256v-411q0 -71 22.5 -94t86.5 -25v-127q-112 -131 -144 -193q-28 -60 -28 -116t30.5 -84.5t85.5 -28.5q57 0 111 29zM281 256q0 -133 139 -133q100 0 176 72.5t76 166.5v111q-216 -24 -297 -65q-52 -27 -73 -63t-21 -89z
" />
    <glyph glyph-name="Cacute" unicode="&#x106;" horiz-adv-x="1263" 
d="M989 1907l-303 -338h-135l207 338h231zM662 1393q236 0 361.5 -119t125.5 -313v-80h-203v65q0 120 -75.5 196.5t-211.5 76.5q-152 0 -239.5 -102.5t-87.5 -266.5v-336q0 -162 87.5 -265.5t239.5 -103.5q135 0 211 76.5t76 196.5v65h203v-80q0 -192 -128.5 -312
t-365.5 -120q-247 0 -389.5 152t-142.5 401v316q0 249 145.5 401t393.5 152z" />
    <glyph glyph-name="cacute" unicode="&#x107;" horiz-adv-x="966" 
d="M829 1542l-309 -385h-127l205 385h231zM508 133q101 0 151 56.5t50 146.5v6h180v-23q0 -150 -99 -248t-282 -98q-199 0 -307.5 118.5t-108.5 326.5v131q0 207 111.5 327.5t306.5 120.5q184 0 281.5 -96.5t97.5 -251.5v-22h-180v8q0 90 -49 146.5t-150 56.5
q-110 0 -167.5 -73t-57.5 -200v-162q0 -127 56.5 -198.5t166.5 -71.5z" />
    <glyph glyph-name="Cdotaccent" unicode="&#x10a;" horiz-adv-x="1263" 
d="M543 1774h211v-195h-211v195zM662 1393q236 0 361.5 -119t125.5 -313v-80h-203v65q0 120 -75.5 196.5t-211.5 76.5q-152 0 -239.5 -102.5t-87.5 -266.5v-336q0 -162 87.5 -265.5t239.5 -103.5q135 0 211 76.5t76 196.5v65h203v-80q0 -192 -128.5 -312t-365.5 -120
q-247 0 -389.5 152t-142.5 401v316q0 249 145.5 401t393.5 152z" />
    <glyph glyph-name="cdotaccent" unicode="&#x10b;" horiz-adv-x="966" 
d="M393 1362h213v-195h-213v195zM508 133q101 0 151 56.5t50 146.5v6h180v-23q0 -150 -99 -248t-282 -98q-199 0 -307.5 118.5t-108.5 326.5v131q0 207 111.5 327.5t306.5 120.5q184 0 281.5 -96.5t97.5 -251.5v-22h-180v8q0 90 -49 146.5t-150 56.5q-110 0 -167.5 -73
t-57.5 -200v-162q0 -127 56.5 -198.5t166.5 -71.5z" />
    <glyph glyph-name="Ccaron" unicode="&#x10c;" horiz-adv-x="1263" 
d="M313 1923q111 -21 199.5 -80.5t134.5 -132.5q48 73 137 132.5t199 80.5v-84q-181 -71 -233 -266h-203q-55 196 -234 266v84zM662 1393q236 0 361.5 -119t125.5 -313v-80h-203v65q0 120 -75.5 196.5t-211.5 76.5q-152 0 -239.5 -102.5t-87.5 -266.5v-336
q0 -162 87.5 -265.5t239.5 -103.5q135 0 211 76.5t76 196.5v65h203v-80q0 -192 -128.5 -312t-365.5 -120q-247 0 -389.5 152t-142.5 401v316q0 249 145.5 401t393.5 152z" />
    <glyph glyph-name="ccaron" unicode="&#x10d;" horiz-adv-x="966" 
d="M186 1554q103 -17 187 -83.5t127 -161.5q43 95 127.5 161.5t187.5 83.5v-84q-88 -36 -142 -111.5t-85 -199.5h-174q-33 124 -87.5 199.5t-140.5 111.5v84zM508 133q101 0 151 56.5t50 146.5v6h180v-23q0 -150 -99 -248t-282 -98q-199 0 -307.5 118.5t-108.5 326.5v131
q0 207 111.5 327.5t306.5 120.5q184 0 281.5 -96.5t97.5 -251.5v-22h-180v8q0 90 -49 146.5t-150 56.5q-110 0 -167.5 -73t-57.5 -200v-162q0 -127 56.5 -198.5t166.5 -71.5z" />
    <glyph glyph-name="Dcaron" unicode="&#x10e;" horiz-adv-x="1306" 
d="M291 1913q110 -21 199 -80t135 -131q48 72 137 131.5t199 79.5v-84q-183 -71 -234 -264h-203q-55 195 -233 264v84zM172 1364h471q263 0 402 -145t139 -394v-293q0 -246 -140.5 -389t-402.5 -143h-469v1364zM379 1190v-1016h252q171 0 257.5 99t86.5 268v282
q0 170 -87 268.5t-259 98.5h-250z" />
    <glyph glyph-name="dcaron" unicode="&#x10f;" horiz-adv-x="1079" 
d="M1096 1417h176l-90 -350h-103zM741 1417h195v-1417h-164l-14 174q-57 -94 -133 -146.5t-187 -52.5q-157 0 -248.5 109.5t-91.5 288.5v225q0 178 94 286.5t250 108.5q104 0 174 -44.5t125 -121.5v590zM506 842q-101 0 -158 -70.5t-57 -183.5v-205q0 -113 57 -183.5
t158 -70.5q96 0 165.5 75.5t69.5 190.5v178q0 115 -69.5 192t-165.5 77z" />
    <glyph glyph-name="Dcroat" unicode="&#x110;" horiz-adv-x="1310" 
d="M1190 532q0 -247 -139.5 -389.5t-401.5 -142.5h-471v627h-160v121h160v616h471q263 0 402 -145t139 -394v-293zM385 172h250q171 0 258.5 99t87.5 268v286q0 170 -87 268.5t-259 98.5h-250v-444h332v-121h-332v-455z" />
    <glyph glyph-name="dcroat" unicode="&#x111;" horiz-adv-x="1079" 
d="M758 174q-57 -94 -133 -146.5t-187 -52.5q-157 0 -248.5 108.5t-91.5 287.5v225q0 177 94 285t250 108q104 0 174 -44.5t125 -121.5v318h-286v98h286v178h195v-178h145v-98h-145v-1141h-164zM506 836q-100 0 -157.5 -70t-57.5 -182v-203q0 -110 57.5 -180t157.5 -70
q96 0 165.5 75t69.5 187v176q0 115 -69.5 191t-165.5 76z" />
    <glyph glyph-name="Emacron" unicode="&#x112;" horiz-adv-x="1140" 
d="M289 1733h637v-127h-637v127zM172 1364h875v-178h-672v-410h528v-170h-528v-428h674v-178h-877v1364z" />
    <glyph glyph-name="emacron" unicode="&#x113;" horiz-adv-x="991" 
d="M193 1331h622v-129h-622v129zM901 293q0 -141 -103 -230.5t-284 -89.5q-209 0 -316.5 116.5t-107.5 318.5v143q0 200 110.5 323t301.5 123q196 0 298.5 -118.5t102.5 -315.5v-123h-627v-55q0 -119 59 -186.5t181 -67.5q102 0 156.5 47t54.5 121v6h174v-12zM276 578v-19
h441v25q0 122 -53 190t-162 68q-108 0 -167 -70.5t-59 -193.5z" />
    <glyph glyph-name="Ebreve" unicode="&#x114;" horiz-adv-x="1140" 
d="M608 1692q205 0 205 123q0 37 -10 83h82q26 -69 26 -131q0 -107 -83.5 -166t-219.5 -59q-137 0 -221 59t-84 166q0 60 27 131h82q-11 -51 -11 -83q0 -123 207 -123zM172 1364h875v-178h-672v-410h528v-170h-528v-428h674v-178h-877v1364z" />
    <glyph glyph-name="ebreve" unicode="&#x115;" horiz-adv-x="991" 
d="M504 1294q188 0 188 144q0 26 -10 98h86q2 -7 6 -26t6.5 -29t5.5 -26.5t4 -32.5t1 -33q0 -120 -78 -184t-209 -64q-130 0 -207.5 64t-77.5 184q0 61 23 147h84q-9 -64 -9 -98q0 -73 45.5 -108.5t141.5 -35.5zM901 293q0 -141 -103 -230.5t-284 -89.5q-209 0 -316.5 116.5
t-107.5 318.5v143q0 200 110.5 323t301.5 123q196 0 298.5 -118.5t102.5 -315.5v-123h-627v-55q0 -119 59 -186.5t181 -67.5q102 0 156.5 47t54.5 121v6h174v-12zM276 578v-19h441v25q0 122 -53 190t-162 68q-108 0 -167 -70.5t-59 -193.5z" />
    <glyph glyph-name="Edotaccent" unicode="&#x116;" horiz-adv-x="1140" 
d="M502 1765h213v-194h-213v194zM172 1364h875v-178h-672v-410h528v-170h-528v-428h674v-178h-877v1364z" />
    <glyph glyph-name="edotaccent" unicode="&#x117;" horiz-adv-x="991" 
d="M399 1362h211v-195h-211v195zM901 293q0 -141 -103 -230.5t-284 -89.5q-209 0 -316.5 116.5t-107.5 318.5v143q0 200 110.5 323t301.5 123q196 0 298.5 -118.5t102.5 -315.5v-123h-627v-55q0 -119 59 -186.5t181 -67.5q102 0 156.5 47t54.5 121v6h174v-12zM276 578v-19
h441v25q0 122 -53 190t-162 68q-108 0 -167 -70.5t-59 -193.5z" />
    <glyph glyph-name="Eogonek" unicode="&#x118;" horiz-adv-x="1140" 
d="M1141 -473q-83 -59 -195 -59q-102 0 -162.5 50.5t-60.5 135.5q0 59 29 113q22 44 66.5 96.5t133.5 136.5h-780v1364h875v-178h-672v-410h528v-170h-528v-428h674v-178q-112 -136 -144 -199q-28 -60 -28 -116t30.5 -84.5t85.5 -28.5q57 0 111 29z" />
    <glyph glyph-name="eogonek" unicode="&#x119;" horiz-adv-x="991" 
d="M928 -473q-83 -59 -195 -59q-104 0 -164.5 52.5t-60.5 141.5q0 56 31 127q45 82 151 213q-85 -29 -178 -29q-208 0 -315 117t-107 318v143q0 200 110.5 323t301.5 123q196 0 298.5 -119.5t102.5 -314.5v-123h-627v-55q0 -119 59 -186.5t181 -67.5q101 0 156 47.5
t55 120.5v6h174v-8q0 -84 -43 -162q-97 -160 -127 -219q-39 -77 -54 -126t-15 -97q0 -60 31 -90.5t87 -30.5q52 0 111 27zM276 578v-19h441v25q0 122 -53 190t-162 68q-108 0 -167 -70.5t-59 -193.5z" />
    <glyph glyph-name="Ecaron" unicode="&#x11a;" horiz-adv-x="1140" 
d="M272 1913q110 -20 199 -79.5t137 -131.5q46 72 135 131t199 80v-84q-178 -69 -233 -264h-203q-51 193 -234 264v84zM172 1364h875v-178h-672v-410h528v-170h-528v-428h674v-178h-877v1364z" />
    <glyph glyph-name="ecaron" unicode="&#x11b;" horiz-adv-x="991" 
d="M190 1554q103 -17 187 -83.5t127 -161.5q43 95 127.5 161.5t187.5 83.5v-84q-87 -36 -140.5 -111t-86.5 -200h-174q-33 124 -87.5 199.5t-140.5 111.5v84zM901 293q0 -141 -103 -230.5t-284 -89.5q-209 0 -316.5 116.5t-107.5 318.5v143q0 200 110.5 323t301.5 123
q196 0 298.5 -118.5t102.5 -315.5v-123h-627v-55q0 -119 59 -186.5t181 -67.5q102 0 156.5 47t54.5 121v6h174v-12zM276 578v-19h441v25q0 122 -53 190t-162 68q-108 0 -167 -70.5t-59 -193.5z" />
    <glyph glyph-name="Gbreve" unicode="&#x11e;" horiz-adv-x="1304" 
d="M655 1702q205 0 205 121q0 37 -10 86h82q26 -69 26 -133q0 -106 -83.5 -165t-219.5 -59q-137 0 -221 59t-84 165q0 62 27 133h82q-10 -49 -10 -86q0 -121 206 -121zM662 1393q237 0 364 -121t127 -316v-45h-205v29q0 124 -72.5 201.5t-213.5 77.5q-157 0 -243.5 -102
t-86.5 -271v-330q0 -171 87 -272t234 -101q139 0 223.5 86.5t84.5 225.5v88h-293v153h493v-696h-104l-31 217q-129 -246 -408 -246q-224 0 -359.5 149t-135.5 400v320q0 248 145.5 400.5t393.5 152.5z" />
    <glyph glyph-name="gbreve" unicode="&#x11f;" horiz-adv-x="997" 
d="M494 1307q97 0 142.5 34.5t45.5 106.5q0 26 -10 98h86q22 -79 22 -147q0 -120 -77.5 -184t-208.5 -64q-130 0 -207.5 64t-77.5 184q0 68 22 147h84q-8 -57 -8 -98q0 -72 45.5 -106.5t141.5 -34.5zM967 -80q0 -122 -120 -188t-341 -66q-455 0 -455 209q0 130 207 170v4
q-154 51 -154 148q0 92 156 155q-143 82 -143 258v64q0 144 104 229.5t277 85.5q77 0 145 -22q104 20 136 58.5t32 115.5h143q15 -47 15 -78q0 -72 -51 -108t-160 -54q62 -42 91.5 -98t29.5 -139v-56q0 -145 -101.5 -229t-279.5 -84q-82 0 -146 18q-88 -32 -88 -75
q0 -35 65 -54.5t175 -19.5h45q418 0 418 -244zM498 430q93 0 142.5 47t49.5 127v76q0 79 -49.5 126.5t-142.5 47.5t-143 -46.5t-50 -125.5v-78q0 -80 50 -127t143 -47zM508 -217q289 0 289 115q0 54 -67 79t-210 25h-31q-132 0 -200 -29.5t-68 -81.5q0 -108 287 -108z" />
    <glyph glyph-name="Gdotaccent" unicode="&#x120;" horiz-adv-x="1304" 
d="M549 1774h213v-195h-213v195zM662 1393q237 0 364 -121t127 -316v-45h-205v29q0 124 -72.5 201.5t-213.5 77.5q-157 0 -243.5 -102t-86.5 -271v-330q0 -171 87 -272t234 -101q139 0 223.5 86.5t84.5 225.5v88h-293v153h493v-696h-104l-31 217q-129 -246 -408 -246
q-224 0 -359.5 149t-135.5 400v320q0 248 145.5 400.5t393.5 152.5z" />
    <glyph glyph-name="gdotaccent" unicode="&#x121;" horiz-adv-x="997" 
d="M389 1374h211v-194h-211v194zM967 -80q0 -122 -120 -188t-341 -66q-455 0 -455 209q0 130 207 170v4q-154 51 -154 148q0 92 156 155q-143 82 -143 258v64q0 144 104 229.5t277 85.5q77 0 145 -22q104 20 136 58.5t32 115.5h143q15 -47 15 -78q0 -72 -51 -108t-160 -54
q62 -42 91.5 -98t29.5 -139v-56q0 -145 -101.5 -229t-279.5 -84q-82 0 -146 18q-88 -32 -88 -75q0 -35 65 -54.5t175 -19.5h45q418 0 418 -244zM498 430q93 0 142.5 47t49.5 127v76q0 79 -49.5 126.5t-142.5 47.5t-143 -46.5t-50 -125.5v-78q0 -80 50 -127t143 -47z
M508 -217q289 0 289 115q0 54 -67 79t-210 25h-31q-132 0 -200 -29.5t-68 -81.5q0 -108 287 -108z" />
    <glyph glyph-name="Gcommaaccent" unicode="&#x122;" horiz-adv-x="1304" 
d="M662 1393q237 0 364 -121t127 -316v-45h-205v29q0 124 -72.5 201.5t-213.5 77.5q-157 0 -243.5 -102t-86.5 -271v-330q0 -171 87 -272t234 -101q139 0 223.5 86.5t84.5 225.5v88h-293v153h493v-696h-104l-31 217q-129 -246 -408 -246q-224 0 -359.5 149t-135.5 400v320
q0 248 145.5 400.5t393.5 152.5zM555 -203h201v-188q0 -109 -64.5 -179.5t-183.5 -95.5v58q73 22 114 73.5t40 124.5h-107v207z" />
    <glyph glyph-name="gcommaaccent" unicode="&#x123;" horiz-adv-x="997" 
d="M395 1180v186q0 110 63.5 180t184.5 96v-59q-74 -22 -115.5 -73t-40.5 -126h107v-204h-199zM967 -80q0 -122 -120 -188t-341 -66q-455 0 -455 209q0 130 207 170v4q-154 51 -154 148q0 92 156 155q-143 82 -143 258v64q0 144 104 229.5t277 85.5q77 0 145 -22
q104 20 136 58.5t32 115.5h143q15 -47 15 -78q0 -72 -51 -108t-160 -54q62 -42 91.5 -98t29.5 -139v-56q0 -145 -101.5 -229t-279.5 -84q-82 0 -146 18q-88 -32 -88 -75q0 -35 65 -54.5t175 -19.5h45q418 0 418 -244zM498 430q93 0 142.5 47t49.5 127v76q0 79 -49.5 126.5
t-142.5 47.5t-143 -46.5t-50 -125.5v-78q0 -80 50 -127t143 -47zM508 -217q289 0 289 115q0 54 -67 79t-210 25h-31q-132 0 -200 -29.5t-68 -81.5q0 -108 287 -108z" />
    <glyph glyph-name="Hbar" unicode="&#x126;" horiz-adv-x="1359" 
d="M385 596v-596h-207v1014h-160v121h160v229h207v-234h590v234h207v-229h159v-121h-159v-1014h-207v596h-590zM385 776h590v242h-590v-242z" />
    <glyph glyph-name="hbar" unicode="&#x127;" horiz-adv-x="1071" 
d="M338 586v-586h-195v1141h-147v98h147v178h195v-178h285v-98h-285v-336q61 90 136 137t179 47q131 0 208 -84.5t77 -226.5v-678h-195v647q0 83 -43.5 131.5t-121.5 48.5q-98 0 -169 -75t-71 -166z" />
    <glyph glyph-name="Imacron" unicode="&#x12a;" horiz-adv-x="569" 
d="M-33 1733h637v-127h-637v127zM180 1364h209v-1364h-209v1364z" />
    <glyph glyph-name="imacron" unicode="&#x12b;" horiz-adv-x="489" 
d="M-66 1323h621v-127h-621v127zM147 971h195v-971h-195v971z" />
    <glyph glyph-name="Ibreve" unicode="&#x12c;" horiz-adv-x="569" 
d="M285 1692q207 0 207 123q0 32 -11 83h82q27 -71 27 -131q0 -107 -84 -166t-221 -59t-220 58.5t-83 166.5q0 68 24 131h82q-10 -62 -10 -83q0 -123 207 -123zM180 1364h209v-1364h-209v1364z" />
    <glyph glyph-name="ibreve" unicode="&#x12d;" horiz-adv-x="489" 
d="M244 1288q96 0 142 35t46 107q0 30 -10 98h86q22 -79 22 -146q0 -120 -77.5 -184.5t-208.5 -64.5q-130 0 -207.5 64.5t-77.5 184.5q0 64 23 146h84q-9 -92 -9 -98q0 -72 45.5 -107t141.5 -35zM147 971h195v-971h-195v971z" />
    <glyph glyph-name="Iogonek" unicode="&#x12e;" horiz-adv-x="569" 
d="M98 -231q19 38 59 83.5t140 147.5h-117v1364h209v-1364q-110 -143 -135 -197q-33 -59 -33 -120q0 -55 31 -84t84 -29q55 0 115 31l34 -74q-83 -59 -194 -59q-102 0 -162.5 50t-60.5 136q0 54 30 115z" />
    <glyph glyph-name="iogonek" unicode="&#x12f;" horiz-adv-x="489" 
d="M139 1358h211v-197h-211v197zM442 -473q-83 -59 -194 -59q-102 0 -162.5 50.5t-60.5 135.5q0 56 28 117q22 41 61.5 88.5t131.5 140.5h-99v971h195v-971q-106 -139 -133 -195q-31 -67 -31 -120q0 -56 31 -84.5t86 -28.5q56 0 113 29z" />
    <glyph glyph-name="Idotaccent" unicode="&#x130;" horiz-adv-x="569" 
d="M180 1765h211v-194h-211v194zM180 1364h209v-1364h-209v1364z" />
    <glyph glyph-name="dotlessi" unicode="&#x131;" horiz-adv-x="489" 
d="M147 971h195v-971h-195v971z" />
    <glyph glyph-name="Kcommaaccent" unicode="&#x136;" horiz-adv-x="1212" 
d="M934 0q-266 443 -375 621l-180 -236v-385h-207v1364h207v-727l543 727h239l-456 -592l466 -772h-237zM535 -188h200v-189q0 -108 -63.5 -178t-184.5 -96v57q74 24 115.5 75.5t40.5 125.5h-108v205z" />
    <glyph glyph-name="kcommaaccent" unicode="&#x137;" horiz-adv-x="978" 
d="M143 1417h195v-977l364 531h213l-282 -396l305 -575h-213l-227 434l-160 -225v-209h-195v1417zM418 -188h200v-189q0 -108 -64 -178t-185 -96v57q74 24 115 75t40 126h-106v205z" />
    <glyph glyph-name="Lacute" unicode="&#x139;" horiz-adv-x="1038" 
d="M647 1898l-305 -339h-133l207 339h231zM172 1364h207v-1182h602v-182h-809v1364z" />
    <glyph glyph-name="lacute" unicode="&#x13a;" horiz-adv-x="489" 
d="M618 1903l-309 -385h-127l205 385h231zM147 1417h195v-1417h-195v1417z" />
    <glyph glyph-name="Lcommaaccent" unicode="&#x13b;" horiz-adv-x="1038" 
d="M172 1364h207v-1182h602v-182h-809v1364zM463 -197h201v-188q0 -108 -63.5 -178t-184.5 -96v57q74 24 115 75t40 126h-108v204z" />
    <glyph glyph-name="lcommaaccent" unicode="&#x13c;" horiz-adv-x="489" 
d="M147 1417h195v-1417h-195v1417zM143 -197h201v-188q0 -108 -63.5 -178t-184.5 -96v57q74 24 115 75t41 126h-109v204z" />
    <glyph glyph-name="Lcaron" unicode="&#x13d;" horiz-adv-x="1038" 
d="M571 1364h177l-91 -350h-102zM172 1364h207v-1182h602v-182h-809v1364z" />
    <glyph glyph-name="lcaron" unicode="&#x13e;" horiz-adv-x="489" 
d="M504 1417h176l-88 -350h-103zM147 1417h195v-1417h-195v1417z" />
    <glyph glyph-name="Ldot" unicode="&#x13f;" horiz-adv-x="1038" 
d="M172 1364h207v-1182h602v-182h-809v1364zM709 823h180v-205h-180v205z" />
    <glyph glyph-name="ldot" unicode="&#x140;" horiz-adv-x="671" 
d="M147 1417h195v-1417h-195v1417zM489 793h181v-205h-181v205z" />
    <glyph glyph-name="Lslash" unicode="&#x141;" horiz-adv-x="1052" 
d="M995 182v-182h-811v518l-135 -78l-59 101l194 110v713h207v-594l318 182l61 -100l-379 -215v-455h604z" />
    <glyph glyph-name="lslash" unicode="&#x142;" horiz-adv-x="534" 
d="M571 844l-206 -131v-713h-195v590l-147 -94q-56 86 -58 86l205 129v706h195v-581l149 94z" />
    <glyph glyph-name="Nacute" unicode="&#x143;" horiz-adv-x="1353" 
d="M1016 1890l-303 -340h-135l206 340h232zM172 1364h203l616 -1004h4l-2 1004h189v-1364h-197l-623 1016h-4v-1016h-186v1364z" />
    <glyph glyph-name="nacute" unicode="&#x144;" horiz-adv-x="1075" 
d="M864 1559l-309 -385h-129l207 385h231zM143 971h164l17 -185q63 101 141.5 154t189.5 53q132 0 209.5 -84t77.5 -227v-682h-197v649q0 84 -42.5 132t-122.5 48q-100 0 -171 -74.5t-71 -166.5v-588h-195v971z" />
    <glyph glyph-name="Ncommaaccent" unicode="&#x145;" horiz-adv-x="1353" 
d="M172 1364h203l616 -1004h4l-2 1004h189v-1364h-197l-623 1016h-4v-1016h-186v1364zM573 -188h201v-189q0 -108 -63.5 -178t-184.5 -96v57q74 24 115 75t41 126h-109v205z" />
    <glyph glyph-name="ncommaaccent" unicode="&#x146;" horiz-adv-x="1075" 
d="M143 971h164l17 -185q63 101 141.5 154t189.5 53q132 0 209.5 -84t77.5 -227v-682h-197v649q0 84 -42.5 132t-122.5 48q-100 0 -171 -74.5t-71 -166.5v-588h-195v971zM432 -188h201v-189q0 -108 -63.5 -178t-184.5 -96v57q74 24 115.5 75.5t40.5 125.5h-109v205z" />
    <glyph glyph-name="Ncaron" unicode="&#x147;" horiz-adv-x="1353" 
d="M340 1905q110 -20 199 -79.5t137 -131.5q46 72 135 131t199 80v-84q-179 -70 -234 -265h-203q-55 196 -233 265v84zM172 1364h203l616 -1004h4l-2 1004h189v-1364h-197l-623 1016h-4v-1016h-186v1364z" />
    <glyph glyph-name="ncaron" unicode="&#x148;" horiz-adv-x="1075" 
d="M219 1571q102 -17 185.5 -84t127.5 -162q44 94 129 161.5t187 84.5v-84q-87 -36 -140.5 -111t-86.5 -200h-175q-33 125 -86.5 200t-140.5 111v84zM143 971h164l17 -185q63 101 141.5 154t189.5 53q132 0 209.5 -84t77.5 -227v-682h-197v649q0 84 -42.5 132t-122.5 48
q-100 0 -171 -74.5t-71 -166.5v-588h-195v971z" />
    <glyph glyph-name="Omacron" unicode="&#x14c;" horiz-adv-x="1335" 
d="M350 1743h637v-129h-637v129zM668 1395q253 0 398.5 -149.5t145.5 -416.5v-294q0 -267 -145.5 -416.5t-398.5 -149.5q-254 0 -399.5 149.5t-145.5 416.5v294q0 267 145.5 416.5t399.5 149.5zM668 1217q-159 0 -247.5 -99t-88.5 -280v-312q0 -181 88.5 -280t247.5 -99
t247.5 99t88.5 280v312q0 181 -88.5 280t-247.5 99z" />
    <glyph glyph-name="omacron" unicode="&#x14d;" horiz-adv-x="1024" 
d="M201 1331h622v-127h-622v127zM512 999q194 0 308 -117.5t114 -318.5v-157q0 -199 -115.5 -317t-306.5 -118q-193 0 -307.5 116.5t-114.5 315.5v160q0 200 114.5 318t307.5 118zM512 842q-107 0 -168 -70.5t-61 -183.5v-205q0 -115 62 -184.5t167 -69.5q104 0 165.5 69.5
t61.5 184.5v205q0 113 -61 183.5t-166 70.5z" />
    <glyph glyph-name="Obreve" unicode="&#x14e;" horiz-adv-x="1335" 
d="M668 1702q206 0 206 121q0 37 -10 86h82q27 -71 27 -133q0 -106 -84 -165t-221 -59q-136 0 -219.5 59t-83.5 165q0 64 26 133h82q-10 -49 -10 -86q0 -121 205 -121zM668 1395q253 0 398.5 -149.5t145.5 -416.5v-294q0 -267 -145.5 -416.5t-398.5 -149.5
q-254 0 -399.5 149.5t-145.5 416.5v294q0 267 145.5 416.5t399.5 149.5zM668 1217q-159 0 -247.5 -99t-88.5 -280v-312q0 -181 88.5 -280t247.5 -99t247.5 99t88.5 280v312q0 181 -88.5 280t-247.5 99z" />
    <glyph glyph-name="obreve" unicode="&#x14f;" horiz-adv-x="1024" 
d="M512 1296q96 0 141 35.5t45 108.5q0 41 -8 98h84q23 -86 23 -147q0 -120 -77 -185t-208 -65t-208 65t-77 185q0 61 23 147h84q-8 -57 -8 -98q0 -73 45 -108.5t141 -35.5zM512 999q194 0 308 -117.5t114 -318.5v-157q0 -199 -115.5 -317t-306.5 -118q-193 0 -307.5 116.5
t-114.5 315.5v160q0 200 114.5 318t307.5 118zM512 842q-107 0 -168 -70.5t-61 -183.5v-205q0 -115 62 -184.5t167 -69.5q104 0 165.5 69.5t61.5 184.5v205q0 113 -61 183.5t-166 70.5z" />
    <glyph glyph-name="Ohungarumlaut" unicode="&#x150;" horiz-adv-x="1335" 
d="M823 1909l-278 -340h-119l197 340h200zM1161 1909l-276 -340h-119l195 340h200zM668 1395q253 0 398.5 -149.5t145.5 -416.5v-294q0 -267 -145.5 -416.5t-398.5 -149.5q-254 0 -399.5 149.5t-145.5 416.5v294q0 267 145.5 416.5t399.5 149.5zM668 1217q-159 0 -247.5 -99
t-88.5 -280v-312q0 -181 88.5 -280t247.5 -99t247.5 99t88.5 280v312q0 181 -88.5 280t-247.5 99z" />
    <glyph glyph-name="ohungarumlaut" unicode="&#x151;" horiz-adv-x="1024" 
d="M680 1544l-283 -385h-114l196 385h201zM1012 1544l-281 -385h-115l197 385h199zM512 999q194 0 308 -117.5t114 -318.5v-157q0 -199 -115.5 -317t-306.5 -118q-193 0 -307.5 116.5t-114.5 315.5v160q0 200 114.5 318t307.5 118zM512 842q-107 0 -168 -70.5t-61 -183.5
v-205q0 -115 62 -184.5t167 -69.5q104 0 165.5 69.5t61.5 184.5v205q0 113 -61 183.5t-166 70.5z" />
    <glyph glyph-name="OE" unicode="&#x152;" horiz-adv-x="1896" 
d="M1804 0h-1142q-261 0 -400 145t-139 394v292q0 247 139.5 390t401.5 143h1138v-178h-672v-410h529v-170h-529v-428h674v-178zM678 1192q-173 0 -259.5 -98.5t-86.5 -268.5v-286q0 -169 87.5 -268t258.5 -99h250v1020h-250z" />
    <glyph glyph-name="oe" unicode="&#x153;" horiz-adv-x="1638" 
d="M1161 -27q-119 0 -202.5 43.5t-127.5 122.5q-52 -81 -134.5 -124.5t-188.5 -43.5q-190 0 -304 117.5t-114 314.5v160q0 200 113.5 318t306.5 118q109 0 193.5 -45.5t134.5 -128.5q48 81 130.5 126.5t190.5 45.5q129 0 219 -57t132 -153t42 -224v-123h-626v-55
q0 -119 58.5 -186.5t178.5 -67.5q101 0 156 48.5t55 121.5v6h176v-10q0 -142 -104 -233t-285 -91zM926 578v-19h440v25q0 122 -53.5 190t-163.5 68q-106 0 -164.5 -70.5t-58.5 -193.5zM510 840q-105 0 -166 -70t-61 -182v-205q0 -113 61.5 -182.5t165.5 -69.5q103 0 164 69
t61 183v205q0 113 -60 182.5t-165 69.5z" />
    <glyph glyph-name="Racute" unicode="&#x154;" horiz-adv-x="1234" 
d="M954 1898l-305 -339h-133l205 339h233zM379 543v-543h-207v1364h526q210 0 317 -95t107 -268v-92q0 -129 -72 -220t-202 -126l317 -563h-225l-303 543h-258zM379 1196v-487h276q127 0 193.5 55.5t66.5 153.5v73q0 104 -60.5 154.5t-190.5 50.5h-285z" />
    <glyph glyph-name="racute" unicode="&#x155;" horiz-adv-x="724" 
d="M739 1542l-309 -385h-127l205 385h231zM143 971h164l17 -226q96 240 292 240q40 0 76 -8v-195q-53 11 -86 11q-114 0 -191 -78t-77 -187v-528h-195v971z" />
    <glyph glyph-name="Rcommaaccent" unicode="&#x156;" horiz-adv-x="1234" 
d="M379 543v-543h-207v1364h526q210 0 317 -95t107 -268v-92q0 -129 -72 -220t-202 -126l317 -563h-225l-303 543h-258zM379 1196v-487h276q127 0 193.5 55.5t66.5 153.5v73q0 104 -60.5 154.5t-190.5 50.5h-285zM541 -188h200v-189q0 -108 -63 -178t-184 -96v57
q73 24 113.5 75.5t39.5 125.5h-106v205z" />
    <glyph glyph-name="rcommaaccent" unicode="&#x157;" horiz-adv-x="724" 
d="M143 971h164l17 -226q96 240 292 240q40 0 76 -8v-195q-53 11 -86 11q-114 0 -191 -78t-77 -187v-528h-195v971zM141 -197h199v-188q0 -108 -63.5 -178t-184.5 -96v57q74 24 115.5 75.5t40.5 125.5h-107v204z" />
    <glyph glyph-name="Rcaron" unicode="&#x158;" horiz-adv-x="1234" 
d="M279 1913q109 -20 197 -79.5t136 -131.5q48 72 137 131.5t199 79.5v-84q-180 -70 -235 -264h-201q-55 193 -233 264v84zM379 543v-543h-207v1364h526q210 0 317 -95t107 -268v-92q0 -129 -72 -220t-202 -126l317 -563h-225l-303 543h-258zM379 1196v-487h276
q127 0 193.5 55.5t66.5 153.5v73q0 104 -60.5 154.5t-190.5 50.5h-285z" />
    <glyph glyph-name="rcaron" unicode="&#x159;" horiz-adv-x="724" 
d="M96 1552q101 -15 185.5 -82t128.5 -161q44 94 128 161t185 82v-82q-86 -36 -140 -111.5t-87 -199.5h-172q-33 124 -87.5 199.5t-140.5 111.5v82zM143 971h164l17 -226q96 240 292 240q40 0 76 -8v-195q-53 11 -86 11q-114 0 -191 -78t-77 -187v-528h-195v971z" />
    <glyph glyph-name="Sacute" unicode="&#x15a;" horiz-adv-x="1193" 
d="M946 1905l-305 -340h-133l205 340h233zM606 1391q123 0 216 -30.5t149 -85.5t84 -126.5t28 -157.5v-51h-204v45q0 104 -67.5 170t-211.5 66q-121 0 -189.5 -56t-68.5 -147q0 -49 15.5 -82.5t58.5 -62.5t96 -50.5t152 -54.5q241 -71 337.5 -157t96.5 -249
q0 -183 -132.5 -286t-353.5 -103q-248 0 -373.5 109.5t-125.5 296.5v65h206v-49q0 -120 74.5 -186t224.5 -66q127 0 199 54t72 153q0 42 -11 73t-31 54.5t-63 46t-92 41t-133 45.5q-115 32 -190.5 65.5t-131 80.5t-80 108.5t-24.5 145.5q0 169 127.5 275t345.5 106z" />
    <glyph glyph-name="sacute" unicode="&#x15b;" horiz-adv-x="929" 
d="M791 1542l-310 -385h-127l205 385h232zM469 -27q-193 0 -290 87t-97 233v37h170v-29q0 -85 55 -133.5t164 -48.5q91 0 141 36.5t50 100.5q0 62 -49.5 94.5t-184.5 67.5q-169 41 -248.5 106t-79.5 187t98.5 204t266.5 82q174 0 268 -82t94 -221v-30h-168v18
q0 81 -50 125.5t-146 44.5q-83 0 -132.5 -36.5t-49.5 -94.5q0 -61 50.5 -93.5t182.5 -66.5q171 -41 250.5 -105.5t79.5 -187.5q0 -132 -99 -213.5t-276 -81.5z" />
    <glyph glyph-name="Scedilla" unicode="&#x15e;" horiz-adv-x="1193" 
d="M842 -332q0 -96 -68 -148t-192 -52q-132 0 -252 51l30 75q95 -36 189 -36q143 0 143 108q0 96 -119 96q-40 0 -108 -22l-39 61l133 174q-222 12 -334 119.5t-112 284.5v65h206v-49q0 -120 74.5 -186t224.5 -66q127 0 199 54t72 153q0 42 -11 73t-31 54.5t-63 46t-92 41
t-133 45.5q-115 32 -190.5 65.5t-131 80.5t-80 108.5t-24.5 145.5q0 169 127.5 275t345.5 106q123 0 216 -30.5t149 -85.5t84 -126.5t28 -157.5v-51h-204v45q0 104 -67.5 170t-211.5 66q-121 0 -189.5 -56t-68.5 -147q0 -49 15.5 -82.5t58.5 -62.5t96 -50.5t152 -54.5
q241 -71 337.5 -157t96.5 -249q0 -172 -120 -275t-321 -112l-114 -143q50 16 94 16q94 0 149.5 -48.5t55.5 -131.5z" />
    <glyph glyph-name="scedilla" unicode="&#x15f;" horiz-adv-x="929" 
d="M698 -332q0 -96 -68 -148t-192 -52q-134 0 -250 51l29 75q99 -36 189 -36q143 0 143 108q0 96 -119 96q-40 0 -108 -22l-39 61l133 172q-167 13 -250.5 98.5t-83.5 221.5v37h170v-29q0 -85 55 -133.5t164 -48.5q91 0 141 36.5t50 100.5q0 62 -49.5 94.5t-184.5 67.5
q-169 41 -248.5 106t-79.5 187t98.5 204t266.5 82q174 0 268 -82t94 -221v-30h-168v18q0 81 -50 125.5t-146 44.5q-83 0 -132.5 -36.5t-49.5 -94.5q0 -61 50.5 -93.5t182.5 -66.5q171 -41 250.5 -105.5t79.5 -187.5q0 -124 -87 -204.5t-245 -90.5l-111 -141q46 16 93 16
q94 0 149 -48.5t55 -131.5z" />
    <glyph glyph-name="Scaron" unicode="&#x160;" horiz-adv-x="1193" 
d="M268 1919q110 -20 199 -79.5t137 -131.5q46 72 135 131t199 80v-84q-177 -70 -233 -264h-201q-56 194 -236 264v84zM606 1391q123 0 216 -30.5t149 -85.5t84 -126.5t28 -157.5v-51h-204v45q0 104 -67.5 170t-211.5 66q-121 0 -189.5 -56t-68.5 -147q0 -49 15.5 -82.5
t58.5 -62.5t96 -50.5t152 -54.5q241 -71 337.5 -157t96.5 -249q0 -183 -132.5 -286t-353.5 -103q-248 0 -373.5 109.5t-125.5 296.5v65h206v-49q0 -120 74.5 -186t224.5 -66q127 0 199 54t72 153q0 42 -11 73t-31 54.5t-63 46t-92 41t-133 45.5q-115 32 -190.5 65.5
t-131 80.5t-80 108.5t-24.5 145.5q0 169 127.5 275t345.5 106z" />
    <glyph glyph-name="scaron" unicode="&#x161;" horiz-adv-x="929" 
d="M147 1554q101 -17 186 -84t128 -161q44 94 128 161t185 84v-84q-86 -36 -140 -111.5t-87 -199.5h-172q-33 124 -87.5 199.5t-140.5 111.5v84zM469 -27q-193 0 -290 87t-97 233v37h170v-29q0 -85 55 -133.5t164 -48.5q91 0 141 36.5t50 100.5q0 62 -49.5 94.5t-184.5 67.5
q-169 41 -248.5 106t-79.5 187t98.5 204t266.5 82q174 0 268 -82t94 -221v-30h-168v18q0 81 -50 125.5t-146 44.5q-83 0 -132.5 -36.5t-49.5 -94.5q0 -61 50.5 -93.5t182.5 -66.5q171 -41 250.5 -105.5t79.5 -187.5q0 -132 -99 -213.5t-276 -81.5z" />
    <glyph glyph-name="Tcommaaccent" unicode="&#x162;" horiz-adv-x="1148" 
d="M61 1364h1026v-182h-409v-1182h-207v1182h-410v182zM475 -197h201v-188q0 -108 -63.5 -178t-184.5 -96v57q73 24 114 75.5t40 125.5h-107v204z" />
    <glyph glyph-name="Tcommaaccent" unicode="&#x21a;" horiz-adv-x="1148" 
d="M61 1364h1026v-182h-409v-1182h-207v1182h-410v182zM475 -197h201v-188q0 -108 -63.5 -178t-184.5 -96v57q73 24 114 75.5t40 125.5h-107v204z" />
    <glyph glyph-name="tcommaaccent" unicode="&#x163;" horiz-adv-x="720" 
d="M53 971h156v205l194 53v-258h263v-154h-263v-487q0 -102 35 -140t129 -38h49v-154h-94q-163 0 -238 70t-75 227v522h-156v154zM295 -197h201v-188q0 -110 -63.5 -180.5t-184.5 -96.5v60q72 22 113 74t40 125h-106v206z" />
    <glyph glyph-name="tcommaaccent" unicode="&#x21b;" horiz-adv-x="720" 
d="M53 971h156v205l194 53v-258h263v-154h-263v-487q0 -102 35 -140t129 -38h49v-154h-94q-163 0 -238 70t-75 227v522h-156v154zM295 -197h201v-188q0 -110 -63.5 -180.5t-184.5 -96.5v60q72 22 113 74t40 125h-106v206z" />
    <glyph glyph-name="Tcaron" unicode="&#x164;" horiz-adv-x="1148" 
d="M240 1913q110 -20 198.5 -79.5t136.5 -131.5q48 72 136.5 131.5t197.5 79.5v-84q-178 -71 -233 -264h-201q-55 194 -235 264v84zM61 1364h1026v-182h-409v-1182h-207v1182h-410v182z" />
    <glyph glyph-name="tcaron" unicode="&#x165;" horiz-adv-x="720" 
d="M563 1456h176l-90 -350h-102zM53 971h156v205l194 53v-258h263v-154h-263v-487q0 -102 35 -140t129 -38h49v-154h-94q-163 0 -238 70t-75 227v522h-156v154z" />
    <glyph glyph-name="Umacron" unicode="&#x16a;" horiz-adv-x="1302" 
d="M334 1724h637v-127h-637v127zM156 1364h206v-899q0 -152 77 -232.5t216 -80.5q141 0 217 80t76 233v899h199v-893q0 -240 -128 -370t-368 -130q-243 0 -369 128.5t-126 369.5v895z" />
    <glyph glyph-name="umacron" unicode="&#x16b;" horiz-adv-x="1075" 
d="M223 1315h623v-127h-623v127zM135 971h195v-649q0 -84 43 -132.5t123 -48.5q99 0 170 75.5t71 166.5v588h197v-971h-164l-16 184q-65 -101 -143 -154t-189 -53q-132 0 -209.5 84.5t-77.5 227.5v682z" />
    <glyph glyph-name="Ubreve" unicode="&#x16c;" horiz-adv-x="1302" 
d="M651 1683q207 0 207 123q0 38 -10 84h82q26 -69 26 -131q0 -107 -84 -166t-221 -59q-136 0 -219.5 59t-83.5 166q0 60 27 131h82q-11 -51 -11 -84q0 -123 205 -123zM156 1364h206v-899q0 -152 77 -232.5t216 -80.5q141 0 217 80t76 233v899h199v-893q0 -240 -128 -370
t-368 -130q-243 0 -369 128.5t-126 369.5v895z" />
    <glyph glyph-name="ubreve" unicode="&#x16d;" horiz-adv-x="1075" 
d="M535 1280q96 0 141 34.5t45 106.5q0 44 -8 101h84q22 -82 22 -148q0 -120 -77.5 -185t-206.5 -65q-131 0 -209 65t-78 185q0 58 24 148h84q-10 -72 -10 -101q0 -72 46 -106.5t143 -34.5zM135 971h195v-649q0 -84 43 -132.5t123 -48.5q99 0 170 75.5t71 166.5v588h197
v-971h-164l-16 184q-65 -101 -143 -154t-189 -53q-132 0 -209.5 84.5t-77.5 227.5v682z" />
    <glyph glyph-name="Uring" unicode="&#x16e;" horiz-adv-x="1302" 
d="M653 1942q105 0 169.5 -61t64.5 -150t-65 -151t-169 -62q-106 0 -170.5 62t-64.5 151t64.5 150t170.5 61zM653 1858q-64 0 -102.5 -36.5t-38.5 -90.5t38.5 -90.5t102.5 -36.5q63 0 101.5 36.5t38.5 90.5q0 53 -38.5 90t-101.5 37zM156 1364h206v-899q0 -152 77 -232.5
t216 -80.5q141 0 217 80t76 233v899h199v-893q0 -240 -128 -370t-368 -130q-243 0 -369 128.5t-126 369.5v895z" />
    <glyph glyph-name="uring" unicode="&#x16f;" horiz-adv-x="1075" 
d="M535 1532q103 0 167 -61t64 -150q0 -90 -64 -151.5t-167 -61.5q-104 0 -169 61.5t-65 151.5q0 88 65.5 149.5t168.5 61.5zM535 1448q-63 0 -101.5 -36.5t-38.5 -90.5t38.5 -90.5t101.5 -36.5q62 0 99.5 36.5t37.5 90.5t-37.5 90.5t-99.5 36.5zM135 971h195v-649
q0 -84 43 -132.5t123 -48.5q99 0 170 75.5t71 166.5v588h197v-971h-164l-16 184q-65 -101 -143 -154t-189 -53q-132 0 -209.5 84.5t-77.5 227.5v682z" />
    <glyph glyph-name="Uhungarumlaut" unicode="&#x170;" horiz-adv-x="1302" 
d="M807 1890l-277 -340h-120l196 340h201zM1145 1890l-277 -340h-118l194 340h201zM156 1364h206v-899q0 -152 77 -232.5t216 -80.5q141 0 217 80t76 233v899h199v-893q0 -240 -128 -370t-368 -130q-243 0 -369 128.5t-126 369.5v895z" />
    <glyph glyph-name="uhungarumlaut" unicode="&#x171;" horiz-adv-x="1075" 
d="M702 1528l-282 -385h-115l197 385h200zM1034 1528l-282 -385h-113l195 385h200zM135 971h195v-649q0 -84 43 -132.5t123 -48.5q99 0 170 75.5t71 166.5v588h197v-971h-164l-16 184q-65 -101 -143 -154t-189 -53q-132 0 -209.5 84.5t-77.5 227.5v682z" />
    <glyph glyph-name="Uogonek" unicode="&#x172;" horiz-adv-x="1302" 
d="M895 -473q-83 -59 -195 -59q-102 0 -162.5 50.5t-60.5 135.5q0 62 29 121q19 37 52.5 77t107.5 119h-15q-243 0 -369 128.5t-126 369.5v895h206v-899q0 -152 77 -232.5t216 -80.5q141 0 217 80t76 233v899h199v-893q0 -209 -96.5 -334.5t-282.5 -156.5
q-76 -108 -104 -164q-33 -67 -33 -129q0 -57 31 -86t86 -29q56 0 110 29z" />
    <glyph glyph-name="uogonek" unicode="&#x173;" horiz-adv-x="1075" 
d="M1034 -473q-83 -59 -194 -59q-103 0 -163.5 50.5t-60.5 135.5q0 54 29 117q22 43 61.5 90.5t129.5 138.5h-66l-16 184q-65 -101 -143 -154t-189 -53q-132 0 -209.5 84.5t-77.5 227.5v682h195v-649q0 -84 43 -132.5t123 -48.5q99 0 170 75.5t71 166.5v588h197v-971h-2
q-98 -128 -133 -195q-31 -67 -31 -120q0 -56 31.5 -84.5t87.5 -28.5q53 0 110 29z" />
    <glyph glyph-name="Wcircumflex" unicode="&#x174;" horiz-adv-x="1841" 
d="M829 1890h201q56 -193 234 -264v-84q-110 21 -199 80t-135 131q-48 -72 -137 -131.5t-199 -79.5v84q179 70 235 264zM80 1364h217l242 -1077h4l288 1083h189l291 -1083h4l241 1077h207l-350 -1376h-205l-284 1044h-4l-291 -1044h-205z" />
    <glyph glyph-name="wcircumflex" unicode="&#x175;" horiz-adv-x="1449" 
d="M647 1524h174q33 -126 87 -202t141 -112v-82q-102 15 -187 82t-129 162q-44 -95 -127.5 -162t-185.5 -82v82q86 36 140 112t87 202zM47 971h197l192 -742h4l199 742h178l203 -742h4l188 742h191l-289 -977h-180l-209 723h-4l-207 -723h-180z" />
    <glyph glyph-name="Ycircumflex" unicode="&#x176;" horiz-adv-x="1198" 
d="M506 1876h203q52 -194 233 -264v-84q-110 20 -199 79.5t-137 131.5q-46 -72 -135 -131t-199 -80v84q178 69 234 264zM43 1364h229l332 -647l330 647h221l-453 -838v-526h-206v526z" />
    <glyph glyph-name="ycircumflex" unicode="&#x177;" horiz-adv-x="964" 
d="M403 1513h175q33 -124 87 -199.5t140 -111.5v-84q-103 17 -186 84t-127 162q-43 -95 -128 -162t-188 -84v84q87 36 140.5 111t86.5 200zM47 971h201l246 -758h2l235 758h197l-328 -953q-35 -96 -65 -153t-74.5 -103.5t-105 -66t-146.5 -19.5h-80v150h39q88 0 135 30
t70 101l14 43z" />
    <glyph glyph-name="Ydieresis" unicode="&#x178;" horiz-adv-x="1198" 
d="M328 1767h182v-204h-182v204zM705 1767h180v-204h-180v204zM43 1364h229l332 -647l330 647h221l-453 -838v-526h-206v526z" />
    <glyph glyph-name="Zacute" unicode="&#x179;" horiz-adv-x="1146" 
d="M924 1898l-306 -339h-133l205 339h234zM121 1364h940v-117l-696 -1063h682v-184h-961v117l705 1069h-670v178z" />
    <glyph glyph-name="zacute" unicode="&#x17a;" horiz-adv-x="901" 
d="M791 1536l-310 -385h-127l205 385h232zM100 971h727v-107l-499 -704h487v-160h-733v106l504 709h-486v156z" />
    <glyph glyph-name="Zdotaccent" unicode="&#x17b;" horiz-adv-x="1146" 
d="M475 1765h213v-194h-213v194zM121 1364h940v-117l-696 -1063h682v-184h-961v117l705 1069h-670v178z" />
    <glyph glyph-name="zdotaccent" unicode="&#x17c;" horiz-adv-x="901" 
d="M354 1356h213v-195h-213v195zM100 971h727v-107l-499 -704h487v-160h-733v106l504 709h-486v156z" />
    <glyph glyph-name="Zcaron" unicode="&#x17d;" horiz-adv-x="1146" 
d="M246 1913q110 -20 199 -79.5t137 -131.5q47 72 135 131.5t198 79.5v-84q-178 -71 -233 -264h-201q-55 194 -235 264v84zM121 1364h940v-117l-696 -1063h682v-184h-961v117l705 1069h-670v178z" />
    <glyph glyph-name="zcaron" unicode="&#x17e;" horiz-adv-x="901" 
d="M145 1546q102 -15 187 -82t129 -161q44 95 127.5 161.5t185.5 81.5v-82q-86 -36 -140 -112t-87 -201h-174q-31 125 -85.5 201t-142.5 112v82zM100 971h727v-107l-499 -704h487v-160h-733v106l504 709h-486v156z" />
    <glyph glyph-name="Aringacute" unicode="&#x1fa;" horiz-adv-x="1288" 
d="M1016 2134l-305 -338h-133l204 338h234zM1010 0l-105 317h-532l-105 -317h-207l449 1321q-47 29 -73.5 76t-26.5 102q0 89 64.5 151t168.5 62q106 0 171 -62t65 -151q0 -55 -26.5 -102t-74.5 -76l447 -1321h-215zM643 1626q-63 0 -101 -36.5t-38 -90.5t38 -90.5
t101 -36.5q64 0 102.5 36.5t38.5 90.5t-38.5 90.5t-102.5 36.5zM639 1126l-213 -647h426z" />
    <glyph glyph-name="aringacute" unicode="&#x1fb;" horiz-adv-x="1007" 
d="M870 2038l-309 -385h-127l205 385h231zM498 1548q104 0 168.5 -61.5t64.5 -151.5q0 -89 -65 -150t-168 -61t-167.5 61t-64.5 150q0 90 64.5 151.5t167.5 61.5zM498 1462q-62 0 -100 -36.5t-38 -90.5t38 -90.5t100 -36.5q63 0 100 36.5t37 90.5t-37 90.5t-100 36.5z
M680 174q-116 -192 -326 -192q-125 0 -194.5 67.5t-69.5 190.5q0 86 36 147t120 102q132 65 426 93v77q0 181 -180 181q-89 0 -138 -43.5t-49 -120.5v-21h-176v23q0 141 93.5 230t273.5 89q183 0 273.5 -90t90.5 -256v-411q0 -71 22.5 -94t86.5 -25v-127h-68
q-103 0 -155 38.5t-66 141.5zM281 256q0 -133 139 -133q100 0 176 72.5t76 166.5v111q-216 -24 -297 -65q-52 -27 -73 -63t-21 -89z" />
    <glyph glyph-name="AEacute" unicode="&#x1fc;" horiz-adv-x="1847" 
d="M1352 1898l-303 -339h-136l207 339h232zM-18 0l778 1364h993v-178h-672v-410h527v-170h-527v-428h674v-178h-878v324h-494l-180 -324h-221zM872 1196l-401 -719h406v719h-5z" />
    <glyph glyph-name="aeacute" unicode="&#x1fd;" horiz-adv-x="1579" 
d="M1120 1536l-309 -385h-127l205 385h231zM1491 297q0 -142 -104 -233t-285 -91q-280 0 -369 213q-113 -211 -360 -211q-138 0 -210.5 67.5t-72.5 190.5q0 88 35 149t119 103q133 67 430 95v79q0 91 -43.5 135t-138.5 44q-89 0 -138 -43.5t-49 -120.5v-21h-176v25
q0 140 92 228.5t268 88.5q227 0 299 -153q52 76 132 115.5t178 39.5q194 0 294.5 -119t100.5 -315v-123h-629v-55q0 -119 59 -186.5t181 -67.5q100 0 155.5 48.5t55.5 121.5v6h176v-10zM864 580v-21h443l-2 25q0 122 -53 190t-162 68q-108 0 -167 -69.5t-59 -192.5zM279 252
q0 -64 36 -100.5t109 -36.5q105 0 177.5 71.5t72.5 175.5v107q-213 -20 -297 -63q-55 -28 -76.5 -64t-21.5 -90z" />
    <glyph glyph-name="Oslashacute" unicode="&#x1fe;" horiz-adv-x="1335" 
d="M1008 1909l-303 -340h-136l207 340h232zM668 -31q-201 0 -336 97l-113 -164l-100 65l123 183q-119 150 -119 385v294q0 267 145.5 416.5t399.5 149.5q199 0 336 -95l112 162l98 -65l-120 -183q118 -142 118 -385v-294q0 -267 -145.5 -416.5t-398.5 -149.5zM328 526
q0 -115 39 -204l526 823q-86 74 -225 74q-160 0 -250 -99t-90 -282v-312zM1008 838q0 125 -39 204l-527 -823q86 -74 226 -74q161 0 250.5 99.5t89.5 281.5v312z" />
    <glyph glyph-name="oslashacute" unicode="&#x1ff;" horiz-adv-x="1024" 
d="M842 1542l-310 -385h-126l204 385h232zM512 -29q-153 0 -256 74l-100 -133l-84 59l106 146q-88 114 -88 286v160q0 200 114.5 318t307.5 118q155 0 256 -73l98 133l84 -60l-106 -145q90 -117 90 -291v-157q0 -199 -115.5 -317t-306.5 -118zM274 383q0 -63 23 -121
l371 531q-61 55 -156 55q-111 0 -174.5 -71.5t-63.5 -188.5v-205zM748 588q0 62 -23 123l-369 -531q58 -55 156 -55q107 0 171.5 70.5t64.5 187.5v205z" />
    <glyph glyph-name="Scommaaccent" unicode="&#x218;" horiz-adv-x="1193" 
d="M606 1391q123 0 216 -30.5t149 -85.5t84 -126.5t28 -157.5v-51h-204v45q0 104 -67.5 170t-211.5 66q-121 0 -189.5 -56t-68.5 -147q0 -49 15.5 -82.5t58.5 -62.5t96 -50.5t152 -54.5q241 -71 337.5 -157t96.5 -249q0 -183 -132.5 -286t-353.5 -103q-248 0 -373.5 109.5
t-125.5 296.5v65h206v-49q0 -120 74.5 -186t224.5 -66q127 0 199 54t72 153q0 42 -11 73t-31 54.5t-63 46t-92 41t-133 45.5q-115 32 -190.5 65.5t-131 80.5t-80 108.5t-24.5 145.5q0 169 127.5 275t345.5 106zM504 -203h201v-186q0 -109 -64.5 -180t-185.5 -97v58
q74 24 115 75t40 125h-106v205z" />
    <glyph glyph-name="scommaaccent" unicode="&#x219;" horiz-adv-x="929" 
d="M469 -27q-193 0 -290 87t-97 233v37h170v-29q0 -85 55 -133.5t164 -48.5q91 0 141 36.5t50 100.5q0 62 -49.5 94.5t-184.5 67.5q-169 41 -248.5 106t-79.5 187t98.5 204t266.5 82q174 0 268 -82t94 -221v-30h-168v18q0 81 -50 125.5t-146 44.5q-83 0 -132.5 -36.5
t-49.5 -94.5q0 -61 50.5 -93.5t182.5 -66.5q171 -41 250.5 -105.5t79.5 -187.5q0 -132 -99 -213.5t-276 -81.5zM360 -203h201v-188q0 -110 -63.5 -180t-184.5 -95v58q73 22 114 73.5t40 124.5h-107v207z" />
    <glyph glyph-name="schwa" unicode="&#x259;" horiz-adv-x="991" 
d="M899 420q0 -199 -110 -323t-300 -124q-131 0 -223 57.5t-135 153.5t-43 224v127h627v51q0 119 -59.5 187.5t-180.5 68.5q-101 0 -156 -49t-55 -123v-6h-174v12q0 141 103 232t284 91q208 0 315 -116.5t107 -319.5v-143zM489 129q108 0 167 71t59 195v21h-441v-29
q0 -122 53 -190t162 -68z" />
    <glyph glyph-name="circumflex" unicode="&#x2c6;" horiz-adv-x="1024" 
d="M426 1522h172q33 -124 87 -200t140 -112v-84q-101 17 -185.5 84t-127.5 162q-43 -95 -127.5 -162t-185.5 -84v84q86 36 140 112t87 200z" />
    <glyph glyph-name="caron" unicode="&#x2c7;" horiz-adv-x="1024" 
d="M199 1546q101 -15 185 -82t128 -161q44 94 128 161t185 82v-82q-86 -36 -140 -112t-87 -201h-172q-33 125 -87 201t-140 112v82z" />
    <glyph glyph-name="breve" unicode="&#x2d8;" horiz-adv-x="1024" 
d="M512 1286q96 0 141 35.5t45 108.5q0 41 -8 98h84q23 -82 23 -148q0 -120 -77 -183.5t-208 -63.5t-208 63.5t-77 183.5q0 66 23 148h84q-8 -57 -8 -98q0 -73 45 -108.5t141 -35.5z" />
    <glyph glyph-name="dotaccent" unicode="&#x2d9;" horiz-adv-x="1024" 
d="M406 1356h212v-195h-212v195z" />
    <glyph glyph-name="ring" unicode="&#x2da;" horiz-adv-x="1024" 
d="M512 1540q103 0 168 -61t65 -150q0 -90 -64.5 -151.5t-168.5 -61.5t-168.5 61.5t-64.5 151.5q0 89 65 150t168 61zM512 1456q-63 0 -100 -36.5t-37 -90.5t37 -90.5t100 -36.5t100 36.5t37 90.5t-37 90.5t-100 36.5z" />
    <glyph glyph-name="ogonek" unicode="&#x2db;" horiz-adv-x="1024" 
d="M700 -399l35 -74q-83 -59 -194 -59q-103 0 -163.5 50.5t-60.5 135.5q0 53 29 113q21 43 67 95.5t142 143.5l90 -6q-109 -132 -143 -199q-31 -67 -31 -116q0 -56 31 -84.5t86 -28.5t112 29z" />
    <glyph glyph-name="tilde" unicode="&#x2dc;" horiz-adv-x="1024" 
d="M358 1479q26 0 52 -9t42 -17.5t40 -31t31.5 -30.5t31.5 -35q24 -29 37.5 -43.5t35 -27.5t42.5 -13q31 0 52 23t21 71t-12 100h88q21 -73 21 -137q0 -94 -48 -148.5t-126 -54.5q-38 0 -73.5 17.5t-55 36t-48.5 51.5q-5 5 -18.5 21t-19 22t-17.5 18t-19.5 17l-18 12
t-21 9.5t-21.5 2.5q-31 0 -52 -23t-21 -71q0 -47 12 -100h-88q-21 73 -21 137q0 94 48 148.5t126 54.5z" />
    <glyph glyph-name="hungarumlaut" unicode="&#x2dd;" horiz-adv-x="1024" 
d="M545 1536l-283 -385h-115l197 385h201zM877 1536l-283 -385h-115l197 385h201z" />
    <glyph glyph-name="commaaccent" unicode="&#x326;" horiz-adv-x="1024" 
d="M436 -197h201v-188q0 -108 -63.5 -178t-184.5 -96v57q74 24 115 75t41 126h-109v204z" />
    <glyph glyph-name="baht" unicode="&#xe3f;" horiz-adv-x="1263" 
d="M729 0h-14v-223h-158v223h-360v1364h362v223h160v-223h10q203 0 303.5 -87.5t100.5 -240.5v-55q0 -119 -59.5 -188t-176.5 -99v-6q125 -30 188.5 -101t63.5 -192v-67q0 -154 -104.5 -241t-315.5 -87zM395 1204v-446h289q122 0 186 53t64 152v55q0 90 -60.5 138t-179.5 48
h-299zM395 618v-458h312q241 0 241 192v60q0 98 -66 152t-194 54h-293z" />
    <glyph glyph-name="Wgrave" unicode="&#x1e80;" horiz-adv-x="1841" 
d="M555 1905h233l205 -340h-133zM80 1364h217l242 -1077h4l288 1083h189l291 -1083h4l241 1077h207l-350 -1376h-205l-284 1044h-4l-291 -1044h-205z" />
    <glyph glyph-name="wgrave" unicode="&#x1e81;" horiz-adv-x="1449" 
d="M354 1536h232l205 -385h-127zM47 971h197l192 -742h4l199 742h178l203 -742h4l188 742h191l-289 -977h-180l-209 723h-4l-207 -723h-180z" />
    <glyph glyph-name="Wacute" unicode="&#x1e82;" horiz-adv-x="1841" 
d="M1298 1905l-303 -340h-135l207 340h231zM80 1364h217l242 -1077h4l288 1083h189l291 -1083h4l241 1077h207l-350 -1376h-205l-284 1044h-4l-291 -1044h-205z" />
    <glyph glyph-name="wacute" unicode="&#x1e83;" horiz-adv-x="1449" 
d="M1100 1536l-309 -385h-127l204 385h232zM47 971h197l192 -742h4l199 742h178l203 -742h4l188 742h191l-289 -977h-180l-209 723h-4l-207 -723h-180z" />
    <glyph glyph-name="Wdieresis" unicode="&#x1e84;" horiz-adv-x="1841" 
d="M651 1782h180v-205h-180v205zM1026 1782h182v-205h-182v205zM80 1364h217l242 -1077h4l288 1083h189l291 -1083h4l241 1077h207l-350 -1376h-205l-284 1044h-4l-291 -1044h-205z" />
    <glyph glyph-name="wdieresis" unicode="&#x1e85;" horiz-adv-x="1449" 
d="M467 1368h182v-207h-182v207zM819 1368h180v-207h-180v207zM47 971h197l192 -742h4l199 742h178l203 -742h4l188 742h191l-289 -977h-180l-209 723h-4l-207 -723h-180z" />
    <glyph glyph-name="Ygrave" unicode="&#x1ef2;" horiz-adv-x="1198" 
d="M281 1890h231l207 -340h-135zM43 1364h229l332 -647l330 647h221l-453 -838v-526h-206v526z" />
    <glyph glyph-name="ygrave" unicode="&#x1ef3;" horiz-adv-x="964" 
d="M182 1528h232l204 -385h-126zM47 971h201l246 -758h2l235 758h197l-328 -953q-35 -96 -65 -153t-74.5 -103.5t-105 -66t-146.5 -19.5h-80v150h39q88 0 135 30t70 101l14 43z" />
    <glyph glyph-name="enspace" unicode="&#x2002;" horiz-adv-x="1024" 
 />
    <glyph glyph-name="emspace" unicode="&#x2003;" horiz-adv-x="2048" 
 />
    <glyph glyph-name="threeperemspace" unicode="&#x2004;" horiz-adv-x="681" 
 />
    <glyph glyph-name="fourperemspace" unicode="&#x2005;" horiz-adv-x="512" 
 />
    <glyph glyph-name="thinspace" unicode="&#x2009;" horiz-adv-x="272" 
 />
    <glyph glyph-name="hairspace" unicode="&#x200a;" horiz-adv-x="153" 
 />
    <glyph glyph-name="endash" unicode="&#x2013;" horiz-adv-x="1175" 
d="M145 698h885v-157h-885v157z" />
    <glyph glyph-name="emdash" unicode="&#x2014;" horiz-adv-x="1726" 
d="M150 698h1427v-157h-1427v157z" />
    <glyph glyph-name="quoteleft" unicode="&#x2018;" horiz-adv-x="444" 
d="M326 807h-217v184q0 172 65.5 256.5t206.5 124.5v-65q-91 -48 -121.5 -99.5t-30.5 -146.5h97v-254z" />
    <glyph glyph-name="quoteright" unicode="&#x2019;" horiz-adv-x="444" 
d="M121 1364h215v-186q0 -88 -17 -152t-53 -108t-84.5 -71.5t-118.5 -47.5v63q91 48 121.5 100t30.5 148h-94v254z" />
    <glyph glyph-name="quotesinglbase" unicode="&#x201a;" horiz-adv-x="434" 
d="M113 254h215v-184q0 -172 -65 -256.5t-206 -124.5v63q91 50 121.5 101.5t30.5 146.5h-96v254z" />
    <glyph glyph-name="quotedblleft" unicode="&#x201c;" horiz-adv-x="817" 
d="M698 807h-217v184q0 89 17 153.5t53 108.5t84.5 71.5t118.5 47.5v-65q-91 -48 -121.5 -99.5t-30.5 -146.5h96v-254zM326 807h-217v184q0 172 65.5 256.5t206.5 124.5v-65q-91 -48 -121.5 -99.5t-30.5 -146.5h97v-254z" />
    <glyph glyph-name="quotedblright" unicode="&#x201d;" horiz-adv-x="817" 
d="M121 1364h215v-186q0 -171 -65.5 -255t-207.5 -124v63q92 48 123 100t31 148h-96v254zM494 1364h215v-186q0 -88 -17 -152t-53 -108t-84.5 -71.5t-118.5 -47.5v63q91 48 121.5 99.5t32.5 148.5h-96v254z" />
    <glyph glyph-name="quotedblbase" unicode="&#x201e;" horiz-adv-x="806" 
d="M113 256h217v-186q0 -89 -17 -153.5t-53 -108.5t-84.5 -71.5t-118.5 -47.5v65q91 48 121.5 99.5t30.5 146.5h-96v256zM485 256h215v-186q0 -173 -64.5 -257t-205.5 -124v65q90 49 121 100.5t31 145.5h-97v256z" />
    <glyph glyph-name="dagger" unicode="&#x2020;" horiz-adv-x="942" 
d="M395 694q0 130 41 277q-102 -37 -297 -37q-33 0 -33 29v84q0 26 33 26q196 0 297 -35q-39 153 -39 295q0 12 7.5 21.5t23.5 9.5h86q16 0 23.5 -9.5t7.5 -21.5q0 -129 -37 -295q99 35 297 35q31 0 31 -26v-84q0 -29 -31 -29q-194 0 -299 37q41 -147 41 -277
q0 -181 -31 -458q-3 -31 -29 -31h-34q-13 0 -18.5 7t-8.5 24q-31 277 -31 458z" />
    <glyph glyph-name="daggerdbl" unicode="&#x2021;" horiz-adv-x="942" 
d="M408 784q0 66 28 187q-102 -37 -297 -37q-33 0 -33 29v84q0 26 33 26q196 0 297 -35q-39 153 -39 295q0 12 7.5 21.5t23.5 9.5h86q16 0 23.5 -9.5t7.5 -21.5q0 -129 -37 -295q99 35 297 35q31 0 31 -26v-84q0 -29 -31 -29q-194 0 -299 37q29 -126 29 -187q0 -60 -29 -186
q105 37 299 37q31 0 31 -29v-84q0 -26 -31 -26q-201 0 -297 34q37 -166 37 -294q0 -12 -7.5 -21.5t-23.5 -9.5h-86q-16 0 -23.5 9.5t-7.5 21.5q0 141 39 294q-98 -34 -297 -34q-33 0 -33 26v84q0 29 33 29q195 0 297 -37q-28 121 -28 186z" />
    <glyph glyph-name="bullet" unicode="&#x2022;" horiz-adv-x="706" 
d="M606 682q0 -114 -71 -185t-181 -71q-113 0 -184.5 70.5t-71.5 185.5t71.5 185.5t184.5 70.5q110 0 181 -71t71 -185z" />
    <glyph glyph-name="ellipsis" unicode="&#x2026;" horiz-adv-x="1310" 
d="M111 254h213v-254h-213v254zM987 254h213v-254h-213v254zM551 254h211v-254h-211v254z" />
    <glyph glyph-name="guilsinglleft" unicode="&#x2039;" horiz-adv-x="741" 
d="M508 967h110q-57 -286 -296 -482q240 -196 296 -481h-110q-98 277 -406 424v115q308 147 406 424z" />
    <glyph glyph-name="guilsinglright" unicode="&#x203a;" horiz-adv-x="741" 
d="M233 4h-110q56 284 297 481q-241 197 -297 482h110q98 -277 406 -424v-115q-308 -147 -406 -424z" />
    <glyph glyph-name="fraction" unicode="&#x2044;" horiz-adv-x="284" 
d="M637 1364l-866 -1364h-125l864 1364h127z" />
    <glyph glyph-name="zero.sup" unicode="&#x2070;" 
d="M377 1442q151 0 236 -92t85 -256v-154q0 -165 -85 -256.5t-236 -91.5q-153 0 -238.5 91.5t-85.5 256.5v154q0 164 86 256t238 92zM377 1311q-84 0 -127 -56t-43 -161v-154q0 -105 43 -161t127 -56q83 0 126.5 56t43.5 161v154q0 105 -43.5 161t-126.5 56z" />
    <glyph glyph-name="four.sup" unicode="&#x2074;" 
d="M408 1421h188v-516h115v-117h-115v-176h-139v176h-432v113zM457 905v398l-289 -398h289z" />
    <glyph glyph-name="five.sup" unicode="&#x2075;" 
d="M123 1421h543q-6 -78 -26 -104.5t-81 -26.5h-309l-19 -235q99 73 211 73q116 0 177 -60t61 -165v-45q0 -118 -77.5 -190t-223.5 -72q-155 0 -227 63.5t-72 169.5v21h143v-12q0 -55 40 -88t114 -33q71 0 112 38.5t41 104.5v33q0 58 -34.5 93.5t-104.5 35.5q-96 0 -176 -76
l-123 23z" />
    <glyph glyph-name="six.sup" unicode="&#x2076;" 
d="M379 594q-151 0 -231 79t-80 236v191q0 160 82.5 249t240.5 89q77 0 135 -21t89.5 -55t46 -72t14.5 -78v-22h-144v10q0 49 -35.5 82t-105.5 33q-178 0 -178 -197v-92q74 84 215 84q124 0 192 -61.5t68 -159.5v-33q0 -117 -80.5 -189.5t-228.5 -72.5zM379 719
q73 0 116.5 36.5t43.5 98.5v18q0 60 -41 96t-115 36q-73 0 -119.5 -34t-46.5 -91v-21q0 -67 44.5 -103t117.5 -36z" />
    <glyph glyph-name="seven.sup" unicode="&#x2077;" 
d="M70 1421h628v-86q-151 -170 -224 -341t-91 -382h-170q15 189 92.5 349.5t233.5 322.5h-469v137z" />
    <glyph glyph-name="eight.sup" unicode="&#x2078;" 
d="M377 1440q145 0 225 -65.5t80 -168.5v-10q0 -59 -35 -104.5t-102 -71.5q72 -26 109.5 -75.5t37.5 -113.5v-10q0 -105 -82 -167t-233 -62t-233.5 62t-82.5 167v10q0 65 37.5 114t110.5 75q-67 26 -102 71.5t-35 104.5v10q0 103 79 168.5t226 65.5zM377 1319
q-72 0 -115 -32t-43 -87v-18q0 -50 45 -81.5t113 -31.5t113 31.5t45 81.5v18q0 55 -43.5 87t-114.5 32zM377 715q76 0 121 32.5t45 88.5v18q0 52 -46 83.5t-120 31.5t-120 -31.5t-46 -83.5v-18q0 -56 45 -88.5t121 -32.5z" />
    <glyph glyph-name="nine.sup" unicode="&#x2079;" 
d="M375 1440q152 0 231.5 -80.5t79.5 -237.5v-190q0 -158 -83 -247t-243 -89q-79 0 -137.5 20t-90 53.5t-46 70.5t-14.5 77v19h143v-7q0 -48 33.5 -79t109.5 -31q183 0 183 196v82q-72 -82 -217 -82q-122 0 -190 62t-68 158v39q0 118 80.5 192t228.5 74zM377 1313
q-73 0 -117.5 -37.5t-44.5 -99.5v-27q0 -57 41.5 -92t116.5 -35q70 0 118 33t48 90v26q0 67 -45.5 104.5t-116.5 37.5z" />
    <glyph glyph-name="zero.inf" unicode="&#x2080;" 
d="M377 510q151 0 236 -92t85 -256v-154q0 -165 -85 -256.5t-236 -91.5q-153 0 -238.5 91.5t-85.5 256.5v154q0 164 86 256t238 92zM377 379q-84 0 -127 -56t-43 -161v-154q0 -105 43 -161t127 -56q83 0 126.5 56t43.5 161v154q0 105 -43.5 161t-126.5 56z" />
    <glyph glyph-name="one.inf" unicode="&#x2081;" horiz-adv-x="600" 
d="M305 498h111v-817h-158v587h-184v115h73q75 0 111.5 26t46.5 89z" />
    <glyph glyph-name="two.inf" unicode="&#x2082;" 
d="M668 -319h-594v45q0 137 55 212t217 160q114 59 148 90.5t34 83.5q0 56 -39.5 83.5t-103.5 27.5q-75 0 -119.5 -35t-44.5 -98v-39h-141v47q0 111 80.5 179.5t228.5 68.5q145 0 218 -63.5t73 -166.5q0 -90 -54 -144.5t-208 -137.5q-108 -54 -143.5 -89t-36.5 -95h430v-129
z" />
    <glyph glyph-name="three.inf" unicode="&#x2083;" 
d="M379 506q140 0 218.5 -62t78.5 -157v-17q0 -65 -44.5 -113t-123.5 -65q84 -17 128 -64.5t44 -121.5v-15q0 -99 -79.5 -163t-221.5 -64q-157 0 -234 65t-77 169v41h141v-33q0 -56 41.5 -88.5t122.5 -32.5q70 0 112.5 31t42.5 86v16q0 115 -174 115h-80v108h80
q87 0 129.5 32t42.5 83v16q0 53 -41.5 83t-111.5 30q-79 0 -121.5 -34t-42.5 -87v-35h-139v43q0 100 78.5 167t230.5 67z" />
    <glyph glyph-name="four.inf" unicode="&#x2084;" 
d="M408 489h188v-516h115v-116h-115v-176h-139v176h-432v112zM457 -27v398l-289 -398h289z" />
    <glyph glyph-name="five.inf" unicode="&#x2085;" 
d="M123 489h543q-6 -78 -26 -104.5t-81 -26.5h-309l-19 -235q101 74 211 74q116 0 177 -60.5t61 -165.5v-45q0 -118 -77.5 -190t-223.5 -72q-155 0 -227 64.5t-72 169.5v20h143v-12q0 -55 40 -88t114 -33q71 0 112 38.5t41 104.5v33q0 58 -34.5 93.5t-104.5 35.5
q-96 0 -176 -76l-123 23z" />
    <glyph glyph-name="six.inf" unicode="&#x2086;" 
d="M379 -338q-151 0 -231 79t-80 236v191q0 160 82.5 249t240.5 89q77 0 135 -20.5t89.5 -55t46 -72t14.5 -77.5v-23h-144v12q0 48 -36 80.5t-105 32.5q-178 0 -178 -197v-92q74 84 215 84q124 0 192 -61t68 -160v-33q0 -117 -80.5 -189.5t-228.5 -72.5zM379 -213
q73 0 116.5 36.5t43.5 98.5v19q0 60 -41 95.5t-115 35.5q-73 0 -119.5 -34t-46.5 -91v-21q0 -67 44.5 -103t117.5 -36z" />
    <glyph glyph-name="seven.inf" unicode="&#x2087;" 
d="M70 489h628v-86q-151 -170 -224 -340.5t-91 -381.5h-170q15 189 92.5 349t233.5 322h-469v137z" />
    <glyph glyph-name="eight.inf" unicode="&#x2088;" 
d="M377 508q145 0 225 -65.5t80 -168.5v-10q0 -59 -35 -104.5t-102 -71.5q72 -26 109.5 -75t37.5 -113v-11q0 -105 -82 -167t-233 -62t-233.5 62t-82.5 167v11q0 65 37.5 113.5t110.5 74.5q-67 26 -102 71.5t-35 104.5v10q0 103 79 168.5t226 65.5zM377 387q-72 0 -115 -32
t-43 -87v-18q0 -50 45 -81.5t113 -31.5t113 31.5t45 81.5v18q0 55 -43.5 87t-114.5 32zM377 -217q76 0 121 32.5t45 88.5v18q0 52 -46 83.5t-120 31.5t-120 -31.5t-46 -83.5v-18q0 -56 45 -88.5t121 -32.5z" />
    <glyph glyph-name="nine.inf" unicode="&#x2089;" 
d="M375 508q152 0 231.5 -80.5t79.5 -237.5v-190q0 -158 -83 -247t-243 -89q-79 0 -137.5 20t-90 53.5t-46 70.5t-14.5 77v19h143v-6q0 -48 33.5 -79.5t109.5 -31.5q183 0 183 197v82q-72 -82 -217 -82q-122 0 -190 61.5t-68 157.5v39q0 118 80.5 192t228.5 74zM377 381
q-73 0 -117.5 -37.5t-44.5 -99.5v-27q0 -57 41.5 -92t116.5 -35q70 0 118 33t48 90v27q0 67 -45 104t-117 37z" />
    <glyph glyph-name="colonmonetary" unicode="&#x20a1;" horiz-adv-x="1261" 
d="M659 -29q-91 0 -167 21l-41 -223h-115l49 268q-122 68 -188 194t-66 293v316q0 239 135.5 391t364.5 162l35 194h114l-37 -198q89 -8 170 -46l45 244h115l-57 -311q129 -117 129 -318v-77h-197v67q0 119 -74 196t-210 77q-155 0 -242.5 -103t-87.5 -268v-336
q0 -163 88.5 -267t241.5 -104q135 0 209.5 77t74.5 196v67h197v-77q0 -163 -94.5 -278t-268.5 -146l-41 -213h-112l37 202h-7z" />
    <glyph glyph-name="naira" unicode="&#x20a6;" horiz-adv-x="1585" 
d="M485 1061l4 -1061h-180v463h-243v117h243v188h-243v115h243v481h215l570 -1059h4l-2 1059h182v-481h244v-115h-244v-188h244v-117h-244v-463h-217l-572 1061h-4z" />
    <glyph glyph-name="rupee" unicode="&#x20a8;" horiz-adv-x="2142" 
d="M395 543v-543h-198v1364h516q211 0 317.5 -93.5t106.5 -269.5v-92q0 -130 -73.5 -221.5t-205.5 -126.5l316 -561h-216l-301 543h-262zM395 707h279q130 0 197 56.5t67 156.5v69q0 108 -60.5 158.5t-193.5 50.5h-289v-491zM1657 -27q-193 0 -289 86.5t-96 233.5v37h170
v-29q0 -85 55 -133.5t164 -48.5q91 0 140.5 36.5t49.5 100.5q0 62 -49 94.5t-184 67.5q-169 41 -248.5 106t-79.5 187t98.5 204t266.5 82q174 0 268 -82t94 -221v-30h-168v18q0 81 -50.5 125.5t-147.5 44.5q-82 0 -131.5 -36.5t-49.5 -94.5q0 -61 51 -93t183 -67
q171 -41 250.5 -105.5t79.5 -187.5q0 -132 -99 -213.5t-278 -81.5z" />
    <glyph glyph-name="won" unicode="&#x20a9;" horiz-adv-x="1851" 
d="M924 1094l-232 -1100h-219l-92 461h-311v116h286l-37 185h-249v114h227l-100 494h192l207 -1116h4l229 1120h207l228 -1120h4l211 1116h176l-101 -494h230v-114h-254l-39 -185h293v-116h-316l-94 -461h-221l-225 1100h-4z" />
    <glyph glyph-name="sheqel" unicode="&#x20aa;" horiz-adv-x="1443" 
d="M141 1049h469q185 0 269 -72.5t84 -233.5v-403h-125v352q0 97 -45.5 143t-157.5 46h-324v-881h-170v1049zM1319 1049v-738q0 -162 -85 -236.5t-261 -74.5h-463v709h125v-541h309q113 0 159 44.5t46 143.5v693h170z" />
    <glyph glyph-name="Euro" unicode="&#x20ac;" horiz-adv-x="1335" 
d="M1217 395q0 -183 -128 -303.5t-358 -120.5q-238 0 -376.5 135.5t-147.5 382.5h-146v109h144v168h-144v108h146q9 247 148.5 383t377.5 136q232 0 358 -119t126 -305v-19h-191v13q0 110 -75.5 185t-215.5 75q-154 0 -240 -89.5t-92 -259.5h492v-108h-492v-168h492v-109
h-492q6 -168 92.5 -258t239.5 -90q139 0 215 75t76 185v11h191v-17z" />
    <glyph glyph-name="peso" unicode="&#x20b1;" horiz-adv-x="1439" 
d="M481 498v-498h-202v864h-238v133h238v367h483q210 0 319.5 -97t114.5 -270h229v-133h-229q-3 -174 -113 -270t-323 -96h-279zM479 1204v-549h258q256 0 256 232v88q0 229 -258 229h-256z" />
    <glyph glyph-name="rupeeindia" unicode="&#x20b9;" horiz-adv-x="1253" 
d="M469 524h-84l664 -524h-281l-635 516v139h283q160 0 237.5 53t91.5 164h-614v129h617q-14 112 -85.5 165t-224.5 53h-307v145h1057v-145h-371q111 -82 129 -211h242v-144h-240q-15 -163 -136 -251.5t-343 -88.5z" />
    <glyph glyph-name="ruble" unicode="&#x20bd;" horiz-adv-x="1318" 
d="M1085 262h-575v-262h-201v262h-243v119h243v188h-243v119h243v676h486q209 0 315.5 -93t106.5 -265v-82q0 -355 -426 -355h-281v-188h575v-119zM510 1204v-516h256q133 0 192.5 55.5t59.5 167.5v78q0 215 -250 215h-258z" />
    <glyph glyph-name="published" unicode="&#x2117;" horiz-adv-x="1748" 
d="M127 682q0 210 95.5 379t266 265.5t383.5 96.5q215 0 386.5 -96.5t267.5 -265.5t96 -379t-96 -379t-267.5 -265.5t-386.5 -96.5q-213 0 -383.5 96.5t-266 265.5t-95.5 379zM1520 682q0 184 -81.5 332.5t-230 233.5t-336.5 85q-187 0 -334.5 -85t-228 -233.5t-80.5 -332.5
t80.5 -332.5t228 -233.5t334.5 -85q188 0 336.5 85t230 233.5t81.5 332.5zM633 1036h297q133 0 193.5 -56.5t60.5 -178.5q0 -123 -62.5 -180.5t-195.5 -57.5h-158v-235h-135v708zM768 924v-248h135q85 0 115.5 28t30.5 97q0 66 -29.5 94.5t-112.5 28.5h-139z" />
    <glyph glyph-name="servicemark" unicode="&#x2120;" horiz-adv-x="1470" 
d="M330 1380q241 0 241 -211h-116q0 55 -29.5 83t-97.5 28q-56 0 -88.5 -22t-32.5 -54q0 -34 29.5 -51t121.5 -43q124 -35 172 -74t48 -114q0 -89 -65 -137t-181 -48q-254 0 -254 217h117q1 -61 35.5 -89.5t103.5 -28.5q59 0 92 20.5t33 56.5q0 37 -32 57t-122 44
q-119 30 -168 70t-49 114q0 80 65 131t177 51zM711 1364h186l145 -440h2l144 440h182v-612h-113v479h-14l-160 -479h-96l-160 479h-12v-479h-104v612z" />
    <glyph glyph-name="trademark" unicode="&#x2122;" horiz-adv-x="1447" 
d="M55 1364h523v-109h-201v-503h-117v503h-205v109zM686 1364h186l146 -440h4l143 440h181v-612h-113v479h-12l-160 -479h-96l-160 479h-12v-479h-107v612z" />
    <glyph glyph-name="onethird" unicode="&#x2153;" horiz-adv-x="1650" 
d="M305 1376h111v-817h-158v588h-184v115h73q75 0 111.5 25.5t46.5 88.5zM1231 1364l-864 -1364h-127l866 1364h125zM1278 825q140 0 218.5 -62t78.5 -157v-16q0 -65 -44.5 -113t-125.5 -65q85 -17 129.5 -65t44.5 -122v-14q0 -99 -80.5 -163t-222.5 -64q-156 0 -233.5 64.5
t-77.5 168.5v41h141v-33q0 -56 42 -88.5t122 -32.5q71 0 114 31t43 86v17q0 114 -176 114h-80v109h80q87 0 129.5 31.5t42.5 82.5v17q0 53 -41.5 83t-111.5 30q-79 0 -120.5 -33.5t-41.5 -87.5v-35h-141v43q0 100 78.5 166.5t232.5 66.5z" />
    <glyph glyph-name="twothirds" unicode="&#x2154;" horiz-adv-x="1859" 
d="M668 559h-594v45q0 137 55 213t217 160q114 59 148 90.5t34 83.5q0 56 -39.5 83.5t-103.5 27.5q-75 0 -119.5 -35.5t-44.5 -98.5v-38h-141v47q0 111 80.5 179t228.5 68q145 0 218 -63t73 -166q0 -47 -12.5 -82t-47 -68t-79 -62t-123.5 -71q-108 -54 -143.5 -89t-36.5 -95
h430v-129zM1440 1364l-867 -1364h-124l864 1364h127zM1485 825q140 0 218.5 -62t78.5 -157v-16q0 -65 -44.5 -113t-123.5 -65q84 -17 128 -65t44 -122v-14q0 -99 -80 -163t-223 -64q-156 0 -232.5 64.5t-76.5 168.5v41h141v-33q0 -56 41.5 -88.5t122.5 -32.5q70 0 112.5 31
t42.5 86v17q0 114 -174 114h-80v109h80q87 0 129.5 31.5t42.5 82.5v17q0 53 -41.5 83t-111.5 30q-79 0 -121.5 -34t-42.5 -87v-35h-139v43q0 100 78.5 166.5t230.5 66.5z" />
    <glyph glyph-name="onefifth" unicode="&#x2155;" horiz-adv-x="1665" 
d="M305 1376h111v-817h-158v588h-184v115h73q75 0 111.5 25.5t46.5 88.5zM1231 1364l-864 -1364h-127l866 1364h125zM1034 809h543q-6 -78 -26 -104.5t-81 -26.5h-309l-18 -236q101 74 213 74q115 0 176 -60t61 -165v-45q0 -117 -78.5 -189.5t-224.5 -72.5q-155 0 -227 64
t-72 169v21h144v-11q0 -57 39.5 -90t113.5 -33q71 0 112.5 39t41.5 105v33q0 58 -34.5 93.5t-104.5 35.5q-97 0 -177 -76l-122 22z" />
    <glyph glyph-name="twofifths" unicode="&#x2156;" horiz-adv-x="1873" 
d="M668 559h-594v45q0 137 55 213t217 160q114 59 148 90.5t34 83.5q0 56 -39.5 83.5t-103.5 27.5q-75 0 -119.5 -35.5t-44.5 -98.5v-38h-141v47q0 111 80.5 179t228.5 68q145 0 218 -63t73 -166q0 -47 -12.5 -82t-47 -68t-79 -62t-123.5 -71q-108 -54 -143.5 -89t-36.5 -95
h430v-129zM1440 1364l-867 -1364h-124l864 1364h127zM1243 809h543q-6 -78 -27 -104.5t-82 -26.5h-307l-18 -236q48 35 96 54.5t115 19.5q116 0 176.5 -60t60.5 -165v-45q0 -117 -78 -189.5t-223 -72.5q-155 0 -228 64t-73 169v21h145v-11q0 -57 39.5 -90t112.5 -33
q71 0 112.5 39t41.5 105v33q0 58 -34 93.5t-104 35.5q-98 0 -178 -76l-121 22z" />
    <glyph glyph-name="threefifths" unicode="&#x2157;" horiz-adv-x="1835" 
d="M379 1384q140 0 218.5 -62t78.5 -157v-16q0 -65 -44.5 -113t-123.5 -65q84 -17 128 -65t44 -122v-14q0 -99 -79.5 -163t-221.5 -64q-157 0 -234 64.5t-77 168.5v41h141v-33q0 -56 41.5 -88t122.5 -32q70 0 112.5 30.5t42.5 85.5v17q0 114 -174 114h-80v109h80
q87 0 129.5 32t42.5 83v16q0 53 -41.5 83t-111.5 30q-79 0 -121.5 -34t-42.5 -87v-35h-139v43q0 100 78.5 166.5t230.5 66.5zM1403 1364l-866 -1364h-125l864 1364h127zM1206 809h543q-6 -78 -27 -104.5t-82 -26.5h-309l-16 -236q97 74 211 74q116 0 176.5 -60t60.5 -165
v-45q0 -117 -78.5 -189.5t-224.5 -72.5q-154 0 -226.5 64t-72.5 169v21h144v-11q0 -57 39.5 -90t113.5 -33q71 0 112.5 39t41.5 105v33q0 58 -34 93.5t-105 35.5q-97 0 -177 -76l-122 22z" />
    <glyph glyph-name="fourfifths" unicode="&#x2158;" horiz-adv-x="1859" 
d="M408 1368h188v-516h115v-117h-115v-176h-139v176h-432v113zM1425 1364l-864 -1364h-127l866 1364h125zM457 852v397l-289 -397h289zM1229 809h543q-6 -78 -26 -104.5t-81 -26.5h-309l-17 -236q97 74 211 74q115 0 176.5 -60t61.5 -165v-45q0 -117 -78.5 -189.5
t-224.5 -72.5q-155 0 -227 64t-72 169v21h143v-11q0 -57 40 -90t114 -33q70 0 111.5 39t41.5 105v33q0 58 -34.5 93.5t-104.5 35.5q-96 0 -176 -76l-123 22z" />
    <glyph glyph-name="onesixth" unicode="&#x2159;" horiz-adv-x="1632" 
d="M305 1376h111v-817h-158v588h-184v115h73q75 0 111.5 25.5t46.5 88.5zM1231 1364l-864 -1364h-127l866 1364h125zM1257 -18q-151 0 -231 79t-80 236v190q0 160 82.5 249t241.5 89q77 0 135 -20.5t89 -55t45.5 -72t14.5 -77.5v-22h-143v12q0 48 -36 80t-105 32
q-178 0 -178 -196v-92q74 84 215 84q124 0 192 -61.5t68 -160.5v-32q0 -117 -81 -189.5t-229 -72.5zM1257 106q73 0 116.5 36.5t43.5 99.5v18q0 60 -40.5 95.5t-114.5 35.5q-73 0 -119.5 -34t-46.5 -91v-20q0 -67 44 -103.5t117 -36.5z" />
    <glyph glyph-name="fivesixths" unicode="&#x215a;" horiz-adv-x="1804" 
d="M123 1368h543q-6 -78 -26 -104.5t-81 -26.5h-309l-19 -236q101 74 211 74q116 0 177 -60t61 -165v-45q0 -118 -77.5 -190t-223.5 -72q-155 0 -227 63.5t-72 169.5v21h143v-13q0 -55 40 -87.5t114 -32.5q71 0 112 38.5t41 104.5v33q0 58 -34.5 93.5t-104.5 35.5
q-96 0 -176 -76l-123 22zM1405 1364l-866 -1364h-125l864 1364h127zM1430 -18q-151 0 -230.5 79t-79.5 236v190q0 160 82 249t240 89q78 0 136.5 -20.5t90 -55t46 -72t14.5 -77.5v-22h-146v12q0 48 -35.5 80t-103.5 32q-180 0 -180 -196v-92q74 84 215 84q124 0 192 -61.5
t68 -160.5v-32q0 -117 -80.5 -189.5t-228.5 -72.5zM1430 106q72 0 115.5 36.5t43.5 99.5v18q0 60 -40.5 95.5t-114.5 35.5q-73 0 -119.5 -34t-46.5 -91v-20q0 -67 44.5 -103.5t117.5 -36.5z" />
    <glyph glyph-name="oneeighth" unicode="&#x215b;" horiz-adv-x="1652" 
d="M305 1376h111v-817h-158v588h-184v115h73q75 0 111.5 25.5t46.5 88.5zM1231 1364l-864 -1364h-127l866 1364h125zM1276 827q147 0 226 -64.5t79 -168.5v-8q0 -125 -137 -178q73 -26 110 -75t37 -114v-10q0 -105 -82 -167t-233 -62t-233 62t-82 167v10q0 64 37.5 113.5
t109.5 75.5q-137 53 -137 178v8q0 104 79 168.5t226 64.5zM1276 707q-71 0 -113.5 -32t-42.5 -87v-19q0 -50 44 -81t112 -31q69 0 113.5 31t44.5 81v19q0 55 -43.5 87t-114.5 32zM1276 102q76 0 121 32.5t45 88.5v19q0 52 -46 83t-120 31t-119 -31t-45 -83v-19
q0 -56 44 -88.5t120 -32.5z" />
    <glyph glyph-name="threeeighths" unicode="&#x215c;" horiz-adv-x="1822" 
d="M379 1384q140 0 218.5 -62t78.5 -157v-16q0 -65 -44.5 -113t-123.5 -65q84 -17 128 -65t44 -122v-14q0 -99 -79.5 -163t-221.5 -64q-157 0 -234 64.5t-77 168.5v41h141v-33q0 -56 41.5 -88t122.5 -32q70 0 112.5 30.5t42.5 85.5v17q0 114 -174 114h-80v109h80
q87 0 129.5 32t42.5 83v16q0 53 -41.5 83t-111.5 30q-79 0 -121.5 -34t-42.5 -87v-35h-139v43q0 100 78.5 166.5t230.5 66.5zM1403 1364l-866 -1364h-125l864 1364h127zM1446 827q147 0 227 -64.5t80 -168.5v-8q0 -60 -35.5 -106t-101.5 -72q72 -26 108.5 -75t36.5 -114v-10
q0 -105 -82 -167t-233 -62t-233.5 62t-82.5 167v10q0 64 38 113.5t110 75.5q-137 53 -137 178v8q0 104 79.5 168.5t225.5 64.5zM1446 707q-71 0 -113.5 -32t-42.5 -87v-19q0 -50 44 -81t112 -31q69 0 113.5 31t44.5 81v19q0 55 -43 87t-115 32zM1446 102q76 0 121 32.5
t45 88.5v19q0 52 -46 83t-120 31t-119 -31t-45 -83v-19q0 -56 44 -88.5t120 -32.5z" />
    <glyph glyph-name="fiveeighths" unicode="&#x215d;" horiz-adv-x="1826" 
d="M123 1368h543q-6 -78 -26 -104.5t-81 -26.5h-309l-19 -236q101 74 211 74q116 0 177 -60t61 -165v-45q0 -118 -77.5 -190t-223.5 -72q-155 0 -227 63.5t-72 169.5v21h143v-13q0 -55 40 -87.5t114 -32.5q71 0 112 38.5t41 104.5v33q0 58 -34.5 93.5t-104.5 35.5
q-96 0 -176 -76l-123 22zM1405 1364l-866 -1364h-125l864 1364h127zM1448 827q147 0 227 -64.5t80 -168.5v-8q0 -60 -35.5 -106t-101.5 -72q72 -26 108.5 -75t36.5 -114v-10q0 -105 -82 -167t-233 -62t-233 62t-82 167v10q0 64 37.5 113.5t109.5 75.5q-137 53 -137 178v8
q0 104 79.5 168.5t225.5 64.5zM1448 707q-71 0 -113.5 -32t-42.5 -87v-19q0 -50 44 -81t112 -31q69 0 113.5 31t44.5 81v19q0 55 -43 87t-115 32zM1448 102q76 0 121 32.5t45 88.5v19q0 52 -45.5 83t-120.5 31q-74 0 -119 -31t-45 -83v-19q0 -56 44 -88.5t120 -32.5z" />
    <glyph glyph-name="seveneighths" unicode="&#x215e;" horiz-adv-x="1662" 
d="M70 1368h628v-86q-151 -170 -224 -341t-91 -382h-170q15 189 92.5 349.5t233.5 322.5h-469v137zM1241 1364l-864 -1364h-127l864 1364h127zM1286 827q147 0 226 -64.5t79 -168.5v-8q0 -125 -137 -178q73 -26 110.5 -75t37.5 -114v-10q0 -105 -82.5 -167t-233.5 -62
t-233 62t-82 167v10q0 65 37 114t110 75q-137 53 -137 178v8q0 104 79 168.5t226 64.5zM1286 707q-71 0 -114.5 -32t-43.5 -87v-19q0 -50 44.5 -81t113.5 -31t113.5 31t44.5 81v19q0 55 -43.5 87t-114.5 32zM1286 102q76 0 121 32.5t45 88.5v19q0 52 -46 83t-120 31
t-120 -31t-46 -83v-19q0 -56 45 -88.5t121 -32.5z" />
    <glyph glyph-name="minus" unicode="&#x2212;" horiz-adv-x="1091" 
d="M135 764h823v-164h-823v164z" />
    <glyph glyph-name="hcoslug" unicode="&#xe10b;" horiz-adv-x="1421" 
d="M1319 1434v-1639h-1217v1639h1217zM782 541q42 55 95 86q30 -52 88 -52q43 0 72.5 32t29.5 79t-29.5 77t-72.5 30q-70 0 -123 -78q-3 40 -30.5 59t-70.5 17q19 32 19 69q0 59 -52.5 105.5t-142.5 46.5q-99 0 -161 -52.5t-62 -121.5q0 -43 15 -75t49 -67
q-168 -57 -168 -186q0 -81 65 -136t158 -55q129 0 213 93q51 -52 89.5 -72.5t84.5 -20.5q68 0 114.5 53t49.5 140l-15 4q-34 -59 -88 -59q-30 0 -59 19.5t-68 64.5zM506 877q0 26 15 42.5t40 16.5q26 0 43 -21.5t17 -56.5q0 -46 -37 -102q-30 29 -42.5 42.5t-24 35
t-11.5 43.5zM639 700q61 42 86 70q23 -23 29 -49t-2 -52.5t-29 -62.5q-68 78 -84 94zM535 449q-46 0 -76.5 31.5t-30.5 78.5q0 49 33 82q72 -68 151 -168q-31 -24 -77 -24zM721 256v-106h12l8 16q10 -16 29 -16q17 0 25 13.5t8 29.5q0 18 -8.5 29t-22.5 11q-21 0 -27 -18v55
h-36v-14h12zM256 166v-14h61v14h-20v33h8q7 0 8.5 -3t3.5 -14h15v47h-15q-1 -8 -2 -10.5t-3 -4t-7 -1.5h-8v37h25q11 0 15 -5t7 -22h16v41h-104v-14h14v-84h-14zM586 254l-25 -4v-19h-14v-14h14v-41q0 -26 25 -26q22 0 28 26l-10 4q-3 -14 -10 -14q-8 0 -8 10v41h26v14h-26
v23zM356 193q0 -20 12 -31.5t31 -11.5t31 12t12 31q0 18 -12 29t-31 11t-31 -11t-12 -29zM618 180v-28h15l2 8q15 -10 27 -10q13 0 20.5 7.5t7.5 18.5q0 19 -24.5 25t-24.5 12q0 8 10 8q11 0 21 -14h14v26h-12l-4 -10q-7 10 -23 10q-13 0 -21 -7t-8 -17q0 -19 25 -26t25 -13
q0 -8 -11 -8q-12 0 -24 18h-15zM449 166v-14h45v14h-9v31q0 20 15 20q12 0 12 -14v-37h-8v-14h45v14h-12v39q0 28 -25 28q-20 0 -29 -22v20h-34v-14h12v-51h-12zM829 133q5 5 2.5 13t-12.5 8q-14 0 -14 -15q0 -18 22 -18q24 0 37 33l27 63h10v14h-35v-14h11l-17 -41l-18 41
h12v14h-51v-14h10q25 -47 33 -67q-3 -17 -17 -17zM416 193q0 -33 -17 -33q-16 0 -16 33q0 30 16 30q17 0 17 -30zM776 190q0 -26 -14 -26q-17 0 -17 26q0 27 17 27q14 0 14 -27zM565 14v-14h47v14h-10v52h29v-52h-10v-14h47v14h-13v107l-20 -4q-8 4 -19 4q-16 0 -27 -10
t-11 -29v-2h-15v-14h15v-52h-13zM961 55q0 -26 15.5 -41.5t43.5 -15.5q46 0 49 47h-16q-4 -33 -29 -33q-33 0 -33 45t29 45q12 0 18.5 -6.5t12.5 -25.5h16v45h-16l-2 -13q-15 15 -33 15q-22 0 -38.5 -17.5t-16.5 -44.5zM254 14v-14h59v14h-16v37h45v-37h-16v-14h59v14h-16
v84h16v15h-59v-15h16v-32h-45v32h16v15h-59v-15h16v-84h-16zM950 68h-37v-15h13q-2 -7 -13 -18q-4 4 -11.5 12.5t-12.5 13.5q22 9 22 25q0 10 -7.5 17.5t-20.5 7.5q-14 0 -24.5 -9t-10.5 -20q0 -13 12 -25q-26 -7 -26 -30q0 -29 36 -29q19 0 31 12q10 -12 25 -12q19 0 26 25
l-10 2q-3 -11 -8 -11t-12 11q12 16 18 28h10v15zM602 80v6q0 25 12 25l7 -2q-3 -3 -3 -7q0 -12 13 -12v-10h-29zM883 68q-13 13 -13 20q0 10 11 10q12 0 12 -12q0 -11 -10 -18zM506 37h53q3 45 -39 45q-17 0 -29 -12t-12 -31t11.5 -30t31.5 -11q30 0 37 29h-14
q-3 -15 -19 -15q-20 0 -20 25zM754 14v-14h53v14h-16v33q8 19 14 19v-3q0 -12 12 -12q14 0 14 15q0 16 -16 16q-15 0 -24 -23v21h-37v-14h12v-52h-12zM1075 41q0 -20 12 -31.5t31 -11.5t31 12t12 31t-12 30t-31 11t-31 -11t-12 -30zM387 41q0 -20 12 -31.5t31 -11.5t31 12
t12 31t-12 30t-31 11t-31 -11t-12 -30zM696 37h54q3 45 -39 45q-17 0 -29 -12t-12 -31t11.5 -30t31.5 -11q30 0 37 29h-15q-3 -15 -18 -15q-21 0 -21 25zM1135 41q0 -33 -17 -33q-16 0 -16 33q0 31 16 31q17 0 17 -31zM446 41q0 -33 -16 -33t-16 33q0 31 16 31t16 -31z
M696 47q0 25 15 25q14 0 14 -25h-29zM506 47q0 25 14 25q15 0 15 -25h-29zM895 18q-9 -6 -16 -6q-9 0 -15 6t-6 15q0 10 8 18q9 -9 29 -33zM1194 12q0 15 -14 15q-6 0 -10.5 -4.5t-4.5 -10.5q0 -14 15 -14q14 0 14 14z" />
    <glyph glyph-name="fi" unicode="&#xfb01;" horiz-adv-x="1177" 
d="M657 1417v-151h-73q-90 0 -130 -39t-40 -117v-139h235v-154h-235v-817h-193v817h-160v154h160v147q0 299 332 299h104zM827 1358h211v-197h-211v197zM836 971h194v-971h-194v971z" />
    <glyph glyph-name="fl" unicode="&#xfb02;" horiz-adv-x="1177" 
d="M657 1417v-151h-73q-90 0 -130 -39t-40 -117v-139h235v-154h-235v-817h-193v817h-160v154h160v147q0 299 332 299h104zM1030 1417v-1417h-194v1417h194z" />
    <glyph glyph-name="NUL" horiz-adv-x="0" 
 />
    <glyph glyph-name="Q.alt" horiz-adv-x="1335" 
d="M1036 -178v-144h-98q-203 0 -284 61t-81 208v43q-211 28 -330.5 173t-119.5 376v299q0 258 146.5 407.5t398.5 149.5t398 -149.5t146 -407.5v-299q0 -231 -118 -375.5t-328 -173.5v-51q0 -69 48.5 -93t174.5 -24h47zM668 1219q-155 0 -245.5 -100t-90.5 -271v-322
q0 -169 90.5 -268.5t245.5 -99.5q156 0 246 98.5t90 269.5v322q0 171 -90 271t-246 100z" />
    <glyph glyph-name="Q.alt2" horiz-adv-x="1347" 
d="M1317 -20q-56 -29 -123 -29q-65 0 -115 23t-102 85q-129 -90 -309 -90q-252 0 -398.5 150t-146.5 411v301q0 262 146.5 413t398.5 151t398 -151t146 -413v-301q0 -209 -108 -356q36 -43 66.5 -56.5t74.5 -13.5q29 0 72 9v-133zM958 360l17 -28q31 82 31 186v324
q0 175 -90 277t-248 102q-156 0 -246 -102t-90 -277v-299q0 -103 33 -176q18 108 91.5 165.5t174.5 57.5q75 0 134.5 -28.5t103 -76t89.5 -125.5zM463 297q0 -77 51.5 -118.5t153.5 -41.5q128 0 217 70l-25 43q-60 105 -114.5 152t-127.5 47q-72 0 -113.5 -44.5
t-41.5 -107.5z" />
    <glyph glyph-name="R.alt" horiz-adv-x="1261" 
d="M172 1364h533q210 0 315.5 -91.5t105.5 -256.5v-60q0 -132 -61.5 -205.5t-181.5 -105.5v-4q112 -29 163.5 -94.5t51.5 -194.5v-170q0 -54 19 -82t65 -43v-57h-127q-84 0 -125 43t-41 133v168q0 111 -54.5 161t-185.5 50h-270v-555h-207v1364zM379 1194v-477h272
q129 0 199 56t70 159v61q0 201 -250 201h-291z" />
    <glyph glyph-name="t.alt" horiz-adv-x="688" 
d="M213 1178l193 51v-258h247v-154h-247v-422q0 -158 30.5 -229.5t132.5 -142.5v-23h-231q-72 64 -98.5 137t-26.5 234v446h-156v154h156v207z" />
    <glyph glyph-name="Racute.alt" horiz-adv-x="1261" 
d="M950 1898l-303 -339h-135l207 339h231zM172 1364h533q210 0 315.5 -91.5t105.5 -256.5v-60q0 -132 -61.5 -205.5t-181.5 -105.5v-4q112 -29 163.5 -94.5t51.5 -194.5v-170q0 -54 19 -82t65 -43v-57h-127q-84 0 -125 43t-41 133v168q0 111 -54.5 161t-185.5 50h-270v-555
h-207v1364zM379 1194v-477h272q129 0 199 56t70 159v61q0 201 -250 201h-291z" />
    <glyph glyph-name="Rcaron.alt" horiz-adv-x="1261" 
d="M274 1913q110 -20 199 -79.5t137 -131.5q46 72 135 131t199 80v-84q-178 -69 -233 -264h-203q-55 194 -234 264v84zM172 1364h533q210 0 315.5 -91.5t105.5 -256.5v-60q0 -132 -61.5 -205.5t-181.5 -105.5v-4q112 -29 163.5 -94.5t51.5 -194.5v-170q0 -54 19 -82t65 -43
v-57h-127q-84 0 -125 43t-41 133v168q0 111 -54.5 161t-185.5 50h-270v-555h-207v1364zM379 1194v-477h272q129 0 199 56t70 159v61q0 201 -250 201h-291z" />
    <glyph glyph-name="Rcommaaccent.alt" horiz-adv-x="1261" 
d="M172 1364h533q210 0 315.5 -91.5t105.5 -256.5v-60q0 -132 -61.5 -205.5t-181.5 -105.5v-4q112 -29 163.5 -94.5t51.5 -194.5v-170q0 -54 19 -82t65 -43v-57h-127q-84 0 -125 43t-41 133v168q0 111 -54.5 161t-185.5 50h-270v-555h-207v1364zM379 1194v-477h272
q129 0 199 56t70 159v61q0 201 -250 201h-291zM545 -188h200v-189q0 -108 -64 -178t-185 -96v57q74 24 115 75t40 126h-106v205z" />
    <glyph glyph-name="tcaron.alt" horiz-adv-x="688" 
d="M571 1454h177l-91 -350h-102zM213 1178l193 51v-258h247v-154h-247v-422q0 -158 30.5 -229.5t132.5 -142.5v-23h-231q-72 64 -98.5 137t-26.5 234v446h-156v154h156v207z" />
    <glyph glyph-name="tcommaaccent.alt" horiz-adv-x="688" 
d="M213 1178l193 51v-258h247v-154h-247v-422q0 -158 30.5 -229.5t132.5 -142.5v-23h-231q-72 64 -98.5 137t-26.5 234v446h-156v154h156v207zM276 -197h199v-188q0 -108 -63.5 -178t-184.5 -96v57q74 24 115.5 75.5t40.5 125.5h-107v204z" />
    <glyph glyph-name="one.alt" horiz-adv-x="962" 
d="M913 0h-788v168h303v876h-326v154h88q157 0 222 38.5t75 141.5h144v-1210h282v-168z" />
    <glyph glyph-name="one.alt2" horiz-adv-x="610" 
d="M205 1231q97 14 100 153h103v-1384h-203v1231z" />
    <glyph glyph-name="colon.alt" horiz-adv-x="458" 
d="M121 1161h215v-254h-215v254zM121 459h215v-254h-215v254z" />
    <glyph glyph-name="guillemotleft.cap" horiz-adv-x="1253" 
d="M506 1163h112q-60 -288 -299 -481q122 -99 195 -216t104 -265h-112q-95 276 -404 424v114q308 148 404 424zM1018 1163h110q-56 -284 -297 -481q122 -100 195 -217t102 -264h-110q-98 277 -406 424v114q155 74 257 183t149 241z" />
    <glyph glyph-name="guillemotright.cap" horiz-adv-x="1245" 
d="M737 201h-110q60 287 297 481q-121 99 -194 216t-103 265h110q98 -277 406 -424v-114q-155 -74 -257 -183t-149 -241zM236 201h-113q60 288 299 481q-122 99 -195 216t-104 265h113q95 -276 403 -424v-114q-155 -74 -256 -183t-147 -241z" />
    <glyph glyph-name="guilsinglleft.cap" horiz-adv-x="741" 
d="M508 1163h110q-56 -285 -296 -481q122 -100 194.5 -217t101.5 -264h-110q-98 277 -406 424v114q155 74 257 183t149 241z" />
    <glyph glyph-name="guilsinglright.cap" horiz-adv-x="741" 
d="M233 201h-110q29 147 102 264t195 217q-241 197 -297 481h110q98 -277 406 -424v-114q-308 -147 -406 -424z" />
    <glyph glyph-name="hyphen.cap" horiz-adv-x="774" 
d="M115 762h544v-158h-544v158z" />
    <glyph glyph-name="endash.cap" horiz-adv-x="1175" 
d="M145 762h885v-158h-885v158z" />
    <glyph glyph-name="emdash.cap" horiz-adv-x="1726" 
d="M150 762h1427v-158h-1427v158z" />
    <glyph glyph-name="at.cap" horiz-adv-x="1599" 
d="M864 1456q164 0 293.5 -52.5t207 -139.5t117.5 -192.5t40 -219.5q0 -149 -53.5 -274.5t-147.5 -199t-207 -73.5q-101 0 -157.5 51.5t-53.5 132.5q-92 -167 -233 -167q-102 0 -159.5 68t-57.5 192q0 78 24.5 162.5t68.5 158t114 121t151 47.5q70 0 118.5 -37.5t63.5 -99.5
l39 123h152l-123 -404q-38 -129 -19.5 -190.5t95.5 -61.5q106 0 191 130t85 319q0 230 -150 370t-401 140q-190 0 -340.5 -96t-234.5 -267t-84 -385q0 -277 161.5 -441.5t446.5 -164.5q138 0 265 45.5t212 112.5l55 -82q-96 -75 -239 -124.5t-295 -49.5q-327 0 -521 192
t-194 510q0 183 58.5 341t160.5 268.5t244.5 173.5t306.5 63zM842 956q-56 0 -103 -40t-75 -100t-43 -121.5t-15 -112.5q0 -72 30.5 -109t84.5 -37q58 0 107.5 55t74.5 144l58 201q0 47 -32.5 83.5t-86.5 36.5z" />
    <glyph glyph-name="registered.large" horiz-adv-x="1748" 
d="M127 682q0 210 95.5 379t266 265.5t383.5 96.5q215 0 386.5 -96.5t267.5 -265.5t96 -379t-96 -379t-267.5 -265.5t-386.5 -96.5q-213 0 -383.5 96.5t-266 265.5t-95.5 379zM1520 682q0 184 -81.5 332.5t-230 233.5t-336.5 85q-187 0 -334.5 -85t-228 -233.5t-80.5 -332.5
t80.5 -332.5t228 -233.5t334.5 -85q188 0 336.5 85t230 233.5t81.5 332.5zM750 590v-262h-136v708h320q242 0 242 -223q0 -163 -144 -209l158 -276h-148l-147 262h-145zM750 924v-228h153q70 0 102.5 27t32.5 86q0 58 -30.5 86.5t-98.5 28.5h-159z" />
    <glyph glyph-name="registered.large_alt" horiz-adv-x="1748" 
d="M127 682q0 210 95.5 379t266 265.5t383.5 96.5q215 0 386.5 -96.5t267.5 -265.5t96 -379t-96 -379t-267.5 -265.5t-386.5 -96.5q-213 0 -383.5 96.5t-266 265.5t-95.5 379zM1520 682q0 184 -81.5 332.5t-230 233.5t-336.5 85q-187 0 -334.5 -85t-228 -233.5t-80.5 -332.5
t80.5 -332.5t228 -233.5t334.5 -85q188 0 336.5 85t230 233.5t81.5 332.5zM614 1036h324q238 0 238 -205q0 -82 -33 -122t-105 -60v-2q61 -14 89 -47.5t28 -95.5v-64q0 -30 9.5 -46t33.5 -27v-39h-90q-88 0 -88 94v74q0 49 -27 72.5t-94 23.5h-149v-264h-136v708zM750 924
v-226h151q72 0 105.5 26.5t33.5 86.5q0 59 -30.5 86t-98.5 27h-161z" />
    <glyph glyph-name="registered.alt" horiz-adv-x="1060" 
d="M530 1395q189 0 314 -124.5t125 -307.5t-125 -307t-314 -124q-190 0 -314 124t-124 307t124 307.5t314 124.5zM530 1327q-165 0 -264.5 -102.5t-99.5 -261.5q0 -158 99.5 -260.5t264.5 -102.5q163 0 263 102.5t100 260.5q0 159 -99.5 261.5t-263.5 102.5zM365 1184h204
q152 0 152 -125q0 -50 -21 -76t-63 -35v-2q37 -9 54.5 -30t17.5 -60v-22q0 -21 6 -32t24 -18v-30h-67q-56 0 -56 61v37q0 30 -16 43.5t-55 13.5h-90v-155h-90v430zM455 1108v-131h92q42 0 62 15.5t20 51.5q0 34 -18 49t-58 15h-98z" />
    <glyph glyph-name="R_p" horiz-adv-x="2258" 
d="M395 543v-543h-198v1364h516q211 0 317.5 -93.5t106.5 -269.5v-92q0 -130 -73.5 -221.5t-205.5 -126.5l316 -561h-216l-301 543h-262zM395 707h279q130 0 197 56.5t67 156.5v69q0 108 -60.5 158.5t-193.5 50.5h-289v-491zM1806 -25q-72 0 -131 25.5t-94.5 59t-71.5 83.5
v-462h-194v1290h164l14 -176q57 95 130.5 146.5t186.5 51.5q157 0 249.5 -107.5t92.5 -283.5v-233q0 -176 -95 -285t-251 -109zM1745 129q100 0 157.5 71t57.5 181v207q0 113 -57 184.5t-158 71.5q-96 0 -166 -77t-70 -192v-178q0 -115 70.5 -191.5t165.5 -76.5z" />
    <glyph glyph-name="R_p.alt" horiz-adv-x="2297" 
d="M197 1364h518q213 0 318.5 -91t105.5 -257v-58q0 -132 -62.5 -205.5t-183.5 -107.5v-4q114 -26 167.5 -92t53.5 -195v-172q0 -54 18.5 -82t63.5 -43v-57h-123q-164 0 -164 176v174q0 111 -55 160t-190 49h-269v-559h-198v1364zM395 1198v-483h275q130 0 200 56.5
t70 160.5v65q0 201 -252 201h-293zM1354 971h166l14 -176q57 95 130.5 146.5t186.5 51.5q157 0 248.5 -107.5t91.5 -283.5v-233q0 -176 -94.5 -285t-251.5 -109q-104 0 -172.5 45t-122.5 123v-462h-196v1290zM1786 844q-96 0 -166 -77t-70 -192v-178q0 -116 70 -192t166 -76
q100 0 156.5 70.5t56.5 181.5v207q0 112 -56.5 184t-156.5 72z" />
    <glyph glyph-name="rupee.alt" horiz-adv-x="2179" 
d="M197 1364h518q213 0 318.5 -91t105.5 -257v-58q0 -132 -62.5 -205.5t-183.5 -107.5v-4q114 -26 167.5 -92t53.5 -195v-172q0 -54 18.5 -82t63.5 -43v-57h-123q-164 0 -164 176v174q0 111 -55 160t-190 49h-269v-559h-198v1364zM395 1198v-483h275q130 0 200 56.5
t70 160.5v65q0 201 -252 201h-293zM1694 -27q-193 0 -289 86.5t-96 233.5v37h168v-29q0 -84 56 -133t165 -49q91 0 140.5 36.5t49.5 100.5q0 62 -49 94.5t-184 67.5q-169 41 -248.5 106t-79.5 187t98.5 204t266.5 82q174 0 268 -82t94 -221v-30h-168v18q0 81 -50.5 125.5
t-147.5 44.5q-82 0 -131.5 -36.5t-49.5 -94.5q0 -61 51 -93t183 -67q171 -41 250.5 -105.5t79.5 -187.5q0 -132 -99.5 -213.5t-277.5 -81.5z" />
    <glyph glyph-name="rupeeindia.alt" horiz-adv-x="1261" 
d="M1044 57v-57h-129q-87 0 -129 40.5t-45 133.5l-2 80q-3 130 -72 186t-249 56h-285v157h277q163 0 245 53t97 166h-621v127h621q-14 112 -88 166t-228 54h-305v145h1057v-145h-367q114 -79 135 -213h232v-144h-232q-41 -215 -294 -270v-6q82 -13 137 -38.5t87 -66t46 -91
t16 -122.5l4 -86q2 -53 21.5 -81.5t70.5 -43.5z" />
    <glyph glyph-name="onehalf.alt" horiz-adv-x="1861" 
d="M670 559h-578v121h221v463h-233v119h106q88 0 125.5 25t46.5 89h111v-696h201v-121zM1440 1364l-865 -1364h-126l864 1364h127zM1776 0h-594v45q0 137 55 213t217 160q114 59 148 90.5t34 83.5q0 56 -39.5 83t-103.5 27q-75 0 -119.5 -35t-44.5 -98v-39h-141v48
q0 111 80.5 179t228.5 68q145 0 218 -63t73 -166q0 -47 -12.5 -82t-47 -68t-79 -62t-123.5 -71q-108 -54 -143.5 -89t-36.5 -95h430v-129z" />
    <glyph glyph-name="onethird.alt" horiz-adv-x="1884" 
d="M690 559h-579v121h223v463h-236v119h109q89 0 125.5 25t44.5 89h110v-696h203v-121zM1460 1364l-866 -1364h-127l866 1364h127zM1511 825q140 0 218.5 -62t78.5 -157v-16q0 -65 -44.5 -113t-123.5 -65q83 -17 127.5 -65.5t44.5 -121.5v-14q0 -99 -80 -163t-223 -64
q-156 0 -232.5 64.5t-76.5 168.5v41h141v-33q0 -56 41.5 -88.5t122.5 -32.5q70 0 113 31t43 86v17q0 114 -174 114h-80v109h80q87 0 129.5 31.5t42.5 82.5v17q0 53 -42.5 83t-111.5 30q-79 0 -121.5 -34t-42.5 -87v-35h-141v43q0 100 79 166.5t232 66.5z" />
    <glyph glyph-name="onequarter.alt" horiz-adv-x="1783" 
d="M690 559h-579v121h223v463h-236v119h109q89 0 125.5 25t44.5 89h110v-696h203v-121zM1460 1364l-866 -1364h-127l866 1364h127zM1438 809h188v-516h115v-117h-115v-176h-141v176h-430v113zM1485 293v397l-289 -397h289z" />
    <glyph glyph-name="onefifth.alt" horiz-adv-x="1900" 
d="M690 559h-579v121h223v463h-236v119h109q89 0 125.5 25t44.5 89h110v-696h203v-121zM1460 1364l-866 -1364h-127l866 1364h127zM1272 809h540q-5 -78 -25 -104.5t-81 -26.5h-309l-17 -236q97 74 211 74q116 0 177 -60t61 -165v-45q0 -117 -78.5 -189.5t-224.5 -72.5
q-154 0 -226.5 64t-72.5 169v21h143v-11q0 -57 40 -90t114 -33q70 0 111.5 39t41.5 105v33q0 58 -34 93.5t-105 35.5q-96 0 -176 -76l-123 22z" />
    <glyph glyph-name="onesixth.alt" horiz-adv-x="1865" 
d="M690 559h-579v121h223v463h-236v119h109q89 0 125.5 25t44.5 89h110v-696h203v-121zM1460 1364l-866 -1364h-127l866 1364h127zM1491 -18q-151 0 -230 79t-79 236v190q0 160 81.5 249t239.5 89q78 0 136.5 -20.5t90 -55t46 -72t14.5 -77.5v-22h-143v12q0 47 -37 79.5
t-105 32.5q-178 0 -178 -196v-92q74 84 215 84q124 0 191 -61.5t67 -160.5v-32q0 -117 -80.5 -189.5t-228.5 -72.5zM1491 106q73 0 116.5 36.5t43.5 99.5v18q0 60 -40.5 95.5t-115.5 35.5q-73 0 -119.5 -34t-46.5 -91v-20q0 -67 44.5 -103.5t117.5 -36.5z" />
    <glyph glyph-name="oneeighth.alt" horiz-adv-x="1888" 
d="M690 559h-579v121h223v463h-236v119h109q89 0 125.5 25t44.5 89h110v-696h203v-121zM1460 1364l-866 -1364h-127l866 1364h127zM1509 827q147 0 227.5 -64.5t80.5 -168.5v-8q0 -60 -36 -106t-102 -72q72 -26 110 -75.5t38 -113.5v-10q0 -105 -83.5 -167t-234.5 -62
t-232 62t-81 167v10q0 65 36.5 114t108.5 75q-137 53 -137 178v8q0 104 79.5 168.5t225.5 64.5zM1509 707q-71 0 -113 -32t-42 -87v-19q0 -50 44 -81t111 -31q70 0 114 30.5t44 81.5v19q0 55 -43 87t-115 32zM1509 102q76 0 121 32.5t45 88.5v19q0 52 -45.5 83t-120.5 31
q-74 0 -118.5 -31t-44.5 -83v-19q0 -56 43.5 -88.5t119.5 -32.5z" />
    <glyph glyph-name="one.sup_alt" 
d="M690 612h-579v121h223v463h-236v119h109q88 0 125 25.5t45 89.5h110v-697h203v-121z" />
    <glyph glyph-name="one.inf_alt" 
d="M690 -319h-579v120h223v463h-236v119h109q88 0 125 25.5t45 89.5h110v-697h203v-120z" />
    <glyph glyph-name="zero.tab" horiz-adv-x="1196" 
d="M598 1395q237 0 368.5 -148t131.5 -413v-304q0 -264 -131.5 -412.5t-368.5 -148.5q-236 0 -368 149t-132 412v308q0 263 131.5 410t368.5 147zM598 1225q-146 0 -224.5 -101.5t-78.5 -287.5v-308q0 -186 78.5 -286.5t224.5 -100.5q147 0 225 100t78 287v308
q0 187 -78 288t-225 101z" />
    <glyph glyph-name="one.tab" horiz-adv-x="1196" 
d="M614 1378h148v-1214h379v-164h-985v164h409v878h-434v154h191q155 0 218.5 38.5t73.5 143.5z" />
    <glyph glyph-name="two.tab" horiz-adv-x="1196" 
d="M621 1395q227 0 341.5 -104.5t114.5 -278.5q0 -49 -9 -90.5t-23 -74.5t-43.5 -66t-57 -57.5t-79.5 -56.5t-94 -55.5t-116 -62.5q-191 -98 -253.5 -171t-63.5 -200h725v-178h-940v76q0 95 12 163t39 127.5t79 111.5t123 101.5t181 110.5q195 105 256 164t61 156
q0 105 -69.5 158t-190.5 53q-130 0 -205 -61.5t-75 -178.5v-72h-191v80q0 185 126.5 295.5t351.5 110.5z" />
    <glyph glyph-name="three.tab" horiz-adv-x="1196" 
d="M604 1393q113 0 202 -29t144.5 -79t84 -115t28.5 -140v-29q0 -111 -69 -195t-197 -112q272 -60 272 -307v-35q0 -163 -123 -272t-344 -109q-129 0 -224.5 30t-150 84t-80.5 121.5t-26 149.5v64h192v-55q0 -103 70 -162.5t211 -59.5q128 0 201 58.5t73 165.5v32
q0 213 -290 213h-140v154h140q144 0 215 57t71 156v27q0 104 -71.5 159.5t-198.5 55.5q-137 0 -209 -62t-72 -160v-55h-190v64q0 77 27.5 144t82.5 122t150.5 87t220.5 32z" />
    <glyph glyph-name="four.tab" horiz-adv-x="1196" 
d="M692 1364h250v-907h199v-160h-199v-297h-182v297h-694v145zM760 457v729l-500 -729h500z" />
    <glyph glyph-name="five.tab" horiz-adv-x="1196" 
d="M692 877q202 0 303 -104.5t101 -285.5v-77q0 -199 -125.5 -319t-358.5 -120q-247 0 -364 108t-117 286v16h191v-10q0 -110 73 -169t213 -59q130 0 208.5 65.5t78.5 197.5v65q0 117 -61.5 182.5t-190.5 65.5q-172 0 -330 -137l-159 32l53 750h862q-9 -107 -37 -141.5
t-117 -34.5h-540l-33 -445q154 134 350 134z" />
    <glyph glyph-name="six.tab" horiz-adv-x="1196" 
d="M602 -29q-238 0 -359.5 128.5t-121.5 365.5v397q0 248 128.5 389.5t375.5 141.5q96 0 174 -22t127 -57.5t82.5 -83.5t47 -96.5t13.5 -99.5v-53h-188v27q0 102 -66.5 159.5t-187.5 57.5q-155 0 -235.5 -88t-80.5 -263v-192q22 29 50.5 54t72 51t104.5 41.5t132 15.5
q195 0 305 -103.5t110 -275.5v-62q0 -193 -128.5 -312.5t-354.5 -119.5zM602 139q128 0 207.5 64t79.5 196v41q0 127 -73.5 191.5t-203.5 64.5q-127 0 -212 -63.5t-85 -179.5v-50q0 -131 80 -197.5t207 -66.5z" />
    <glyph glyph-name="seven.tab" horiz-adv-x="1196" 
d="M578 0h-220q25 316 155.5 598t397.5 586h-815v180h1028v-121q-257 -307 -386 -601t-160 -642z" />
    <glyph glyph-name="eight.tab" horiz-adv-x="1196" 
d="M600 1395q222 0 342.5 -107t120.5 -276v-19q0 -107 -57 -185.5t-166 -119.5q241 -87 241 -319v-23q0 -173 -126 -275t-355 -102q-231 0 -357 102t-126 275v23q0 231 248 319q-111 41 -170.5 119.5t-59.5 185.5v19q0 170 120 276.5t345 106.5zM600 1231q-126 0 -199 -58.5
t-73 -166.5v-31q0 -105 74.5 -162t197.5 -57q122 0 196 57t74 162v31q0 108 -73 166.5t-197 58.5zM600 133q132 0 209.5 59t77.5 170v27q0 111 -77.5 170t-209.5 59q-133 0 -211 -59t-78 -170v-27q0 -111 77.5 -170t211.5 -59z" />
    <glyph glyph-name="nine.tab" horiz-adv-x="1196" 
d="M594 1395q238 0 359.5 -129t121.5 -363v-397q0 -249 -129.5 -392t-378.5 -143q-96 0 -173.5 22.5t-127.5 58t-83.5 82.5t-47.5 94.5t-14 95.5v43h188v-21q0 -94 67.5 -150.5t188.5 -56.5q318 0 318 350v173q-125 -162 -355 -162q-199 0 -308 104t-109 275v82
q0 193 127 313.5t356 120.5zM592 1227q-128 0 -206.5 -64.5t-78.5 -199.5v-58q0 -130 72.5 -193t204.5 -63q127 0 211 64t84 180v63q0 137 -79.5 204t-207.5 67z" />
    <glyph glyph-name="dollar.tab" horiz-adv-x="1196" 
d="M1071 371q0 -161 -102 -261t-281 -120v-215h-162v213q-203 18 -303 122.5t-100 272.5v61h192v-49q0 -116 73 -182t218 -66q126 0 197 53.5t71 153.5q0 97 -68 148t-251 112q-220 63 -316 147t-96 238q0 150 103.5 253t281.5 122v213h164v-213q187 -21 276 -124t89 -261
v-49h-191v45q0 105 -62.5 168.5t-205.5 63.5q-121 0 -189.5 -56t-68.5 -145q0 -49 15.5 -83t56 -63t94.5 -51.5t147 -52.5q113 -35 186.5 -68.5t128.5 -79.5t79 -106t24 -141z" />
    <glyph glyph-name="sterling.tab" horiz-adv-x="1196" 
d="M838 -31q-50 0 -96 13t-91.5 41.5t-74 50.5t-74.5 61q-37 -77 -101.5 -121.5t-142.5 -44.5q-105 0 -163 55.5t-58 147.5q0 89 60.5 148t164.5 59q77 0 162 -45q0 8 1 26t1 29q0 109 -53 225h-244v125h184q-71 146 -71 281q0 164 108.5 269.5t315.5 105.5q201 0 306 -104
t105 -285v-62h-180v41q0 118 -61 179t-170 61q-104 0 -168 -56.5t-64 -164.5q0 -48 13 -101.5t22.5 -77t36.5 -86.5h379v-125h-332q29 -100 29 -194q0 -80 -31 -168q64 -44 89.5 -60.5t75 -37.5t89.5 -21q73 0 110 45t37 160v78h170v-86q0 -184 -68.5 -272.5t-215.5 -88.5z
M158 170q0 -43 26.5 -69.5t75.5 -26.5q51 0 89 36.5t57 102.5q-78 55 -144 55q-51 0 -77.5 -27t-26.5 -71z" />
    <glyph glyph-name="Euro.tab" horiz-adv-x="1196" 
d="M1102 389q0 -185 -114 -301.5t-326 -116.5q-226 0 -351 133t-131 385h-139v109h139v168h-139v108h139q7 251 133.5 385t350.5 134q215 0 326.5 -115t111.5 -303v-27h-182v19q0 113 -63.5 186.5t-190.5 73.5q-289 0 -295 -353h432v-108h-432v-168h432v-109h-432
q3 -173 77 -262.5t218 -89.5q126 0 189 73t65 187v17h182v-25z" />
    <glyph glyph-name="yen.tab" horiz-adv-x="1196" 
d="M1065 244h-371v-244h-188v244h-377v118h377v150l-14 31h-363v116h303l-362 705h211l327 -668l322 668h200l-360 -705h295v-116h-354l-17 -31v-150h371v-118z" />
    <glyph glyph-name="cent.tab" horiz-adv-x="1196" 
d="M1020 528q0 -134 -84.5 -230.5t-239.5 -117.5v-192h-161v192q-172 23 -264.5 140t-92.5 303v118q0 183 94.5 300.5t262.5 142.5v190h161v-188q157 -20 240.5 -115.5t83.5 -234.5v-13h-182v6q0 83 -54 139t-163 56q-122 0 -185 -72t-63 -196v-148q0 -123 62 -195.5
t181 -72.5q109 0 165.5 56.5t56.5 138.5v6h182v-13z" />
    <glyph glyph-name="numbersign.tab" horiz-adv-x="1196" 
d="M645 0l51 369h-286l-52 -369h-143l53 369h-219v135h238l51 356h-236v135h256l52 369h143l-53 -369h286l54 369h143l-53 -369h217v-135h-238l-49 -356h236v-135h-256l-54 -369h-141zM430 504h287l51 356h-287z" />
    <glyph glyph-name="degree.tab" horiz-adv-x="1196" 
d="M598 1395q187 0 295 -107t108 -278q0 -173 -109 -280t-294 -107t-293 107t-108 280q0 171 107.5 278t293.5 107zM598 1260q-116 0 -181 -67t-65 -183q0 -118 66 -185t180 -67q117 0 182.5 66.5t65.5 185.5q0 116 -65 183t-183 67z" />
    <glyph glyph-name="percent.tab" horiz-adv-x="1796" 
d="M471 1391q137 0 217 -83.5t80 -222.5v-90q0 -139 -81 -222t-218 -83t-218 83t-81 222v90q0 138 81 222t220 84zM1536 1376l-1120 -1388h-156l1120 1388h156zM469 1268q-79 0 -119.5 -49.5t-40.5 -131.5v-94q0 -81 41.5 -130.5t120.5 -49.5q77 0 117.5 49.5t40.5 130.5v94
q0 82 -40 131.5t-120 49.5zM1325 -27q-137 0 -218 83t-81 220v93q0 138 80.5 221.5t218.5 83.5q140 0 220.5 -83.5t80.5 -221.5v-93q0 -137 -82 -220t-219 -83zM1325 96q79 0 119.5 48.5t40.5 131.5v93q0 83 -40 132.5t-120 49.5q-79 0 -118.5 -49.5t-39.5 -132.5v-93
q0 -82 40.5 -131t117.5 -49z" />
    <glyph glyph-name="quotedbl.tab" horiz-adv-x="1196" 
d="M350 1364h215l-194 -633h-125zM786 1364h213l-208 -633h-127z" />
    <glyph glyph-name="quotesingle.tab" horiz-adv-x="598" 
d="M266 1364h217l-186 -633h-131z" />
    <glyph glyph-name="period.tab" horiz-adv-x="598" 
d="M190 254h216v-254h-216v254z" />
    <glyph glyph-name="comma.tab" horiz-adv-x="598" 
d="M190 254h216v-184q0 -172 -65 -256.5t-206 -124.5v63q91 50 121.5 101.5t30.5 146.5h-97v254z" />
    <glyph glyph-name="colon.tab" horiz-adv-x="598" 
d="M190 956h216v-254h-216v254zM190 254h216v-254h-216v254z" />
    <glyph glyph-name="semicolon.tab" horiz-adv-x="598" 
d="M190 956h216v-254h-216v254zM190 254h216v-184q0 -172 -65 -256.5t-206 -124.5v63q91 50 121.5 101.5t30.5 146.5h-97v254z" />
    <glyph glyph-name="periodcentered.tab" horiz-adv-x="598" 
d="M190 811h216v-256h-216v256z" />
    <glyph glyph-name="slash.tab" horiz-adv-x="1196" 
d="M969 1559h172l-905 -1878h-170z" />
    <glyph glyph-name="bar.tab" horiz-adv-x="598" 
d="M219 1559h160v-1878h-160v1878z" />
    <glyph glyph-name="underscore.tab" horiz-adv-x="1196" 
d="M68 -186h1060v-133h-1060v133z" />
    <glyph glyph-name="plus.tab" horiz-adv-x="1196" 
d="M520 1118h160v-358h356v-156h-356v-360h-160v360h-360v156h360v358z" />
    <glyph glyph-name="minus.tab" horiz-adv-x="1196" 
d="M180 764h838v-162h-838v162z" />
    <glyph glyph-name="divide.tab" horiz-adv-x="1196" 
d="M502 1118h192v-184h-192v184zM172 758h854v-150h-854v150zM502 432h192v-184h-192v184z" />
    <glyph glyph-name="equal.tab" horiz-adv-x="1196" 
d="M188 967h822v-156h-822v156zM188 553h822v-156h-822v156z" />
    <glyph glyph-name="multiply.tab" horiz-adv-x="1196" 
d="M891 264l-293 303l-295 -305l-115 113l299 307l-297 307l115 111l293 -303l293 303l115 -111l-297 -307l297 -307z" />
    <glyph glyph-name="less.tab" horiz-adv-x="1196" 
d="M936 1149v-178l-578 -289l578 -289v-178l-772 391v154z" />
    <glyph glyph-name="greater.tab" horiz-adv-x="1196" 
d="M244 1149l772 -391v-154l-772 -389v178l579 289l-579 289v178z" />
    <glyph glyph-name="plusminus.tab" horiz-adv-x="1196" 
d="M522 1264h154v-340h334v-148h-334v-340h-154v340h-336v148h336v340zM186 270h824v-149h-824v149z" />
    <glyph glyph-name="onehalf.tab" horiz-adv-x="1796" 
d="M690 559h-579v121h223v463h-236v119h109q89 0 125.5 25t44.5 89h110v-696h203v-121zM1415 1364l-864 -1364h-127l866 1364h125zM1710 0h-596v45q0 137 55 213t217 160q115 59 149 90.5t34 83.5q0 56 -39.5 83t-104.5 27q-75 0 -119 -35t-44 -98v-39h-142v48q0 111 81 179
t229 68q147 0 219.5 -63t72.5 -166q0 -90 -54.5 -145.5t-209.5 -137.5q-108 -54 -143.5 -89t-36.5 -95h432v-129z" />
    <glyph glyph-name="onethird.tab" horiz-adv-x="1796" 
d="M690 559h-579v121h223v463h-236v119h109q89 0 125.5 25t44.5 89h110v-696h203v-121zM1415 1364l-864 -1364h-127l866 1364h125zM1421 825q140 0 217.5 -62t77.5 -157v-16q0 -65 -44.5 -113t-123.5 -65q85 -17 129.5 -65t44.5 -122v-14q0 -99 -80.5 -163t-222.5 -64
q-156 0 -233.5 64.5t-77.5 168.5v41h141v-33q0 -56 42 -88.5t122 -32.5q71 0 113.5 31t42.5 86v17q0 114 -174 114h-80v109h80q87 0 129.5 31.5t42.5 82.5v17q0 53 -42 83t-112 30q-79 0 -120.5 -33.5t-41.5 -87.5v-35h-141v43q0 100 78.5 166.5t232.5 66.5z" />
    <glyph glyph-name="twothirds.tab" horiz-adv-x="1796" 
d="M668 559h-594v45q0 137 55 213t217 160q114 59 148 90.5t34 83.5q0 56 -39.5 83.5t-103.5 27.5q-75 0 -119.5 -35.5t-44.5 -98.5v-38h-141v47q0 111 80.5 179t228.5 68q145 0 218 -63t73 -166q0 -47 -12.5 -82t-47 -68t-79 -62t-123.5 -71q-108 -54 -143.5 -89t-36.5 -95
h430v-129zM1403 1364l-866 -1364h-125l864 1364h127zM1421 825q140 0 217.5 -62t77.5 -157v-16q0 -65 -44.5 -113t-123.5 -65q85 -17 129.5 -65t44.5 -122v-14q0 -99 -80.5 -163t-222.5 -64q-156 0 -233.5 64.5t-77.5 168.5v41h141v-33q0 -56 42 -88.5t122 -32.5
q71 0 113.5 31t42.5 86v17q0 114 -174 114h-80v109h80q87 0 129.5 31.5t42.5 82.5v17q0 53 -42 83t-112 30q-79 0 -120.5 -33.5t-41.5 -87.5v-35h-141v43q0 100 78.5 166.5t232.5 66.5z" />
    <glyph glyph-name="onequarter.tab" horiz-adv-x="1796" 
d="M690 559h-579v121h223v463h-236v119h109q89 0 125.5 25t44.5 89h110v-696h203v-121zM1470 1364l-866 -1364h-125l864 1364h127zM1448 809h190v-516h113v-117h-113v-176h-141v176h-432v113zM1497 293v397l-289 -397h289z" />
    <glyph glyph-name="threequarters.tab" horiz-adv-x="1796" 
d="M379 1384q140 0 218.5 -62t78.5 -157v-16q0 -65 -44.5 -113t-123.5 -65q84 -17 128 -65t44 -122v-14q0 -99 -79.5 -163t-221.5 -64q-157 0 -234 64.5t-77 168.5v41h141v-33q0 -56 41.5 -88t122.5 -32q70 0 112.5 30.5t42.5 85.5v17q0 114 -174 114h-80v109h80
q87 0 129.5 32t42.5 83v16q0 53 -41.5 83t-111.5 30q-79 0 -121.5 -34t-42.5 -87v-35h-139v43q0 100 78.5 166.5t230.5 66.5zM1444 1364l-866 -1364h-125l864 1364h127zM1448 809h190v-516h113v-117h-113v-176h-141v176h-432v113zM1497 293v397l-289 -397h289z" />
    <glyph glyph-name="onefifth.tab" horiz-adv-x="1796" 
d="M690 559h-579v121h223v463h-236v119h109q89 0 125.5 25t44.5 89h110v-696h203v-121zM1413 1364l-864 -1364h-127l866 1364h125zM1165 809h541q-5 -77 -25.5 -104t-81.5 -27h-309l-16 -236q97 74 211 74q116 0 176.5 -60t60.5 -165v-45q0 -117 -78.5 -189.5t-224.5 -72.5
q-154 0 -226.5 64t-72.5 169v21h144v-11q0 -57 39.5 -90t113.5 -33q71 0 112.5 39t41.5 105v33q0 58 -34 93.5t-105 35.5q-97 0 -177 -76l-122 22z" />
    <glyph glyph-name="twofifths.tab" horiz-adv-x="1796" 
d="M668 559h-594v45q0 137 55 213t217 160q114 59 148 90.5t34 83.5q0 56 -39.5 83.5t-103.5 27.5q-75 0 -119.5 -35.5t-44.5 -98.5v-38h-141v47q0 111 80.5 179t228.5 68q145 0 218 -63t73 -166q0 -47 -12.5 -82t-47 -68t-79 -62t-123.5 -71q-108 -54 -143.5 -89t-36.5 -95
h430v-129zM1399 1364l-867 -1364h-124l864 1364h127zM1165 809h541q-5 -77 -25.5 -104t-81.5 -27h-309l-16 -236q97 74 211 74q116 0 176.5 -60t60.5 -165v-45q0 -117 -78.5 -189.5t-224.5 -72.5q-154 0 -226.5 64t-72.5 169v21h144v-11q0 -57 39.5 -90t113.5 -33
q71 0 112.5 39t41.5 105v33q0 58 -34 93.5t-105 35.5q-97 0 -177 -76l-122 22z" />
    <glyph glyph-name="threefifths.tab" horiz-adv-x="1796" 
d="M379 1384q140 0 218.5 -62t78.5 -157v-16q0 -65 -44.5 -113t-123.5 -65q84 -17 128 -65t44 -122v-14q0 -99 -79.5 -163t-221.5 -64q-157 0 -234 64.5t-77 168.5v41h141v-33q0 -56 41.5 -88t122.5 -32q70 0 112.5 30.5t42.5 85.5v17q0 114 -174 114h-80v109h80
q87 0 129.5 32t42.5 83v16q0 53 -41.5 83t-111.5 30q-79 0 -121.5 -34t-42.5 -87v-35h-139v43q0 100 78.5 166.5t230.5 66.5zM1386 1364l-866 -1364h-125l865 1364h126zM1165 809h541q-5 -77 -25.5 -104t-81.5 -27h-309l-16 -236q97 74 211 74q116 0 176.5 -60t60.5 -165
v-45q0 -117 -78.5 -189.5t-224.5 -72.5q-154 0 -226.5 64t-72.5 169v21h144v-11q0 -57 39.5 -90t113.5 -33q71 0 112.5 39t41.5 105v33q0 58 -34 93.5t-105 35.5q-97 0 -177 -76l-122 22z" />
    <glyph glyph-name="fourfifths.tab" horiz-adv-x="1796" 
d="M408 1368h188v-516h115v-117h-115v-176h-139v176h-432v113zM1393 1364l-867 -1364h-125l865 1364h127zM457 852v397l-289 -397h289zM1165 809h541q-5 -77 -25.5 -104t-81.5 -27h-309l-16 -236q97 74 211 74q116 0 176.5 -60t60.5 -165v-45q0 -117 -78.5 -189.5
t-224.5 -72.5q-154 0 -226.5 64t-72.5 169v21h144v-11q0 -57 39.5 -90t113.5 -33q71 0 112.5 39t41.5 105v33q0 58 -34 93.5t-105 35.5q-97 0 -177 -76l-122 22z" />
    <glyph glyph-name="onesixth.tab" horiz-adv-x="1796" 
d="M690 559h-579v121h223v463h-236v119h109q89 0 125.5 25t44.5 89h110v-696h203v-121zM1430 1364l-867 -1364h-125l865 1364h127zM1419 -18q-151 0 -230 79t-79 236v190q0 160 82 249t240 89q78 0 136.5 -20.5t89.5 -55t45.5 -72t14.5 -77.5v-22h-143v12q0 48 -36.5 80
t-104.5 32q-181 0 -181 -196v-92q74 84 217 84q123 0 191 -62t68 -160v-32q0 -117 -81 -189.5t-229 -72.5zM1419 106q73 0 116.5 36.5t43.5 99.5v18q0 60 -41 95.5t-115 35.5q-73 0 -119.5 -34t-46.5 -91v-20q0 -67 44.5 -103.5t117.5 -36.5z" />
    <glyph glyph-name="fivesixths.tab" horiz-adv-x="1796" 
d="M123 1368h543q-6 -78 -26 -104.5t-81 -26.5h-309l-19 -236q101 74 211 74q116 0 177 -60t61 -165v-45q0 -118 -77.5 -190t-223.5 -72q-155 0 -227 63.5t-72 169.5v21h143v-13q0 -55 40 -87.5t114 -32.5q71 0 112 38.5t41 104.5v33q0 58 -34.5 93.5t-104.5 35.5
q-96 0 -176 -76l-123 22zM1403 1364l-866 -1364h-125l864 1364h127zM1419 -18q-151 0 -230 79t-79 236v190q0 160 82 249t240 89q78 0 136.5 -20.5t89.5 -55t45.5 -72t14.5 -77.5v-22h-143v12q0 48 -36.5 80t-104.5 32q-181 0 -181 -196v-92q74 84 217 84q123 0 191 -62
t68 -160v-32q0 -117 -81 -189.5t-229 -72.5zM1419 106q73 0 116.5 36.5t43.5 99.5v18q0 60 -41 95.5t-115 35.5q-73 0 -119.5 -34t-46.5 -91v-20q0 -67 44.5 -103.5t117.5 -36.5z" />
    <glyph glyph-name="oneeighth.tab" horiz-adv-x="1796" 
d="M690 559h-579v121h223v463h-236v119h109q89 0 125.5 25t44.5 89h110v-696h203v-121zM1417 1364l-864 -1364h-127l866 1364h125zM1417 827q147 0 226 -64.5t79 -168.5v-8q0 -125 -137 -178q73 -26 110.5 -75t37.5 -114v-10q0 -105 -82.5 -167t-233.5 -62t-233 62t-82 167
v10q0 64 37.5 113.5t109.5 75.5q-137 53 -137 178v8q0 104 79.5 168.5t225.5 64.5zM1417 707q-71 0 -113 -32t-42 -87v-19q0 -50 43.5 -81t111.5 -31q69 0 113.5 31t44.5 81v19q0 55 -43.5 87t-114.5 32zM1417 102q76 0 121 32.5t45 88.5v19q0 52 -46 83t-120 31t-119 -31
t-45 -83v-19q0 -56 44 -88.5t120 -32.5z" />
    <glyph glyph-name="threeeighths.tab" horiz-adv-x="1796" 
d="M379 1384q140 0 218.5 -62t78.5 -157v-16q0 -65 -44.5 -113t-123.5 -65q84 -17 128 -65t44 -122v-14q0 -99 -79.5 -163t-221.5 -64q-157 0 -234 64.5t-77 168.5v41h141v-33q0 -56 41.5 -88t122.5 -32q70 0 112.5 30.5t42.5 85.5v17q0 114 -174 114h-80v109h80
q87 0 129.5 32t42.5 83v16q0 53 -41.5 83t-111.5 30q-79 0 -121.5 -34t-42.5 -87v-35h-139v43q0 100 78.5 166.5t230.5 66.5zM1393 1364l-867 -1364h-125l865 1364h127zM1417 827q147 0 226 -64.5t79 -168.5v-8q0 -125 -137 -178q73 -26 110.5 -75t37.5 -114v-10
q0 -105 -82.5 -167t-233.5 -62t-233 62t-82 167v10q0 64 37.5 113.5t109.5 75.5q-137 53 -137 178v8q0 104 79.5 168.5t225.5 64.5zM1417 707q-71 0 -113 -32t-42 -87v-19q0 -50 43.5 -81t111.5 -31q69 0 113.5 31t44.5 81v19q0 55 -43.5 87t-114.5 32zM1417 102
q76 0 121 32.5t45 88.5v19q0 52 -46 83t-120 31t-119 -31t-45 -83v-19q0 -56 44 -88.5t120 -32.5z" />
    <glyph glyph-name="fiveeighths.tab" horiz-adv-x="1796" 
d="M123 1368h543q-6 -78 -26 -104.5t-81 -26.5h-309l-19 -236q101 74 211 74q116 0 177 -60t61 -165v-45q0 -118 -77.5 -190t-223.5 -72q-155 0 -227 63.5t-72 169.5v21h143v-13q0 -55 40 -87.5t114 -32.5q71 0 112 38.5t41 104.5v33q0 58 -34.5 93.5t-104.5 35.5
q-96 0 -176 -76l-123 22zM1393 1364l-867 -1364h-125l865 1364h127zM1417 827q147 0 226 -64.5t79 -168.5v-8q0 -125 -137 -178q73 -26 110.5 -75t37.5 -114v-10q0 -105 -82.5 -167t-233.5 -62t-233 62t-82 167v10q0 64 37.5 113.5t109.5 75.5q-137 53 -137 178v8
q0 104 79.5 168.5t225.5 64.5zM1417 707q-71 0 -113 -32t-42 -87v-19q0 -50 43.5 -81t111.5 -31q69 0 113.5 31t44.5 81v19q0 55 -43.5 87t-114.5 32zM1417 102q76 0 121 32.5t45 88.5v19q0 52 -46 83t-120 31t-119 -31t-45 -83v-19q0 -56 44 -88.5t120 -32.5z" />
    <glyph glyph-name="seveneighths.tab" horiz-adv-x="1796" 
d="M70 1368h628v-86q-151 -170 -224 -341t-91 -382h-170q15 189 92.5 349.5t233.5 322.5h-469v137zM1311 1364l-867 -1364h-127l867 1364h127zM1417 827q147 0 226 -64.5t79 -168.5v-8q0 -125 -137 -178q73 -26 110.5 -75t37.5 -114v-10q0 -105 -82.5 -167t-233.5 -62
t-233 62t-82 167v10q0 64 37.5 113.5t109.5 75.5q-137 53 -137 178v8q0 104 79.5 168.5t225.5 64.5zM1417 707q-71 0 -113 -32t-42 -87v-19q0 -50 43.5 -81t111.5 -31q69 0 113.5 31t44.5 81v19q0 55 -43.5 87t-114.5 32zM1417 102q76 0 121 32.5t45 88.5v19q0 52 -46 83
t-120 31t-119 -31t-45 -83v-19q0 -56 44 -88.5t120 -32.5z" />
    <glyph glyph-name="i.dot" horiz-adv-x="489" 
d="M139 1358h211v-197h-211v197zM147 971h195v-971h-195v971z" />
    <glyph glyph-name="fraction.tab" horiz-adv-x="286" 
d="M639 1364l-866 -1364h-125l864 1364h127z" />
    <glyph glyph-name="zero.num" 
d="M377 1389q151 0 236 -92.5t85 -256.5v-153q0 -165 -85 -256.5t-236 -91.5q-153 0 -238.5 91.5t-85.5 256.5v153q0 164 86 256.5t238 92.5zM377 1257q-84 0 -127 -56t-43 -161v-153q0 -105 43 -161t127 -56q83 0 126.5 56t43.5 161v153q0 105 -43.5 161t-126.5 56z" />
    <glyph glyph-name="one.num" horiz-adv-x="600" 
d="M305 1376h111v-817h-158v588h-184v115h73q75 0 111.5 25.5t46.5 88.5z" />
    <glyph glyph-name="one.num_alt" 
d="M690 559h-579v121h223v463h-236v119h109q89 0 125.5 25t44.5 89h110v-696h203v-121z" />
    <glyph glyph-name="two.num" 
d="M668 559h-594v45q0 137 55 213t217 160q114 59 148 90.5t34 83.5q0 56 -39.5 83.5t-103.5 27.5q-75 0 -119.5 -35.5t-44.5 -98.5v-38h-141v47q0 111 80.5 179t228.5 68q145 0 218 -63t73 -166q0 -47 -12.5 -82t-47 -68t-79 -62t-123.5 -71q-108 -54 -143.5 -89t-36.5 -95
h430v-129z" />
    <glyph glyph-name="three.num" 
d="M379 1384q140 0 218.5 -62t78.5 -157v-16q0 -65 -44.5 -113t-123.5 -65q84 -17 128 -65t44 -122v-14q0 -99 -79.5 -163t-221.5 -64q-157 0 -234 64.5t-77 168.5v41h141v-33q0 -56 41.5 -88t122.5 -32q70 0 112.5 30.5t42.5 85.5v17q0 114 -174 114h-80v109h80
q87 0 129.5 32t42.5 83v16q0 53 -41.5 83t-111.5 30q-79 0 -121.5 -34t-42.5 -87v-35h-139v43q0 100 78.5 166.5t230.5 66.5z" />
    <glyph glyph-name="four.num" 
d="M408 1368h188v-516h115v-117h-115v-176h-139v176h-432v113zM457 852v397l-289 -397h289z" />
    <glyph glyph-name="five.num" 
d="M123 1368h543q-6 -78 -26 -104.5t-81 -26.5h-309l-19 -236q101 74 211 74q116 0 177 -60t61 -165v-45q0 -118 -77.5 -190t-223.5 -72q-155 0 -227 63.5t-72 169.5v21h143v-13q0 -55 40 -87.5t114 -32.5q71 0 112 38.5t41 104.5v33q0 58 -34.5 93.5t-104.5 35.5
q-96 0 -176 -76l-123 22z" />
    <glyph glyph-name="six.num" 
d="M379 541q-151 0 -231 79t-80 236v191q0 160 82 248.5t241 88.5q77 0 135 -20.5t89.5 -55t46 -72t14.5 -77.5v-22h-144v10q0 49 -35.5 82t-105.5 33q-178 0 -178 -197v-92q74 84 215 84q124 0 192 -61t68 -160v-33q0 -117 -80.5 -189.5t-228.5 -72.5zM379 666
q73 0 116.5 36.5t43.5 98.5v18q0 60 -41 95.5t-115 35.5q-73 0 -119.5 -34t-46.5 -91v-20q0 -67 44.5 -103t117.5 -36z" />
    <glyph glyph-name="seven.num" 
d="M70 1368h628v-86q-151 -170 -224 -341t-91 -382h-170q15 189 92.5 349.5t233.5 322.5h-469v137z" />
    <glyph glyph-name="eight.num" 
d="M377 1386q146 0 225.5 -65.5t79.5 -167.5v-10q0 -59 -35 -104.5t-102 -71.5q72 -26 109.5 -75.5t37.5 -113.5v-10q0 -105 -82 -167t-233 -62t-233.5 62t-82.5 167v10q0 65 37.5 114t110.5 75q-67 26 -102 71.5t-35 104.5v10q0 103 79 168t226 65zM377 1266
q-72 0 -115 -32t-43 -87v-19q0 -50 44.5 -81t113.5 -31t113.5 31t44.5 81v19q0 55 -43.5 87t-114.5 32zM377 662q77 0 121.5 32.5t44.5 87.5v19q0 52 -46 83t-120 31t-120 -31t-46 -83v-19q0 -55 44.5 -87.5t121.5 -32.5z" />
    <glyph glyph-name="nine.num" 
d="M375 1386q152 0 231.5 -80t79.5 -237v-190q0 -158 -83 -247t-243 -89q-79 0 -137.5 20t-90 53.5t-46 70.5t-14.5 77v18h143v-6q0 -48 33.5 -79t109.5 -31q183 0 183 196v82q-72 -82 -217 -82q-122 0 -190 61.5t-68 157.5v39q0 118 80.5 192t228.5 74zM377 1260
q-72 0 -117 -37.5t-45 -100.5v-26q0 -57 41.5 -92t116.5 -35q70 0 118 33t48 90v26q0 67 -45.5 104.5t-116.5 37.5z" />
    <glyph glyph-name="zero.den" 
d="M377 829q151 0 236 -92t85 -256v-153q0 -165 -85 -256.5t-236 -91.5q-153 0 -238.5 91.5t-85.5 256.5v153q0 164 86 256t238 92zM377 698q-84 0 -127 -56t-43 -161v-153q0 -105 43 -161t127 -56q83 0 126.5 56t43.5 161v153q0 105 -43.5 161t-126.5 56z" />
    <glyph glyph-name="one.den" horiz-adv-x="600" 
d="M305 817h111v-817h-158v588h-184v114h73q75 0 111.5 26t46.5 89z" />
    <glyph glyph-name="one.den_alt" 
d="M690 0h-579v121h223v463h-236v118h109q88 0 125 25.5t45 89.5h110v-696h203v-121z" />
    <glyph glyph-name="two.den" 
d="M668 0h-594v45q0 137 55 213t217 160q114 59 148 90.5t34 83.5q0 56 -39.5 83t-103.5 27q-75 0 -119.5 -35t-44.5 -98v-39h-141v48q0 111 80.5 179t228.5 68q145 0 218 -63t73 -166q0 -47 -12.5 -82t-47 -68t-79 -62t-123.5 -71q-108 -54 -143.5 -89t-36.5 -95h430v-129z
" />
    <glyph glyph-name="three.den" 
d="M379 825q140 0 218.5 -62t78.5 -157v-16q0 -65 -44.5 -113t-123.5 -65q84 -17 128 -65t44 -122v-14q0 -99 -79.5 -163t-221.5 -64q-157 0 -234 64.5t-77 168.5v41h141v-33q0 -56 41.5 -88.5t122.5 -32.5q70 0 112.5 31t42.5 86v17q0 114 -174 114h-80v109h80
q87 0 129.5 31.5t42.5 82.5v17q0 53 -41.5 83t-111.5 30q-79 0 -121.5 -34t-42.5 -87v-35h-139v43q0 100 78.5 166.5t230.5 66.5z" />
    <glyph glyph-name="four.den" 
d="M408 809h188v-516h115v-117h-115v-176h-139v176h-432v113zM457 293v397l-289 -397h289z" />
    <glyph glyph-name="five.den" 
d="M123 809h543q-6 -78 -26 -104.5t-81 -26.5h-309l-19 -236q101 74 211 74q116 0 177 -60t61 -165v-45q0 -117 -77.5 -189.5t-223.5 -72.5q-155 0 -227 64t-72 169v21h143v-11q0 -57 40 -90t114 -33q70 0 111.5 39t41.5 105v33q0 58 -34.5 93.5t-104.5 35.5q-96 0 -176 -76
l-123 22z" />
    <glyph glyph-name="six.den" 
d="M379 -18q-151 0 -231 79t-80 236v190q0 160 82.5 249t240.5 89q77 0 135 -20.5t89.5 -55t46 -72t14.5 -77.5v-22h-144v12q0 48 -36 80t-105 32q-178 0 -178 -196v-92q74 84 215 84q124 0 192 -61.5t68 -160.5v-32q0 -117 -80.5 -189.5t-228.5 -72.5zM379 106
q73 0 116.5 36.5t43.5 99.5v18q0 60 -41 95.5t-115 35.5q-73 0 -119.5 -34t-46.5 -91v-20q0 -67 44.5 -103.5t117.5 -36.5z" />
    <glyph glyph-name="seven.den" 
d="M70 809h628v-86q-151 -170 -224 -341t-91 -382h-170q15 189 92.5 349.5t233.5 322.5h-469v137z" />
    <glyph glyph-name="eight.den" 
d="M377 827q146 0 225.5 -64.5t79.5 -168.5v-8q0 -125 -137 -178q72 -26 109.5 -75.5t37.5 -113.5v-10q0 -105 -82 -167t-233 -62t-233.5 62t-82.5 167v10q0 65 37.5 114t110.5 75q-137 53 -137 178v8q0 104 79 168.5t226 64.5zM377 707q-72 0 -115 -32t-43 -87v-19
q0 -50 44.5 -81t113.5 -31t113.5 31t44.5 81v19q0 55 -43.5 87t-114.5 32zM377 102q76 0 121 32.5t45 88.5v19q0 52 -46 83t-120 31t-120 -31t-46 -83v-19q0 -56 45 -88.5t121 -32.5z" />
    <glyph glyph-name="nine.den" 
d="M375 827q152 0 231.5 -80t79.5 -237v-191q0 -158 -83 -246.5t-243 -88.5q-79 0 -137.5 20t-90 53.5t-46 71t-14.5 78.5v16h143v-6q0 -48 33.5 -79.5t109.5 -31.5q183 0 183 197v82q-72 -82 -217 -82q-122 0 -190 61.5t-68 157.5v39q0 118 80.5 192t228.5 74zM377 700
q-73 0 -117.5 -37t-44.5 -100v-26q0 -57 41.5 -92t116.5 -35q70 0 118 33.5t48 91.5v24q0 67 -45 104t-117 37z" />
    <glyph glyph-name="caron.alt" horiz-adv-x="1024" 
d="M436 1460h176l-90 -350h-102z" />
    <glyph glyph-name="acute.cap" horiz-adv-x="1021" 
d="M731 1898l-305 -339h-133l205 339h233z" />
    <glyph glyph-name="hungarumlaut.cap" horiz-adv-x="1021" 
d="M541 1898l-277 -339h-121l197 339h201zM879 1898l-277 -339h-119l195 339h201z" />
    <glyph glyph-name="grave.cap" horiz-adv-x="1021" 
d="M293 1898h231l207 -339h-135z" />
    <glyph glyph-name="circumflex.cap" horiz-adv-x="1024" 
d="M412 1884h202q52 -193 234 -264v-84q-110 20 -199 79.5t-137 131.5q-46 -72 -135 -131t-199 -80v84q178 69 234 264z" />
    <glyph glyph-name="caron.cap" horiz-adv-x="1024" 
d="M176 1913q110 -20 199 -79.5t137 -131.5q48 72 137 131.5t199 79.5v-84q-181 -71 -236 -264h-200q-55 193 -236 264v84z" />
    <glyph glyph-name="breve.cap" horiz-adv-x="1024" 
d="M512 1692q207 0 207 120q0 37 -10 86h82q24 -63 24 -133q0 -106 -83 -164.5t-220 -58.5t-220 58.5t-83 164.5q0 70 24 133h82q-10 -49 -10 -86q0 -120 207 -120z" />
    <glyph glyph-name="tilde.cap" horiz-adv-x="1024" 
d="M344 1872q61 0 105 -26.5t90 -73.5q4 -4 17 -17.5t17.5 -17.5t16.5 -15t18 -15.5t17 -11.5t19 -10t19 -5.5t21 -2.5q35 0 54.5 25.5t19.5 69.5q0 30 -15 88h88q23 -62 23 -127q0 -89 -46.5 -143t-127.5 -54q-61 0 -106 26.5t-89 71.5l-20.5 20.5l-20.5 20.5t-18.5 17.5
t-20.5 16.5t-19.5 11t-22.5 8.5t-23 2.5q-35 0 -54.5 -25.5t-19.5 -69.5q0 -32 15 -90h-88q-23 67 -23 129q0 89 46.5 143t127.5 54z" />
    <glyph glyph-name="macron.cap" horiz-adv-x="1024" 
d="M195 1733h634v-127h-634v127z" />
    <glyph glyph-name="dieresis.cap" horiz-adv-x="1024" 
d="M233 1776h181v-205h-181v205zM610 1776h181v-205h-181v205z" />
    <glyph glyph-name="dotaccent.cap" horiz-adv-x="1024" 
d="M406 1765h212v-194h-212v194z" />
    <glyph glyph-name="ring.cap" horiz-adv-x="1024" 
d="M512 1950q106 0 171 -61t65 -150t-65 -151t-171 -62t-171 62t-65 151t65 150t171 61zM512 1866q-64 0 -101.5 -36.5t-37.5 -90.5t37.5 -90.5t101.5 -36.5t101.5 36.5t37.5 90.5q0 53 -37.5 90t-101.5 37z" />
    <glyph glyph-name="commaaccent.rot" horiz-adv-x="1024" 
d="M387 1161v189q0 109 63.5 178.5t184.5 95.5v-57q-74 -22 -115.5 -74t-40.5 -125h107v-207h-199z" />
    </font>
</defs>
</svg>
