<?xml version="1.0" standalone="no"?>
<!DOCTYPE svg PUBLIC "-//W3C//DTD SVG 1.1//EN" "http://www.w3.org/Graphics/SVG/1.1/DTD/svg11.dtd" >
<svg xmlns="http://www.w3.org/2000/svg" xmlns:xlink="http://www.w3.org/1999/xlink" version="1.1">
<metadata>
Created by FontForge 20201107 at Wed Jul 30 10:59:05 2025
 By 
Copyright (C) 2017 Hoefler &#38; Co. http://www.typography.com
</metadata>
<defs>
<font id="RingsideNarrow-Semi" horiz-adv-x="753" >
  <font-face 
    font-family="Ringside Narrow Semi"
    font-weight="375"
    font-stretch="semi-condensed"
    units-per-em="2048"
    panose-1="2 0 7 0 0 0 0 0 0 0"
    ascent="1638"
    descent="-410"
    x-height="979"
    cap-height="1364"
    bbox="-350 -672 2238 2157"
    underline-thickness="0"
    underline-position="0"
    unicode-range="U+0020-FB04"
  />
<missing-glyph horiz-adv-x="1024" 
d="M0 -410v2048h1024v-2048h-1024zM145 1536l367 -799l367 799h-734zM102 -156l353 770l-353 770v-1540zM922 1384l-353 -770l353 -770v1540zM512 492l-367 -799h734z" />
    <glyph glyph-name="f_f" unicode="ff" horiz-adv-x="1343" 
d="M565 1417h121v-180h-80q-85 0 -121 -34.5t-36 -106.5v-117h401v129q0 309 350 309h121v-180h-80q-84 0 -121 -35t-37 -106v-117h228v-182h-228v-797h-233v797h-401v-797h-234v797h-162v182h162v129q0 309 350 309z" />
    <glyph glyph-name="f_f_i" unicode="ffi" horiz-adv-x="1855" 
d="M1321 1417v-180h-80q-84 0 -121 -35t-37 -106v-117h228v-182h-228v-797h-233v797h-401v-797h-234v797h-162v182h162v129q0 309 350 309h121v-180h-80q-85 0 -121 -34.5t-36 -106.5v-117h401v129q0 309 350 309h121zM1479 1366h247v-213h-247v213zM1485 979h235v-979h-235
v979z" />
    <glyph glyph-name="f_f_l" unicode="ffl" horiz-adv-x="1857" 
d="M686 1417v-180h-80q-85 0 -121 -34.5t-36 -106.5v-117h401v129q0 309 350 309h121v-180h-80q-84 0 -121 -35t-37 -106v-117h228v-182h-228v-797h-233v797h-401v-797h-234v797h-162v182h162v129q0 309 350 309h121zM1485 1417h235v-1417h-235v1417z" />
    <glyph glyph-name=".notdef" horiz-adv-x="1024" 
d="M0 -410v2048h1024v-2048h-1024zM145 1536l367 -799l367 799h-734zM102 -156l353 770l-353 770v-1540zM922 1384l-353 -770l353 -770v1540zM512 492l-367 -799h734z" />
    <glyph glyph-name=".null" horiz-adv-x="0" 
 />
    <glyph glyph-name="nonmarkingreturn" horiz-adv-x="682" 
 />
    <glyph glyph-name="space" unicode=" " horiz-adv-x="393" 
 />
    <glyph glyph-name="exclam" unicode="!" horiz-adv-x="509" 
d="M137 1364h236v-412l-82 -540h-72l-82 540v412zM137 258h234v-258h-234v258z" />
    <glyph glyph-name="quotedbl" unicode="&#x22;" horiz-adv-x="874" 
d="M172 1364h250l-195 -614h-153zM580 1364h249l-217 -614h-151z" />
    <glyph glyph-name="numbersign" unicode="#" horiz-adv-x="1488" 
d="M772 0l64 344h-308l-63 -344h-180l63 344h-262v168h295l61 340h-299v168h330l64 344h182l-64 -344h306l63 344h180l-63 -344h262v-168h-293l-63 -340h299v-168h-330l-64 -344h-180zM559 512h307l64 340h-307z" />
    <glyph glyph-name="dollar" unicode="$" horiz-adv-x="1206" 
d="M1096 381q0 -160 -104 -262.5t-281 -126.5v-211h-193v207q-200 21 -302.5 128t-102.5 275v60h235v-37q0 -108 66.5 -169t195.5 -61q115 0 180.5 47.5t65.5 133.5q0 81 -61 124t-242 105q-227 67 -323.5 154t-96.5 243q0 153 104 257.5t285 125.5v207h193v-209
q182 -25 274 -130t92 -261v-47h-233v39q0 93 -60 150t-186 57q-107 0 -168 -47.5t-61 -124.5q0 -76 62 -119.5t235 -104.5q236 -70 331 -155.5t95 -247.5z" />
    <glyph glyph-name="percent" unicode="%" horiz-adv-x="1673" 
d="M406 1391q145 0 226 -82.5t81 -223.5v-100q0 -139 -81.5 -221t-225.5 -82q-145 0 -227.5 82t-82.5 221v100q0 140 82.5 223t227.5 83zM1470 1372l-1085 -1380h-182l1085 1380h182zM406 1247q-72 0 -109 -44.5t-37 -115.5v-102q0 -72 37 -116t109 -44q71 0 107 44t36 116
v102q0 71 -36.5 115.5t-106.5 44.5zM1268 -27q-144 0 -225.5 82t-81.5 221v101q0 140 81.5 222.5t225.5 82.5q145 0 226 -82t81 -223v-101q0 -139 -81.5 -221t-225.5 -82zM1268 117q72 0 108.5 43.5t36.5 115.5v103q0 73 -36.5 116.5t-108.5 43.5t-109 -44t-37 -116v-103
q0 -72 37.5 -115.5t108.5 -43.5z" />
    <glyph glyph-name="ampersand" unicode="&#x26;" horiz-adv-x="1433" 
d="M1413 276q0 -307 -231 -307q-141 0 -305 137q-189 -137 -390 -137q-193 0 -305 102t-112 259q0 131 77 230t248 183q-96 162 -96 310t101.5 245t271.5 97q171 0 266.5 -87t95.5 -214q0 -119 -80.5 -221t-269.5 -191q100 -161 213 -291q105 131 158 363h190
q-29 -154 -81.5 -273t-137.5 -229q99 -102 164 -102q46 0 67 39t21 130v56h135v-99zM516 1049q0 -104 86 -228q217 102 217 254q0 55 -37.5 97t-107.5 42q-79 0 -118.5 -48t-39.5 -117zM299 356q0 -97 57.5 -147.5t147.5 -50.5q124 0 239 86q-133 147 -266 348
q-178 -97 -178 -236z" />
    <glyph glyph-name="quotesingle" unicode="'" horiz-adv-x="479" 
d="M182 1364h252l-205 -614h-155z" />
    <glyph glyph-name="parenleft" unicode="(" horiz-adv-x="784" 
d="M668 1608l110 -97q-399 -370 -399 -890q0 -521 399 -891l-110 -97q-256 205 -385 455.5t-129 532.5t129 532t385 455z" />
    <glyph glyph-name="parenright" unicode=")" horiz-adv-x="784" 
d="M117 -367l-111 97q400 371 400 891q0 518 -398 890l109 97q256 -205 385 -455t129 -532t-129 -532.5t-385 -455.5z" />
    <glyph glyph-name="asterisk" unicode="*" horiz-adv-x="882" 
d="M512 618q0 -34 -35 -34h-71q-35 0 -35 34q0 144 37 300q-121 -116 -240 -183q-27 -19 -47 13l-35 63q-19 31 12 47q125 70 277 117q-151 44 -277 115q-28 20 -12 47l35 63q18 30 47 14q123 -72 240 -182q-37 154 -37 297q0 35 35 35h71q35 0 35 -35q0 -143 -37 -297
q111 106 240 182q29 17 45 -14l37 -63q14 -27 -13 -47q-128 -72 -276 -115q150 -46 276 -117q29 -17 13 -47l-35 -63q-20 -32 -47 -13q-120 67 -240 180q37 -154 37 -297z" />
    <glyph glyph-name="plus" unicode="+" horiz-adv-x="1087" 
d="M449 1106h190v-334h336v-180h-336v-334h-190v334h-338v180h338v334z" />
    <glyph glyph-name="comma" unicode="," horiz-adv-x="446" 
d="M100 279h246v-207q0 -121 -35 -201t-95 -123t-159 -72v74q91 54 120.5 103t29.5 147h-107v279z" />
    <glyph glyph-name="hyphen" unicode="-" horiz-adv-x="772" 
d="M109 713h555v-191h-555v191z" />
    <glyph glyph-name="period" unicode="." horiz-adv-x="446" 
d="M100 279h246v-279h-246v279z" />
    <glyph glyph-name="slash" unicode="/" horiz-adv-x="817" 
d="M582 1561h192l-577 -1883h-195z" />
    <glyph glyph-name="zero" unicode="0" horiz-adv-x="1261" 
d="M631 1395q246 0 385 -147.5t139 -405.5v-318q0 -260 -139 -407.5t-385 -147.5t-385.5 147.5t-139.5 407.5v318q0 258 139.5 405.5t385.5 147.5zM631 1184q-137 0 -209 -90.5t-72 -255.5v-312q0 -165 72 -255.5t209 -90.5q138 0 209 90.5t71 255.5v312q0 165 -71 255.5
t-209 90.5z" />
    <glyph glyph-name="one" unicode="1" horiz-adv-x="751" 
d="M51 1028v170h70q129 0 188 39.5t74 136.5h172v-1374h-246v1028h-258z" />
    <glyph glyph-name="two" unicode="2" horiz-adv-x="1159" 
d="M614 1393q120 0 211 -30t145 -84t80.5 -124t26.5 -154q0 -65 -15 -116.5t-42 -93.5t-81 -85.5t-114.5 -81t-160.5 -92.5q-177 -90 -236 -151t-59 -164h696v-217h-965v76q0 122 20 207t73.5 159t134 133.5t215.5 133.5q179 100 232.5 151t53.5 139q0 89 -59.5 136
t-165.5 47q-119 0 -184.5 -55.5t-65.5 -157.5v-74h-233v82q0 190 126 303t367 113z" />
    <glyph glyph-name="three" unicode="3" horiz-adv-x="1179" 
d="M598 1393q117 0 209 -29t149 -79.5t86 -116t29 -142.5v-29q0 -109 -72.5 -191t-201.5 -112q138 -26 210 -104.5t72 -200.5v-35q0 -164 -127 -273.5t-356 -109.5q-134 0 -233 31.5t-155.5 87.5t-83 125t-26.5 152v67h232v-55q0 -90 62.5 -144.5t191.5 -54.5
q119 0 183 52.5t64 142.5v33q0 94 -65.5 142t-210.5 48h-123v180h123q141 0 207.5 50t66.5 139v26q0 90 -64.5 140.5t-180.5 50.5q-126 0 -190 -55.5t-64 -143.5v-55h-232v67q0 81 28.5 150.5t86.5 125.5t156.5 88t228.5 32z" />
    <glyph glyph-name="four" unicode="4" horiz-adv-x="1214" 
d="M670 1364h307v-860h184v-203h-184v-301h-229v301h-685v180zM748 504v631l-439 -631h439z" />
    <glyph glyph-name="five" unicode="5" horiz-adv-x="1183" 
d="M696 881q199 0 299.5 -101t100.5 -278v-94q0 -199 -128.5 -318t-367.5 -119q-250 0 -369.5 108t-119.5 286v32h233v-20q0 -92 65.5 -144.5t186.5 -52.5q116 0 185 59t69 169v71q0 211 -225 211q-89 0 -159 -31.5t-138 -91.5l-195 37l53 760h881q-9 -130 -39.5 -172.5
t-126.5 -42.5h-510l-31 -397q70 59 147 94t189 35z" />
    <glyph glyph-name="six" unicode="6" horiz-adv-x="1206" 
d="M610 -29q-249 0 -375 129t-126 373v369q0 262 134.5 406.5t389.5 144.5q100 0 181 -22t133 -58.5t87 -85.5t49.5 -99.5t14.5 -103.5v-55h-234v26q0 92 -61.5 142.5t-167.5 50.5q-291 0 -291 -316v-172q128 152 344 152q203 0 313.5 -101t110.5 -272v-73q0 -195 -132 -315
t-370 -120zM610 178q118 0 189 58t71 172v43q0 109 -66.5 165t-187.5 56q-115 0 -191.5 -58t-76.5 -159v-47q0 -112 72.5 -171t189.5 -59z" />
    <glyph glyph-name="seven" unicode="7" horiz-adv-x="1083" 
d="M549 0h-270q24 314 148.5 583t363.5 556h-723v225h985v-137q-230 -304 -352 -590.5t-152 -636.5z" />
    <glyph glyph-name="eight" unicode="8" horiz-adv-x="1226" 
d="M612 1395q238 0 367 -110t129 -277v-19q0 -211 -231 -301q251 -87 251 -317v-25q0 -170 -133.5 -273.5t-382.5 -103.5q-248 0 -381 103.5t-133 273.5v25q0 229 250 317q-229 90 -229 301v19q0 80 31 149.5t90.5 123t155 84t216.5 30.5zM612 1198q-117 0 -185.5 -54.5
t-68.5 -148.5v-26q0 -92 69.5 -144.5t184.5 -52.5t185.5 52.5t70.5 144.5v26q0 93 -69 148t-187 55zM612 166q128 0 200.5 55.5t72.5 151.5v24q0 96 -73 150.5t-200 54.5q-126 0 -198 -54t-72 -151v-24q0 -95 71.5 -151t198.5 -56z" />
    <glyph glyph-name="nine" unicode="9" horiz-adv-x="1206" 
d="M596 1393q249 0 375.5 -129t126.5 -371v-371q0 -261 -135 -406t-390 -145q-126 0 -222 33t-148.5 87t-77.5 114t-25 123v55h234v-27q0 -84 62 -132t179 -48q141 0 214 79.5t73 233.5v154q-127 -151 -346 -151q-202 0 -312 101t-110 273v90q0 198 132 317.5t370 119.5z
M594 1188q-115 0 -186.5 -58.5t-71.5 -175.5v-57q0 -114 66.5 -169.5t185.5 -55.5q115 0 191.5 58t76.5 161v61q0 116 -72.5 176t-189.5 60z" />
    <glyph glyph-name="colon" unicode=":" horiz-adv-x="471" 
d="M111 965h247v-279h-247v279zM111 279h247v-279h-247v279z" />
    <glyph glyph-name="semicolon" unicode=";" horiz-adv-x="471" 
d="M111 965h247v-279h-247v279zM111 279h247v-207q0 -92 -18 -158.5t-56.5 -112t-89.5 -74.5t-124 -51v74q91 53 120 102.5t29 147.5h-108v279z" />
    <glyph glyph-name="less" unicode="&#x3c;" horiz-adv-x="1015" 
d="M860 1153v-217l-520 -254l520 -254v-217l-758 385v172z" />
    <glyph glyph-name="equal" unicode="=" horiz-adv-x="1116" 
d="M135 983h846v-184h-846v184zM135 565h846v-184h-846v184z" />
    <glyph glyph-name="greater" unicode="&#x3e;" horiz-adv-x="1015" 
d="M156 211v217l522 254l-522 254v217l759 -385v-172z" />
    <glyph glyph-name="question" unicode="?" horiz-adv-x="1073" 
d="M1010 1028q0 -118 -55 -199t-210 -170q-74 -44 -106.5 -76.5t-42.5 -67.5t-12 -107h-201q0 108 18 170.5t64.5 114t144.5 118.5q91 55 123.5 98.5t32.5 108.5q0 164 -223 164q-145 0 -202.5 -57t-57.5 -167v-59h-224v78q0 66 14 124t48.5 113t88.5 94.5t140 63t197 23.5
q126 0 218.5 -29.5t144.5 -81.5t76 -115.5t24 -140.5zM369 0v258h233v-258h-233z" />
    <glyph glyph-name="at" unicode="@" horiz-adv-x="1595" 
d="M858 1378q166 0 297.5 -53.5t210.5 -142t119.5 -195t40.5 -221.5q0 -145 -51.5 -269t-147.5 -200t-215 -76q-105 0 -163.5 51t-55.5 131q-96 -165 -234 -165q-105 0 -163 69t-58 195q0 60 14.5 126.5t45 131.5t72.5 117t102.5 84t128.5 32q70 0 118.5 -35.5t63.5 -93.5
l39 115h174l-123 -404q-39 -133 -22.5 -191t90.5 -58q103 0 185.5 126t82.5 310q0 232 -152 372t-399 140q-192 0 -342 -94t-232.5 -261.5t-82.5 -379.5q0 -272 163.5 -439.5t448.5 -167.5q136 0 259 44t210 110l59 -88q-95 -73 -235.5 -121.5t-294.5 -48.5
q-221 0 -387 89.5t-254 249.5t-88 368q0 244 100 437t277 299.5t399 106.5zM840 868q-44 0 -82.5 -27.5t-64 -69.5t-43.5 -92.5t-26 -96t-8 -80.5q0 -68 29.5 -101.5t79.5 -33.5q52 0 97 51.5t69 134.5l59 211q-2 41 -32.5 72.5t-77.5 31.5z" />
    <glyph glyph-name="A" unicode="A" horiz-adv-x="1310" 
d="M997 0l-92 287h-512l-92 -287h-246l459 1374h283l458 -1374h-258zM647 1083l-192 -602h389l-193 602h-4z" />
    <glyph glyph-name="B" unicode="B" horiz-adv-x="1249" 
d="M160 1364h569q193 0 296 -86.5t103 -241.5v-57q0 -119 -57 -186.5t-168 -98.5v-6q240 -62 240 -287v-69q0 -157 -104 -244.5t-291 -87.5h-588v1364zM403 1165v-389h281q97 0 149 44t52 126v64q0 74 -49.5 114.5t-141.5 40.5h-291zM403 600v-401h299q96 0 144.5 41.5
t48.5 119.5v66q0 83 -53 128.5t-154 45.5h-285z" />
    <glyph glyph-name="C" unicode="C" horiz-adv-x="1271" 
d="M668 1393q244 0 372.5 -121.5t128.5 -323.5v-74h-245v60q0 110 -68.5 179t-189.5 69q-142 0 -220.5 -93.5t-78.5 -246.5v-318q0 -151 79 -246.5t220 -95.5q120 0 189 69t69 179v59h245v-73q0 -199 -131.5 -322t-375.5 -123q-255 0 -402 153t-147 406v304q0 253 149.5 406
t405.5 153z" />
    <glyph glyph-name="D" unicode="D" horiz-adv-x="1318" 
d="M160 1364h495q266 0 408.5 -144.5t142.5 -394.5v-293q0 -249 -143 -390.5t-410 -141.5h-493v1364zM410 1155v-946h229q157 0 236 90t79 246v274q0 156 -80 246t-237 90h-227z" />
    <glyph glyph-name="E" unicode="E" horiz-adv-x="1153" 
d="M160 1364h903v-215h-657v-354h512v-205h-512v-375h659v-215h-905v1364z" />
    <glyph glyph-name="F" unicode="F" horiz-adv-x="1093" 
d="M160 1364h880v-215h-634v-387h489v-211h-489v-551h-246v1364z" />
    <glyph glyph-name="G" unicode="G" horiz-adv-x="1312" 
d="M666 1393q243 0 373 -120t130 -321v-51h-245v29q0 115 -65 183.5t-193 68.5q-143 0 -221 -92t-78 -250v-318q0 -158 78.5 -251t213.5 -93q126 0 203.5 76.5t77.5 202.5v71h-270v181h512v-709h-119l-39 211q-129 -240 -408 -240q-227 0 -365 149t-138 402v314
q0 251 149.5 404t403.5 153z" />
    <glyph glyph-name="H" unicode="H" horiz-adv-x="1355" 
d="M160 1364h250v-563h536v563h252v-1364h-252v582h-536v-582h-250v1364z" />
    <glyph glyph-name="I" unicode="I" horiz-adv-x="587" 
d="M168 1364h252v-1364h-252v1364z" />
    <glyph glyph-name="J" unicode="J" horiz-adv-x="1116" 
d="M719 1364h252v-905q0 -238 -116.5 -364t-344.5 -126q-220 0 -329 112.5t-109 326.5v124h233v-114q0 -232 207 -232t207 252v926z" />
    <glyph glyph-name="K" unicode="K" horiz-adv-x="1236" 
d="M913 0q-231 408 -333 592l-170 -227v-365h-250v1364h250v-696l491 696h287l-430 -586l442 -778h-287z" />
    <glyph glyph-name="L" unicode="L" horiz-adv-x="1048" 
d="M160 1364h250v-1143h585v-221h-835v1364z" />
    <glyph glyph-name="M" unicode="M" horiz-adv-x="1720" 
d="M160 1364h356l344 -1004h6l340 1004h357v-1364h-236v1075h-4l-373 -1075h-192l-371 1075h-4v-1075h-223v1364z" />
    <glyph glyph-name="N" unicode="N" horiz-adv-x="1366" 
d="M160 1364h248l571 -938h4l-2 938h225v-1364h-243l-576 950h-4l2 -950h-225v1364z" />
    <glyph glyph-name="O" unicode="O" horiz-adv-x="1345" 
d="M674 1395q260 0 409.5 -149.5t149.5 -422.5v-280q0 -275 -150 -424.5t-411 -149.5q-260 0 -409.5 149.5t-149.5 422.5v280q0 275 150 424.5t411 149.5zM674 1180q-148 0 -227.5 -88.5t-79.5 -260.5v-299q0 -171 79 -259.5t226 -88.5q148 0 227.5 88.5t79.5 259.5v299
q0 171 -79.5 260t-225.5 89z" />
    <glyph glyph-name="P" unicode="P" horiz-adv-x="1185" 
d="M160 1364h528q207 0 319.5 -101.5t112.5 -283.5v-107q0 -184 -112.5 -285.5t-321.5 -101.5h-276v-485h-250v1364zM410 1161v-473h229q121 0 175 50.5t54 146.5v80q0 96 -54 146t-173 50h-231z" />
    <glyph glyph-name="Q" unicode="Q" horiz-adv-x="1355" 
d="M1321 -16q-64 -31 -139 -31q-122 0 -217 92q-127 -76 -293 -76q-258 0 -408.5 151.5t-150.5 418.5v286q0 267 150.5 418.5t408.5 151.5q261 0 411 -151.5t150 -418.5v-297q0 -204 -109 -348q55 -45 133 -45q23 0 64 6v-157zM367 526q0 -162 81.5 -253t223.5 -91
q90 0 155 35l-157 186l123 105l153 -168q35 75 35 174v326q0 161 -82 251.5t-227 90.5q-142 0 -223.5 -91t-81.5 -251v-314z" />
    <glyph glyph-name="R" unicode="R" horiz-adv-x="1255" 
d="M410 520v-520h-250v1364h561q210 0 320 -98t110 -273v-100q0 -127 -68.5 -218.5t-191.5 -129.5l305 -545h-272l-287 520h-227zM410 1163v-446h256q117 0 176 49t59 137v76q0 92 -54.5 138t-172.5 46h-264z" />
    <glyph glyph-name="S" unicode="S" horiz-adv-x="1214" 
d="M616 1391q246 0 371 -111t125 -295v-49h-248v43q0 92 -62 149.5t-192 57.5q-111 0 -172 -47.5t-61 -126.5q0 -30 6 -52.5t23.5 -43t37.5 -35t60.5 -32t78.5 -31.5t105 -36q126 -36 207 -72.5t135 -85t76 -108.5t22 -145q0 -186 -139 -292t-368 -106q-256 0 -385.5 110.5
t-129.5 303.5v64h248v-48q0 -106 70 -165.5t205 -59.5q117 0 182.5 46.5t65.5 131.5q0 89 -60 131.5t-260 108.5q-120 33 -198 67t-132.5 81.5t-78 109.5t-23.5 147q0 173 132 281.5t359 108.5z" />
    <glyph glyph-name="T" unicode="T" horiz-adv-x="1169" 
d="M61 1364h1049v-221h-399v-1143h-250v1143h-400v221z" />
    <glyph glyph-name="U" unicode="U" horiz-adv-x="1310" 
d="M143 1364h250v-889q0 -139 70.5 -213t198.5 -74q129 0 198.5 74t69.5 213v889h239v-879q0 -248 -131 -381t-383 -133q-254 0 -383 132t-129 382v879z" />
    <glyph glyph-name="V" unicode="V" horiz-adv-x="1290" 
d="M55 1364h273l321 -1028h4l324 1028h258l-467 -1376h-246z" />
    <glyph glyph-name="W" unicode="W" horiz-adv-x="1855" 
d="M68 1364h262l219 -1022h4l268 1028h228l268 -1028h4l217 1022h250l-342 -1376h-252l-264 979h-4l-269 -979h-249z" />
    <glyph glyph-name="X" unicode="X" horiz-adv-x="1253" 
d="M920 0l-306 522l-297 -522h-270l426 690l-414 674h287l291 -500l283 500h272l-412 -668l426 -696h-286z" />
    <glyph glyph-name="Y" unicode="Y" horiz-adv-x="1220" 
d="M35 1364h274l307 -614l306 614h266l-453 -842v-522h-252v522z" />
    <glyph glyph-name="Z" unicode="Z" horiz-adv-x="1161" 
d="M115 1364h966v-139l-661 -1002h647v-223h-987v141l670 1008h-635v215z" />
    <glyph glyph-name="bracketleft" unicode="[" horiz-adv-x="757" 
d="M174 1561h565v-162h-360v-1557h360v-164h-565v1883z" />
    <glyph glyph-name="backslash" unicode="\" horiz-adv-x="817" 
d="M43 1561h193l577 -1883h-192z" />
    <glyph glyph-name="bracketright" unicode="]" horiz-adv-x="757" 
d="M584 -322h-566v162h361v1559h-361v162h566v-1883z" />
    <glyph glyph-name="asciicircum" unicode="^" horiz-adv-x="1138" 
d="M1036 610h-213l-254 518l-252 -518h-215l375 752h187z" />
    <glyph glyph-name="underscore" unicode="_" horiz-adv-x="888" 
d="M-2 -166h895v-156h-895v156z" />
    <glyph glyph-name="grave" unicode="`" horiz-adv-x="1021" 
d="M287 1540h270l195 -393h-152z" />
    <glyph glyph-name="a" unicode="a" horiz-adv-x="1021" 
d="M670 170q-57 -93 -134.5 -139.5t-187.5 -46.5q-127 0 -197.5 67t-70.5 193q0 87 34.5 147t118.5 101q129 66 424 92v73q0 80 -38.5 121t-122.5 41q-79 0 -121.5 -38t-42.5 -109v-21h-211v23q0 146 96.5 240t286.5 94q191 0 287 -95.5t96 -265.5v-403q0 -59 20 -78.5
t80 -24.5v-145h-82q-110 0 -163.5 36.5t-71.5 137.5zM309 268q0 -123 125 -123q92 0 157.5 65t65.5 155v98q-186 -20 -262 -57q-48 -25 -67 -58t-19 -80z" />
    <glyph glyph-name="b" unicode="b" horiz-adv-x="1095" 
d="M131 1417h238v-577q56 78 126 121t171 43q155 0 246.5 -107t91.5 -287v-239q0 -181 -93 -288.5t-249 -107.5q-110 0 -183 49t-131 130l-16 -154h-201v1417zM578 823q-87 0 -149 -66.5t-62 -168.5v-197q0 -102 62 -168.5t149 -66.5q91 0 142.5 61.5t51.5 163.5v215
q0 104 -51.5 165.5t-142.5 61.5z" />
    <glyph glyph-name="c" unicode="c" horiz-adv-x="983" 
d="M514 162q90 0 135 51.5t45 138.5v8h217v-28q0 -159 -102 -260t-293 -101q-207 0 -320.5 121t-113.5 334v125q0 210 116.5 333.5t319.5 123.5q190 0 291.5 -100t101.5 -263v-29h-217v9q0 88 -44 140t-134 52q-97 0 -149 -66.5t-52 -181.5v-161q0 -115 51 -180.5t148 -65.5
z" />
    <glyph glyph-name="d" unicode="d" horiz-adv-x="1095" 
d="M729 1417h236v-1417h-201l-14 164q-60 -89 -135 -139t-185 -50q-155 0 -246.5 107t-91.5 287v239q0 181 93 288.5t249 107.5q101 0 170.5 -42t124.5 -114v569zM518 823q-90 0 -141 -62t-51 -165v-215q0 -102 50.5 -163.5t141.5 -61.5q88 0 149.5 66t61.5 167v199
q0 102 -61.5 168.5t-149.5 66.5z" />
    <glyph glyph-name="e" unicode="e" horiz-adv-x="1007" 
d="M928 299q0 -143 -108 -235.5t-300 -92.5q-216 0 -327 119t-111 328v133q0 205 114.5 331t313.5 126q205 0 312.5 -122t107.5 -323v-129h-625v-47q0 -109 54 -168t165 -59q96 0 144.5 41.5t48.5 103.5v8h211v-14zM305 586v-17h400v21q0 231 -195 231q-100 0 -152.5 -60.5
t-52.5 -174.5z" />
    <glyph glyph-name="f" unicode="f" horiz-adv-x="708" 
d="M686 1417v-180h-80q-85 0 -121 -34.5t-36 -106.5v-117h225v-182h-225v-797h-234v797h-162v182h162v129q0 309 350 309h121z" />
    <glyph glyph-name="g" unicode="g" horiz-adv-x="1017" 
d="M993 -72q0 -126 -124.5 -194t-354.5 -68q-469 0 -469 205q0 127 205 164v4q-156 51 -156 151q0 95 164 164q-149 82 -149 269v51q0 152 107.5 237.5t291.5 85.5q84 0 154 -24q88 23 117 62t32 116h168q18 -50 18 -88q0 -71 -51.5 -106.5t-163.5 -55.5q64 -44 94.5 -100.5
t30.5 -141.5v-43q0 -151 -106.5 -234t-294.5 -83q-77 0 -146 16q-77 -30 -77 -69q0 -30 57 -48t168 -18h61q424 0 424 -252zM508 455q84 0 128 41.5t44 115.5v70q0 74 -44 117t-128 43t-128 -42t-44 -116v-70q0 -75 43.5 -117t128.5 -42zM518 -203q273 0 273 101
q0 46 -62.5 67t-196.5 21h-32q-254 0 -254 -97q0 -92 272 -92z" />
    <glyph glyph-name="h" unicode="h" horiz-adv-x="1093" 
d="M131 1417h238v-588q122 172 311 172q135 0 213 -84.5t78 -230.5v-686h-236v643q0 76 -39 120t-114 44q-90 0 -151.5 -65.5t-61.5 -149.5v-592h-238v1417z" />
    <glyph glyph-name="i" unicode="i" horiz-adv-x="507" 
d="M129 1366h250v-213h-250v213zM135 979h238v-979h-238v979z" />
    <glyph glyph-name="j" unicode="j" horiz-adv-x="514" 
d="M135 1366h248v-213h-248v213zM141 979h236v-981q0 -160 -86 -241t-273 -81h-61v172h20q95 0 129.5 38.5t34.5 117.5v975z" />
    <glyph glyph-name="k" unicode="k" horiz-adv-x="1009" 
d="M131 1417h238v-944l331 506h256l-278 -399l299 -580h-258l-205 414l-145 -213v-201h-238v1417z" />
    <glyph glyph-name="l" unicode="l" horiz-adv-x="507" 
d="M135 1417h238v-1417h-238v1417z" />
    <glyph glyph-name="m" unicode="m" horiz-adv-x="1665" 
d="M369 596v-596h-238v979h201l18 -172q62 94 137.5 144t184.5 50q98 0 165.5 -46.5t96.5 -133.5q62 87 138 133.5t183 46.5q132 0 209.5 -83.5t77.5 -225.5v-692h-237v647q0 73 -37.5 116.5t-108.5 43.5q-88 0 -146.5 -64t-58.5 -147v-596h-237v647q0 73 -36 116.5
t-106 43.5q-89 0 -147.5 -64t-58.5 -147z" />
    <glyph glyph-name="n" unicode="n" horiz-adv-x="1093" 
d="M131 979h201l18 -174q64 95 142 145.5t188 50.5q135 0 213 -84.5t78 -230.5v-686h-236v643q0 76 -39 120t-114 44q-90 0 -151.5 -65.5t-61.5 -149.5v-592h-238v979z" />
    <glyph glyph-name="o" unicode="o" horiz-adv-x="1038" 
d="M520 1010q201 0 319.5 -119t118.5 -328v-149q0 -208 -119.5 -326.5t-318.5 -118.5q-200 0 -320 118t-120 325v149q0 210 119 329.5t321 119.5zM520 821q-96 0 -151.5 -62.5t-55.5 -164.5v-211q0 -102 56 -163.5t151 -61.5q93 0 149 61.5t56 163.5v211q0 102 -55.5 164.5
t-149.5 62.5z" />
    <glyph glyph-name="p" unicode="p" horiz-adv-x="1095" 
d="M131 979h203l14 -164q58 89 132.5 139t185.5 50q155 0 246.5 -107t91.5 -289v-237q0 -181 -93 -288.5t-249 -107.5q-101 0 -170 41.5t-125 112.5v-451h-236v1301zM578 823q-87 0 -149 -66.5t-62 -168.5v-197q0 -102 62 -168.5t149 -66.5q91 0 142.5 61.5t51.5 163.5v215
q0 104 -51.5 165.5t-142.5 61.5z" />
    <glyph glyph-name="q" unicode="q" horiz-adv-x="1093" 
d="M432 1004q58 0 107.5 -15t87.5 -42.5t64.5 -55.5t53.5 -66l17 154h201v-1301h-236v461q-58 -78 -128 -121t-171 -43q-155 0 -246.5 107t-91.5 287v239q0 181 93 288.5t249 107.5zM516 823q-91 0 -141.5 -62t-50.5 -165v-215q0 -103 50.5 -164t141.5 -61q87 0 149 66
t62 167v199q0 102 -62 168.5t-149 66.5z" />
    <glyph glyph-name="r" unicode="r" horiz-adv-x="747" 
d="M131 979h201l18 -217q93 231 287 231q45 0 78 -8v-235q-48 10 -94 10q-108 0 -180 -68t-72 -170v-522h-238v979z" />
    <glyph glyph-name="s" unicode="s" horiz-adv-x="937" 
d="M471 -29q-202 0 -300.5 88t-98.5 238v39h200v-29q0 -75 50 -118.5t151 -43.5q84 0 128 31.5t44 85.5q0 52 -45 81t-176 67q-172 41 -253 107.5t-81 191.5q0 128 101.5 212.5t277.5 84.5q182 0 280.5 -83.5t98.5 -226.5v-32h-199v18q0 72 -47 112t-135 40
q-75 0 -118.5 -31t-43.5 -80q0 -54 46 -81t175 -64q86 -21 145 -45t104.5 -59.5t67 -84.5t21.5 -115q0 -135 -102.5 -219t-290.5 -84z" />
    <glyph glyph-name="t" unicode="t" horiz-adv-x="739" 
d="M43 979h158v201l233 59v-260h254v-182h-254v-451q0 -95 33.5 -130.5t122.5 -35.5h47v-180h-109q-172 0 -249.5 74t-77.5 231v492h-158v182z" />
    <glyph glyph-name="u" unicode="u" horiz-adv-x="1093" 
d="M123 979h237v-643q0 -75 39.5 -119.5t112.5 -44.5q91 0 153 66t62 149v592h236v-979h-199l-21 174q-63 -95 -140.5 -147t-186.5 -52q-135 0 -214 86t-79 232v686z" />
    <glyph glyph-name="v" unicode="v" horiz-adv-x="989" 
d="M33 979h246l219 -715h4l219 715h235l-338 -983h-247z" />
    <glyph glyph-name="w" unicode="w" horiz-adv-x="1482" 
d="M37 979h239l175 -703h4l184 703h213l188 -703h4l173 703h227l-289 -983h-221l-193 680h-4l-190 -680h-221z" />
    <glyph glyph-name="x" unicode="x" horiz-adv-x="958" 
d="M674 0l-205 352l-203 -352h-243l317 498l-309 481h262l196 -338l195 338h244l-307 -485l315 -494h-262z" />
    <glyph glyph-name="y" unicode="y" horiz-adv-x="989" 
d="M37 979h242l227 -721h4l215 721h233l-321 -942q-30 -83 -54 -135t-58.5 -100t-76 -73.5t-100 -40t-137.5 -14.5h-90v172h37q89 0 137.5 27.5t69.5 93.5l10 39z" />
    <glyph glyph-name="z" unicode="z" horiz-adv-x="913" 
d="M92 979h752v-125l-473 -661h463v-193h-760v125l479 668h-461v186z" />
    <glyph glyph-name="braceleft" unicode="{" horiz-adv-x="845" 
d="M670 1561h147v-158h-76q-155 0 -217.5 -42t-62.5 -122q0 -46 20.5 -100.5t45 -97t45 -95t20.5 -94.5q0 -87 -65.5 -144t-217.5 -87v-3q152 -28 217.5 -85.5t65.5 -145.5q0 -42 -20.5 -94.5t-45 -95t-45 -97t-20.5 -100.5q0 -80 62.5 -122t217.5 -42h76v-158h-147
q-97 0 -172.5 17t-123.5 44.5t-78.5 66t-43 78.5t-12.5 85q0 61 24.5 128t54 115.5t54 105t24.5 98.5q0 61 -66.5 96t-189.5 35h-55v145h55q123 0 189.5 35t66.5 96q0 42 -24.5 98.5t-54 105t-54 115.5t-24.5 128q0 45 12.5 85t43 78.5t78.5 66t123.5 44.5t172.5 17z" />
    <glyph glyph-name="bar" unicode="|" horiz-adv-x="692" 
d="M252 1561h188v-1883h-188v1883z" />
    <glyph glyph-name="braceright" unicode="}" horiz-adv-x="845" 
d="M29 1561h149q97 0 172.5 -17t123 -44t78 -66t42.5 -79t12 -85q0 -61 -24.5 -128t-54 -115.5t-54 -105t-24.5 -98.5q0 -61 66.5 -96t189.5 -35h55v-145h-55q-123 0 -189.5 -35t-66.5 -96q0 -42 24.5 -98.5t54 -105t54 -115.5t24.5 -128q0 -45 -12 -85t-42.5 -79t-78 -66
t-123 -44t-172.5 -17h-149v158h77q155 0 218 42t63 122q0 46 -20.5 100.5t-45 97t-45 95t-20.5 94.5q0 88 64.5 145.5t216.5 85.5v3q-152 30 -216.5 86.5t-64.5 144.5q0 42 20.5 94.5t45 95t45 97t20.5 100.5q0 80 -63 122t-218 42h-77v158z" />
    <glyph glyph-name="asciitilde" unicode="~" horiz-adv-x="1228" 
d="M377 934q55 0 109 -25.5t87.5 -54t79.5 -76.5q6 -6 22 -23t22.5 -23.5t21 -20.5t22 -20t20 -16.5t21 -15.5t19.5 -10.5t21 -7.5t20 -2q42 0 65 33.5t23 93.5q0 78 -27 162h158q41 -93 41 -209q0 -77 -24 -140t-82.5 -106t-145.5 -43q-75 0 -137.5 38.5t-128.5 106.5
q-10 10 -41 42.5t-43.5 43.5t-35.5 30t-41.5 25.5t-37.5 6.5q-42 0 -65 -33t-23 -94q0 -55 27 -160h-156q-43 93 -43 209q0 77 24 140t82.5 106t145.5 43z" />
    <glyph glyph-name="asciitilde" unicode="&#x223c;" horiz-adv-x="1228" 
d="M377 934q55 0 109 -25.5t87.5 -54t79.5 -76.5q6 -6 22 -23t22.5 -23.5t21 -20.5t22 -20t20 -16.5t21 -15.5t19.5 -10.5t21 -7.5t20 -2q42 0 65 33.5t23 93.5q0 78 -27 162h158q41 -93 41 -209q0 -77 -24 -140t-82.5 -106t-145.5 -43q-75 0 -137.5 38.5t-128.5 106.5
q-10 10 -41 42.5t-43.5 43.5t-35.5 30t-41.5 25.5t-37.5 6.5q-42 0 -65 -33t-23 -94q0 -55 27 -160h-156q-43 93 -43 209q0 77 24 140t82.5 106t145.5 43z" />
    <glyph glyph-name="uni00A0" unicode="&#xa0;" horiz-adv-x="393" 
 />
    <glyph glyph-name="exclamdown" unicode="&#xa1;" horiz-adv-x="509" 
d="M373 1106h-234v258h234v-258zM373 0h-236v412l82 540h72l82 -540v-412z" />
    <glyph glyph-name="cent" unicode="&#xa2;" horiz-adv-x="1036" 
d="M942 528q0 -137 -80 -232.5t-229 -119.5v-188h-195v188q-162 29 -249 147t-87 302v116q0 182 88.5 300t247.5 147v186h195v-184q151 -23 230 -118t79 -236v-27h-223v6q0 83 -45 134.5t-135 51.5q-97 0 -149 -66.5t-52 -174.5v-156q0 -107 51.5 -173t147.5 -66
q90 0 136 51t46 133v8h223v-29z" />
    <glyph glyph-name="sterling" unicode="&#xa3;" horiz-adv-x="1404" 
d="M1317 336q0 -185 -79.5 -276t-254.5 -91q-63 0 -121.5 13t-114 40.5t-90.5 49t-90 59.5q-111 -162 -293 -162q-111 0 -171 57.5t-60 147.5q0 92 65.5 156.5t182.5 64.5q94 0 209 -47q12 44 12 82q0 76 -43 164h-297v147h217q-74 140 -74 267q0 167 126.5 277t361.5 110
q238 0 353.5 -106t115.5 -290v-63h-228v37q0 101 -59.5 155t-177.5 54q-109 0 -176.5 -49t-67.5 -144q0 -16 1 -31.5t4 -31t5.5 -27.5t8 -28.5l8.5 -25.5t11 -27t11 -25t11.5 -26.5t11.5 -25.5h403v-147h-350q17 -63 17 -127q0 -101 -56 -195q61 -32 99.5 -49.5t93 -33
t102.5 -15.5q84 0 124 41.5t40 144.5v70h209v-94zM182 178q0 -36 27 -62t72 -26q104 0 174 117q-90 57 -172 57q-46 0 -73.5 -25t-27.5 -61z" />
    <glyph glyph-name="yen" unicode="&#xa5;" horiz-adv-x="1228" 
d="M1098 242h-369v-242h-231v242h-371v137h371v151l-4 9h-367v135h295l-363 690h258l304 -621l303 621h245l-364 -690h293v-135h-363l-6 -9v-151h369v-137z" />
    <glyph glyph-name="section" unicode="&#xa7;" horiz-adv-x="1230" 
d="M1100 -23q0 -146 -118 -237.5t-366 -91.5q-250 0 -372.5 101.5t-122.5 270.5v39h227v-26q0 -85 66.5 -136t216.5 -51q115 0 175 35t60 92t-57 89t-270 108q-238 76 -329 146t-91 192q0 175 231 276q-107 54 -152.5 121t-45.5 160q0 70 27 128t81 104t145.5 72t212.5 26
q239 0 359.5 -102t120.5 -269v-20h-228v8q0 83 -63.5 133.5t-202.5 50.5q-104 0 -161.5 -34.5t-57.5 -90.5q0 -59 57 -93t256 -106q120 -38 195 -70t128.5 -71.5t75 -86t21.5 -109.5q0 -175 -229 -275q115 -55 163 -122t48 -161zM731 319q2 0 5.5 -1t4.5 -1q76 27 121 71
t45 97q0 70 -79 115t-322 123q-2 0 -5.5 1t-4.5 1q-76 -27 -121 -71t-45 -97q0 -70 79 -115t322 -123z" />
    <glyph glyph-name="dieresis" unicode="&#xa8;" horiz-adv-x="1024" 
d="M223 1380h207v-227h-207v227zM594 1380h207v-227h-207v227z" />
    <glyph glyph-name="copyright" unicode="&#xa9;" horiz-adv-x="1736" 
d="M119 682q0 155 56.5 292.5t155 236t238 155.5t299.5 57t300 -57t238.5 -155.5t155 -236t56.5 -292.5t-56.5 -292.5t-155 -236t-238.5 -155.5t-300 -57t-299.5 57t-238 155.5t-155 236t-56.5 292.5zM1507 682q0 181 -80 328t-226.5 232t-332.5 85t-332.5 -85t-226.5 -232
t-80 -328t80 -327.5t226.5 -231t332.5 -84.5t332.5 84.5t226.5 231t80 327.5zM879 1049q137 0 207.5 -65.5t70.5 -176.5v-25h-143v15q0 53 -34 84.5t-101 31.5q-77 0 -115.5 -46.5t-38.5 -125.5v-116q0 -78 39 -126t115 -48q67 0 101 32.5t34 85.5v17h143v-29
q0 -110 -71.5 -176t-206.5 -66q-146 0 -227 83t-81 223v122q0 140 82 223t226 83z" />
    <glyph glyph-name="ordfeminine" unicode="&#xaa;" horiz-adv-x="884" 
d="M573 715q-87 -154 -276 -154q-109 0 -169 55t-60 156q0 67 28 115.5t97 83.5q110 55 370 76v45q0 61 -32 89.5t-103 28.5q-69 0 -105 -29.5t-36 -80.5v-17h-185v19q0 121 85 197.5t251 76.5q167 0 248.5 -77.5t81.5 -217.5v-305q0 -40 16 -55t62 -16v-132h-76
q-100 0 -141 28.5t-56 113.5zM270 803q0 -43 29 -68.5t82 -25.5q78 0 130 43.5t52 111.5v80q-193 -19 -244 -59q-49 -24 -49 -82z" />
    <glyph glyph-name="guillemotleft" unicode="&#xab;" horiz-adv-x="1269" 
d="M496 975h127q-49 -285 -271 -486q222 -201 271 -485h-127q-47 132 -148 240t-252 182v127q150 72 251.5 181t148.5 241zM1018 975h127q-46 -285 -271 -486q225 -201 271 -485h-127q-47 132 -148 240t-252 182v127q150 72 251.5 181t148.5 241z" />
    <glyph glyph-name="registered" unicode="&#xae;" horiz-adv-x="1060" 
d="M530 1395q192 0 318.5 -126t126.5 -311q0 -184 -126.5 -309t-318.5 -125t-318 125t-126 309q0 185 126 311t318 126zM530 1325q-165 0 -266.5 -104t-101.5 -263t101.5 -262.5t266.5 -103.5t266 103.5t101 262.5t-101 263t-266 104zM459 897v-152h-101v437h213
q156 0 156 -142q0 -99 -82 -131l90 -164h-108l-82 152h-86zM459 1100v-125h92q39 0 56.5 15t17.5 48q0 34 -17 48t-55 14h-94z" />
    <glyph glyph-name="macron" unicode="&#xaf;" horiz-adv-x="1024" 
d="M193 1333h638v-147h-638v147z" />
    <glyph glyph-name="degree" unicode="&#xb0;" horiz-adv-x="894" 
d="M444 1397q171 0 270 -100.5t99 -264.5t-99.5 -264t-269.5 -100t-269 100t-99 264t98.5 264.5t269.5 100.5zM444 1237q-90 0 -139 -55t-49 -150q0 -97 49.5 -151t138.5 -54q90 0 139.5 54t49.5 151q0 95 -49 150t-140 55z" />
    <glyph glyph-name="plusminus" unicode="&#xb1;" horiz-adv-x="1093" 
d="M455 1243h184v-305h311v-176h-311v-307h-184v307h-312v176h312v305zM143 301h807v-178h-807v178z" />
    <glyph glyph-name="two.sup" unicode="&#xb2;" 
d="M676 606h-610v45q0 142 56 220.5t220 162.5q108 57 139 85.5t31 78.5t-34.5 74t-92.5 24q-71 0 -110 -31.5t-39 -90.5v-39h-168v47q0 117 82.5 187.5t238.5 70.5q152 0 226.5 -65t74.5 -171q0 -91 -54 -148.5t-208 -137.5q-101 -53 -134 -83.5t-34 -78.5h416v-150z" />
    <glyph glyph-name="three.sup" unicode="&#xb3;" 
d="M381 1440q146 0 226.5 -63.5t80.5 -162.5v-14q0 -67 -45 -115t-125 -65q176 -31 176 -186v-15q0 -102 -83.5 -166.5t-231.5 -64.5q-161 0 -241.5 66t-80.5 177v43h166v-34q0 -52 38 -81.5t112 -29.5q66 0 103.5 28t37.5 77v20q0 100 -158 100h-77v123h77q79 0 117.5 28
t38.5 75v16q0 49 -37 75.5t-102 26.5q-72 0 -111 -31t-39 -79v-37h-164v47q0 105 82 173.5t240 68.5z" />
    <glyph glyph-name="acute" unicode="&#xb4;" horiz-adv-x="1021" 
d="M743 1540l-315 -393h-149l192 393h272z" />
    <glyph glyph-name="paragraph" unicode="&#xb6;" horiz-adv-x="1439" 
d="M1288 1364v-1686h-168v1485h-182v-1485h-170v658h-102q-141 1 -252.5 38.5t-183.5 104.5t-110 158t-38 199v28q0 221 154 360.5t430 139.5h622zM768 1163h-74q-256 0 -256 -282v-84q0 -277 256 -277h74v643z" />
    <glyph glyph-name="periodcentered" unicode="&#xb7;" horiz-adv-x="446" 
d="M100 823h246v-280h-246v280z" />
    <glyph glyph-name="cedilla" unicode="&#xb8;" horiz-adv-x="1021" 
d="M778 -334q0 -99 -71.5 -153t-198.5 -54q-133 0 -262 52l30 81q93 -34 185 -34q137 0 137 104q0 94 -113 94q-45 0 -106 -22l-39 65l170 221h108l-149 -186q47 19 94 19q98 0 156.5 -51t58.5 -136z" />
    <glyph glyph-name="one.sup" unicode="&#xb9;" horiz-adv-x="616" 
d="M307 1430h129v-824h-184v578h-180v135h75q75 0 111.5 26t48.5 85z" />
    <glyph glyph-name="ordmasculine" unicode="&#xba;" horiz-adv-x="897" 
d="M449 1380q174 0 273 -97.5t99 -268.5v-101q0 -171 -99.5 -267.5t-272.5 -96.5t-272 96.5t-99 267.5v101q0 171 99.5 268.5t271.5 97.5zM449 1206q-74 0 -115 -44.5t-41 -117.5v-161q0 -72 41 -115t115 -43q72 0 113.5 43t41.5 115v161q0 72 -41 117t-114 45z" />
    <glyph glyph-name="guillemotright" unicode="&#xbb;" horiz-adv-x="1263" 
d="M768 4h-127q45 282 270 485q-224 200 -270 486h127q45 -132 146.5 -241t252.5 -181v-127q-151 -74 -252.5 -182.5t-146.5 -239.5zM252 4h-129q48 281 270 485q-221 200 -270 486h129q45 -132 146.5 -241t252.5 -181v-127q-151 -74 -252.5 -182.5t-146.5 -239.5z" />
    <glyph glyph-name="onequarter" unicode="&#xbc;" horiz-adv-x="1568" 
d="M307 1376h129v-823h-184v577h-180v136h75q76 0 112 25.5t48 84.5zM1241 1364l-844 -1364h-139l842 1364h141zM1198 817h223v-512h109v-135h-109v-170h-166v170h-421v131zM1255 305v377l-256 -377h256z" />
    <glyph glyph-name="onehalf" unicode="&#xbd;" horiz-adv-x="1660" 
d="M307 1376h129v-823h-184v577h-180v136h75q76 0 112 25.5t48 84.5zM1241 1364l-844 -1364h-139l842 1364h141zM1583 0h-610v47q0 140 56 218.5t220 164.5q108 57 139 85t31 77q0 50 -35 74t-94 24q-70 0 -108.5 -31.5t-38.5 -89.5v-41h-168v50q0 115 82.5 185.5
t238.5 70.5q152 0 226.5 -65t74.5 -171q0 -90 -54.5 -147.5t-207.5 -139.5q-101 -52 -134 -82.5t-34 -76.5h416v-152z" />
    <glyph glyph-name="threequarters" unicode="&#xbe;" horiz-adv-x="1724" 
d="M381 1386q146 0 226.5 -63t80.5 -162v-14q0 -67 -45 -115t-125 -65q176 -31 176 -187v-14q0 -102 -83.5 -166.5t-231.5 -64.5q-161 0 -241.5 66t-80.5 177v43h166v-35q0 -52 38 -81t112 -29q66 0 103.5 27.5t37.5 76.5v21q0 100 -158 100h-77v123h77q80 0 118 27.5
t38 74.5v17q0 49 -37 75.5t-102 26.5q-72 0 -111 -31t-39 -79v-37h-164v47q0 105 82 173t240 68zM1397 1364l-844 -1364h-139l841 1364h142zM1354 817h223v-512h109v-135h-109v-170h-166v170h-422v131zM1411 305v377l-256 -377h256z" />
    <glyph glyph-name="questiondown" unicode="&#xbf;" horiz-adv-x="1073" 
d="M705 1364v-258h-234v258h234zM63 336q0 118 55 199t210 170q56 33 85.5 56t46.5 53.5t21 58.5t6 83h203q0 -108 -18 -170.5t-64.5 -114t-144.5 -118.5q-91 -55 -123.5 -98.5t-32.5 -108.5q0 -164 223 -164q145 0 203 57t58 167v59h223v-78q0 -66 -14 -124t-48.5 -113
t-88.5 -94.5t-140 -63t-197 -23.5q-126 0 -218.5 29.5t-144.5 81.5t-76 115.5t-24 140.5z" />
    <glyph glyph-name="Agrave" unicode="&#xc0;" horiz-adv-x="1310" 
d="M262 1909h273l200 -348h-160zM997 0l-92 287h-512l-92 -287h-246l459 1374h283l458 -1374h-258zM647 1083l-192 -602h389l-193 602h-4z" />
    <glyph glyph-name="Aacute" unicode="&#xc1;" horiz-adv-x="1310" 
d="M1049 1909l-314 -348h-160l201 348h273zM997 0l-92 287h-512l-92 -287h-246l459 1374h283l458 -1374h-258zM647 1083l-192 -602h389l-193 602h-4z" />
    <glyph glyph-name="Acircumflex" unicode="&#xc2;" horiz-adv-x="1310" 
d="M535 1890h241q54 -191 228 -268v-90q-110 19 -204 76t-145 125q-49 -67 -143.5 -124.5t-204.5 -76.5v90q178 78 228 268zM997 0l-92 287h-512l-92 -287h-246l459 1374h283l458 -1374h-258zM647 1083l-192 -602h389l-193 602h-4z" />
    <glyph glyph-name="Atilde" unicode="&#xc3;" horiz-adv-x="1310" 
d="M487 1880q58 0 103 -23.5t90 -64.5q5 -4 20.5 -18.5t21 -20t19 -16.5t21.5 -15.5t20 -10.5t23 -8.5t22 -2.5q35 0 54.5 24.5t19.5 67.5q0 20 -12 78h94q23 -62 23 -131q0 -93 -49.5 -150t-135.5 -57q-98 0 -194 92q-5 5 -23.5 21t-24.5 21.5t-21.5 17t-25 16t-23 8.5
t-26.5 4q-35 0 -54 -24t-19 -66q0 -22 12 -80h-96q-21 71 -21 131q0 93 48.5 150t133.5 57zM997 0l-92 287h-512l-92 -287h-246l459 1374h283l458 -1374h-258zM647 1083l-192 -602h389l-193 602h-4z" />
    <glyph glyph-name="Adieresis" unicode="&#xc4;" horiz-adv-x="1310" 
d="M356 1792h209v-227h-209v227zM748 1792h206v-227h-206v227zM997 0l-92 287h-512l-92 -287h-246l459 1374h283l458 -1374h-258zM647 1083l-192 -602h389l-193 602h-4z" />
    <glyph glyph-name="Aring" unicode="&#xc5;" horiz-adv-x="1310" 
d="M995 0l-92 287h-508l-92 -287h-248l443 1327q-88 66 -88 174q0 92 67 155.5t178 63.5t178.5 -63.5t67.5 -155.5q0 -109 -90 -174l444 -1327h-260zM655 1628q-65 0 -103 -36t-38 -91t38 -91t103 -36q64 0 103 36.5t39 90.5q0 53 -39 90t-103 37zM649 1083l-192 -602h385z
" />
    <glyph glyph-name="AE" unicode="&#xc6;" horiz-adv-x="1869" 
d="M-18 0l751 1364h1047v-215h-658v-354h512v-205h-512v-375h660v-215h-905v297h-474l-159 -297h-262zM872 1165l-370 -686h375v686h-5z" />
    <glyph glyph-name="Ccedilla" unicode="&#xc7;" horiz-adv-x="1271" 
d="M901 -334q0 -99 -71.5 -153t-198.5 -54q-136 0 -262 52l30 81q93 -34 185 -34q137 0 137 104q0 94 -113 94q-45 0 -106 -22l-39 65l133 174q-227 20 -355 170t-128 387v304q0 253 149.5 406t405.5 153q244 0 372.5 -121.5t128.5 -323.5v-74h-245v60q0 110 -68.5 179
t-189.5 69q-142 0 -220.5 -93.5t-78.5 -246.5v-318q0 -151 79 -246.5t220 -95.5q120 0 189 69t69 179v59h245v-73q0 -191 -121 -313t-346 -132l-110 -137q48 19 94 19q98 0 156.5 -51t58.5 -136z" />
    <glyph glyph-name="Egrave" unicode="&#xc8;" horiz-adv-x="1153" 
d="M256 1898h274l199 -348h-160zM160 1364h903v-215h-657v-354h512v-205h-512v-375h659v-215h-905v1364z" />
    <glyph glyph-name="Eacute" unicode="&#xc9;" horiz-adv-x="1153" 
d="M977 1898l-313 -348h-160l198 348h275zM160 1364h903v-215h-657v-354h512v-205h-512v-375h659v-215h-905v1364z" />
    <glyph glyph-name="Ecircumflex" unicode="&#xca;" horiz-adv-x="1153" 
d="M487 1880h242q54 -193 227 -266v-92q-110 19 -204 76t-144 126q-49 -69 -142.5 -126t-205.5 -76v92q176 75 227 266zM160 1364h903v-215h-657v-354h512v-205h-512v-375h659v-215h-905v1364z" />
    <glyph glyph-name="Edieresis" unicode="&#xcb;" horiz-adv-x="1153" 
d="M311 1784h207v-228h-207v228zM700 1784h207v-228h-207v228zM160 1364h903v-215h-657v-354h512v-205h-512v-375h659v-215h-905v1364z" />
    <glyph glyph-name="Igrave" unicode="&#xcc;" horiz-adv-x="587" 
d="M-100 1898h274l199 -348h-160zM168 1364h252v-1364h-252v1364z" />
    <glyph glyph-name="Iacute" unicode="&#xcd;" horiz-adv-x="587" 
d="M688 1898l-313 -348h-160l199 348h274zM168 1364h252v-1364h-252v1364z" />
    <glyph glyph-name="Icircumflex" unicode="&#xce;" horiz-adv-x="587" 
d="M174 1880h242q51 -191 227 -266v-92q-110 19 -204 76t-144 126q-50 -69 -144 -126t-204 -76v92q173 73 227 266zM168 1364h252v-1364h-252v1364z" />
    <glyph glyph-name="Idieresis" unicode="&#xcf;" horiz-adv-x="587" 
d="M-4 1784h209v-228h-209v228zM385 1784h209v-228h-209v228zM168 1364h252v-1364h-252v1364z" />
    <glyph glyph-name="Eth" unicode="&#xd0;" horiz-adv-x="1320" 
d="M1208 532q0 -249 -141.5 -390.5t-407.5 -141.5h-497v616h-160v138h160v610h497q266 0 407.5 -144.5t141.5 -394.5v-293zM414 207h225q157 0 237 90t80 246v278q0 157 -80 246.5t-237 89.5h-225v-403h297v-138h-297v-409z" />
    <glyph glyph-name="Ntilde" unicode="&#xd1;" horiz-adv-x="1366" 
d="M514 1872q97 0 191 -90q6 -6 24 -22t25.5 -22.5t23 -18t25.5 -16t24 -9t27 -4.5q35 0 54.5 24.5t19.5 67.5q0 27 -15 78h97q20 -68 20 -131q0 -93 -48 -150t-134 -57q-58 0 -103.5 24.5t-91.5 67.5q-4 3 -16 14.5t-16 15t-15 13t-16 13t-14.5 10.5t-16.5 9.5t-16 6
t-17.5 5t-17.5 1.5q-34 0 -53 -23.5t-19 -66.5q0 -33 13 -80h-97q-20 72 -20 133q0 92 48 149.5t134 57.5zM160 1364h248l571 -938h4l-2 938h225v-1364h-243l-576 950h-4l2 -950h-225v1364z" />
    <glyph glyph-name="Ograve" unicode="&#xd2;" horiz-adv-x="1345" 
d="M322 1909h272l201 -348h-160zM674 1395q260 0 409.5 -149.5t149.5 -422.5v-280q0 -275 -150 -424.5t-411 -149.5q-260 0 -409.5 149.5t-149.5 422.5v280q0 275 150 424.5t411 149.5zM674 1180q-148 0 -227.5 -88.5t-79.5 -260.5v-299q0 -171 79 -259.5t226 -88.5
q148 0 227.5 88.5t79.5 259.5v299q0 171 -79.5 260t-225.5 89z" />
    <glyph glyph-name="Oacute" unicode="&#xd3;" horiz-adv-x="1345" 
d="M1040 1909l-313 -348h-158l199 348h272zM674 1395q260 0 409.5 -149.5t149.5 -422.5v-280q0 -275 -150 -424.5t-411 -149.5q-260 0 -409.5 149.5t-149.5 422.5v280q0 275 150 424.5t411 149.5zM674 1180q-148 0 -227.5 -88.5t-79.5 -260.5v-299q0 -171 79 -259.5
t226 -88.5q148 0 227.5 88.5t79.5 259.5v299q0 171 -79.5 260t-225.5 89z" />
    <glyph glyph-name="Ocircumflex" unicode="&#xd4;" horiz-adv-x="1345" 
d="M553 1890h242q49 -190 227 -268v-90q-109 19 -203 76t-145 125q-51 -68 -145 -125t-203 -76v90q174 77 227 268zM674 1395q260 0 409.5 -149.5t149.5 -422.5v-280q0 -275 -150 -424.5t-411 -149.5q-260 0 -409.5 149.5t-149.5 422.5v280q0 275 150 424.5t411 149.5z
M674 1180q-148 0 -227.5 -88.5t-79.5 -260.5v-299q0 -171 79 -259.5t226 -88.5q148 0 227.5 88.5t79.5 259.5v299q0 171 -79.5 260t-225.5 89z" />
    <glyph glyph-name="Otilde" unicode="&#xd5;" horiz-adv-x="1345" 
d="M506 1880q98 0 190 -88q5 -4 24.5 -21.5t25.5 -23t22.5 -18t26 -16.5t24 -8.5t27.5 -4.5q35 0 54.5 23.5t19.5 66.5q0 26 -15 80h96q21 -71 21 -131q0 -93 -48 -150t-134 -57q-99 0 -195 92q-6 5 -23.5 21t-24.5 21.5t-22 17t-24.5 16t-23.5 8.5t-27 4q-34 0 -53 -24.5
t-19 -67.5q0 -34 12 -78h-96q-20 68 -20 131q0 93 48 150t134 57zM674 1395q260 0 409.5 -149.5t149.5 -422.5v-280q0 -275 -150 -424.5t-411 -149.5q-260 0 -409.5 149.5t-149.5 422.5v280q0 275 150 424.5t411 149.5zM674 1180q-148 0 -227.5 -88.5t-79.5 -260.5v-299
q0 -171 79 -259.5t226 -88.5q148 0 227.5 88.5t79.5 259.5v299q0 171 -79.5 260t-225.5 89z" />
    <glyph glyph-name="Odieresis" unicode="&#xd6;" horiz-adv-x="1345" 
d="M375 1792h209v-227h-209v227zM764 1792h209v-227h-209v227zM674 1395q260 0 409.5 -149.5t149.5 -422.5v-280q0 -275 -150 -424.5t-411 -149.5q-260 0 -409.5 149.5t-149.5 422.5v280q0 275 150 424.5t411 149.5zM674 1180q-148 0 -227.5 -88.5t-79.5 -260.5v-299
q0 -171 79 -259.5t226 -88.5q148 0 227.5 88.5t79.5 259.5v299q0 171 -79.5 260t-225.5 89z" />
    <glyph glyph-name="multiply" unicode="&#xd7;" horiz-adv-x="1087" 
d="M823 272l-278 277l-279 -277l-137 134l281 276l-281 279l137 133l279 -277l278 277l135 -133l-280 -279l280 -276z" />
    <glyph glyph-name="Oslash" unicode="&#xd8;" horiz-adv-x="1345" 
d="M672 -31q-203 0 -342 94l-115 -163l-111 75l123 183q-114 145 -114 383v280q0 275 150 424.5t411 149.5q200 0 340 -92l114 161l111 -75l-123 -181q117 -145 117 -385v-280q0 -275 -150 -424.5t-411 -149.5zM360 532q0 -96 27 -167l492 751q-75 66 -205 66
q-150 0 -232 -88.5t-82 -262.5v-299zM985 831q0 99 -27 170l-493 -753q78 -66 207 -66q150 0 231.5 89t81.5 261v299z" />
    <glyph glyph-name="Ugrave" unicode="&#xd9;" horiz-adv-x="1310" 
d="M305 1892h273l200 -348h-160zM143 1364h250v-889q0 -139 70.5 -213t198.5 -74q129 0 198.5 74t69.5 213v889h239v-879q0 -248 -131 -381t-383 -133q-254 0 -383 132t-129 382v879z" />
    <glyph glyph-name="Uacute" unicode="&#xda;" horiz-adv-x="1310" 
d="M1024 1892l-313 -348h-158l199 348h272zM143 1364h250v-889q0 -139 70.5 -213t198.5 -74q129 0 198.5 74t69.5 213v889h239v-879q0 -248 -131 -381t-383 -133q-254 0 -383 132t-129 382v879z" />
    <glyph glyph-name="Ucircumflex" unicode="&#xdb;" horiz-adv-x="1310" 
d="M537 1874h241q50 -188 228 -266v-92q-109 19 -203.5 76.5t-145.5 125.5q-51 -68 -145 -125.5t-203 -76.5v92q175 77 228 266zM143 1364h250v-889q0 -139 70.5 -213t198.5 -74q129 0 198.5 74t69.5 213v889h239v-879q0 -248 -131 -381t-383 -133q-254 0 -383 132t-129 382
v879z" />
    <glyph glyph-name="Udieresis" unicode="&#xdc;" horiz-adv-x="1310" 
d="M358 1778h209v-228h-209v228zM748 1778h208v-228h-208v228zM143 1364h250v-889q0 -139 70.5 -213t198.5 -74q129 0 198.5 74t69.5 213v889h239v-879q0 -248 -131 -381t-383 -133q-254 0 -383 132t-129 382v879z" />
    <glyph glyph-name="Yacute" unicode="&#xdd;" horiz-adv-x="1220" 
d="M987 1892l-313 -348h-158l199 348h272zM35 1364h274l307 -614l306 614h266l-453 -842v-522h-252v522z" />
    <glyph glyph-name="Thorn" unicode="&#xde;" horiz-adv-x="1206" 
d="M160 1364h250v-248h288q217 0 330 -101t113 -280v-102q0 -181 -113.5 -282t-331.5 -101h-286v-250h-250v1364zM410 920v-474h245q122 0 178 50.5t56 152.5v70q0 100 -57 150.5t-179 50.5h-243z" />
    <glyph glyph-name="germandbls" unicode="&#xdf;" horiz-adv-x="1103" 
d="M557 1427q191 0 296 -92t105 -254v-39q0 -209 -188 -268v-4q248 -68 248 -330v-96q0 -171 -95 -262.5t-276 -91.5q-95 0 -164 16v146q41 -9 78 -9q209 0 209 207v94q0 226 -262 232v141q121 4 174 53t53 152v45q0 89 -45 138.5t-133 49.5q-93 0 -141.5 -58t-48.5 -171
v-1026h-236v1001q0 205 111 315.5t315 110.5z" />
    <glyph glyph-name="agrave" unicode="&#xe0;" horiz-adv-x="1021" 
d="M180 1548h273l192 -393h-149zM670 170q-57 -93 -134.5 -139.5t-187.5 -46.5q-127 0 -197.5 67t-70.5 193q0 87 34.5 147t118.5 101q129 66 424 92v73q0 80 -38.5 121t-122.5 41q-79 0 -121.5 -38t-42.5 -109v-21h-211v23q0 146 96.5 240t286.5 94q191 0 287 -95.5
t96 -265.5v-403q0 -59 20 -78.5t80 -24.5v-145h-82q-110 0 -163.5 36.5t-71.5 137.5zM309 268q0 -123 125 -123q92 0 157.5 65t65.5 155v98q-186 -20 -262 -57q-48 -25 -67 -58t-19 -80z" />
    <glyph glyph-name="aacute" unicode="&#xe1;" horiz-adv-x="1021" 
d="M854 1548l-315 -393h-150l193 393h272zM670 170q-57 -93 -134.5 -139.5t-187.5 -46.5q-127 0 -197.5 67t-70.5 193q0 87 34.5 147t118.5 101q129 66 424 92v73q0 80 -38.5 121t-122.5 41q-79 0 -121.5 -38t-42.5 -109v-21h-211v23q0 146 96.5 240t286.5 94
q191 0 287 -95.5t96 -265.5v-403q0 -59 20 -78.5t80 -24.5v-145h-82q-110 0 -163.5 36.5t-71.5 137.5zM309 268q0 -123 125 -123q92 0 157.5 65t65.5 155v98q-186 -20 -262 -57q-48 -25 -67 -58t-19 -80z" />
    <glyph glyph-name="acircumflex" unicode="&#xe2;" horiz-adv-x="1021" 
d="M406 1530h204q33 -126 85.5 -202.5t138.5 -113.5v-88q-102 12 -190.5 76.5t-135.5 155.5q-48 -92 -137 -156t-191 -76v88q87 37 140 113t86 203zM670 170q-57 -93 -134.5 -139.5t-187.5 -46.5q-127 0 -197.5 67t-70.5 193q0 87 34.5 147t118.5 101q129 66 424 92v73
q0 80 -38.5 121t-122.5 41q-79 0 -121.5 -38t-42.5 -109v-21h-211v23q0 146 96.5 240t286.5 94q191 0 287 -95.5t96 -265.5v-403q0 -59 20 -78.5t80 -24.5v-145h-82q-110 0 -163.5 36.5t-71.5 137.5zM309 268q0 -123 125 -123q92 0 157.5 65t65.5 155v98q-186 -20 -262 -57
q-48 -25 -67 -58t-19 -80z" />
    <glyph glyph-name="atilde" unicode="&#xe3;" horiz-adv-x="1021" 
d="M352 1495q33 0 62 -9.5t57.5 -32t42 -35.5t41.5 -44q34 -37 59 -55.5t54 -18.5t50 22.5t21 68.5q0 40 -10 92h96q23 -85 23 -144q0 -95 -50.5 -153t-133.5 -58q-52 0 -92 24t-83 67q-4 5 -19 21.5t-20.5 22l-18 18t-20 17t-19 11.5t-22.5 9.5t-22 2.5q-31 0 -51.5 -22
t-20.5 -68q0 -35 11 -92h-99q-20 93 -20 143q0 96 50.5 154.5t133.5 58.5zM670 170q-57 -93 -134.5 -139.5t-187.5 -46.5q-127 0 -197.5 67t-70.5 193q0 87 34.5 147t118.5 101q129 66 424 92v73q0 80 -38.5 121t-122.5 41q-79 0 -121.5 -38t-42.5 -109v-21h-211v23
q0 146 96.5 240t286.5 94q191 0 287 -95.5t96 -265.5v-403q0 -59 20 -78.5t80 -24.5v-145h-82q-110 0 -163.5 36.5t-71.5 137.5zM309 268q0 -123 125 -123q92 0 157.5 65t65.5 155v98q-186 -20 -262 -57q-48 -25 -67 -58t-19 -80z" />
    <glyph glyph-name="adieresis" unicode="&#xe4;" horiz-adv-x="1021" 
d="M217 1389h209v-228h-209v228zM588 1389h209v-228h-209v228zM670 170q-57 -93 -134.5 -139.5t-187.5 -46.5q-127 0 -197.5 67t-70.5 193q0 87 34.5 147t118.5 101q129 66 424 92v73q0 80 -38.5 121t-122.5 41q-79 0 -121.5 -38t-42.5 -109v-21h-211v23q0 146 96.5 240
t286.5 94q191 0 287 -95.5t96 -265.5v-403q0 -59 20 -78.5t80 -24.5v-145h-82q-110 0 -163.5 36.5t-71.5 137.5zM309 268q0 -123 125 -123q92 0 157.5 65t65.5 155v98q-186 -20 -262 -57q-48 -25 -67 -58t-19 -80z" />
    <glyph glyph-name="aring" unicode="&#xe5;" horiz-adv-x="1021" 
d="M508 1556q108 0 175 -63.5t67 -155.5q0 -94 -67 -157.5t-175 -63.5t-176 63.5t-68 157.5q0 92 68 155.5t176 63.5zM508 1464q-64 0 -101.5 -37t-37.5 -90q0 -56 37.5 -92.5t101.5 -36.5q63 0 101 37t38 92q0 53 -38 90t-101 37zM670 170q-57 -93 -134.5 -139.5
t-187.5 -46.5q-127 0 -197.5 67t-70.5 193q0 87 34.5 147t118.5 101q129 66 424 92v73q0 80 -38.5 121t-122.5 41q-79 0 -121.5 -38t-42.5 -109v-21h-211v23q0 146 96.5 240t286.5 94q191 0 287 -95.5t96 -265.5v-403q0 -59 20 -78.5t80 -24.5v-145h-82q-110 0 -163.5 36.5
t-71.5 137.5zM309 268q0 -123 125 -123q92 0 157.5 65t65.5 155v98q-186 -20 -262 -57q-48 -25 -67 -58t-19 -80z" />
    <glyph glyph-name="ae" unicode="&#xe6;" horiz-adv-x="1597" 
d="M1518 301q0 -145 -108 -237.5t-300 -92.5q-280 0 -375 207q-120 -205 -362 -205q-144 0 -219.5 69t-75.5 196q0 85 34 146t119 103q133 66 428 95v75q0 80 -38 120t-123 40q-81 0 -123.5 -38.5t-42.5 -108.5v-23h-211v25q0 146 95 239t278 93q221 0 303 -148
q54 75 135.5 113.5t177.5 38.5q202 0 306 -121.5t104 -323.5v-129h-625v-47q0 -109 53.5 -168t163.5 -59q95 0 145 42t50 105v6h211v-12zM895 588v-19h399v21q0 231 -196 231q-98 0 -150.5 -60t-52.5 -173zM307 262q0 -58 33.5 -91.5t97.5 -33.5q95 0 158 62.5t63 156.5v103
q-186 -20 -264 -58q-50 -26 -69 -59t-19 -80z" />
    <glyph glyph-name="ccedilla" unicode="&#xe7;" horiz-adv-x="983" 
d="M756 -334q0 -99 -72.5 -153t-200.5 -54q-134 0 -260 52l31 81q93 -34 184 -34q137 0 137 104q0 94 -112 94q-49 0 -107 -22l-39 65l136 176q-177 19 -274 137.5t-97 313.5v125q0 210 116.5 333.5t319.5 123.5q190 0 291.5 -100t101.5 -263v-29h-217v9q0 88 -44 140
t-134 52q-97 0 -149 -66.5t-52 -181.5v-161q0 -115 51 -180.5t148 -65.5q90 0 135 51.5t45 138.5v8h217v-28q0 -149 -91.5 -248t-262.5 -111l-111 -139q44 19 95 19q97 0 156 -51t59 -136z" />
    <glyph glyph-name="egrave" unicode="&#xe8;" horiz-adv-x="1007" 
d="M186 1548h273l192 -393h-151zM928 299q0 -143 -108 -235.5t-300 -92.5q-216 0 -327 119t-111 328v133q0 205 114.5 331t313.5 126q205 0 312.5 -122t107.5 -323v-129h-625v-47q0 -109 54 -168t165 -59q96 0 144.5 41.5t48.5 103.5v8h211v-14zM305 586v-17h400v21
q0 231 -195 231q-100 0 -152.5 -60.5t-52.5 -174.5z" />
    <glyph glyph-name="eacute" unicode="&#xe9;" horiz-adv-x="1007" 
d="M858 1548l-313 -393h-150l193 393h270zM928 299q0 -143 -108 -235.5t-300 -92.5q-216 0 -327 119t-111 328v133q0 205 114.5 331t313.5 126q205 0 312.5 -122t107.5 -323v-129h-625v-47q0 -109 54 -168t165 -59q96 0 144.5 41.5t48.5 103.5v8h211v-14zM305 586v-17h400
v21q0 231 -195 231q-100 0 -152.5 -60.5t-52.5 -174.5z" />
    <glyph glyph-name="ecircumflex" unicode="&#xea;" horiz-adv-x="1007" 
d="M410 1530h204q33 -127 86 -203t140 -113v-88q-102 10 -191 74.5t-137 157.5q-47 -93 -135.5 -157.5t-190.5 -74.5v88q86 37 138.5 113.5t85.5 202.5zM928 299q0 -143 -108 -235.5t-300 -92.5q-216 0 -327 119t-111 328v133q0 205 114.5 331t313.5 126q205 0 312.5 -122
t107.5 -323v-129h-625v-47q0 -109 54 -168t165 -59q96 0 144.5 41.5t48.5 103.5v8h211v-14zM305 586v-17h400v21q0 231 -195 231q-100 0 -152.5 -60.5t-52.5 -174.5z" />
    <glyph glyph-name="edieresis" unicode="&#xeb;" horiz-adv-x="1007" 
d="M223 1386h209v-227h-209v227zM594 1386h207v-227h-207v227zM928 299q0 -143 -108 -235.5t-300 -92.5q-216 0 -327 119t-111 328v133q0 205 114.5 331t313.5 126q205 0 312.5 -122t107.5 -323v-129h-625v-47q0 -109 54 -168t165 -59q96 0 144.5 41.5t48.5 103.5v8h211v-14
zM305 586v-17h400v21q0 231 -195 231q-100 0 -152.5 -60.5t-52.5 -174.5z" />
    <glyph glyph-name="igrave" unicode="&#xec;" horiz-adv-x="507" 
d="M-135 1540h272l193 -393h-150zM135 979h238v-979h-238v979z" />
    <glyph glyph-name="iacute" unicode="&#xed;" horiz-adv-x="507" 
d="M645 1540l-315 -393h-150l193 393h272zM135 979h238v-979h-238v979z" />
    <glyph glyph-name="icircumflex" unicode="&#xee;" horiz-adv-x="507" 
d="M152 1522h204q33 -127 85.5 -202.5t138.5 -111.5v-90q-102 12 -190.5 76.5t-135.5 155.5q-48 -92 -137 -156t-191 -76v90q87 36 140 111.5t86 202.5zM135 979h238v-979h-238v979z" />
    <glyph glyph-name="idieresis" unicode="&#xef;" horiz-adv-x="507" 
d="M-35 1380h207v-227h-207v227zM336 1380h207v-227h-207v227zM135 979h238v-979h-238v979z" />
    <glyph glyph-name="eth" unicode="&#xf0;" horiz-adv-x="1036" 
d="M948 436q0 -217 -112.5 -341t-323.5 -124q-200 0 -314 111t-114 321v160q0 208 99 318t270 110t276 -137q-37 169 -141 307l-219 -84l-37 97l188 71q-85 90 -196 162v10h247q75 -54 125 -104l224 86l36 -96l-188 -74q180 -236 180 -567v-226zM516 831q-93 0 -146 -60
t-53 -165v-229q0 -103 53 -162t146 -59t148 59t55 160v233q0 101 -55.5 162t-147.5 61z" />
    <glyph glyph-name="ntilde" unicode="&#xf1;" horiz-adv-x="1093" 
d="M389 1509q33 0 62.5 -9.5t56.5 -31t41.5 -35t40.5 -42.5q34 -37 59 -55.5t56 -18.5q29 0 49 22t20 68q0 30 -8 92h96q21 -97 21 -143q0 -96 -50.5 -154.5t-134.5 -58.5q-53 0 -91.5 24t-80.5 68q-8 8 -27.5 28.5t-29 29.5t-25 21.5t-30 17.5t-29.5 5q-31 0 -51.5 -22
t-20.5 -68q0 -35 11 -92h-99q-20 93 -20 143q0 95 50.5 153t133.5 58zM131 979h201l18 -174q64 95 142 145.5t188 50.5q135 0 213 -84.5t78 -230.5v-686h-236v643q0 76 -39 120t-114 44q-90 0 -151.5 -65.5t-61.5 -149.5v-592h-238v979z" />
    <glyph glyph-name="ograve" unicode="&#xf2;" horiz-adv-x="1038" 
d="M193 1550h272l192 -393h-149zM520 1010q201 0 319.5 -119t118.5 -328v-149q0 -208 -119.5 -326.5t-318.5 -118.5q-200 0 -320 118t-120 325v149q0 210 119 329.5t321 119.5zM520 821q-96 0 -151.5 -62.5t-55.5 -164.5v-211q0 -102 56 -163.5t151 -61.5q93 0 149 61.5
t56 163.5v211q0 102 -55.5 164.5t-149.5 62.5z" />
    <glyph glyph-name="oacute" unicode="&#xf3;" horiz-adv-x="1038" 
d="M866 1550l-315 -393h-150l193 393h272zM520 1010q201 0 319.5 -119t118.5 -328v-149q0 -208 -119.5 -326.5t-318.5 -118.5q-200 0 -320 118t-120 325v149q0 210 119 329.5t321 119.5zM520 821q-96 0 -151.5 -62.5t-55.5 -164.5v-211q0 -102 56 -163.5t151 -61.5
q93 0 149 61.5t56 163.5v211q0 102 -55.5 164.5t-149.5 62.5z" />
    <glyph glyph-name="ocircumflex" unicode="&#xf4;" horiz-adv-x="1038" 
d="M418 1532h205q33 -126 85 -202t138 -113v-89q-103 12 -191 76t-135 156q-48 -93 -136.5 -156.5t-190.5 -75.5v89q87 37 139.5 112.5t85.5 202.5zM520 1010q201 0 319.5 -119t118.5 -328v-149q0 -208 -119.5 -326.5t-318.5 -118.5q-200 0 -320 118t-120 325v149
q0 210 119 329.5t321 119.5zM520 821q-96 0 -151.5 -62.5t-55.5 -164.5v-211q0 -102 56 -163.5t151 -61.5q93 0 149 61.5t56 163.5v211q0 102 -55.5 164.5t-149.5 62.5z" />
    <glyph glyph-name="otilde" unicode="&#xf5;" horiz-adv-x="1038" 
d="M365 1497q15 0 29.5 -2t28.5 -8t24 -9.5t24.5 -14.5t20.5 -14.5t21 -18t18 -17t19 -19.5t17 -18q33 -37 58.5 -55t54.5 -18q31 0 51.5 22t20.5 68q0 35 -11 92h97q22 -81 22 -144q0 -96 -50.5 -154.5t-133.5 -58.5q-36 0 -70.5 15.5t-54.5 32t-49 45.5q-6 7 -22.5 24
t-23.5 24.5t-21.5 20t-24.5 18.5t-23.5 10.5t-26.5 4.5q-31 0 -51 -22t-20 -68q0 -40 10 -92h-96q-23 85 -23 143q0 95 51 154t134 59zM520 1010q201 0 319.5 -119t118.5 -328v-149q0 -208 -119.5 -326.5t-318.5 -118.5q-200 0 -320 118t-120 325v149q0 210 119 329.5
t321 119.5zM520 821q-96 0 -151.5 -62.5t-55.5 -164.5v-211q0 -102 56 -163.5t151 -61.5q93 0 149 61.5t56 163.5v211q0 102 -55.5 164.5t-149.5 62.5z" />
    <glyph glyph-name="odieresis" unicode="&#xf6;" horiz-adv-x="1038" 
d="M231 1389h207v-228h-207v228zM600 1389h209v-228h-209v228zM520 1010q201 0 319.5 -119t118.5 -328v-149q0 -208 -119.5 -326.5t-318.5 -118.5q-200 0 -320 118t-120 325v149q0 210 119 329.5t321 119.5zM520 821q-96 0 -151.5 -62.5t-55.5 -164.5v-211q0 -102 56 -163.5
t151 -61.5q93 0 149 61.5t56 163.5v211q0 102 -55.5 164.5t-149.5 62.5z" />
    <glyph glyph-name="divide" unicode="&#xf7;" horiz-adv-x="1107" 
d="M438 1133h232v-203h-232v203zM111 772h886v-180h-886v180zM438 436h232v-203h-232v203z" />
    <glyph glyph-name="oslash" unicode="&#xf8;" horiz-adv-x="1038" 
d="M520 -31q-157 0 -264 72l-102 -133l-95 67l111 146q-90 117 -90 291v149q0 210 119 329.5t321 119.5q150 0 262 -72l105 133l92 -67l-111 -146q90 -120 90 -295v-149q0 -208 -119.5 -326.5t-318.5 -118.5zM303 383q0 -49 12 -90l349 485q-57 51 -144 51
q-101 0 -159 -63.5t-58 -171.5v-211zM735 594q0 50 -12 94l-348 -487q55 -49 145 -49q99 0 157 62t58 169v211z" />
    <glyph glyph-name="ugrave" unicode="&#xf9;" horiz-adv-x="1093" 
d="M217 1536h270l195 -395h-152zM123 979h237v-643q0 -75 39.5 -119.5t112.5 -44.5q91 0 153 66t62 149v592h236v-979h-199l-21 174q-63 -95 -140.5 -147t-186.5 -52q-135 0 -214 86t-79 232v686z" />
    <glyph glyph-name="uacute" unicode="&#xfa;" horiz-adv-x="1093" 
d="M889 1536l-314 -395h-149l192 395h271zM123 979h237v-643q0 -75 39.5 -119.5t112.5 -44.5q91 0 153 66t62 149v592h236v-979h-199l-21 174q-63 -95 -140.5 -147t-186.5 -52q-135 0 -214 86t-79 232v686z" />
    <glyph glyph-name="ucircumflex" unicode="&#xfb;" horiz-adv-x="1093" 
d="M440 1516h205q33 -127 85.5 -202.5t139.5 -111.5v-90q-102 12 -190.5 75.5t-136.5 155.5q-47 -91 -135.5 -155t-190.5 -76v90q85 36 137.5 111.5t85.5 202.5zM123 979h237v-643q0 -75 39.5 -119.5t112.5 -44.5q91 0 153 66t62 149v592h236v-979h-199l-21 174
q-63 -95 -140.5 -147t-186.5 -52q-135 0 -214 86t-79 232v686z" />
    <glyph glyph-name="udieresis" unicode="&#xfc;" horiz-adv-x="1093" 
d="M254 1374h207v-227h-207v227zM625 1374h206v-227h-206v227zM123 979h237v-643q0 -75 39.5 -119.5t112.5 -44.5q91 0 153 66t62 149v592h236v-979h-199l-21 174q-63 -95 -140.5 -147t-186.5 -52q-135 0 -214 86t-79 232v686z" />
    <glyph glyph-name="yacute" unicode="&#xfd;" horiz-adv-x="989" 
d="M848 1536l-316 -395h-149l192 395h273zM37 979h242l227 -721h4l215 721h233l-321 -942q-30 -83 -54 -135t-58.5 -100t-76 -73.5t-100 -40t-137.5 -14.5h-90v172h37q89 0 137.5 27.5t69.5 93.5l10 39z" />
    <glyph glyph-name="thorn" unicode="&#xfe;" horiz-adv-x="1095" 
d="M131 1417h234v-579q56 78 126.5 122t172.5 44q155 0 247.5 -107.5t92.5 -288.5v-237q0 -181 -94.5 -288.5t-250.5 -107.5q-173 0 -290 154v-451h-238v1739zM578 823q-87 0 -149 -66.5t-62 -168.5v-197q0 -102 62 -168.5t149 -66.5q91 0 142.5 61.5t51.5 163.5v215
q0 104 -51.5 165.5t-142.5 61.5z" />
    <glyph glyph-name="ydieresis" unicode="&#xff;" horiz-adv-x="989" 
d="M213 1374h207v-227h-207v227zM584 1374h207v-227h-207v227zM37 979h242l227 -721h4l215 721h233l-321 -942q-30 -83 -54 -135t-58.5 -100t-76 -73.5t-100 -40t-137.5 -14.5h-90v172h37q89 0 137.5 27.5t69.5 93.5l10 39z" />
    <glyph glyph-name="Amacron" unicode="&#x100;" horiz-adv-x="1310" 
d="M330 1745h651v-146h-651v146zM997 0l-92 287h-512l-92 -287h-246l459 1374h283l458 -1374h-258zM647 1083l-192 -602h389l-193 602h-4z" />
    <glyph glyph-name="amacron" unicode="&#x101;" horiz-adv-x="1021" 
d="M188 1341h637v-147h-637v147zM670 170q-57 -93 -134.5 -139.5t-187.5 -46.5q-127 0 -197.5 67t-70.5 193q0 87 34.5 147t118.5 101q129 66 424 92v73q0 80 -38.5 121t-122.5 41q-79 0 -121.5 -38t-42.5 -109v-21h-211v23q0 146 96.5 240t286.5 94q191 0 287 -95.5
t96 -265.5v-403q0 -59 20 -78.5t80 -24.5v-145h-82q-110 0 -163.5 36.5t-71.5 137.5zM309 268q0 -123 125 -123q92 0 157.5 65t65.5 155v98q-186 -20 -262 -57q-48 -25 -67 -58t-19 -80z" />
    <glyph glyph-name="Abreve" unicode="&#x102;" horiz-adv-x="1310" 
d="M655 1718q207 0 207 117q0 33 -8 74h90q25 -73 25 -131q0 -113 -85.5 -175.5t-228.5 -62.5t-228 62.5t-85 175.5q0 58 25 131h90q-8 -41 -8 -74q0 -117 206 -117zM997 0l-92 287h-512l-92 -287h-246l459 1374h283l458 -1374h-258zM647 1083l-192 -602h389l-193 602h-4z
" />
    <glyph glyph-name="abreve" unicode="&#x103;" horiz-adv-x="1021" 
d="M508 1319q94 0 140 33.5t46 105.5q0 30 -6 88h92q23 -94 23 -147q0 -126 -79.5 -195t-215.5 -69q-137 0 -216 69t-79 195q0 68 23 147h92q-9 -58 -9 -88q0 -72 46.5 -105.5t142.5 -33.5zM670 170q-57 -93 -134.5 -139.5t-187.5 -46.5q-127 0 -197.5 67t-70.5 193
q0 87 34.5 147t118.5 101q129 66 424 92v73q0 80 -38.5 121t-122.5 41q-79 0 -121.5 -38t-42.5 -109v-21h-211v23q0 146 96.5 240t286.5 94q191 0 287 -95.5t96 -265.5v-403q0 -59 20 -78.5t80 -24.5v-145h-82q-110 0 -163.5 36.5t-71.5 137.5zM309 268q0 -123 125 -123
q92 0 157.5 65t65.5 155v98q-186 -20 -262 -57q-48 -25 -67 -58t-19 -80z" />
    <glyph glyph-name="Aogonek" unicode="&#x104;" horiz-adv-x="1310" 
d="M1348 -477q-92 -64 -209 -64q-105 0 -168.5 52t-63.5 139q0 52 27 108q23 44 70 96t147 146h-154l-92 287h-512l-92 -287h-246l459 1374h283l458 -1374q-101 -127 -137 -199q-28 -57 -28 -114q0 -55 30 -84t84 -29q45 0 105 29zM647 1083l-192 -602h389l-193 602h-4z" />
    <glyph glyph-name="aogonek" unicode="&#x105;" horiz-adv-x="1021" 
d="M1079 -477q-92 -64 -209 -64q-105 0 -168 52t-63 139q0 54 29 108q41 81 211 238q-95 3 -143 40.5t-66 133.5q-57 -93 -134.5 -139.5t-187.5 -46.5q-127 0 -197.5 67t-70.5 193q0 87 34.5 147t118.5 101q129 66 424 92v73q0 80 -38.5 121t-122.5 41q-79 0 -121.5 -38
t-42.5 -109v-21h-211v23q0 146 96.5 240t286.5 94q191 0 287 -95.5t96 -265.5v-403q0 -59 20 -78.5t80 -24.5v-145q-106 -135 -137 -195q-29 -59 -29 -114t30 -84t85 -29q44 0 104 29zM309 268q0 -123 125 -123q92 0 157.5 65t65.5 155v98q-186 -20 -262 -57
q-48 -25 -67 -58t-19 -80z" />
    <glyph glyph-name="Cacute" unicode="&#x106;" horiz-adv-x="1271" 
d="M1018 1907l-313 -348h-160l198 348h275zM668 1393q244 0 372.5 -121.5t128.5 -323.5v-74h-245v60q0 110 -68.5 179t-189.5 69q-142 0 -220.5 -93.5t-78.5 -246.5v-318q0 -151 79 -246.5t220 -95.5q120 0 189 69t69 179v59h245v-73q0 -199 -131.5 -322t-375.5 -123
q-255 0 -402 153t-147 406v304q0 253 149.5 406t405.5 153z" />
    <glyph glyph-name="cacute" unicode="&#x107;" horiz-adv-x="983" 
d="M850 1548l-315 -393h-150l193 393h272zM514 162q90 0 135 51.5t45 138.5v8h217v-28q0 -159 -102 -260t-293 -101q-207 0 -320.5 121t-113.5 334v125q0 210 116.5 333.5t319.5 123.5q190 0 291.5 -100t101.5 -263v-29h-217v9q0 88 -44 140t-134 52q-97 0 -149 -66.5
t-52 -181.5v-161q0 -115 51 -180.5t148 -65.5z" />
    <glyph glyph-name="Cdotaccent" unicode="&#x10a;" horiz-adv-x="1271" 
d="M524 1778h250v-213h-250v213zM668 1393q244 0 372.5 -121.5t128.5 -323.5v-74h-245v60q0 110 -68.5 179t-189.5 69q-142 0 -220.5 -93.5t-78.5 -246.5v-318q0 -151 79 -246.5t220 -95.5q120 0 189 69t69 179v59h245v-73q0 -199 -131.5 -322t-375.5 -123q-255 0 -402 153
t-147 406v304q0 253 149.5 406t405.5 153z" />
    <glyph glyph-name="cdotaccent" unicode="&#x10b;" horiz-adv-x="983" 
d="M379 1372h250v-213h-250v213zM514 162q90 0 135 51.5t45 138.5v8h217v-28q0 -159 -102 -260t-293 -101q-207 0 -320.5 121t-113.5 334v125q0 210 116.5 333.5t319.5 123.5q190 0 291.5 -100t101.5 -263v-29h-217v9q0 88 -44 140t-134 52q-97 0 -149 -66.5t-52 -181.5
v-161q0 -115 51 -180.5t148 -65.5z" />
    <glyph glyph-name="Ccaron" unicode="&#x10c;" horiz-adv-x="1271" 
d="M301 1919q109 -19 203 -76t145 -125q51 68 145 125t203 76v-90q-174 -76 -227 -266h-242q-50 188 -227 266v90zM668 1393q244 0 372.5 -121.5t128.5 -323.5v-74h-245v60q0 110 -68.5 179t-189.5 69q-142 0 -220.5 -93.5t-78.5 -246.5v-318q0 -151 79 -246.5t220 -95.5
q120 0 189 69t69 179v59h245v-73q0 -199 -131.5 -322t-375.5 -123q-255 0 -402 153t-147 406v304q0 253 149.5 406t405.5 153z" />
    <glyph glyph-name="ccaron" unicode="&#x10d;" horiz-adv-x="983" 
d="M178 1559q101 -10 189.5 -74.5t136.5 -157.5q49 93 136 157.5t189 74.5v-89q-86 -37 -138 -113t-85 -202h-205q-33 126 -85 202t-138 113v89zM514 162q90 0 135 51.5t45 138.5v8h217v-28q0 -159 -102 -260t-293 -101q-207 0 -320.5 121t-113.5 334v125q0 210 116.5 333.5
t319.5 123.5q190 0 291.5 -100t101.5 -263v-29h-217v9q0 88 -44 140t-134 52q-97 0 -149 -66.5t-52 -181.5v-161q0 -115 51 -180.5t148 -65.5z" />
    <glyph glyph-name="Dcaron" unicode="&#x10e;" horiz-adv-x="1318" 
d="M281 1911q109 -19 203 -76t145 -125q51 68 145 125t203 76v-92q-172 -73 -227 -267h-242q-51 192 -227 267v92zM160 1364h495q266 0 408.5 -144.5t142.5 -394.5v-293q0 -249 -143 -390.5t-410 -141.5h-493v1364zM410 1155v-946h229q157 0 236 90t79 246v274
q0 156 -80 246t-237 90h-227z" />
    <glyph glyph-name="dcaron" unicode="&#x10f;" horiz-adv-x="1095" 
d="M1116 1417h207l-104 -348h-119zM729 1417h236v-1417h-201l-14 164q-60 -89 -135 -139t-185 -50q-155 0 -246.5 107t-91.5 287v239q0 181 93 288.5t249 107.5q101 0 170.5 -42t124.5 -114v569zM518 823q-90 0 -141 -62t-51 -165v-215q0 -102 50.5 -163.5t141.5 -61.5
q88 0 149.5 66t61.5 167v199q0 102 -61.5 168.5t-149.5 66.5z" />
    <glyph glyph-name="Dcroat" unicode="&#x110;" horiz-adv-x="1320" 
d="M1208 532q0 -249 -141.5 -390.5t-407.5 -141.5h-497v616h-160v138h160v610h497q266 0 407.5 -144.5t141.5 -394.5v-293zM414 207h225q157 0 237 90t80 246v278q0 157 -80 246.5t-237 89.5h-225v-403h297v-138h-297v-409z" />
    <glyph glyph-name="dcroat" unicode="&#x111;" horiz-adv-x="1095" 
d="M750 164q-60 -89 -135 -139t-185 -50q-155 0 -246.5 106t-91.5 286v237q0 181 93 287t249 106q101 0 170 -41t125 -112v291h-278v108h278v174h236v-174h145v-108h-145v-1135h-201zM518 815q-90 0 -141 -61.5t-51 -163.5v-209q0 -102 50.5 -162.5t141.5 -60.5
q88 0 149.5 65t61.5 166v193q0 101 -61.5 167t-149.5 66z" />
    <glyph glyph-name="Emacron" unicode="&#x112;" horiz-adv-x="1153" 
d="M283 1737h653v-148h-653v148zM160 1364h903v-215h-657v-354h512v-205h-512v-375h659v-215h-905v1364z" />
    <glyph glyph-name="emacron" unicode="&#x113;" horiz-adv-x="1007" 
d="M193 1339h638v-145h-638v145zM928 299q0 -143 -108 -235.5t-300 -92.5q-216 0 -327 119t-111 328v133q0 205 114.5 331t313.5 126q205 0 312.5 -122t107.5 -323v-129h-625v-47q0 -109 54 -168t165 -59q96 0 144.5 41.5t48.5 103.5v8h211v-14zM305 586v-17h400v21
q0 231 -195 231q-100 0 -152.5 -60.5t-52.5 -174.5z" />
    <glyph glyph-name="Ebreve" unicode="&#x114;" horiz-adv-x="1153" 
d="M608 1708q207 0 207 119q0 30 -8 71h90q25 -59 25 -131q0 -113 -85.5 -175t-228.5 -62t-228 62t-85 175q0 65 24 131h91q-9 -47 -9 -71q0 -119 207 -119zM160 1364h903v-215h-657v-354h512v-205h-512v-375h659v-215h-905v1364z" />
    <glyph glyph-name="ebreve" unicode="&#x115;" horiz-adv-x="1007" 
d="M512 1319q96 0 142 33.5t46 103.5q0 38 -8 90h92q23 -82 23 -147q0 -126 -79 -195t-216 -69q-136 0 -215.5 69t-79.5 195q0 65 23 147h92q-6 -58 -6 -90q0 -70 45.5 -103.5t140.5 -33.5zM928 299q0 -143 -108 -235.5t-300 -92.5q-216 0 -327 119t-111 328v133
q0 205 114.5 331t313.5 126q205 0 312.5 -122t107.5 -323v-129h-625v-47q0 -109 54 -168t165 -59q96 0 144.5 41.5t48.5 103.5v8h211v-14zM305 586v-17h400v21q0 231 -195 231q-100 0 -152.5 -60.5t-52.5 -174.5z" />
    <glyph glyph-name="Edotaccent" unicode="&#x116;" horiz-adv-x="1153" 
d="M483 1767h252v-211h-252v211zM160 1364h903v-215h-657v-354h512v-205h-512v-375h659v-215h-905v1364z" />
    <glyph glyph-name="edotaccent" unicode="&#x117;" horiz-adv-x="1007" 
d="M387 1372h252v-213h-252v213zM928 299q0 -143 -108 -235.5t-300 -92.5q-216 0 -327 119t-111 328v133q0 205 114.5 331t313.5 126q205 0 312.5 -122t107.5 -323v-129h-625v-47q0 -109 54 -168t165 -59q96 0 144.5 41.5t48.5 103.5v8h211v-14zM305 586v-17h400v21
q0 231 -195 231q-100 0 -152.5 -60.5t-52.5 -174.5z" />
    <glyph glyph-name="Eogonek" unicode="&#x118;" horiz-adv-x="1153" 
d="M1157 -477q-92 -64 -209 -64q-105 0 -168 52t-63 139q0 55 26 108q23 43 70 95t148 147h-801v1364h903v-215h-657v-354h512v-205h-512v-375h659v-215q-101 -127 -137 -199q-29 -52 -29 -114q0 -55 29.5 -84t83.5 -29q46 0 106 29z" />
    <glyph glyph-name="eogonek" unicode="&#x119;" horiz-adv-x="1007" 
d="M950 -477q-87 -64 -207 -64q-106 0 -169.5 53.5t-63.5 145.5q0 56 31 123q39 72 164 221q-91 -31 -185 -31q-216 0 -327 119t-111 328v133q0 205 114.5 331t313.5 126q205 0 312.5 -122t107.5 -323v-129h-625v-47q0 -109 54 -168t165 -59q96 0 144.5 41.5t48.5 103.5v8
h211v-8q0 -84 -43 -162q-89 -148 -113 -198q-46 -92 -64 -145.5t-18 -102.5q0 -61 31 -92t88 -31q49 0 104 27zM305 586v-17h400v21q0 231 -195 231q-100 0 -152.5 -60.5t-52.5 -174.5z" />
    <glyph glyph-name="Ecaron" unicode="&#x11a;" horiz-adv-x="1153" 
d="M260 1911q111 -19 205 -76t143 -125q51 68 145 125t203 76v-92q-172 -73 -227 -267h-242q-51 192 -227 267v92zM160 1364h903v-215h-657v-354h512v-205h-512v-375h659v-215h-905v1364z" />
    <glyph glyph-name="ecaron" unicode="&#x11b;" horiz-adv-x="1007" 
d="M186 1559q102 -10 190.5 -74.5t135.5 -157.5q48 93 137 157.5t191 74.5v-89q-87 -37 -140 -113t-86 -202h-204q-33 126 -85.5 202t-138.5 113v89zM928 299q0 -143 -108 -235.5t-300 -92.5q-216 0 -327 119t-111 328v133q0 205 114.5 331t313.5 126q205 0 312.5 -122
t107.5 -323v-129h-625v-47q0 -109 54 -168t165 -59q96 0 144.5 41.5t48.5 103.5v8h211v-14zM305 586v-17h400v21q0 231 -195 231q-100 0 -152.5 -60.5t-52.5 -174.5z" />
    <glyph glyph-name="Gbreve" unicode="&#x11e;" horiz-adv-x="1312" 
d="M659 1718q207 0 207 117q0 33 -8 74h90q27 -68 27 -133q0 -112 -86.5 -174t-229.5 -62q-141 0 -227 62t-86 174q0 66 27 133h88q-6 -47 -6 -74q0 -117 204 -117zM666 1393q243 0 373 -120t130 -321v-51h-245v29q0 115 -65 183.5t-193 68.5q-143 0 -221 -92t-78 -250v-318
q0 -158 78.5 -251t213.5 -93q126 0 203.5 76.5t77.5 202.5v71h-270v181h512v-709h-119l-39 211q-129 -240 -408 -240q-227 0 -365 149t-138 402v314q0 251 149.5 404t403.5 153z" />
    <glyph glyph-name="gbreve" unicode="&#x11f;" horiz-adv-x="1017" 
d="M504 1327q96 0 141 33.5t45 105.5q0 28 -6 90h92q23 -82 23 -149q0 -126 -79 -194t-216 -68t-216 68t-79 194q0 70 22 149h93q-9 -62 -9 -90q0 -72 46.5 -105.5t142.5 -33.5zM993 -72q0 -126 -124.5 -194t-354.5 -68q-469 0 -469 205q0 127 205 164v4q-156 51 -156 151
q0 95 164 164q-149 82 -149 269v51q0 152 107.5 237.5t291.5 85.5q84 0 154 -24q88 23 117 62t32 116h168q18 -50 18 -88q0 -71 -51.5 -106.5t-163.5 -55.5q64 -44 94.5 -100.5t30.5 -141.5v-43q0 -151 -106.5 -234t-294.5 -83q-77 0 -146 16q-77 -30 -77 -69q0 -30 57 -48
t168 -18h61q424 0 424 -252zM508 455q84 0 128 41.5t44 115.5v70q0 74 -44 117t-128 43t-128 -42t-44 -116v-70q0 -75 43.5 -117t128.5 -42zM518 -203q273 0 273 101q0 46 -62.5 67t-196.5 21h-32q-254 0 -254 -97q0 -92 272 -92z" />
    <glyph glyph-name="Gdotaccent" unicode="&#x120;" horiz-adv-x="1312" 
d="M535 1778h251v-213h-251v213zM666 1393q243 0 373 -120t130 -321v-51h-245v29q0 115 -65 183.5t-193 68.5q-143 0 -221 -92t-78 -250v-318q0 -158 78.5 -251t213.5 -93q126 0 203.5 76.5t77.5 202.5v71h-270v181h512v-709h-119l-39 211q-129 -240 -408 -240
q-227 0 -365 149t-138 402v314q0 251 149.5 404t403.5 153z" />
    <glyph glyph-name="gdotaccent" unicode="&#x121;" horiz-adv-x="1017" 
d="M377 1382h252v-213h-252v213zM993 -72q0 -126 -124.5 -194t-354.5 -68q-469 0 -469 205q0 127 205 164v4q-156 51 -156 151q0 95 164 164q-149 82 -149 269v51q0 152 107.5 237.5t291.5 85.5q84 0 154 -24q88 23 117 62t32 116h168q18 -50 18 -88q0 -71 -51.5 -106.5
t-163.5 -55.5q64 -44 94.5 -100.5t30.5 -141.5v-43q0 -151 -106.5 -234t-294.5 -83q-77 0 -146 16q-77 -30 -77 -69q0 -30 57 -48t168 -18h61q424 0 424 -252zM508 455q84 0 128 41.5t44 115.5v70q0 74 -44 117t-128 43t-128 -42t-44 -116v-70q0 -75 43.5 -117t128.5 -42z
M518 -203q273 0 273 101q0 46 -62.5 67t-196.5 21h-32q-254 0 -254 -97q0 -92 272 -92z" />
    <glyph glyph-name="Gcommaaccent" unicode="&#x122;" horiz-adv-x="1312" 
d="M666 1393q243 0 373 -120t130 -321v-51h-245v29q0 115 -65 183.5t-193 68.5q-143 0 -221 -92t-78 -250v-318q0 -158 78.5 -251t213.5 -93q126 0 203.5 76.5t77.5 202.5v71h-270v181h512v-709h-119l-39 211q-129 -240 -408 -240q-227 0 -365 149t-138 402v314
q0 251 149.5 404t403.5 153zM549 -188h225v-205q0 -111 -67.5 -182.5t-192.5 -96.5v64q72 23 113.5 74.5t40.5 125.5h-119v220z" />
    <glyph glyph-name="gcommaaccent" unicode="&#x123;" horiz-adv-x="1017" 
d="M391 1169v205q0 111 67.5 182.5t190.5 96.5v-64q-71 -21 -112.5 -72.5t-38.5 -125.5h116v-222h-223zM993 -72q0 -126 -124.5 -194t-354.5 -68q-469 0 -469 205q0 127 205 164v4q-156 51 -156 151q0 95 164 164q-149 82 -149 269v51q0 152 107.5 237.5t291.5 85.5
q84 0 154 -24q88 23 117 62t32 116h168q18 -50 18 -88q0 -71 -51.5 -106.5t-163.5 -55.5q64 -44 94.5 -100.5t30.5 -141.5v-43q0 -151 -106.5 -234t-294.5 -83q-77 0 -146 16q-77 -30 -77 -69q0 -30 57 -48t168 -18h61q424 0 424 -252zM508 455q84 0 128 41.5t44 115.5v70
q0 74 -44 117t-128 43t-128 -42t-44 -116v-70q0 -75 43.5 -117t128.5 -42zM518 -203q273 0 273 101q0 46 -62.5 67t-196.5 21h-32q-254 0 -254 -97q0 -92 272 -92z" />
    <glyph glyph-name="Hbar" unicode="&#x126;" horiz-adv-x="1363" 
d="M414 575v-575h-252v1012h-160v137h160v215h252v-221h536v221h252v-215h160v-137h-160v-1012h-252v575h-536zM414 793h536v225h-536v-225z" />
    <glyph glyph-name="hbar" unicode="&#x127;" horiz-adv-x="1089" 
d="M367 588v-588h-236v1135h-147v108h147v174h236v-174h278v-108h-278v-312q62 84 135.5 129t173.5 45q134 0 212.5 -85.5t78.5 -231.5v-680h-236v639q0 77 -39 121.5t-114 44.5q-88 0 -149.5 -67t-61.5 -150z" />
    <glyph glyph-name="Imacron" unicode="&#x12a;" horiz-adv-x="587" 
d="M-31 1737h652v-148h-652v148zM168 1364h252v-1364h-252v1364z" />
    <glyph glyph-name="imacron" unicode="&#x12b;" horiz-adv-x="507" 
d="M-66 1333h639v-147h-639v147zM135 979h238v-979h-238v979z" />
    <glyph glyph-name="Ibreve" unicode="&#x12c;" horiz-adv-x="587" 
d="M295 1708q205 0 205 119q0 25 -6 71h90q24 -66 24 -131q0 -113 -85.5 -175t-227.5 -62q-143 0 -229 62t-86 175q0 70 26 131h90q-8 -41 -8 -71q0 -119 207 -119zM168 1364h252v-1364h-252v1364z" />
    <glyph glyph-name="ibreve" unicode="&#x12d;" horiz-adv-x="507" 
d="M254 1311q96 0 142 33.5t46 105.5q0 10 -8 88h92q23 -79 23 -147q0 -126 -79 -195.5t-216 -69.5t-216 69.5t-79 195.5q0 68 23 147h92q-8 -78 -8 -88q0 -72 46 -105.5t142 -33.5zM135 979h238v-979h-238v979z" />
    <glyph glyph-name="Iogonek" unicode="&#x12e;" horiz-adv-x="587" 
d="M102 -240q22 41 66 90.5t149 149.5h-149v1364h252v-1364q-110 -145 -135 -197q-29 -62 -29 -116q0 -55 30 -84t83 -29q52 0 106 29l39 -80q-92 -64 -209 -64q-105 0 -168 51t-63 140q0 55 28 110z" />
    <glyph glyph-name="iogonek" unicode="&#x12f;" horiz-adv-x="507" 
d="M129 1366h250v-213h-250v213zM469 -477q-92 -64 -209 -64q-105 0 -168 52t-63 139q0 50 26 110q23 44 66 92.5t147 147.5h-133v979h238v-979q-108 -144 -133 -197q-31 -64 -31 -116q0 -55 30 -84t85 -29q46 0 106 29z" />
    <glyph glyph-name="Idotaccent" unicode="&#x130;" horiz-adv-x="587" 
d="M170 1767h250v-211h-250v211zM168 1364h252v-1364h-252v1364z" />
    <glyph glyph-name="dotlessi" unicode="&#x131;" horiz-adv-x="507" 
d="M135 979h238v-979h-238v979z" />
    <glyph glyph-name="Kcommaaccent" unicode="&#x136;" horiz-adv-x="1236" 
d="M913 0q-231 408 -333 592l-170 -227v-365h-250v1364h250v-696l491 696h287l-430 -586l442 -778h-287zM530 -174h226v-205q0 -112 -67.5 -183.5t-190.5 -96.5v63q70 23 111 75t40 126h-119v221z" />
    <glyph glyph-name="kcommaaccent" unicode="&#x137;" horiz-adv-x="1009" 
d="M131 1417h238v-944l331 506h256l-278 -399l299 -580h-258l-205 414l-145 -213v-201h-238v1417zM420 -174h225v-205q0 -112 -67.5 -183.5t-190.5 -96.5v63q70 23 111.5 75t40.5 126h-119v221z" />
    <glyph glyph-name="Lacute" unicode="&#x139;" horiz-adv-x="1048" 
d="M678 1898l-313 -348h-158l199 348h272zM160 1364h250v-1143h585v-221h-835v1364z" />
    <glyph glyph-name="lacute" unicode="&#x13a;" horiz-adv-x="507" 
d="M645 1907l-315 -394h-150l193 394h272zM135 1417h238v-1417h-238v1417z" />
    <glyph glyph-name="Lcommaaccent" unicode="&#x13b;" horiz-adv-x="1048" 
d="M160 1364h250v-1143h585v-221h-835v1364zM455 -180h223v-205q0 -113 -67.5 -184t-190.5 -95v62q70 23 112 75t41 126h-118v221z" />
    <glyph glyph-name="lcommaaccent" unicode="&#x13c;" horiz-adv-x="507" 
d="M135 1417h238v-1417h-238v1417zM141 -180h226v-205q0 -113 -67.5 -184t-190.5 -95v62q70 23 111 75t40 126h-119v221z" />
    <glyph glyph-name="Lcaron" unicode="&#x13d;" horiz-adv-x="1048" 
d="M590 1364h209l-105 -348h-121zM160 1364h250v-1143h585v-221h-835v1364z" />
    <glyph glyph-name="lcaron" unicode="&#x13e;" horiz-adv-x="507" 
d="M528 1417h207l-104 -348h-119zM135 1417h238v-1417h-238v1417z" />
    <glyph glyph-name="Ldot" unicode="&#x13f;" horiz-adv-x="1048" 
d="M160 1364h250v-1143h585v-221h-835v1364zM713 856h207v-227h-207v227z" />
    <glyph glyph-name="ldot" unicode="&#x140;" horiz-adv-x="706" 
d="M135 1417h238v-1417h-238v1417zM504 809h207v-227h-207v227z" />
    <glyph glyph-name="Lslash" unicode="&#x141;" horiz-adv-x="1067" 
d="M1012 221v-221h-836v502l-129 -74l-67 111l196 112v713h250v-567l301 172l68 -109l-369 -213v-426h586z" />
    <glyph glyph-name="lslash" unicode="&#x142;" horiz-adv-x="550" 
d="M600 850l-207 -131v-719h-235v569l-144 -90q-61 94 -63 94l207 132v712h235v-563l144 92z" />
    <glyph glyph-name="Nacute" unicode="&#x143;" horiz-adv-x="1366" 
d="M1049 1892l-314 -348h-157l198 348h273zM160 1364h248l571 -938h4l-2 938h225v-1364h-243l-576 950h-4l2 -950h-225v1364z" />
    <glyph glyph-name="nacute" unicode="&#x144;" horiz-adv-x="1093" 
d="M889 1565l-314 -394h-149l192 394h271zM131 979h201l18 -174q64 95 142 145.5t188 50.5q135 0 213 -84.5t78 -230.5v-686h-236v643q0 76 -39 120t-114 44q-90 0 -151.5 -65.5t-61.5 -149.5v-592h-238v979z" />
    <glyph glyph-name="Ncommaaccent" unicode="&#x145;" horiz-adv-x="1366" 
d="M160 1364h248l571 -938h4l-2 938h225v-1364h-243l-576 950h-4l2 -950h-225v1364zM567 -174h224v-205q0 -112 -67.5 -183.5t-191.5 -96.5v63q71 23 113 75t41 126h-119v221z" />
    <glyph glyph-name="ncommaaccent" unicode="&#x146;" horiz-adv-x="1093" 
d="M131 979h201l18 -174q64 95 142 145.5t188 50.5q135 0 213 -84.5t78 -230.5v-686h-236v643q0 76 -39 120t-114 44q-90 0 -151.5 -65.5t-61.5 -149.5v-592h-238v979zM430 -174h225v-205q0 -112 -67.5 -183.5t-190.5 -96.5v63q70 23 111.5 75t40.5 126h-119v221z" />
    <glyph glyph-name="Ncaron" unicode="&#x147;" horiz-adv-x="1366" 
d="M334 1905q109 -19 203 -76t145 -125q51 68 145 125t203 76v-90q-176 -78 -227 -269h-242q-54 193 -227 269v90zM160 1364h248l571 -938h4l-2 938h225v-1364h-243l-576 950h-4l2 -950h-225v1364z" />
    <glyph glyph-name="ncaron" unicode="&#x148;" horiz-adv-x="1093" 
d="M217 1575q102 -10 190.5 -74.5t135.5 -157.5q49 93 137 157.5t190 74.5v-88q-87 -37 -139.5 -113t-85.5 -203h-205q-33 127 -85 203t-138 113v88zM131 979h201l18 -174q64 95 142 145.5t188 50.5q135 0 213 -84.5t78 -230.5v-686h-236v643q0 76 -39 120t-114 44
q-90 0 -151.5 -65.5t-61.5 -149.5v-592h-238v979z" />
    <glyph glyph-name="Omacron" unicode="&#x14c;" horiz-adv-x="1345" 
d="M348 1745h651v-146h-651v146zM674 1395q260 0 409.5 -149.5t149.5 -422.5v-280q0 -275 -150 -424.5t-411 -149.5q-260 0 -409.5 149.5t-149.5 422.5v280q0 275 150 424.5t411 149.5zM674 1180q-148 0 -227.5 -88.5t-79.5 -260.5v-299q0 -171 79 -259.5t226 -88.5
q148 0 227.5 88.5t79.5 259.5v299q0 171 -79.5 260t-225.5 89z" />
    <glyph glyph-name="omacron" unicode="&#x14d;" horiz-adv-x="1038" 
d="M201 1341h639v-145h-639v145zM520 1010q201 0 319.5 -119t118.5 -328v-149q0 -208 -119.5 -326.5t-318.5 -118.5q-200 0 -320 118t-120 325v149q0 210 119 329.5t321 119.5zM520 821q-96 0 -151.5 -62.5t-55.5 -164.5v-211q0 -102 56 -163.5t151 -61.5q93 0 149 61.5
t56 163.5v211q0 102 -55.5 164.5t-149.5 62.5z" />
    <glyph glyph-name="Obreve" unicode="&#x14e;" horiz-adv-x="1345" 
d="M674 1718q205 0 205 117q0 20 -7 74h91q24 -70 24 -131q0 -113 -86 -175.5t-227 -62.5q-143 0 -229.5 62.5t-86.5 175.5q0 64 27 131h90q-8 -41 -8 -74q0 -117 207 -117zM674 1395q260 0 409.5 -149.5t149.5 -422.5v-280q0 -275 -150 -424.5t-411 -149.5
q-260 0 -409.5 149.5t-149.5 422.5v280q0 275 150 424.5t411 149.5zM674 1180q-148 0 -227.5 -88.5t-79.5 -260.5v-299q0 -171 79 -259.5t226 -88.5q148 0 227.5 88.5t79.5 259.5v299q0 171 -79.5 260t-225.5 89z" />
    <glyph glyph-name="obreve" unicode="&#x14f;" horiz-adv-x="1038" 
d="M520 1321q95 0 141 33.5t46 103.5q0 22 -7 90h93q22 -79 22 -147q0 -126 -79.5 -195t-215.5 -69q-137 0 -216 69t-79 195q0 65 23 147h92q-8 -52 -8 -90q0 -70 46 -103.5t142 -33.5zM520 1010q201 0 319.5 -119t118.5 -328v-149q0 -208 -119.5 -326.5t-318.5 -118.5
q-200 0 -320 118t-120 325v149q0 210 119 329.5t321 119.5zM520 821q-96 0 -151.5 -62.5t-55.5 -164.5v-211q0 -102 56 -163.5t151 -61.5q93 0 149 61.5t56 163.5v211q0 102 -55.5 164.5t-149.5 62.5z" />
    <glyph glyph-name="Ohungarumlaut" unicode="&#x150;" horiz-adv-x="1345" 
d="M838 1909l-281 -348h-143l192 348h232zM1188 1909l-281 -348h-143l192 348h232zM674 1395q260 0 409.5 -149.5t149.5 -422.5v-280q0 -275 -150 -424.5t-411 -149.5q-260 0 -409.5 149.5t-149.5 422.5v280q0 275 150 424.5t411 149.5zM674 1180q-148 0 -227.5 -88.5
t-79.5 -260.5v-299q0 -171 79 -259.5t226 -88.5q148 0 227.5 88.5t79.5 259.5v299q0 171 -79.5 260t-225.5 89z" />
    <glyph glyph-name="ohungarumlaut" unicode="&#x151;" horiz-adv-x="1038" 
d="M690 1550l-282 -393h-136l187 393h231zM1032 1550l-282 -393h-136l187 393h231zM520 1010q201 0 319.5 -119t118.5 -328v-149q0 -208 -119.5 -326.5t-318.5 -118.5q-200 0 -320 118t-120 325v149q0 210 119 329.5t321 119.5zM520 821q-96 0 -151.5 -62.5t-55.5 -164.5
v-211q0 -102 56 -163.5t151 -61.5q93 0 149 61.5t56 163.5v211q0 102 -55.5 164.5t-149.5 62.5z" />
    <glyph glyph-name="OE" unicode="&#x152;" horiz-adv-x="1904" 
d="M1815 0h-1151q-268 0 -409.5 144.5t-141.5 394.5v292q0 249 142 391t409 142h1148v-215h-657v-354h512v-205h-512v-375h660v-215zM682 1157q-157 0 -236 -90t-79 -246v-278q0 -156 79.5 -246t237.5 -90h225v950h-227z" />
    <glyph glyph-name="oe" unicode="&#x153;" horiz-adv-x="1650" 
d="M1163 -29q-232 0 -327 158q-51 -77 -133.5 -117.5t-186.5 -40.5q-199 0 -317.5 117t-118.5 324v149q0 209 118 328t318 119q221 0 326 -164q51 77 134 120.5t189 43.5q202 0 305 -121.5t103 -323.5v-129h-625v-47q0 -109 54 -168t165 -59q95 0 144 42t49 105v6h211v-12
q0 -145 -108 -237.5t-300 -92.5zM948 586v-17h400v21q0 231 -195 231q-100 0 -152.5 -60.5t-52.5 -174.5zM516 819q-94 0 -148.5 -62t-54.5 -163v-211q0 -101 55 -162t148 -61t148 61t55 162v211q0 102 -54 163.5t-149 61.5z" />
    <glyph glyph-name="Racute" unicode="&#x154;" horiz-adv-x="1255" 
d="M987 1898l-313 -348h-160l199 348h274zM410 520v-520h-250v1364h561q210 0 320 -98t110 -273v-100q0 -127 -68.5 -218.5t-191.5 -129.5l305 -545h-272l-287 520h-227zM410 1163v-446h256q117 0 176 49t59 137v76q0 92 -54.5 138t-172.5 46h-264z" />
    <glyph glyph-name="racute" unicode="&#x155;" horiz-adv-x="747" 
d="M764 1550l-315 -395h-150l193 395h272zM131 979h201l18 -217q93 231 287 231q45 0 78 -8v-235q-48 10 -94 10q-108 0 -180 -68t-72 -170v-522h-238v979z" />
    <glyph glyph-name="Rcommaaccent" unicode="&#x156;" horiz-adv-x="1255" 
d="M410 520v-520h-250v1364h561q210 0 320 -98t110 -273v-100q0 -127 -68.5 -218.5t-191.5 -129.5l305 -545h-272l-287 520h-227zM410 1163v-446h256q117 0 176 49t59 137v76q0 92 -54.5 138t-172.5 46h-264zM535 -174h225v-205q0 -112 -67.5 -183.5t-190.5 -96.5v63
q70 23 111 75t40 126h-118v221z" />
    <glyph glyph-name="rcommaaccent" unicode="&#x157;" horiz-adv-x="747" 
d="M131 979h201l18 -217q93 231 287 231q45 0 78 -8v-235q-48 10 -94 10q-108 0 -180 -68t-72 -170v-522h-238v979zM137 -180h225v-205q0 -113 -67.5 -184t-190.5 -95v62q70 23 111.5 75t40.5 126h-119v221z" />
    <glyph glyph-name="Rcaron" unicode="&#x158;" horiz-adv-x="1255" 
d="M272 1911q110 -19 204 -76t145 -125q49 68 142.5 125t203.5 76v-92q-175 -76 -226 -267h-243q-51 191 -226 267v92zM410 520v-520h-250v1364h561q210 0 320 -98t110 -273v-100q0 -127 -68.5 -218.5t-191.5 -129.5l305 -545h-272l-287 520h-227zM410 1163v-446h256
q117 0 176 49t59 137v76q0 92 -54.5 138t-172.5 46h-264z" />
    <glyph glyph-name="rcaron" unicode="&#x159;" horiz-adv-x="747" 
d="M90 1561q102 -12 191 -76t137 -156q47 91 135 155.5t190 76.5v-88q-86 -37 -138 -113t-85 -203h-205q-33 127 -85.5 203t-139.5 113v88zM131 979h201l18 -217q93 231 287 231q45 0 78 -8v-235q-48 10 -94 10q-108 0 -180 -68t-72 -170v-522h-238v979z" />
    <glyph glyph-name="Sacute" unicode="&#x15a;" horiz-adv-x="1214" 
d="M979 1905l-313 -349h-160l201 349h272zM616 1391q246 0 371 -111t125 -295v-49h-248v43q0 92 -62 149.5t-192 57.5q-111 0 -172 -47.5t-61 -126.5q0 -30 6 -52.5t23.5 -43t37.5 -35t60.5 -32t78.5 -31.5t105 -36q126 -36 207 -72.5t135 -85t76 -108.5t22 -145
q0 -186 -139 -292t-368 -106q-256 0 -385.5 110.5t-129.5 303.5v64h248v-48q0 -106 70 -165.5t205 -59.5q117 0 182.5 46.5t65.5 131.5q0 89 -60 131.5t-260 108.5q-120 33 -198 67t-132.5 81.5t-78 109.5t-23.5 147q0 173 132 281.5t359 108.5z" />
    <glyph glyph-name="sacute" unicode="&#x15b;" horiz-adv-x="937" 
d="M811 1548l-315 -395h-150l193 395h272zM471 -29q-202 0 -300.5 88t-98.5 238v39h200v-29q0 -75 50 -118.5t151 -43.5q84 0 128 31.5t44 85.5q0 52 -45 81t-176 67q-172 41 -253 107.5t-81 191.5q0 128 101.5 212.5t277.5 84.5q182 0 280.5 -83.5t98.5 -226.5v-32h-199v18
q0 72 -47 112t-135 40q-75 0 -118.5 -31t-43.5 -80q0 -54 46 -81t175 -64q86 -21 145 -45t104.5 -59.5t67 -84.5t21.5 -115q0 -135 -102.5 -219t-290.5 -84z" />
    <glyph glyph-name="Scedilla" unicode="&#x15e;" horiz-adv-x="1214" 
d="M864 -334q0 -99 -72 -153t-200 -54q-134 0 -260 52l28 81q98 -34 187 -34q137 0 137 104q0 94 -113 94q-48 0 -106 -22l-39 65l135 176q-227 13 -341 122t-114 290v64h248v-48q0 -106 70 -165.5t205 -59.5q117 0 182.5 46.5t65.5 131.5q0 89 -60 131.5t-260 108.5
q-120 33 -198 67t-132.5 81.5t-78 109.5t-23.5 147q0 173 132 281.5t359 108.5q246 0 371 -111t125 -295v-49h-248v43q0 92 -62 149.5t-192 57.5q-111 0 -172 -47.5t-61 -126.5q0 -30 6 -52.5t23.5 -43t37.5 -35t60.5 -32t78.5 -31.5t105 -36q126 -36 207 -72.5t135 -85
t76 -108.5t22 -145q0 -177 -124.5 -281t-335.5 -115l-113 -141q44 19 94 19q97 0 156 -51t59 -136z" />
    <glyph glyph-name="scedilla" unicode="&#x15f;" horiz-adv-x="937" 
d="M715 -334q0 -99 -71.5 -153t-199.5 -54q-134 0 -260 52l29 81q98 -34 184 -34q140 0 140 104q0 94 -113 94q-49 0 -107 -22l-38 65l133 174q-172 13 -256 99t-84 225v39h200v-29q0 -75 50 -118.5t151 -43.5q84 0 128 31.5t44 85.5q0 52 -45 81t-176 67
q-172 41 -253 107.5t-81 191.5q0 128 101.5 212.5t277.5 84.5q182 0 280.5 -83.5t98.5 -226.5v-32h-199v18q0 72 -47 112t-135 40q-75 0 -118.5 -31t-43.5 -80q0 -54 46 -81t175 -64q86 -21 145 -45t104.5 -59.5t67 -84.5t21.5 -115q0 -125 -90 -208t-256 -93l-112 -139
q47 19 96 19q97 0 155 -51t58 -136z" />
    <glyph glyph-name="Scaron" unicode="&#x160;" horiz-adv-x="1214" 
d="M264 1917q110 -21 203.5 -78t144.5 -125q51 67 145 124.5t204 78.5v-92q-178 -78 -228 -266h-241q-53 189 -228 266v92zM616 1391q246 0 371 -111t125 -295v-49h-248v43q0 92 -62 149.5t-192 57.5q-111 0 -172 -47.5t-61 -126.5q0 -30 6 -52.5t23.5 -43t37.5 -35
t60.5 -32t78.5 -31.5t105 -36q126 -36 207 -72.5t135 -85t76 -108.5t22 -145q0 -186 -139 -292t-368 -106q-256 0 -385.5 110.5t-129.5 303.5v64h248v-48q0 -106 70 -165.5t205 -59.5q117 0 182.5 46.5t65.5 131.5q0 89 -60 131.5t-260 108.5q-120 33 -198 67t-132.5 81.5
t-78 109.5t-23.5 147q0 173 132 281.5t359 108.5z" />
    <glyph glyph-name="scaron" unicode="&#x161;" horiz-adv-x="937" 
d="M137 1559q102 -12 191 -76t137 -156q47 92 135 156t191 76v-89q-86 -37 -138.5 -113t-85.5 -202h-205q-33 127 -85.5 202.5t-139.5 112.5v89zM471 -29q-202 0 -300.5 88t-98.5 238v39h200v-29q0 -75 50 -118.5t151 -43.5q84 0 128 31.5t44 85.5q0 52 -45 81t-176 67
q-172 41 -253 107.5t-81 191.5q0 128 101.5 212.5t277.5 84.5q182 0 280.5 -83.5t98.5 -226.5v-32h-199v18q0 72 -47 112t-135 40q-75 0 -118.5 -31t-43.5 -80q0 -54 46 -81t175 -64q86 -21 145 -45t104.5 -59.5t67 -84.5t21.5 -115q0 -135 -102.5 -219t-290.5 -84z" />
    <glyph glyph-name="Tcommaaccent" unicode="&#x162;" horiz-adv-x="1169" 
d="M61 1364h1049v-221h-399v-1143h-250v1143h-400v221zM473 -180h225v-205q0 -113 -67.5 -184t-190.5 -95v62q70 23 111.5 75t40.5 126h-119v221z" />
    <glyph glyph-name="Tcommaaccent" unicode="&#x21a;" horiz-adv-x="1169" 
d="M61 1364h1049v-221h-399v-1143h-250v1143h-400v221zM473 -180h225v-205q0 -113 -67.5 -184t-190.5 -95v62q70 23 111.5 75t40.5 126h-119v221z" />
    <glyph glyph-name="tcommaaccent" unicode="&#x163;" horiz-adv-x="739" 
d="M43 979h158v201l233 59v-260h254v-182h-254v-451q0 -95 33.5 -130.5t122.5 -35.5h47v-180h-109q-172 0 -249.5 74t-77.5 231v492h-158v182zM289 -180h225v-205q0 -112 -67.5 -184t-190.5 -97v64q70 23 111.5 75t40.5 126h-119v221z" />
    <glyph glyph-name="tcommaaccent" unicode="&#x21b;" horiz-adv-x="739" 
d="M43 979h158v201l233 59v-260h254v-182h-254v-451q0 -95 33.5 -130.5t122.5 -35.5h47v-180h-109q-172 0 -249.5 74t-77.5 231v492h-158v182zM289 -180h225v-205q0 -112 -67.5 -184t-190.5 -97v64q70 23 111.5 75t40.5 126h-119v221z" />
    <glyph glyph-name="Tcaron" unicode="&#x164;" horiz-adv-x="1169" 
d="M238 1911q109 -19 203 -76t145 -125q51 68 145 125t203 76v-92q-172 -73 -227 -267h-242q-51 192 -227 267v92zM61 1364h1049v-221h-399v-1143h-250v1143h-400v221z" />
    <glyph glyph-name="tcaron" unicode="&#x165;" horiz-adv-x="739" 
d="M582 1456h209l-107 -348h-119zM43 979h158v201l233 59v-260h254v-182h-254v-451q0 -95 33.5 -130.5t122.5 -35.5h47v-180h-109q-172 0 -249.5 74t-77.5 231v492h-158v182z" />
    <glyph glyph-name="Umacron" unicode="&#x16a;" horiz-adv-x="1310" 
d="M332 1731h651v-146h-651v146zM143 1364h250v-889q0 -139 70.5 -213t198.5 -74q129 0 198.5 74t69.5 213v889h239v-879q0 -248 -131 -381t-383 -133q-254 0 -383 132t-129 382v879z" />
    <glyph glyph-name="umacron" unicode="&#x16b;" horiz-adv-x="1093" 
d="M223 1327h639v-145h-639v145zM123 979h237v-643q0 -75 39.5 -119.5t112.5 -44.5q91 0 153 66t62 149v592h236v-979h-199l-21 174q-63 -95 -140.5 -147t-186.5 -52q-135 0 -214 86t-79 232v686z" />
    <glyph glyph-name="Ubreve" unicode="&#x16c;" horiz-adv-x="1310" 
d="M657 1702q205 0 205 119q0 27 -6 73h90q25 -73 25 -133q0 -113 -86 -174t-228 -61q-143 0 -229 61t-86 174q0 65 27 133h90q-8 -41 -8 -73q0 -119 206 -119zM143 1364h250v-889q0 -139 70.5 -213t198.5 -74q129 0 198.5 74t69.5 213v889h239v-879q0 -248 -131 -381
t-383 -133q-254 0 -383 132t-129 382v879z" />
    <glyph glyph-name="ubreve" unicode="&#x16d;" horiz-adv-x="1093" 
d="M543 1305q96 0 142 33.5t46 105.5q0 35 -8 90h92q23 -82 23 -150q0 -126 -79 -194t-216 -68t-216 68t-79 194q0 71 22 150h92q-6 -62 -6 -90q0 -72 45.5 -105.5t141.5 -33.5zM123 979h237v-643q0 -75 39.5 -119.5t112.5 -44.5q91 0 153 66t62 149v592h236v-979h-199
l-21 174q-63 -95 -140.5 -147t-186.5 -52q-135 0 -214 86t-79 232v686z" />
    <glyph glyph-name="Uring" unicode="&#x16e;" horiz-adv-x="1310" 
d="M657 1946q111 0 178.5 -64t67.5 -156t-67.5 -156.5t-178.5 -64.5t-178 64t-67 157q0 92 67 156t178 64zM657 1853q-65 0 -103 -36t-38 -91t38 -91t103 -36q64 0 103 36.5t39 90.5q0 53 -39 90t-103 37zM143 1364h250v-889q0 -139 70.5 -213t198.5 -74q129 0 198.5 74
t69.5 213v889h239v-879q0 -248 -131 -381t-383 -133q-254 0 -383 132t-129 382v879z" />
    <glyph glyph-name="uring" unicode="&#x16f;" horiz-adv-x="1093" 
d="M543 1542q108 0 175.5 -63t67.5 -156t-67.5 -157t-175.5 -64t-175 64t-67 157t67 156t175 63zM543 1450q-63 0 -101.5 -36.5t-38.5 -90.5t38.5 -91.5t101.5 -37.5q64 0 101.5 37t37.5 92q0 54 -37.5 90.5t-101.5 36.5zM123 979h237v-643q0 -75 39.5 -119.5t112.5 -44.5
q91 0 153 66t62 149v592h236v-979h-199l-21 174q-63 -95 -140.5 -147t-186.5 -52q-135 0 -214 86t-79 232v686z" />
    <glyph glyph-name="Uhungarumlaut" unicode="&#x170;" horiz-adv-x="1310" 
d="M821 1892l-280 -348h-144l193 348h231zM1171 1892l-280 -348h-143l192 348h231zM143 1364h250v-889q0 -139 70.5 -213t198.5 -74q129 0 198.5 74t69.5 213v889h239v-879q0 -248 -131 -381t-383 -133q-254 0 -383 132t-129 382v879z" />
    <glyph glyph-name="uhungarumlaut" unicode="&#x171;" horiz-adv-x="1093" 
d="M713 1536l-283 -395h-135l186 395h232zM1057 1536l-285 -395h-133l186 395h232zM123 979h237v-643q0 -75 39.5 -119.5t112.5 -44.5q91 0 153 66t62 149v592h236v-979h-199l-21 174q-63 -95 -140.5 -147t-186.5 -52q-135 0 -214 86t-79 232v686z" />
    <glyph glyph-name="Uogonek" unicode="&#x172;" horiz-adv-x="1310" 
d="M913 -477q-92 -64 -208 -64q-105 0 -168.5 52t-63.5 139q0 58 29 117q35 65 172 204h-19q-254 0 -383 132t-129 382v879h250v-889q0 -139 70.5 -213t198.5 -74q129 0 198.5 74t69.5 213v889h239v-879q0 -213 -96.5 -341t-284.5 -162q-78 -115 -100 -162q-33 -67 -33 -131
q0 -56 30 -85.5t85 -29.5q44 0 104 29z" />
    <glyph glyph-name="uogonek" unicode="&#x173;" horiz-adv-x="1093" 
d="M1059 -477q-92 -64 -209 -64q-105 0 -168.5 52t-63.5 139q0 50 29 110q24 45 66.5 94t144.5 146h-94l-21 174q-63 -95 -140.5 -147t-186.5 -52q-135 0 -214 86t-79 232v686h237v-643q0 -75 39.5 -119.5t112.5 -44.5q91 0 153 66t62 149v592h236v-979q-111 -148 -134 -197
q-28 -57 -28 -116q0 -55 30 -84t84 -29q45 0 105 29z" />
    <glyph glyph-name="Wcircumflex" unicode="&#x174;" horiz-adv-x="1855" 
d="M817 1886h244q50 -190 225 -268v-90q-110 19 -203.5 76t-142.5 125q-51 -68 -145 -125t-203 -76v90q175 78 225 268zM68 1364h262l219 -1022h4l268 1028h228l268 -1028h4l217 1022h250l-342 -1376h-252l-264 979h-4l-269 -979h-249z" />
    <glyph glyph-name="wcircumflex" unicode="&#x175;" horiz-adv-x="1482" 
d="M649 1524h205q33 -127 85 -203t138 -113v-88q-102 10 -190 74.5t-135 157.5q-48 -93 -137 -157.5t-191 -74.5v88q87 37 139.5 113t85.5 203zM37 979h239l175 -703h4l184 703h213l188 -703h4l173 703h227l-289 -983h-221l-193 680h-4l-190 -680h-221z" />
    <glyph glyph-name="Ycircumflex" unicode="&#x176;" horiz-adv-x="1220" 
d="M500 1874h241q50 -188 228 -266v-92q-109 19 -203 76.5t-145 125.5q-51 -68 -145.5 -125.5t-203.5 -76.5v92q175 77 228 266zM35 1364h274l307 -614l306 614h266l-453 -842v-522h-252v522z" />
    <glyph glyph-name="ycircumflex" unicode="&#x177;" horiz-adv-x="989" 
d="M399 1516h205q33 -127 85.5 -202.5t137.5 -111.5v-90q-102 12 -189 75.5t-136 155.5q-49 -92 -136.5 -155.5t-189.5 -75.5v90q85 36 137.5 111.5t85.5 202.5zM37 979h242l227 -721h4l215 721h233l-321 -942q-30 -83 -54 -135t-58.5 -100t-76 -73.5t-100 -40t-137.5 -14.5
h-90v172h37q89 0 137.5 27.5t69.5 93.5l10 39z" />
    <glyph glyph-name="Ydieresis" unicode="&#x178;" horiz-adv-x="1220" 
d="M322 1778h208v-228h-208v228zM711 1778h209v-228h-209v228zM35 1364h274l307 -614l306 614h266l-453 -842v-522h-252v522z" />
    <glyph glyph-name="Zacute" unicode="&#x179;" horiz-adv-x="1161" 
d="M956 1898l-313 -348h-160l199 348h274zM115 1364h966v-139l-661 -1002h647v-223h-987v141l670 1008h-635v215z" />
    <glyph glyph-name="zacute" unicode="&#x17a;" horiz-adv-x="913" 
d="M811 1540l-313 -393h-150l193 393h270zM92 979h752v-125l-473 -661h463v-193h-760v125l479 668h-461v186z" />
    <glyph glyph-name="Zdotaccent" unicode="&#x17b;" horiz-adv-x="1161" 
d="M463 1767h250v-211h-250v211zM115 1364h966v-139l-661 -1002h647v-223h-987v141l670 1008h-635v215z" />
    <glyph glyph-name="zdotaccent" unicode="&#x17c;" horiz-adv-x="913" 
d="M340 1364h250v-211h-250v211zM92 979h752v-125l-473 -661h463v-193h-760v125l479 668h-461v186z" />
    <glyph glyph-name="Zcaron" unicode="&#x17d;" horiz-adv-x="1161" 
d="M240 1911q109 -19 203 -76t145 -125q51 68 145 125t203 76v-92q-172 -73 -227 -267h-242q-51 192 -227 267v92zM115 1364h966v-139l-661 -1002h647v-223h-987v141l670 1008h-635v215z" />
    <glyph glyph-name="zcaron" unicode="&#x17e;" horiz-adv-x="913" 
d="M139 1552q102 -12 190.5 -76t135.5 -155q48 91 137 155t191 76v-90q-87 -36 -140 -112t-86 -203h-205q-33 127 -85.5 203t-137.5 112v90zM92 979h752v-125l-473 -661h463v-193h-760v125l479 668h-461v186z" />
    <glyph glyph-name="Aringacute" unicode="&#x1fa;" horiz-adv-x="1310" 
d="M1049 2157l-314 -349h-160l199 349h275zM995 0l-92 287h-508l-92 -287h-248l443 1327q-88 66 -88 174q0 92 67 155.5t178 63.5t178.5 -63.5t67.5 -155.5q0 -109 -90 -174l444 -1327h-260zM655 1628q-65 0 -103 -36t-38 -91t38 -91t103 -36q64 0 103 36.5t39 90.5
q0 53 -39 90t-103 37zM649 1083l-192 -602h385z" />
    <glyph glyph-name="aringacute" unicode="&#x1fb;" horiz-adv-x="1021" 
d="M897 2050l-315 -393h-150l193 393h272zM508 1556q108 0 175 -63.5t67 -155.5q0 -94 -67 -157.5t-175 -63.5t-176 63.5t-68 157.5q0 92 68 155.5t176 63.5zM508 1464q-64 0 -101.5 -37t-37.5 -90q0 -56 37.5 -92.5t101.5 -36.5q63 0 101 37t38 92q0 53 -38 90t-101 37z
M670 170q-57 -93 -134.5 -139.5t-187.5 -46.5q-127 0 -197.5 67t-70.5 193q0 87 34.5 147t118.5 101q129 66 424 92v73q0 80 -38.5 121t-122.5 41q-79 0 -121.5 -38t-42.5 -109v-21h-211v23q0 146 96.5 240t286.5 94q191 0 287 -95.5t96 -265.5v-403q0 -59 20 -78.5
t80 -24.5v-145h-82q-110 0 -163.5 36.5t-71.5 137.5zM309 268q0 -123 125 -123q92 0 157.5 65t65.5 155v98q-186 -20 -262 -57q-48 -25 -67 -58t-19 -80z" />
    <glyph glyph-name="AEacute" unicode="&#x1fc;" horiz-adv-x="1869" 
d="M1395 1898l-314 -348h-157l198 348h273zM-18 0l751 1364h1047v-215h-658v-354h512v-205h-512v-375h660v-215h-905v297h-474l-159 -297h-262zM872 1165l-370 -686h375v686h-5z" />
    <glyph glyph-name="aeacute" unicode="&#x1fd;" horiz-adv-x="1597" 
d="M1145 1542l-316 -395h-149l192 395h273zM1518 301q0 -145 -108 -237.5t-300 -92.5q-280 0 -375 207q-120 -205 -362 -205q-144 0 -219.5 69t-75.5 196q0 85 34 146t119 103q133 66 428 95v75q0 80 -38 120t-123 40q-81 0 -123.5 -38.5t-42.5 -108.5v-23h-211v25
q0 146 95 239t278 93q221 0 303 -148q54 75 135.5 113.5t177.5 38.5q202 0 306 -121.5t104 -323.5v-129h-625v-47q0 -109 53.5 -168t163.5 -59q95 0 145 42t50 105v6h211v-12zM895 588v-19h399v21q0 231 -196 231q-98 0 -150.5 -60t-52.5 -173zM307 262q0 -58 33.5 -91.5
t97.5 -33.5q95 0 158 62.5t63 156.5v103q-186 -20 -264 -58q-50 -26 -69 -59t-19 -80z" />
    <glyph glyph-name="Oslashacute" unicode="&#x1fe;" horiz-adv-x="1345" 
d="M1038 1909l-313 -348h-160l201 348h272zM672 -31q-203 0 -342 94l-115 -163l-111 75l123 183q-114 145 -114 383v280q0 275 150 424.5t411 149.5q200 0 340 -92l114 161l111 -75l-123 -181q117 -145 117 -385v-280q0 -275 -150 -424.5t-411 -149.5zM360 532
q0 -96 27 -167l492 751q-75 66 -205 66q-150 0 -232 -88.5t-82 -262.5v-299zM985 831q0 99 -27 170l-493 -753q78 -66 207 -66q150 0 231.5 89t81.5 261v299z" />
    <glyph glyph-name="oslashacute" unicode="&#x1ff;" horiz-adv-x="1038" 
d="M866 1550l-315 -395h-150l193 395h272zM520 -31q-157 0 -264 72l-102 -133l-95 67l111 146q-90 117 -90 291v149q0 210 119 329.5t321 119.5q150 0 262 -72l105 133l92 -67l-111 -146q90 -120 90 -295v-149q0 -208 -119.5 -326.5t-318.5 -118.5zM303 383q0 -49 12 -90
l349 485q-57 51 -144 51q-101 0 -159 -63.5t-58 -171.5v-211zM735 594q0 50 -12 94l-348 -487q55 -49 145 -49q99 0 157 62t58 169v211z" />
    <glyph glyph-name="Scommaaccent" unicode="&#x218;" horiz-adv-x="1214" 
d="M616 1391q246 0 371 -111t125 -295v-49h-248v43q0 92 -62 149.5t-192 57.5q-111 0 -172 -47.5t-61 -126.5q0 -30 6 -52.5t23.5 -43t37.5 -35t60.5 -32t78.5 -31.5t105 -36q126 -36 207 -72.5t135 -85t76 -108.5t22 -145q0 -186 -139 -292t-368 -106q-256 0 -385.5 110.5
t-129.5 303.5v64h248v-48q0 -106 70 -165.5t205 -59.5q117 0 182.5 46.5t65.5 131.5q0 89 -60 131.5t-260 108.5q-120 33 -198 67t-132.5 81.5t-78 109.5t-23.5 147q0 173 132 281.5t359 108.5zM500 -186h225v-205q0 -111 -67.5 -182.5t-190.5 -96.5v64q71 23 111.5 74
t39.5 126h-118v220z" />
    <glyph glyph-name="scommaaccent" unicode="&#x219;" horiz-adv-x="937" 
d="M471 -29q-202 0 -300.5 88t-98.5 238v39h200v-29q0 -75 50 -118.5t151 -43.5q84 0 128 31.5t44 85.5q0 52 -45 81t-176 67q-172 41 -253 107.5t-81 191.5q0 128 101.5 212.5t277.5 84.5q182 0 280.5 -83.5t98.5 -226.5v-32h-199v18q0 72 -47 112t-135 40
q-75 0 -118.5 -31t-43.5 -80q0 -54 46 -81t175 -64q86 -21 145 -45t104.5 -59.5t67 -84.5t21.5 -115q0 -135 -102.5 -219t-290.5 -84zM352 -188h226v-205q0 -111 -68.5 -183.5t-192.5 -95.5v64q72 21 113.5 72.5t40.5 125.5h-119v222z" />
    <glyph glyph-name="schwa" unicode="&#x259;" horiz-adv-x="1007" 
d="M926 428q0 -204 -114.5 -329.5t-313.5 -125.5q-204 0 -312 121.5t-108 321.5v131h624v45q0 109 -54 168t-165 59q-95 0 -143.5 -41.5t-48.5 -103.5v-8h-211v14q0 143 107.5 235.5t299.5 92.5q216 0 327.5 -119t111.5 -328v-133zM498 158q99 0 151.5 61t52.5 174v19h-399
v-23q0 -231 195 -231z" />
    <glyph glyph-name="circumflex" unicode="&#x2c6;" horiz-adv-x="1024" 
d="M410 1522h204q33 -127 85.5 -202.5t138.5 -111.5v-90q-102 12 -189.5 76t-136.5 156q-49 -92 -136.5 -156t-189.5 -76v90q86 36 138.5 111.5t85.5 202.5z" />
    <glyph glyph-name="caron" unicode="&#x2c7;" horiz-adv-x="1024" 
d="M186 1552q102 -12 189.5 -75.5t136.5 -155.5q49 92 136.5 155.5t189.5 75.5v-90q-85 -36 -138 -112t-86 -203h-204q-33 127 -86 203t-138 112v90z" />
    <glyph glyph-name="breve" unicode="&#x2d8;" horiz-adv-x="1024" 
d="M512 1309q188 0 188 139q0 12 -8 90h92q23 -82 23 -147q0 -127 -79 -196t-216 -69t-216 69t-79 196q0 65 23 147h92q-8 -78 -8 -90q0 -139 188 -139z" />
    <glyph glyph-name="dotaccent" unicode="&#x2d9;" horiz-adv-x="1021" 
d="M387 1364h250v-211h-250v211z" />
    <glyph glyph-name="ring" unicode="&#x2da;" horiz-adv-x="1024" 
d="M512 1548q108 0 176 -63.5t68 -155.5q0 -93 -68 -157t-176 -64t-176 64t-68 157q0 92 68 155.5t176 63.5zM512 1456q-63 0 -101 -37t-38 -90q0 -54 38 -91.5t101 -37.5t101 37.5t38 91.5q0 53 -38 90t-101 37z" />
    <glyph glyph-name="ogonek" unicode="&#x2db;" horiz-adv-x="1024" 
d="M707 -397l36 -80q-92 -64 -208 -64q-105 0 -168.5 52t-63.5 139q0 48 29 108q21 44 69 97t154 151l96 -6q-105 -137 -137 -199q-29 -59 -29 -114t30 -84t85 -29q47 0 107 29z" />
    <glyph glyph-name="tilde" unicode="&#x2dc;" horiz-adv-x="1024" 
d="M356 1485q27 0 53.5 -8.5t42.5 -16.5t42 -30.5t32 -29t33 -34.5q34 -37 59 -55.5t54 -18.5t50 22t21 66q0 45 -10 93h96q23 -80 23 -142q0 -97 -50.5 -155t-133.5 -58q-52 0 -91.5 23.5t-82.5 66.5q-4 5 -19 21.5t-20.5 22t-18.5 18t-20.5 17.5t-19 12t-22.5 9.5t-22 2.5
q-30 0 -50.5 -22t-20.5 -66q0 -45 10 -93h-98q-21 92 -21 142q0 97 50.5 155t133.5 58z" />
    <glyph glyph-name="hungarumlaut" unicode="&#x2dd;" horiz-adv-x="1024" 
d="M549 1540l-283 -393h-135l186 393h232zM893 1540l-285 -393h-133l187 393h231z" />
    <glyph glyph-name="commaaccent" unicode="&#x326;" horiz-adv-x="1024" 
d="M418 -180h225v-205q0 -113 -67.5 -184t-190.5 -95v62q70 23 111.5 75t40.5 126h-119v221z" />
    <glyph glyph-name="baht" unicode="&#xe3f;" horiz-adv-x="1286" 
d="M743 0h-4v-221h-188v221h-363v1364h367v221h190v-221q208 0 311 -88t103 -242v-57q0 -118 -58.5 -185.5t-174.5 -97.5v-6q124 -30 187 -99.5t63 -187.5v-69q0 -156 -107.5 -244t-325.5 -88zM426 1176v-408h276q107 0 164.5 47t57.5 135v58q0 168 -215 168h-283zM426 608
v-420h293q107 0 161 45t54 129v62q0 88 -58.5 136t-173.5 48h-276z" />
    <glyph glyph-name="Wgrave" unicode="&#x1e80;" horiz-adv-x="1855" 
d="M543 1905h274l199 -349h-160zM68 1364h262l219 -1022h4l268 1028h228l268 -1028h4l217 1022h250l-342 -1376h-252l-264 979h-4l-269 -979h-249z" />
    <glyph glyph-name="wgrave" unicode="&#x1e81;" horiz-adv-x="1482" 
d="M356 1542h271l192 -393h-149zM37 979h239l175 -703h4l184 703h213l188 -703h4l173 703h227l-289 -983h-221l-193 680h-4l-190 -680h-221z" />
    <glyph glyph-name="Wacute" unicode="&#x1e82;" horiz-adv-x="1855" 
d="M1331 1905l-313 -349h-160l199 349h274zM68 1364h262l219 -1022h4l268 1028h228l268 -1028h4l217 1022h250l-342 -1376h-252l-264 979h-4l-269 -979h-249z" />
    <glyph glyph-name="wacute" unicode="&#x1e83;" horiz-adv-x="1482" 
d="M1135 1542l-316 -393h-149l192 393h273zM37 979h239l175 -703h4l184 703h213l188 -703h4l173 703h227l-289 -983h-221l-193 680h-4l-190 -680h-221z" />
    <glyph glyph-name="Wdieresis" unicode="&#x1e84;" horiz-adv-x="1855" 
d="M641 1788h207v-225h-207v225zM1030 1788h207v-225h-207v225zM68 1364h262l219 -1022h4l268 1028h228l268 -1028h4l217 1022h250l-342 -1376h-252l-264 979h-4l-269 -979h-249z" />
    <glyph glyph-name="wdieresis" unicode="&#x1e85;" horiz-adv-x="1482" 
d="M463 1380h207v-227h-207v227zM834 1380h206v-227h-206v227zM37 979h239l175 -703h4l184 703h213l188 -703h4l173 703h227l-289 -983h-221l-193 680h-4l-190 -680h-221z" />
    <glyph glyph-name="Ygrave" unicode="&#x1ef2;" horiz-adv-x="1220" 
d="M268 1892h273l200 -348h-159zM35 1364h274l307 -614l306 614h266l-453 -842v-522h-252v522z" />
    <glyph glyph-name="ygrave" unicode="&#x1ef3;" horiz-adv-x="989" 
d="M176 1536h270l193 -395h-150zM37 979h242l227 -721h4l215 721h233l-321 -942q-30 -83 -54 -135t-58.5 -100t-76 -73.5t-100 -40t-137.5 -14.5h-90v172h37q89 0 137.5 27.5t69.5 93.5l10 39z" />
    <glyph glyph-name="enspace" unicode="&#x2002;" horiz-adv-x="1024" 
 />
    <glyph glyph-name="emspace" unicode="&#x2003;" horiz-adv-x="2048" 
 />
    <glyph glyph-name="threeperemspace" unicode="&#x2004;" horiz-adv-x="681" 
 />
    <glyph glyph-name="fourperemspace" unicode="&#x2005;" horiz-adv-x="512" 
 />
    <glyph glyph-name="thinspace" unicode="&#x2009;" horiz-adv-x="272" 
 />
    <glyph glyph-name="hairspace" unicode="&#x200a;" horiz-adv-x="153" 
 />
    <glyph glyph-name="endash" unicode="&#x2013;" horiz-adv-x="1173" 
d="M139 711h895v-189h-895v189z" />
    <glyph glyph-name="emdash" unicode="&#x2014;" horiz-adv-x="1716" 
d="M141 711h1434v-189h-1434v189z" />
    <glyph glyph-name="quoteleft" unicode="&#x2018;" horiz-adv-x="454" 
d="M346 770h-246v209q0 91 18.5 157.5t57 111.5t89 73.5t124.5 50.5v-74q-91 -53 -120 -102t-29 -147h106v-279z" />
    <glyph glyph-name="quoteright" unicode="&#x2019;" horiz-adv-x="454" 
d="M106 1364h248v-209q0 -176 -69.5 -262.5t-218.5 -130.5v74q91 53 120 102t29 147h-109v279z" />
    <glyph glyph-name="quotesinglbase" unicode="&#x201a;" horiz-adv-x="446" 
d="M104 279h248v-207q0 -121 -35.5 -201t-96 -123t-159.5 -72v74q91 54 120.5 103t29.5 147h-107v279z" />
    <glyph glyph-name="quotedblleft" unicode="&#x201c;" horiz-adv-x="847" 
d="M739 770h-247v209q0 91 18.5 157.5t57 111.5t89 73.5t123.5 50.5v-74q-91 -53 -120 -102t-29 -147h108v-279zM346 770h-246v209q0 91 18.5 157.5t57 111.5t89 73.5t124.5 50.5v-74q-91 -53 -120 -102t-29 -147h106v-279z" />
    <glyph glyph-name="quotedblright" unicode="&#x201d;" horiz-adv-x="847" 
d="M109 1364h247v-209q0 -91 -18.5 -157t-57.5 -111.5t-89.5 -74t-124.5 -50.5v74q93 53 122 102t29 147h-108v279zM500 1364h248v-209q0 -91 -18.5 -157t-57.5 -111.5t-90 -74t-125 -50.5v74q93 53 122 102t29 147h-108v279z" />
    <glyph glyph-name="quotedblbase" unicode="&#x201e;" horiz-adv-x="839" 
d="M104 279h248v-207q0 -177 -70.5 -263.5t-220.5 -130.5v74q93 54 122.5 102.5t29.5 145.5h-109v279zM496 279h247v-207q0 -177 -70 -263.5t-218 -130.5v74q92 54 120.5 102t28.5 146h-108v279z" />
    <glyph glyph-name="dagger" unicode="&#x2020;" horiz-adv-x="946" 
d="M387 676q0 129 45 278q-108 -39 -301 -39q-33 0 -33 31v98q0 31 33 31q188 0 301 -39q-43 165 -43 295q0 33 33 33h102q33 0 33 -33q0 -144 -43 -295q111 39 301 39q33 0 33 -31v-98q0 -31 -33 -31q-193 0 -301 39q43 -142 43 -278q0 -164 -33 -438q-3 -33 -28 -33h-47
q-24 0 -27 33q-35 291 -35 438z" />
    <glyph glyph-name="daggerdbl" unicode="&#x2021;" horiz-adv-x="946" 
d="M403 784q0 60 29 170q-108 -39 -301 -39q-33 0 -33 31v98q0 31 33 31q188 0 301 -39q-43 165 -43 295q0 33 33 33h102q33 0 33 -33q0 -144 -43 -295q111 39 301 39q33 0 33 -31v-98q0 -31 -33 -31q-193 0 -301 39q29 -110 29 -170q0 -63 -29 -170q108 39 301 39
q33 0 33 -30v-99q0 -30 -33 -30q-193 0 -301 38q43 -151 43 -294q0 -33 -33 -33h-102q-33 0 -33 33q0 129 43 294q-110 -38 -301 -38q-33 0 -33 30v99q0 30 33 30q193 0 301 -39q-29 107 -29 170z" />
    <glyph glyph-name="bullet" unicode="&#x2022;" horiz-adv-x="710" 
d="M618 682q0 -119 -73.5 -192.5t-188.5 -73.5q-118 0 -191 73t-73 193t73 193t191 73q115 0 188.5 -73.5t73.5 -192.5z" />
    <glyph glyph-name="ellipsis" unicode="&#x2026;" horiz-adv-x="1345" 
d="M102 279h242v-279h-242v279zM1001 279h242v-279h-242v279zM553 279h240v-279h-240v279z" />
    <glyph glyph-name="guilsinglleft" unicode="&#x2039;" horiz-adv-x="745" 
d="M496 975h127q-46 -285 -271 -486q225 -201 271 -485h-127q-45 131 -146.5 239.5t-253.5 182.5v127q151 72 253 181t147 241z" />
    <glyph glyph-name="guilsinglright" unicode="&#x203a;" horiz-adv-x="745" 
d="M250 4h-127q48 281 270 485q-221 200 -270 486h127q47 -132 148 -241t251 -181v-127q-301 -147 -399 -422z" />
    <glyph glyph-name="fraction" unicode="&#x2044;" horiz-adv-x="284" 
d="M633 1364l-844 -1364h-139l842 1364h141z" />
    <glyph glyph-name="zero.sup" unicode="&#x2070;" 
d="M377 1444q154 0 242 -92.5t88 -257.5v-158q0 -167 -88 -259.5t-244 -92.5q-154 0 -242 93t-88 259v158q0 165 88 257.5t244 92.5zM377 1290q-75 0 -113.5 -50.5t-38.5 -147.5v-156q0 -97 38.5 -148t111.5 -51q153 0 153 199v156q0 198 -151 198z" />
    <glyph glyph-name="four.sup" unicode="&#x2074;" 
d="M385 1421h221v-510h111v-135h-111v-170h-164v170h-424v131zM442 911v375l-258 -375h258z" />
    <glyph glyph-name="five.sup" unicode="&#x2075;" 
d="M117 1421h559q-8 -90 -30 -120.5t-89 -30.5h-293l-16 -211q94 69 207 69q114 0 174.5 -58.5t60.5 -164.5v-51q0 -121 -80 -193.5t-231 -72.5q-161 0 -235 65.5t-74 173.5v27h170v-14q0 -49 35 -80t102 -31q64 0 99.5 35t35.5 94v33q0 53 -30 84t-93 31q-91 0 -162 -68
l-143 25z" />
    <glyph glyph-name="six.sup" unicode="&#x2076;" 
d="M379 586q-157 0 -238.5 82t-81.5 243v183q0 164 84.5 254t245.5 90q80 0 140.5 -21t93 -56t48 -73.5t15.5 -81.5v-22h-168v12q0 45 -33 72.5t-96 27.5q-160 0 -160 -176v-88q71 76 205 76q125 0 192.5 -60t67.5 -159v-35q0 -122 -82.5 -195t-232.5 -73zM377 731
q66 0 104.5 32t38.5 89v18q0 55 -36.5 87t-102.5 32t-107 -30t-41 -82v-23q0 -57 40 -90t104 -33z" />
    <glyph glyph-name="seven.sup" unicode="&#x2077;" 
d="M66 1421h641v-96q-151 -169 -223 -336.5t-87 -382.5h-202q13 192 90.5 346.5t234.5 309.5h-454v159z" />
    <glyph glyph-name="eight.sup" unicode="&#x2078;" 
d="M377 1442q151 0 232 -66.5t81 -171.5v-10q0 -122 -139 -176q149 -54 149 -191v-12q0 -104 -83.5 -166.5t-239.5 -62.5q-157 0 -240.5 62.5t-83.5 166.5v12q0 137 150 191q-140 53 -140 176v10q0 105 81.5 171.5t232.5 66.5zM377 1300q-64 0 -101.5 -29t-37.5 -77v-18
q0 -47 39 -75t100 -28t100 28t39 75v18q0 48 -37.5 77t-101.5 29zM377 725q69 0 108 31t39 80v20q0 46 -40.5 75.5t-106.5 29.5q-67 0 -107.5 -29.5t-40.5 -75.5v-20q0 -50 39.5 -80.5t108.5 -30.5z" />
    <glyph glyph-name="nine.sup" unicode="&#x2079;" 
d="M375 1442q157 0 238 -82t81 -244v-182q0 -165 -85 -255.5t-249 -90.5q-81 0 -142 20.5t-94.5 54.5t-49 73t-15.5 83v19h168v-7q0 -44 31 -73t102 -29q166 0 166 178v80q-71 -76 -211 -76q-123 0 -190.5 59.5t-67.5 157.5v43q0 123 83 197t235 74zM375 1294
q-65 0 -104.5 -32.5t-39.5 -87.5v-29q0 -51 38 -83t104 -32q65 0 107 31t42 82v26q0 59 -40.5 92t-106.5 33z" />
    <glyph glyph-name="zero.inf" unicode="&#x2080;" 
d="M377 516q155 0 242.5 -91.5t87.5 -256.5v-160q0 -166 -88 -258t-244 -92q-155 0 -242.5 92t-87.5 258v160q0 165 88 256.5t244 91.5zM377 362q-75 0 -113.5 -50t-38.5 -146v-156q0 -97 38.5 -147.5t111.5 -50.5q153 0 153 198v156q0 96 -38 146t-113 50z" />
    <glyph glyph-name="one.inf" unicode="&#x2081;" horiz-adv-x="616" 
d="M307 504h129v-826h-184v578h-180v135h75q75 0 111.5 26.5t48.5 86.5z" />
    <glyph glyph-name="two.inf" unicode="&#x2082;" 
d="M676 -322h-610v48q0 140 56 218.5t220 164.5q108 58 139 85.5t31 75.5q0 50 -35 74.5t-92 24.5q-71 0 -110 -31.5t-39 -89.5v-41h-168v49q0 117 82.5 186.5t238.5 69.5q152 0 226.5 -65t74.5 -171q0 -90 -54 -147t-208 -139q-100 -53 -133.5 -83.5t-34.5 -76.5h416v-152z
" />
    <glyph glyph-name="three.inf" unicode="&#x2083;" 
d="M381 512q146 0 226.5 -62.5t80.5 -160.5v-17q0 -67 -45 -114t-125 -64q85 -15 130.5 -62.5t45.5 -123.5v-14q0 -102 -83.5 -167t-231.5 -65q-161 0 -241.5 66t-80.5 176v45h166v-35q0 -52 38.5 -82.5t111.5 -30.5q66 0 103.5 28t37.5 79v18q0 51 -37.5 76t-120.5 25h-77
v125h77q156 0 156 100v16q0 50 -37 77.5t-102 27.5q-72 0 -111 -31.5t-39 -79.5v-37h-164v45q0 106 82 174t240 68z" />
    <glyph glyph-name="four.inf" unicode="&#x2084;" 
d="M385 496h221v-510h111v-138h-111v-170h-164v170h-424v132zM442 -14v374l-258 -374h258z" />
    <glyph glyph-name="five.inf" unicode="&#x2085;" 
d="M117 496h559q-8 -91 -30 -121.5t-89 -30.5h-293l-16 -211q95 70 207 70q114 0 174.5 -59.5t60.5 -163.5v-52q0 -121 -80 -193.5t-231 -72.5q-161 0 -235 65.5t-74 174.5v24h170v-12q0 -49 35 -80t102 -31q64 0 99.5 34.5t35.5 92.5v35q0 51 -30.5 83t-92.5 32
q-91 0 -162 -68l-143 25z" />
    <glyph glyph-name="six.inf" unicode="&#x2086;" 
d="M379 -340q-157 0 -238.5 81.5t-81.5 242.5v184q0 163 84.5 253.5t245.5 90.5q81 0 141 -20.5t92.5 -55.5t48 -73.5t15.5 -81.5v-25h-168v12q0 45 -33 74t-96 29q-82 0 -121 -47.5t-39 -130.5v-87q71 76 205 76q125 0 192.5 -60t67.5 -161v-35q0 -120 -82.5 -193
t-232.5 -73zM377 -195q66 0 104.5 32t38.5 89v19q0 53 -36.5 84.5t-102.5 31.5t-107 -30t-41 -82v-21q0 -59 39.5 -91t104.5 -32z" />
    <glyph glyph-name="seven.inf" unicode="&#x2087;" 
d="M66 496h641v-99q-151 -168 -223 -335.5t-87 -383.5h-202q13 193 90.5 347.5t234.5 310.5h-454v160z" />
    <glyph glyph-name="eight.inf" unicode="&#x2088;" 
d="M377 516q151 0 232 -67t81 -170v-11q0 -122 -139 -176q149 -54 149 -190v-13q0 -106 -83.5 -168.5t-239.5 -62.5q-157 0 -240.5 62.5t-83.5 168.5v13q0 65 37.5 114t112.5 76q-140 53 -140 176v11q0 103 81.5 170t232.5 67zM377 375q-64 0 -101.5 -29.5t-37.5 -77.5v-18
q0 -47 39 -75t100 -28t100 28t39 75v18q0 48 -37.5 77.5t-101.5 29.5zM377 -201q69 0 108 30.5t39 78.5v20q0 47 -40.5 77t-106.5 30q-67 0 -107.5 -29.5t-40.5 -77.5v-20q0 -48 39.5 -78.5t108.5 -30.5z" />
    <glyph glyph-name="nine.inf" unicode="&#x2089;" 
d="M375 514q157 0 238 -81.5t81 -242.5v-184q0 -164 -85 -254t-249 -90q-81 0 -142 20.5t-94.5 55t-49 73t-15.5 80.5v19h168v-6q0 -44 31 -72.5t102 -28.5q166 0 166 179v77q-70 -75 -211 -75q-123 0 -190.5 60.5t-67.5 158.5v43q0 122 83 195t235 73zM375 369
q-64 0 -104 -33.5t-40 -87.5v-29q0 -52 38 -83.5t104 -31.5q65 0 107 31t42 82v27q0 59 -40.5 92t-106.5 33z" />
    <glyph glyph-name="colonmonetary" unicode="&#x20a1;" horiz-adv-x="1269" 
d="M664 -29q-90 0 -166 21l-43 -219h-125l51 264q-125 69 -192.5 197t-67.5 296v304q0 245 140 397.5t376 161.5l37 188h127l-39 -192q81 -11 164 -46l45 238h125l-60 -313q127 -121 127 -324v-70h-235v64q0 109 -69 178.5t-191 69.5q-143 0 -223 -94.5t-80 -249.5v-318
q0 -154 80 -250t223 -96q121 0 190.5 69.5t69.5 178.5v63h235v-69q0 -170 -95.5 -287.5t-274.5 -150.5l-41 -209h-125l39 198h-2z" />
    <glyph glyph-name="naira" unicode="&#x20a6;" horiz-adv-x="1605" 
d="M510 999l4 -999h-217v449h-240v131h240v180h-240v129h240v475h258l532 -999h5l-5 999h220v-475h241v-129h-241v-180h241v-131h-241v-449h-258l-535 999h-4z" />
    <glyph glyph-name="rupee" unicode="&#x20a8;" horiz-adv-x="2183" 
d="M426 520v-520h-238v1364h551q212 0 322 -96t110 -275v-98q0 -130 -70.5 -222t-197.5 -130l301 -543h-256l-282 520h-240zM426 713h268q118 0 178 50.5t60 143.5v70q0 98 -55 144t-177 46h-274v-454zM1690 -29q-202 0 -301 88t-99 238v39h201v-29q0 -75 50 -118.5
t151 -43.5q84 0 128 31.5t44 85.5q0 52 -45.5 81t-176.5 67q-172 40 -252.5 107t-80.5 192q0 128 101.5 212.5t277.5 84.5q181 0 279.5 -83t98.5 -227v-32h-200v18q0 72 -46 112t-134 40q-75 0 -118.5 -31t-43.5 -80q0 -54 45.5 -81t175.5 -64q86 -21 145 -45t104.5 -59.5
t67 -84.5t21.5 -115q0 -135 -102.5 -219t-290.5 -84z" />
    <glyph glyph-name="won" unicode="&#x20a9;" horiz-adv-x="1869" 
d="M932 1032l-211 -1038h-260l-88 448h-305v129h280l-35 179h-245v131h219l-94 483h229l188 -1061h4l209 1065h244l207 -1065h4l190 1061h209l-96 -483h221v-131h-248l-34 -179h282v-129h-309l-88 -448h-260l-209 1038h-4z" />
    <glyph glyph-name="sheqel" unicode="&#x20aa;" horiz-adv-x="1462" 
d="M133 1061h479q191 0 276 -69t85 -234v-400h-137v326q0 91 -42.5 132.5t-146.5 41.5h-313v-858h-201v1061zM1343 1061v-748q0 -167 -86 -240t-262 -73h-479v702h137v-501h303q103 0 145 40.5t42 135.5v684h200z" />
    <glyph glyph-name="Euro" unicode="&#x20ac;" horiz-adv-x="1349" 
d="M1239 408q0 -192 -130 -314.5t-368 -122.5q-245 0 -385.5 134t-152.5 384h-142v117h140v150h-140v118h142q12 248 154 383.5t386 135.5q240 0 368 -121.5t128 -315.5v-14h-229v10q0 101 -69 168.5t-196 67.5q-143 0 -220.5 -79.5t-84.5 -234.5h465v-118h-467v-150h467
v-117h-465q8 -153 85.5 -233t219.5 -80q128 0 196.5 67.5t68.5 170.5v6h229v-12z" />
    <glyph glyph-name="peso" unicode="&#x20b1;" horiz-adv-x="1454" 
d="M508 481v-481h-242v846h-231v153h231v365h512q211 0 324 -97t119 -268h221v-153h-221q-6 -172 -119 -268.5t-326 -96.5h-268zM508 1176v-506h235q236 0 236 209v88q0 101 -58.5 155t-177.5 54h-235z" />
    <glyph glyph-name="rupeeindia" unicode="&#x20b9;" horiz-adv-x="1271" 
d="M487 510h-55l643 -510h-336l-606 500v159h277q148 0 219 47.5t86 147.5h-584v145h584q-12 101 -78 148t-209 47h-297v170h1075v-170h-370q99 -73 120 -186h252v-168h-250q-15 -156 -134.5 -243t-336.5 -87z" />
    <glyph glyph-name="ruble" unicode="&#x20bd;" horiz-adv-x="1337" 
d="M1106 258h-565v-258h-244v258h-240v133h240v174h-240v133h240v666h520q208 0 317 -95t109 -268v-79q0 -357 -428 -357h-274v-174h565v-133zM539 1174v-476h235q121 0 175.5 51t54.5 152v80q0 193 -224 193h-241z" />
    <glyph glyph-name="published" unicode="&#x2117;" horiz-adv-x="1736" 
d="M119 682q0 155 56.5 292.5t155 236t238 155.5t299.5 57t300 -57t238.5 -155.5t155 -236t56.5 -292.5t-56.5 -292.5t-155 -236t-238.5 -155.5t-300 -57t-299.5 57t-238 155.5t-155 236t-56.5 292.5zM1507 682q0 181 -80 328t-226.5 232t-332.5 85t-332.5 -85t-226.5 -232
t-80 -328t80 -327.5t226.5 -231t332.5 -84.5t332.5 84.5t226.5 231t80 327.5zM621 1036h305q133 0 195.5 -58t62.5 -181q0 -124 -64 -184t-198 -60h-150v-225h-151v708zM772 909v-229h123q79 0 107 26t28 89t-27 88.5t-106 25.5h-125z" />
    <glyph glyph-name="servicemark" unicode="&#x2120;" horiz-adv-x="1482" 
d="M330 1380q248 0 248 -215h-132q0 52 -27 77.5t-91 25.5q-51 0 -81 -20t-30 -48q0 -31 28.5 -47.5t119.5 -44.5q124 -35 171.5 -75t47.5 -118q0 -92 -66.5 -141t-185.5 -49q-133 0 -195.5 56t-64.5 167h133q1 -58 32.5 -84t96.5 -26q56 0 85.5 18.5t29.5 50.5
q0 34 -30 52.5t-118 44.5q-121 31 -170 72.5t-49 115.5q0 83 66.5 135.5t181.5 52.5zM707 1364h208l134 -426h2l131 426h202v-625h-127v473h-12l-149 -473h-109l-149 473h-13v-473h-118v625z" />
    <glyph glyph-name="trademark" unicode="&#x2122;" horiz-adv-x="1460" 
d="M53 1364h527v-125h-197v-500h-131v500h-199v125zM684 1364h207l135 -426h2l131 426h201v-625h-127v473h-12l-148 -473h-108l-150 473h-12v-473h-119v625z" />
    <glyph glyph-name="onethird" unicode="&#x2153;" horiz-adv-x="1667" 
d="M307 1376h129v-823h-184v577h-180v136h75q76 0 112 25.5t48 84.5zM1241 1364l-844 -1364h-139l842 1364h141zM1294 834q146 0 227 -63t81 -161v-16q0 -67 -45 -114t-125 -64q85 -15 130.5 -63t45.5 -124v-16q0 -101 -83.5 -166t-230.5 -65q-162 0 -241.5 66.5
t-79.5 176.5v45h164v-34q0 -52 39 -82.5t112 -30.5q65 0 103.5 27.5t38.5 76.5v21q0 50 -38.5 75t-121.5 25h-78v125h78q155 0 155 100v17q0 49 -37 76.5t-102 27.5q-72 0 -109.5 -31t-37.5 -79v-37h-166v45q0 106 81.5 174t239.5 68z" />
    <glyph glyph-name="twothirds" unicode="&#x2154;" horiz-adv-x="1865" 
d="M676 553h-610v45q0 142 56 220.5t220 162.5q108 57 139 85.5t31 78.5t-34.5 74t-92.5 24q-71 0 -110 -31.5t-39 -91.5v-39h-168v47q0 117 82.5 187.5t238.5 70.5q152 0 226.5 -64.5t74.5 -170.5q0 -92 -54.5 -149.5t-207.5 -137.5q-101 -53 -134 -83.5t-34 -78.5h416
v-149zM1440 1364l-846 -1364h-139l843 1364h142zM1493 834q144 0 225.5 -63.5t81.5 -160.5v-16q0 -67 -46 -114t-126 -64q87 -15 132.5 -63t45.5 -124v-16q0 -100 -83.5 -165.5t-231.5 -65.5q-162 0 -242 66.5t-80 176.5v45h164v-34q0 -52 39.5 -82.5t112.5 -30.5
q66 0 103.5 27.5t37.5 76.5v21q0 50 -38.5 75t-121.5 25h-75v125h75q158 0 158 100v17q0 49 -37.5 76.5t-101.5 27.5q-73 0 -111.5 -31t-38.5 -79v-37h-166v45q0 106 82 174t242 68z" />
    <glyph glyph-name="onefifth" unicode="&#x2155;" horiz-adv-x="1679" 
d="M307 1376h129v-823h-184v577h-180v136h75q76 0 112 25.5t48 84.5zM1241 1364l-844 -1364h-139l842 1364h141zM1042 817h560q-8 -92 -29.5 -122.5t-87.5 -30.5h-295l-16 -211q46 34 93 51.5t113 17.5q116 0 177 -58.5t61 -164.5v-49q0 -122 -80.5 -195t-232.5 -73
q-161 0 -234.5 65.5t-73.5 175.5v25h168v-12q0 -49 36.5 -81t101.5 -32t101 35.5t36 93.5v35q0 51 -30.5 82.5t-94.5 31.5q-93 0 -160 -67l-143 24z" />
    <glyph glyph-name="twofifths" unicode="&#x2156;" horiz-adv-x="1878" 
d="M676 553h-610v45q0 142 56 220.5t220 162.5q108 57 139 85.5t31 78.5t-34.5 74t-92.5 24q-71 0 -110 -31.5t-39 -91.5v-39h-168v47q0 117 82.5 187.5t238.5 70.5q152 0 226.5 -64.5t74.5 -170.5q0 -92 -54.5 -149.5t-207.5 -137.5q-101 -53 -134 -83.5t-34 -78.5h416
v-149zM1440 1364l-846 -1364h-139l843 1364h142zM1239 817h559q-6 -91 -28 -122t-89 -31h-292l-17 -211q89 69 207 69q114 0 175 -59t61 -164v-49q0 -122 -80.5 -195t-233.5 -73q-161 0 -234 65.5t-73 175.5v25h168v-12q0 -49 36 -81t101 -32t101 35.5t36 93.5v35
q0 51 -30.5 82.5t-94.5 31.5q-89 0 -159 -67l-144 24z" />
    <glyph glyph-name="threefifths" unicode="&#x2157;" horiz-adv-x="1835" 
d="M381 1386q146 0 226.5 -63t80.5 -162v-14q0 -67 -45 -115t-125 -65q176 -31 176 -187v-14q0 -102 -83.5 -166.5t-231.5 -64.5q-161 0 -241.5 66t-80.5 177v43h166v-35q0 -52 38 -81t112 -29q66 0 103.5 27.5t37.5 76.5v21q0 100 -158 100h-77v123h77q80 0 118 27.5
t38 74.5v17q0 49 -37 75.5t-102 26.5q-72 0 -111 -31t-39 -79v-37h-164v47q0 105 82 173t240 68zM1397 1364l-844 -1364h-139l841 1364h142zM1198 817h559q-8 -92 -29.5 -122.5t-87.5 -30.5h-294l-17 -211q93 69 207 69q116 0 177 -58.5t61 -164.5v-49q0 -122 -80.5 -195
t-233.5 -73q-161 0 -234 65.5t-73 175.5v25h168v-12q0 -49 36 -81t101 -32t101 35.5t36 93.5v35q0 51 -30.5 82.5t-94.5 31.5q-92 0 -159 -67l-144 24z" />
    <glyph glyph-name="fourfifths" unicode="&#x2158;" horiz-adv-x="1859" 
d="M385 1368h221v-510h111v-135h-111v-170h-164v170h-424v131zM1419 1364l-844 -1364h-139l842 1364h141zM442 858v375l-258 -375h258zM1221 817h559q-6 -91 -28 -122t-89 -31h-295l-14 -211q89 69 205 69q115 0 176 -58.5t61 -164.5v-49q0 -122 -80.5 -195t-232.5 -73
q-161 0 -234 65.5t-73 175.5v25h167v-12q0 -49 36.5 -81t101.5 -32t101 35.5t36 93.5v35q0 51 -30.5 82.5t-94.5 31.5q-93 0 -160 -67l-143 24z" />
    <glyph glyph-name="onesixth" unicode="&#x2159;" horiz-adv-x="1644" 
d="M307 1376h129v-823h-184v577h-180v136h75q76 0 112 25.5t48 84.5zM1241 1364l-844 -1364h-139l842 1364h141zM1270 -18q-157 0 -238.5 81t-81.5 242v184q0 163 84.5 254t245.5 91q80 0 140.5 -21t93 -56t48 -73.5t15.5 -81.5v-24h-168v12q0 45 -33 73.5t-96 28.5
q-82 0 -121 -47.5t-39 -130.5v-86q71 76 205 76q125 0 192.5 -60t67.5 -161v-35q0 -120 -82.5 -193t-232.5 -73zM1268 127q66 0 104.5 32t38.5 89v18q0 54 -36.5 85.5t-102.5 31.5t-107 -30.5t-41 -82.5v-20q0 -59 39.5 -91t104.5 -32z" />
    <glyph glyph-name="fivesixths" unicode="&#x215a;" horiz-adv-x="1802" 
d="M117 1368h559q-8 -90 -30 -120.5t-89 -30.5h-293l-16 -211q94 69 207 69q114 0 174.5 -58.5t60.5 -164.5v-51q0 -121 -80 -193.5t-231 -72.5q-161 0 -235 65.5t-74 173.5v27h170v-15q0 -49 35 -79.5t102 -30.5q64 0 99.5 35t35.5 94v33q0 53 -30 83.5t-93 30.5
q-92 0 -162 -67l-143 24zM1401 1364l-844 -1364h-141l844 1364h141zM1427 -18q-155 0 -236 81t-81 242v184q0 164 84 254.5t244 90.5q80 0 140.5 -21t93 -56t48 -73.5t15.5 -81.5v-24h-168v12q0 45 -32.5 73.5t-94.5 28.5q-84 0 -123 -47.5t-39 -130.5v-86q76 76 207 76
q124 0 192 -60.5t68 -160.5v-35q0 -120 -83 -193t-235 -73zM1427 127q65 0 104.5 32.5t39.5 88.5v18q0 53 -37.5 85t-103.5 32q-65 0 -105.5 -30.5t-40.5 -82.5v-20q0 -59 38.5 -91t104.5 -32z" />
    <glyph glyph-name="oneeighth" unicode="&#x215b;" horiz-adv-x="1667" 
d="M307 1376h129v-823h-184v577h-180v136h75q76 0 112 25.5t48 84.5zM1241 1364l-844 -1364h-139l842 1364h141zM1290 838q151 0 232.5 -67.5t81.5 -170.5v-10q0 -120 -140 -178q150 -54 150 -189v-12q0 -106 -84 -168.5t-240 -62.5q-157 0 -240 62.5t-83 168.5v12
q0 135 149 189q-139 56 -139 178v10q0 103 81.5 170.5t231.5 67.5zM1290 696q-64 0 -101.5 -29t-37.5 -77v-21q0 -45 39 -73.5t100 -28.5t100.5 28.5t39.5 73.5v21q0 48 -38 77t-102 29zM1290 121q69 0 108.5 30t39.5 78v21q0 47 -40.5 75.5t-107.5 28.5t-107 -28.5
t-40 -75.5v-21q0 -48 39 -78t108 -30z" />
    <glyph glyph-name="threeeighths" unicode="&#x215c;" horiz-adv-x="1822" 
d="M381 1386q146 0 226.5 -63t80.5 -162v-14q0 -67 -45 -115t-125 -65q176 -31 176 -187v-14q0 -102 -83.5 -166.5t-231.5 -64.5q-161 0 -241.5 66t-80.5 177v43h166v-35q0 -52 38 -81t112 -29q66 0 103.5 27.5t37.5 76.5v21q0 100 -158 100h-77v123h77q80 0 118 27.5
t38 74.5v17q0 49 -37 75.5t-102 26.5q-72 0 -111 -31t-39 -79v-37h-164v47q0 105 82 173t240 68zM1397 1364l-844 -1364h-139l841 1364h142zM1446 838q150 0 231.5 -67.5t81.5 -170.5v-10q0 -121 -139 -178q149 -54 149 -189v-12q0 -106 -83.5 -168.5t-239.5 -62.5
q-157 0 -240.5 62.5t-83.5 168.5v12q0 135 150 189q-139 56 -139 178v10q0 103 81.5 170.5t231.5 67.5zM1446 696q-64 0 -101.5 -29t-37.5 -77v-21q0 -45 39 -73.5t100 -28.5t100 28.5t39 73.5v21q0 48 -37.5 77t-101.5 29zM1446 121q69 0 108 30t39 78v21q0 47 -40 75.5
t-107 28.5t-107.5 -28.5t-40.5 -75.5v-21q0 -48 39.5 -78t108.5 -30z" />
    <glyph glyph-name="fiveeighths" unicode="&#x215d;" horiz-adv-x="1826" 
d="M117 1368h559q-8 -90 -30 -120.5t-89 -30.5h-293l-16 -211q94 69 207 69q114 0 174.5 -58.5t60.5 -164.5v-51q0 -121 -80 -193.5t-231 -72.5q-161 0 -235 65.5t-74 173.5v27h170v-15q0 -49 35 -79.5t102 -30.5q64 0 99.5 35t35.5 94v33q0 53 -30 83.5t-93 30.5
q-92 0 -162 -67l-143 24zM1401 1364l-844 -1364h-141l844 1364h141zM1448 838q152 0 233.5 -67t81.5 -171v-10q0 -121 -139 -178q150 -54 150 -189v-12q0 -106 -84.5 -168.5t-241.5 -62.5q-156 0 -240 62.5t-84 168.5v12q0 135 150 189q-139 57 -139 178v10
q0 103 81.5 170.5t231.5 67.5zM1448 696q-64 0 -101.5 -29t-37.5 -77v-21q0 -45 39 -73.5t100 -28.5q62 0 101.5 28.5t39.5 73.5v21q0 48 -38 77t-103 29zM1448 121q70 0 108.5 29.5t38.5 78.5v21q0 47 -40 75.5t-107 28.5q-66 0 -105.5 -28.5t-39.5 -75.5v-21
q0 -49 38 -78.5t107 -29.5z" />
    <glyph glyph-name="seveneighths" unicode="&#x215e;" horiz-adv-x="1667" 
d="M66 1368h641v-96q-151 -169 -223 -336.5t-87 -382.5h-202q13 191 90.5 345t234.5 310h-454v160zM1241 1364l-844 -1364h-139l842 1364h141zM1290 838q151 0 232.5 -67.5t81.5 -170.5v-10q0 -120 -140 -178q150 -54 150 -189v-12q0 -106 -84 -168.5t-240 -62.5
q-157 0 -240 62.5t-83 168.5v12q0 135 149 189q-139 56 -139 178v10q0 103 81.5 170.5t231.5 67.5zM1290 696q-64 0 -101.5 -29t-37.5 -77v-21q0 -45 39 -73.5t100 -28.5t100.5 28.5t39.5 73.5v21q0 48 -38 77t-102 29zM1290 121q69 0 108.5 30t39.5 78v21q0 47 -41 75.5
t-107 28.5q-67 0 -107 -28.5t-40 -75.5v-21q0 -48 39 -78t108 -30z" />
    <glyph glyph-name="minus" unicode="&#x2212;" horiz-adv-x="1048" 
d="M113 780h827v-196h-827v196z" />
    <glyph glyph-name="hcoslug" unicode="&#xe10b;" horiz-adv-x="1421" 
d="M1319 1434v-1639h-1217v1639h1217zM782 541q42 55 95 86q30 -52 88 -52q43 0 72.5 32t29.5 79t-29.5 77t-72.5 30q-70 0 -123 -78q-3 40 -30.5 59t-70.5 17q19 32 19 69q0 59 -52.5 105.5t-142.5 46.5q-99 0 -161 -52.5t-62 -121.5q0 -43 15 -75t49 -67
q-168 -57 -168 -186q0 -81 65 -136t158 -55q129 0 213 93q51 -52 89.5 -72.5t84.5 -20.5q68 0 114.5 53t49.5 140l-15 4q-34 -59 -88 -59q-30 0 -59 19.5t-68 64.5zM506 877q0 26 15 42.5t40 16.5q26 0 43 -21.5t17 -56.5q0 -46 -37 -102q-30 29 -42.5 42.5t-24 35
t-11.5 43.5zM639 700q61 42 86 70q23 -23 29 -49t-2 -52.5t-29 -62.5q-68 78 -84 94zM535 449q-46 0 -76.5 31.5t-30.5 78.5q0 49 33 82q72 -68 151 -168q-31 -24 -77 -24zM721 256v-106h12l8 16q10 -16 29 -16q17 0 25 13.5t8 29.5q0 18 -8.5 29t-22.5 11q-21 0 -27 -18v55
h-36v-14h12zM256 166v-14h61v14h-20v33h8q7 0 8.5 -3t3.5 -14h15v47h-15q-1 -8 -2 -10.5t-3 -4t-7 -1.5h-8v37h25q11 0 15 -5t7 -22h16v41h-104v-14h14v-84h-14zM586 254l-25 -4v-19h-14v-14h14v-41q0 -26 25 -26q22 0 28 26l-10 4q-3 -14 -10 -14q-8 0 -8 10v41h26v14h-26
v23zM356 193q0 -20 12 -31.5t31 -11.5t31 12t12 31q0 18 -12 29t-31 11t-31 -11t-12 -29zM618 180v-28h15l2 8q15 -10 27 -10q13 0 20.5 7.5t7.5 18.5q0 19 -24.5 25t-24.5 12q0 8 10 8q11 0 21 -14h14v26h-12l-4 -10q-7 10 -23 10q-13 0 -21 -7t-8 -17q0 -19 25 -26t25 -13
q0 -8 -11 -8q-12 0 -24 18h-15zM449 166v-14h45v14h-9v31q0 20 15 20q12 0 12 -14v-37h-8v-14h45v14h-12v39q0 28 -25 28q-20 0 -29 -22v20h-34v-14h12v-51h-12zM829 133q5 5 2.5 13t-12.5 8q-14 0 -14 -15q0 -18 22 -18q24 0 37 33l27 63h10v14h-35v-14h11l-17 -41l-18 41
h12v14h-51v-14h10q25 -47 33 -67q-3 -17 -17 -17zM416 193q0 -33 -17 -33q-16 0 -16 33q0 30 16 30q17 0 17 -30zM776 190q0 -26 -14 -26q-17 0 -17 26q0 27 17 27q14 0 14 -27zM565 14v-14h47v14h-10v52h29v-52h-10v-14h47v14h-13v107l-20 -4q-8 4 -19 4q-16 0 -27 -10
t-11 -29v-2h-15v-14h15v-52h-13zM961 55q0 -26 15.5 -41.5t43.5 -15.5q46 0 49 47h-16q-4 -33 -29 -33q-33 0 -33 45t29 45q12 0 18.5 -6.5t12.5 -25.5h16v45h-16l-2 -13q-15 15 -33 15q-22 0 -38.5 -17.5t-16.5 -44.5zM254 14v-14h59v14h-16v37h45v-37h-16v-14h59v14h-16
v84h16v15h-59v-15h16v-32h-45v32h16v15h-59v-15h16v-84h-16zM950 68h-37v-15h13q-2 -7 -13 -18q-4 4 -11.5 12.5t-12.5 13.5q22 9 22 25q0 10 -7.5 17.5t-20.5 7.5q-14 0 -24.5 -9t-10.5 -20q0 -13 12 -25q-26 -7 -26 -30q0 -29 36 -29q19 0 31 12q10 -12 25 -12q19 0 26 25
l-10 2q-3 -11 -8 -11t-12 11q12 16 18 28h10v15zM602 80v6q0 25 12 25l7 -2q-3 -3 -3 -7q0 -12 13 -12v-10h-29zM883 68q-13 13 -13 20q0 10 11 10q12 0 12 -12q0 -11 -10 -18zM506 37h53q3 45 -39 45q-17 0 -29 -12t-12 -31t11.5 -30t31.5 -11q30 0 37 29h-14
q-3 -15 -19 -15q-20 0 -20 25zM754 14v-14h53v14h-16v33q8 19 14 19v-3q0 -12 12 -12q14 0 14 15q0 16 -16 16q-15 0 -24 -23v21h-37v-14h12v-52h-12zM1075 41q0 -20 12 -31.5t31 -11.5t31 12t12 31t-12 30t-31 11t-31 -11t-12 -30zM387 41q0 -20 12 -31.5t31 -11.5t31 12
t12 31t-12 30t-31 11t-31 -11t-12 -30zM696 37h54q3 45 -39 45q-17 0 -29 -12t-12 -31t11.5 -30t31.5 -11q30 0 37 29h-15q-3 -15 -18 -15q-21 0 -21 25zM1135 41q0 -33 -17 -33q-16 0 -16 33q0 31 16 31q17 0 17 -31zM446 41q0 -33 -16 -33t-16 33q0 31 16 31t16 -31z
M696 47q0 25 15 25q14 0 14 -25h-29zM506 47q0 25 14 25q15 0 15 -25h-29zM895 18q-9 -6 -16 -6q-9 0 -15 6t-6 15q0 10 8 18q9 -9 29 -33zM1194 12q0 15 -14 15q-6 0 -10.5 -4.5t-4.5 -10.5q0 -14 15 -14q14 0 14 14z" />
    <glyph glyph-name="fi" unicode="&#xfb01;" horiz-adv-x="1220" 
d="M686 1417v-180h-80q-85 0 -121 -34.5t-36 -106.5v-117h225v-182h-225v-797h-234v797h-162v182h162v129q0 309 350 309h121zM844 1366h248v-213h-248v213zM850 979h235v-979h-235v979z" />
    <glyph glyph-name="fl" unicode="&#xfb02;" horiz-adv-x="1220" 
d="M686 1417v-180h-80q-85 0 -121 -34.5t-36 -106.5v-117h225v-182h-225v-797h-234v797h-162v182h162v129q0 309 350 309h121zM1085 1417v-1417h-235v1417h235z" />
    <glyph glyph-name="NUL" horiz-adv-x="0" 
 />
    <glyph glyph-name="Q.alt" horiz-adv-x="1345" 
d="M1055 -156v-168h-105q-218 0 -304.5 66.5t-86.5 222.5v27q-209 33 -327.5 177.5t-118.5 375.5v286q0 264 150.5 414t408.5 150q259 0 410 -150t151 -414v-286q0 -231 -118 -375.5t-327 -177.5v-39q0 -63 53 -86t179 -23h35zM672 1182q-141 0 -223 -90t-82 -248v-312
q0 -159 81.5 -249t223.5 -90q143 0 225 89.5t82 249.5v312q0 158 -82 248t-225 90z" />
    <glyph glyph-name="Q.alt2" horiz-adv-x="1359" 
d="M1333 -16q-60 -31 -133 -31q-66 0 -116.5 22t-102.5 80q-131 -86 -309 -86q-258 0 -408.5 151.5t-150.5 418.5v286q0 267 150.5 418.5t408.5 151.5q260 0 410.5 -151.5t150.5 -418.5v-286q0 -195 -105 -346q34 -36 65 -47t77 -11q22 0 63 6v-157zM956 401l11 -18
q16 66 16 139v314q0 164 -82.5 256t-228.5 92q-143 0 -225 -92t-82 -256v-277q0 -67 14 -119q28 91 97 137t161 46q103 0 177.5 -54t141.5 -168zM473 317q0 -69 50.5 -108t148.5 -39q119 0 196 59l-18 31q-58 105 -109.5 151t-122.5 46q-65 0 -105 -41t-40 -99z" />
    <glyph glyph-name="R.alt" horiz-adv-x="1277" 
d="M160 1364h567q213 0 321.5 -93.5t108.5 -262.5v-56q0 -132 -60 -204.5t-177 -106.5v-4q106 -29 156 -94.5t50 -188.5v-164q0 -58 17 -89.5t59 -51.5v-49h-166q-84 0 -124 44.5t-40 139.5v160q0 99 -48 146t-158 47h-256v-537h-250v1364zM410 1159v-432h258q115 0 176 50
t61 141v61q0 86 -55.5 133t-169.5 47h-270z" />
    <glyph glyph-name="t.alt" horiz-adv-x="714" 
d="M207 1182l233 57v-260h244v-182h-244v-418q0 -140 32 -210t128 -142v-27h-272q-68 66 -94.5 139.5t-26.5 231.5v426h-158v182h158v203z" />
    <glyph glyph-name="Racute.alt" horiz-adv-x="1277" 
d="M981 1898l-313 -348h-160l199 348h274zM160 1364h567q213 0 321.5 -93.5t108.5 -262.5v-56q0 -132 -60 -204.5t-177 -106.5v-4q106 -29 156 -94.5t50 -188.5v-164q0 -58 17 -89.5t59 -51.5v-49h-166q-84 0 -124 44.5t-40 139.5v160q0 99 -48 146t-158 47h-256v-537h-250
v1364zM410 1159v-432h258q115 0 176 50t61 141v61q0 86 -55.5 133t-169.5 47h-270z" />
    <glyph glyph-name="Rcaron.alt" horiz-adv-x="1277" 
d="M264 1911q110 -19 204.5 -76.5t143.5 -124.5q51 68 145 125t204 76v-92q-173 -74 -228 -267h-241q-51 192 -228 267v92zM160 1364h567q213 0 321.5 -93.5t108.5 -262.5v-56q0 -132 -60 -204.5t-177 -106.5v-4q106 -29 156 -94.5t50 -188.5v-164q0 -58 17 -89.5t59 -51.5
v-49h-166q-84 0 -124 44.5t-40 139.5v160q0 99 -48 146t-158 47h-256v-537h-250v1364zM410 1159v-432h258q115 0 176 50t61 141v61q0 86 -55.5 133t-169.5 47h-270z" />
    <glyph glyph-name="Rcommaaccent.alt" horiz-adv-x="1277" 
d="M160 1364h567q213 0 321.5 -93.5t108.5 -262.5v-56q0 -132 -60 -204.5t-177 -106.5v-4q106 -29 156 -94.5t50 -188.5v-164q0 -58 17 -89.5t59 -51.5v-49h-166q-84 0 -124 44.5t-40 139.5v160q0 99 -48 146t-158 47h-256v-537h-250v1364zM410 1159v-432h258q115 0 176 50
t61 141v61q0 86 -55.5 133t-169.5 47h-270zM541 -174h225v-205q0 -112 -67.5 -183.5t-190.5 -96.5v63q70 23 111 75t40 126h-118v221z" />
    <glyph glyph-name="tcaron.alt" horiz-adv-x="714" 
d="M594 1452h209l-105 -348h-120zM207 1182l233 57v-260h244v-182h-244v-418q0 -140 32 -210t128 -142v-27h-272q-68 66 -94.5 139.5t-26.5 231.5v426h-158v182h158v203z" />
    <glyph glyph-name="tcommaaccent.alt" horiz-adv-x="714" 
d="M207 1182l233 57v-260h244v-182h-244v-418q0 -140 32 -210t128 -142v-27h-272q-68 66 -94.5 139.5t-26.5 231.5v426h-158v182h158v203zM276 -180h226v-205q0 -113 -67.5 -184t-190.5 -95v62q70 23 111 75t40 126h-119v221z" />
    <glyph glyph-name="one.alt" horiz-adv-x="974" 
d="M928 0h-805v201h289v811h-312v186h95q149 0 212.5 39t77.5 137h172v-1173h271v-201z" />
    <glyph glyph-name="one.alt2" horiz-adv-x="626" 
d="M190 1219q119 12 119 159h127v-1378h-246v1219z" />
    <glyph glyph-name="colon.alt" horiz-adv-x="471" 
d="M111 1165h247v-278h-247v278zM111 479h247v-278h-247v278z" />
    <glyph glyph-name="guillemotleft.cap" horiz-adv-x="1269" 
d="M496 1169h127q-48 -282 -271 -487q222 -201 271 -485h-127q-47 133 -148 241t-252 180v127q151 73 252 182.5t148 241.5zM1018 1169h127q-45 -282 -271 -487q225 -201 271 -485h-127q-47 133 -148 241t-252 180v127q151 73 252 182.5t148 241.5z" />
    <glyph glyph-name="guillemotright.cap" horiz-adv-x="1263" 
d="M768 195h-127q45 283 270 487q-224 200 -270 485h127q45 -133 146.5 -241.5t252.5 -180.5v-127q-151 -74 -252.5 -183t-146.5 -240zM252 195h-129q48 283 270 487q-221 200 -270 485h129q45 -133 146.5 -241.5t252.5 -180.5v-127q-151 -74 -252.5 -183t-146.5 -240z" />
    <glyph glyph-name="guilsinglleft.cap" horiz-adv-x="745" 
d="M496 1169h127q-45 -282 -271 -487q225 -201 271 -485h-127q-45 132 -146.5 240t-253.5 181v127q151 74 253 183.5t147 240.5z" />
    <glyph glyph-name="guilsinglright.cap" horiz-adv-x="745" 
d="M250 197h-127q49 284 270 487q-221 197 -270 483h127q98 -275 399 -422v-127q-150 -72 -251 -180.5t-148 -240.5z" />
    <glyph glyph-name="hyphen.cap" horiz-adv-x="772" 
d="M109 778h555v-190h-555v190z" />
    <glyph glyph-name="endash.cap" horiz-adv-x="1173" 
d="M139 776h895v-188h-895v188z" />
    <glyph glyph-name="emdash.cap" horiz-adv-x="1716" 
d="M141 776h1434v-188h-1434v188z" />
    <glyph glyph-name="at.cap" horiz-adv-x="1595" 
d="M858 1458q134 0 246 -35.5t189 -95t130.5 -139t78 -166.5t24.5 -178q0 -145 -51.5 -268.5t-147 -199t-215.5 -75.5q-105 0 -163.5 50.5t-55.5 129.5q-99 -166 -234 -166q-104 0 -162.5 69.5t-58.5 195.5q0 61 14.5 127.5t45 132t72.5 117.5t102 84t129 32q70 0 118 -36
t64 -93l39 115h174l-123 -406q-39 -132 -22.5 -189.5t90.5 -57.5q103 0 185.5 125t82.5 309q0 232 -152 372t-399 140q-192 0 -342 -94t-232.5 -261.5t-82.5 -380.5q0 -271 163.5 -437.5t448.5 -166.5q137 0 260 44t209 110l59 -90q-94 -73 -235 -120.5t-295 -47.5
q-221 0 -387 89t-254 249t-88 368q0 183 58.5 340t161 267.5t246.5 173.5t310 63zM840 946q-55 0 -100.5 -41t-71 -101t-39 -118.5t-13.5 -103.5q0 -68 29.5 -102t79.5 -34q52 0 97 52t69 135l59 211q-2 41 -32.5 71.5t-77.5 30.5z" />
    <glyph glyph-name="registered.large" horiz-adv-x="1736" 
d="M119 682q0 155 56.5 292.5t155 236t238 155.5t299.5 57t300 -57t238.5 -155.5t155 -236t56.5 -292.5t-56.5 -292.5t-155 -236t-238.5 -155.5t-300 -57t-299.5 57t-238 155.5t-155 236t-56.5 292.5zM1507 682q0 181 -80 328t-226.5 232t-332.5 85t-332.5 -85t-226.5 -232
t-80 -328t80 -327.5t226.5 -231t332.5 -84.5t332.5 84.5t226.5 231t80 327.5zM752 582v-254h-154v708h336q240 0 240 -227q0 -164 -138 -211l150 -270h-164l-139 254h-131zM752 909v-211h145q63 0 93 24.5t30 78.5q0 55 -28 81.5t-93 26.5h-147z" />
    <glyph glyph-name="registered.large_alt" horiz-adv-x="1736" 
d="M119 682q0 155 56.5 292.5t155 236t238 155.5t299.5 57t300 -57t238.5 -155.5t155 -236t56.5 -292.5t-56.5 -292.5t-155 -236t-238.5 -155.5t-300 -57t-299.5 57t-238 155.5t-155 236t-56.5 292.5zM1507 682q0 181 -80 328t-226.5 232t-332.5 85t-332.5 -85t-226.5 -232
t-80 -328t80 -327.5t226.5 -231t332.5 -84.5t332.5 84.5t226.5 231t80 327.5zM598 1036h336q119 0 179.5 -53t60.5 -154q0 -82 -33 -122t-103 -60v-2q59 -14 88 -48t29 -95v-58q0 -31 9 -47.5t30 -29.5v-39h-104q-46 0 -67.5 23.5t-21.5 72.5v70q0 44 -25 66t-85 22h-139
v-254h-154v708zM752 909v-209h143q66 0 95.5 25t29.5 80t-27.5 79.5t-91.5 24.5h-149z" />
    <glyph glyph-name="registered.alt" horiz-adv-x="1060" 
d="M530 1395q192 0 318.5 -126t126.5 -311q0 -184 -126.5 -309t-318.5 -125t-318 125t-126 309q0 185 126 311t318 126zM530 1325q-165 0 -266.5 -104t-101.5 -263t101.5 -262.5t266.5 -103.5t266 103.5t101 262.5t-101 263t-266 104zM358 1182h215q154 0 154 -129
q0 -50 -21 -76t-63 -37v-2q72 -15 72 -90v-21q0 -22 6 -33t24 -20v-29h-73q-31 0 -44.5 15t-13.5 47v37q0 28 -15.5 41.5t-51.5 13.5h-88v-154h-101v437zM459 1100v-127h88q42 0 61 15t19 50q0 33 -18 47.5t-58 14.5h-92z" />
    <glyph glyph-name="R_p" horiz-adv-x="2308" 
d="M426 520v-520h-238v1364h551q212 0 322 -96t110 -275v-98q0 -130 -70.5 -222t-197.5 -130l301 -543h-256l-282 520h-240zM426 713h268q118 0 178 50.5t60 143.5v70q0 98 -55 144t-177 46h-274v-454zM1860 -25q-100 0 -167 41t-124 113v-451h-236v1301h201l16 -164
q58 89 131.5 139t182.5 50q157 0 249.5 -105.5t92.5 -284.5v-249q0 -178 -95 -284t-251 -106zM1780 154q90 0 141 63t51 164v217q0 101 -51 164t-141 63q-88 0 -149.5 -67t-61.5 -170v-195q0 -104 62 -171.5t149 -67.5z" />
    <glyph glyph-name="R_p.alt" horiz-adv-x="2340" 
d="M188 1364h553q214 0 323.5 -93t109.5 -261v-56q0 -131 -62.5 -203.5t-179.5 -107.5v-4q109 -27 162 -93.5t53 -187.5v-168q0 -58 17 -89.5t59 -51.5v-49h-158q-85 0 -124.5 44.5t-39.5 139.5v168q0 99 -49.5 145t-165.5 46h-260v-543h-238v1364zM426 1165v-442h266
q116 0 179 50.5t63 144.5v65q0 182 -229 182h-279zM1368 979h201l14 -164q59 90 131.5 139.5t183.5 49.5q156 0 248 -105.5t92 -284.5v-249q0 -178 -94 -284t-250 -106q-100 0 -166.5 41t-123.5 113v-451h-236v1301zM1812 825q-86 0 -147 -67.5t-61 -169.5v-195
q0 -104 61 -171.5t147 -67.5q92 0 143.5 63t51.5 164v217q0 101 -51.5 164t-143.5 63z" />
    <glyph glyph-name="rupee.alt" horiz-adv-x="2213" 
d="M188 1364h553q214 0 323.5 -93t109.5 -261v-56q0 -131 -62.5 -203.5t-179.5 -107.5v-4q109 -27 162 -93.5t53 -187.5v-168q0 -58 17 -89.5t59 -51.5v-49h-158q-85 0 -124.5 44.5t-39.5 139.5v168q0 99 -49.5 145t-165.5 46h-260v-543h-238v1364zM426 1165v-442h266
q116 0 179 50.5t63 144.5v65q0 182 -229 182h-279zM1720 -29q-202 0 -299.5 88t-97.5 238v39h201v-29q0 -75 49.5 -118.5t150.5 -43.5q84 0 128 31.5t44 85.5q0 52 -45.5 81t-177.5 67q-171 41 -252.5 107.5t-81.5 191.5q0 128 102 212.5t279 84.5q180 0 278.5 -83.5
t98.5 -226.5v-32h-199v18q0 72 -47 112t-135 40q-74 0 -118 -31.5t-44 -79.5q0 -54 46 -81t176 -64q175 -42 256.5 -109.5t81.5 -194.5q0 -135 -103 -219t-291 -84z" />
    <glyph glyph-name="rupeeindia.alt" horiz-adv-x="1275" 
d="M1063 49v-49h-174q-86 0 -126 40.5t-44 137.5l-4 78q-3 76 -28.5 121.5t-89.5 70.5t-175 25h-289v184h281q147 0 219 47.5t90 149.5h-592v145h592q-14 100 -81 147t-210 48h-301v170h1075v-170h-362q103 -74 127 -186h237v-168h-239q-44 -190 -285 -252v-6
q158 -26 219.5 -99t67.5 -209l4 -84q3 -59 21.5 -90t66.5 -51z" />
    <glyph glyph-name="onehalf.alt" horiz-adv-x="1853" 
d="M666 553h-582v141h209v432h-221v140h104q86 0 122.5 25t47.5 85h129v-682h191v-141zM1430 1364l-844 -1364h-142l844 1364h142zM1778 0h-611v47q0 140 56 218.5t221 164.5q107 57 137.5 85t30.5 77q0 98 -127 98q-70 0 -110 -31.5t-40 -89.5v-41h-166v50
q0 115 82.5 185.5t239.5 70.5q152 0 226.5 -65t74.5 -171q0 -90 -54.5 -147.5t-207.5 -139.5q-101 -52 -134 -82.5t-36 -76.5h418v-152z" />
    <glyph glyph-name="onethird.alt" horiz-adv-x="1888" 
d="M692 553h-581v141h208v432h-219v140h103q86 0 122.5 25t47.5 85h129v-682h190v-141zM1456 1364l-844 -1364h-141l844 1364h141zM1516 834q146 0 226.5 -63t80.5 -161v-16q0 -67 -45 -114t-125 -64q85 -15 130.5 -63t45.5 -124v-16q0 -100 -84 -165.5t-232 -65.5
q-160 0 -240.5 66.5t-80.5 176.5v45h166v-34q0 -53 38 -83t113 -30q65 0 103.5 27.5t38.5 76.5v21q0 50 -38.5 75t-121.5 25h-78v125h78q156 0 156 100v17q0 49 -37.5 76.5t-102.5 27.5q-72 0 -110.5 -31t-38.5 -79v-37h-164v45q0 106 82 174t240 68z" />
    <glyph glyph-name="onequarter.alt" horiz-adv-x="1789" 
d="M692 553h-581v141h208v432h-219v140h103q86 0 122.5 25t47.5 85h129v-682h190v-141zM1456 1364l-844 -1364h-141l844 1364h141zM1419 817h223v-512h109v-135h-109v-170h-165v170h-422v131zM1477 305v377l-258 -377h258z" />
    <glyph glyph-name="onefifth.alt" horiz-adv-x="1900" 
d="M692 553h-581v141h208v432h-219v140h103q86 0 122.5 25t47.5 85h129v-682h190v-141zM1456 1364l-844 -1364h-141l844 1364h141zM1264 817h559q-6 -91 -28 -122t-89 -31h-295l-14 -211q89 69 205 69q115 0 176 -58.5t61 -164.5v-49q0 -122 -80.5 -195t-232.5 -73
q-161 0 -234 65.5t-73 175.5v25h167v-12q0 -49 36.5 -81t101.5 -32t101 35.5t36 93.5v35q0 51 -30.5 82.5t-94.5 31.5q-90 0 -160 -67l-143 24z" />
    <glyph glyph-name="onesixth.alt" horiz-adv-x="1865" 
d="M692 553h-581v141h208v432h-219v140h103q86 0 122.5 25t47.5 85h129v-682h190v-141zM1456 1364l-844 -1364h-141l844 1364h141zM1491 -18q-157 0 -238.5 81t-81.5 242v184q0 163 84.5 254t245.5 91q80 0 140.5 -21t93 -56t48 -73.5t15.5 -81.5v-24h-168v12q0 45 -33 73.5
t-96 28.5q-82 0 -121 -47.5t-39 -130.5v-86q71 76 205 76q125 0 192.5 -60t67.5 -161v-35q0 -120 -82.5 -193t-232.5 -73zM1489 127q66 0 104.5 32t38.5 89v18q0 54 -36.5 85.5t-102.5 31.5q-65 0 -106 -30.5t-41 -82.5v-20q0 -59 39 -91t104 -32z" />
    <glyph glyph-name="oneeighth.alt" horiz-adv-x="1888" 
d="M692 553h-581v141h208v432h-219v140h103q86 0 122.5 25t47.5 85h129v-682h190v-141zM1456 1364l-844 -1364h-141l844 1364h141zM1511 838q151 0 232.5 -67.5t81.5 -170.5v-10q0 -121 -139 -178q149 -54 149 -189v-12q0 -106 -84 -168.5t-240 -62.5q-157 0 -240 62.5
t-83 168.5v12q0 135 147 189q-137 56 -137 178v10q0 103 81.5 170.5t231.5 67.5zM1511 696q-64 0 -102.5 -29t-38.5 -77v-21q0 -45 40 -73.5t101 -28.5t100.5 28.5t39.5 73.5v21q0 48 -38 77t-102 29zM1511 121q69 0 107.5 30t38.5 78v21q0 47 -40 75.5t-106 28.5
q-67 0 -107 -28.5t-40 -75.5v-21q0 -48 39 -78t108 -30z" />
    <glyph glyph-name="one.sup_alt" 
d="M692 606h-581v142h208v432h-219v139h103q86 0 122.5 25.5t47.5 85.5h129v-682h190v-142z" />
    <glyph glyph-name="one.inf_alt" 
d="M692 -322h-581v144h208v430h-219v139h103q85 0 122 26t48 87h129v-682h190v-144z" />
    <glyph glyph-name="zero.tab" horiz-adv-x="1196" 
d="M598 1395q243 0 376.5 -147.5t133.5 -411.5v-308q0 -263 -134 -411t-376 -148t-375 147.5t-133 411.5v312q0 263 133 409t375 146zM598 1190q-132 0 -202 -91.5t-70 -262.5v-306q0 -172 70 -263t202 -91q133 0 202.5 91t69.5 263v306q0 171 -69.5 262.5t-202.5 91.5z" />
    <glyph glyph-name="one.tab" horiz-adv-x="1196" 
d="M606 1374h176v-1179h365v-195h-993v195h391v815h-418v186h192q149 0 211 39t76 139z" />
    <glyph glyph-name="two.tab" horiz-adv-x="1196" 
d="M621 1395q233 0 348.5 -108t115.5 -286q0 -58 -9.5 -104t-34 -86t-53 -71t-80 -66t-101 -63t-129.5 -70q-180 -91 -241 -155.5t-62 -168.5h694v-217h-958v76q0 98 13 169.5t41 132.5t80.5 114t123.5 101.5t178 106.5q76 43 117 68t81 54t57 53.5t27.5 54.5t10.5 69
q0 93 -60.5 139t-169.5 46q-118 0 -184 -54.5t-66 -158.5v-74h-229v82q0 191 127 303.5t363 112.5z" />
    <glyph glyph-name="three.tab" horiz-adv-x="1196" 
d="M606 1393q226 0 346.5 -103.5t120.5 -263.5v-29q0 -111 -69 -192.5t-197 -110.5q274 -60 274 -303v-37q0 -163 -126.5 -273t-350.5 -110q-105 0 -189 20t-140 55.5t-93 86t-53 108.5t-16 126v67h229v-55q0 -92 63 -146.5t187 -54.5q116 0 181 52t65 145v33q0 94 -63 142
t-200 48h-133v180h133q129 0 194 50.5t65 138.5v28q0 91 -64 141t-178 50q-123 0 -186.5 -55.5t-63.5 -143.5v-57h-229v65q0 82 28.5 152t85.5 126t154 88t225 32z" />
    <glyph glyph-name="four.tab" horiz-adv-x="1196" 
d="M655 1364h301v-889h191v-190h-191v-285h-219v285h-678v174zM737 475v682l-452 -682h452z" />
    <glyph glyph-name="five.tab" horiz-adv-x="1196" 
d="M705 879q199 0 300 -102t101 -281v-82q0 -204 -129 -323.5t-367 -119.5q-129 0 -225.5 30.5t-153.5 85.5t-84.5 125.5t-27.5 156.5v24h229v-14q0 -97 67 -149t191 -52q117 0 187.5 58t70.5 174v67q0 102 -56 158.5t-171 56.5q-153 0 -299 -121l-195 35l52 758h884
q-11 -129 -41.5 -171t-126.5 -42h-514l-30 -399q149 127 338 127z" />
    <glyph glyph-name="six.tab" horiz-adv-x="1196" 
d="M602 -29q-244 0 -368.5 129t-124.5 375v377q0 254 132.5 397.5t381.5 143.5q122 0 214 -33t143.5 -88t76 -117.5t24.5 -130.5v-55h-227v28q0 93 -60.5 143t-168.5 50q-141 0 -214 -78t-73 -233v-183q51 61 136 105.5t206 44.5q196 0 305 -100.5t109 -272.5v-63
q0 -198 -131 -318.5t-361 -120.5zM602 172q115 0 185.5 56.5t70.5 172.5v45q0 114 -65.5 170t-184.5 56q-114 0 -189 -57t-75 -160v-52q0 -116 71 -173.5t187 -57.5z" />
    <glyph glyph-name="seven.tab" horiz-adv-x="1196" 
d="M606 0h-268q25 317 153 586t388 559h-787v219h1043v-137q-249 -301 -374.5 -588.5t-154.5 -638.5z" />
    <glyph glyph-name="eight.tab" horiz-adv-x="1196" 
d="M600 1395q231 0 354 -107.5t123 -277.5v-21q0 -105 -58 -182.5t-167 -118.5q244 -90 244 -317v-23q0 -174 -128.5 -276.5t-367.5 -102.5q-240 0 -369 102.5t-129 276.5v23q0 230 248 317q-109 42 -168 119t-59 182v21q0 171 122.5 278t354.5 107zM600 1200
q-114 0 -181 -53.5t-67 -149.5v-32q0 -95 68.5 -147t179.5 -52q110 0 178 52t68 147v32q0 95 -67 149t-179 54zM600 164q121 0 189.5 54.5t68.5 154.5v28q0 99 -69.5 153t-188.5 54q-121 0 -191.5 -54t-70.5 -153v-28q0 -100 69.5 -154.5t192.5 -54.5z" />
    <glyph glyph-name="nine.tab" horiz-adv-x="1196" 
d="M594 1395q243 0 367 -130t124 -372v-377q0 -257 -132.5 -401t-383.5 -144q-99 0 -178.5 22.5t-130.5 59t-85.5 85t-49 97.5t-14.5 99v43h225v-19q0 -88 61 -137t170 -49q289 0 289 313v162q-121 -149 -334 -149q-200 0 -310 100t-110 268v90q0 198 130 318.5t362 120.5z
M594 1192q-117 0 -187.5 -57t-70.5 -177v-63q0 -114 66.5 -169.5t185.5 -55.5q114 0 189 57.5t75 159.5v69q0 120 -71.5 178t-186.5 58z" />
    <glyph glyph-name="dollar.tab" horiz-adv-x="1196" 
d="M1083 379q0 -161 -101 -263t-277 -124v-211h-191v207q-202 21 -300.5 126.5t-98.5 274.5v57h231v-40q0 -107 65.5 -166.5t194.5 -59.5q116 0 179 45.5t63 132.5t-63 134.5t-240 107.5q-222 65 -316 151t-94 240q0 151 102.5 255.5t280.5 127.5v207h191v-209
q185 -22 272.5 -125.5t87.5 -263.5v-43h-227v41q0 92 -58 147.5t-184 55.5q-109 0 -169 -48t-60 -124q0 -85 60 -129.5t235 -102.5q116 -35 190.5 -70t127.5 -82t76 -107t23 -142z" />
    <glyph glyph-name="sterling.tab" horiz-adv-x="1196" 
d="M836 -31q-50 0 -96 13t-89 39t-72.5 48t-70.5 58q-40 -73 -105.5 -115.5t-142.5 -42.5q-109 0 -168 56.5t-59 150.5q0 92 61 152.5t170 60.5q71 0 154 -39q2 14 2 47q0 97 -47 203h-250v141h180q-70 151 -70 279q0 166 110.5 270.5t320.5 104.5q207 0 314 -107.5
t107 -290.5v-63h-213v39q0 105 -54 161t-152 56q-91 0 -146 -50t-55 -145q0 -16 1 -31.5t4 -31.5t5 -28t7.5 -29t8 -26t9.5 -27.5t10 -26t11.5 -28t10.5 -26.5h357v-141h-307q18 -81 18 -160q0 -99 -37 -180q72 -46 123.5 -70t104.5 -24q73 0 106 41.5t33 144.5v66h200v-80
q0 -187 -70 -278t-224 -91zM166 174q0 -41 25 -65.5t73 -24.5t84 33.5t53 97.5q-71 51 -135 51q-49 0 -74.5 -25t-25.5 -67z" />
    <glyph glyph-name="Euro.tab" horiz-adv-x="1196" 
d="M1108 401q0 -193 -115 -311.5t-331 -118.5q-229 0 -356 132.5t-136 385.5h-135v117h135v150h-135v118h135q9 251 137.5 385t356.5 134q220 0 332 -116t112 -314v-25h-217v20q0 104 -54.5 169t-170.5 65q-133 0 -197.5 -79t-69.5 -239h406v-118h-408v-150h408v-117h-406
q9 -317 267 -317q114 0 168.5 65t56.5 169v18h217v-23z" />
    <glyph glyph-name="yen.tab" horiz-adv-x="1196" 
d="M1075 236h-362v-236h-226v236h-368v133h368v131l-18 35h-350v131h284l-346 698h252l299 -645l297 645h240l-348 -698h278v-131h-344l-18 -35v-131h362v-133z" />
    <glyph glyph-name="cent.tab" horiz-adv-x="1196" 
d="M1034 539q0 -140 -85 -239.5t-240 -123.5v-188h-191v188q-169 28 -260.5 146.5t-91.5 306.5v106q0 186 93 305.5t259 147.5v186h191v-184q158 -24 241.5 -122.5t83.5 -242.5v-12h-219v6q0 77 -50.5 128.5t-146.5 51.5q-107 0 -163 -67t-56 -178v-144q0 -110 56 -176.5
t161 -66.5q95 0 147 51t52 127v6h219v-12z" />
    <glyph glyph-name="numbersign.tab" horiz-adv-x="1196" 
d="M639 0l49 356h-268l-47 -356h-166l47 356h-209v158h231l46 336h-226v158h248l47 356h168l-49 -356h266l49 356h166l-47 -356h207v-158h-229l-45 -336h225v-158h-248l-49 -356h-166zM442 514h267l47 336h-269z" />
    <glyph glyph-name="degree.tab" horiz-adv-x="1196" 
d="M598 1395q193 0 303.5 -108.5t110.5 -285.5t-111 -286t-303 -109q-191 0 -301.5 108t-110.5 287q0 176 110 285t302 109zM598 1239q-111 0 -171 -63.5t-60 -174.5q0 -113 61 -175t170 -62q112 0 171.5 61.5t59.5 175.5q0 111 -59.5 174.5t-171.5 63.5z" />
    <glyph glyph-name="percent.tab" horiz-adv-x="1796" 
d="M467 1391q142 0 225.5 -84.5t83.5 -227.5v-88q0 -143 -83.5 -227t-225.5 -84t-225.5 84t-83.5 227v88q0 142 83.5 227t225.5 85zM1550 1372l-1126 -1380h-180l1128 1380h178zM467 1249q-74 0 -111 -46.5t-37 -123.5v-88q0 -78 37.5 -124t110.5 -46t110 46t37 124v88
q0 77 -37 123.5t-110 46.5zM1327 -27q-141 0 -225 85t-84 227v88q0 142 84 226.5t225 84.5q144 0 227.5 -84t83.5 -227v-88q0 -143 -84.5 -227.5t-226.5 -84.5zM1327 115q74 0 111 46t37 124v88q0 78 -37 124t-111 46q-72 0 -108.5 -46t-36.5 -124v-88q0 -78 37 -124
t108 -46z" />
    <glyph glyph-name="quotedbl.tab" horiz-adv-x="1196" 
d="M330 1364h252l-203 -639h-152zM770 1364h252l-225 -639h-152z" />
    <glyph glyph-name="quotesingle.tab" horiz-adv-x="598" 
d="M242 1364h256l-195 -639h-156z" />
    <glyph glyph-name="period.tab" horiz-adv-x="598" 
d="M174 279h248v-279h-248v279z" />
    <glyph glyph-name="comma.tab" horiz-adv-x="598" 
d="M174 279h248v-207q0 -177 -70.5 -264.5t-218.5 -131.5v74q91 54 120.5 103t29.5 147h-109v279z" />
    <glyph glyph-name="colon.tab" horiz-adv-x="598" 
d="M174 965h248v-279h-248v279zM174 279h248v-279h-248v279z" />
    <glyph glyph-name="semicolon.tab" horiz-adv-x="598" 
d="M174 965h248v-279h-248v279zM174 279h248v-207q0 -177 -70.5 -264.5t-218.5 -131.5v74q91 54 120.5 103t29.5 147h-109v279z" />
    <glyph glyph-name="periodcentered.tab" horiz-adv-x="598" 
d="M174 823h248v-280h-248v280z" />
    <glyph glyph-name="slash.tab" horiz-adv-x="1196" 
d="M936 1561h201l-871 -1883h-200z" />
    <glyph glyph-name="bar.tab" horiz-adv-x="598" 
d="M205 1561h190v-1883h-190v1883z" />
    <glyph glyph-name="underscore.tab" horiz-adv-x="1196" 
d="M66 -168h1067v-154h-1067v154z" />
    <glyph glyph-name="plus.tab" horiz-adv-x="1196" 
d="M504 1130h192v-356h351v-184h-351v-357h-192v357h-354v184h354v356z" />
    <glyph glyph-name="minus.tab" horiz-adv-x="1196" 
d="M172 778h854v-190h-854v190z" />
    <glyph glyph-name="divide.tab" horiz-adv-x="1196" 
d="M489 1135h218v-203h-218v203zM162 770h874v-174h-874v174zM489 434h218v-205h-218v205z" />
    <glyph glyph-name="equal.tab" horiz-adv-x="1196" 
d="M186 983h828v-182h-828v182zM186 563h828v-182h-828v182z" />
    <glyph glyph-name="multiply.tab" horiz-adv-x="1196" 
d="M891 248l-293 299l-295 -301l-135 133l297 303l-297 303l137 133l293 -301l293 301l135 -133l-297 -301l299 -305z" />
    <glyph glyph-name="less.tab" horiz-adv-x="1196" 
d="M952 1165v-211l-557 -272l557 -272v-211l-790 393v180z" />
    <glyph glyph-name="greater.tab" horiz-adv-x="1196" 
d="M233 1165l789 -393v-180l-789 -393v211l555 272l-555 272v211z" />
    <glyph glyph-name="plusminus.tab" horiz-adv-x="1196" 
d="M510 1266h178v-326h324v-174h-324v-328h-178v328h-324v174h324v326zM186 285h826v-172h-826v172z" />
    <glyph glyph-name="onehalf.tab" horiz-adv-x="1796" 
d="M692 553h-581v141h208v432h-219v140h103q86 0 122.5 25t47.5 85h129v-682h190v-141zM1411 1364l-844 -1364h-141l844 1364h141zM1716 0h-610v47q0 140 56.5 218.5t221.5 164.5q107 57 137.5 85t30.5 77q0 98 -127 98q-71 0 -110 -31.5t-39 -89.5v-41h-166v50
q0 115 82.5 185.5t239.5 70.5q152 0 225.5 -64.5t73.5 -171.5q0 -90 -54 -147.5t-207 -139.5q-101 -52 -134 -82.5t-36 -76.5h416v-152z" />
    <glyph glyph-name="onethird.tab" horiz-adv-x="1796" 
d="M692 553h-581v141h208v432h-219v140h103q86 0 122.5 25t47.5 85h129v-682h190v-141zM1411 1364l-844 -1364h-141l844 1364h141zM1421 834q146 0 227 -63t81 -161v-16q0 -67 -45 -114t-125 -64q85 -15 130.5 -63t45.5 -124v-16q0 -100 -84 -165.5t-230 -65.5
q-162 0 -242.5 66.5t-80.5 176.5v45h166v-34q0 -52 39 -82.5t112 -30.5q65 0 103 27.5t38 76.5v21q0 50 -38 75t-121 25h-78v125h78q155 0 155 100v17q0 49 -37 76.5t-102 27.5q-72 0 -109.5 -31t-37.5 -79v-37h-166v45q0 106 81.5 174t239.5 68z" />
    <glyph glyph-name="twothirds.tab" horiz-adv-x="1796" 
d="M676 553h-610v45q0 142 56 220.5t220 162.5q108 57 139 85.5t31 78.5t-34.5 74t-92.5 24q-71 0 -110 -31.5t-39 -91.5v-39h-168v47q0 117 82.5 187.5t238.5 70.5q152 0 226.5 -64.5t74.5 -170.5q0 -92 -54.5 -149.5t-207.5 -137.5q-101 -53 -134 -83.5t-34 -78.5h416
v-149zM1401 1364l-844 -1364h-141l844 1364h141zM1421 834q146 0 227 -63t81 -161v-16q0 -67 -45 -114t-125 -64q85 -15 130.5 -63t45.5 -124v-16q0 -100 -84 -165.5t-230 -65.5q-162 0 -242.5 66.5t-80.5 176.5v45h166v-34q0 -52 39 -82.5t112 -30.5q65 0 103 27.5t38 76.5
v21q0 50 -38 75t-121 25h-78v125h78q155 0 155 100v17q0 49 -37 76.5t-102 27.5q-72 0 -109.5 -31t-37.5 -79v-37h-166v45q0 106 81.5 174t239.5 68z" />
    <glyph glyph-name="onequarter.tab" horiz-adv-x="1796" 
d="M692 553h-581v141h208v432h-219v140h103q86 0 122.5 25t47.5 85h129v-682h190v-141zM1462 1364l-844 -1364h-141l844 1364h141zM1425 817h222v-512h110v-135h-110v-170h-164v170h-422v131zM1483 305v377l-258 -377h258z" />
    <glyph glyph-name="threequarters.tab" horiz-adv-x="1796" 
d="M381 1386q146 0 226.5 -63t80.5 -162v-14q0 -67 -45 -115t-125 -65q176 -31 176 -187v-14q0 -102 -83.5 -166.5t-231.5 -64.5q-161 0 -241.5 66t-80.5 177v43h166v-35q0 -52 38 -81t112 -29q66 0 103.5 27.5t37.5 76.5v21q0 100 -158 100h-77v123h77q80 0 118 27.5
t38 74.5v17q0 49 -37 75.5t-102 26.5q-72 0 -111 -31t-39 -79v-37h-164v47q0 105 82 173t240 68zM1444 1364l-844 -1364h-141l844 1364h141zM1425 817h222v-512h110v-135h-110v-170h-164v170h-422v131zM1483 305v377l-258 -377h258z" />
    <glyph glyph-name="onefifth.tab" horiz-adv-x="1796" 
d="M692 553h-581v141h208v432h-219v140h103q86 0 122.5 25t47.5 85h129v-682h190v-141zM1407 1364l-844 -1364h-139l842 1364h141zM1157 817h559q-8 -92 -29.5 -122.5t-87.5 -30.5h-294l-17 -211q89 69 207 69q116 0 177 -58.5t61 -164.5v-49q0 -122 -80.5 -195t-233.5 -73
q-161 0 -234 65.5t-73 175.5v25h168v-12q0 -49 36 -81t101 -32t101 35.5t36 93.5v35q0 51 -30 82.5t-94 31.5q-93 0 -160 -67l-144 24z" />
    <glyph glyph-name="twofifths.tab" horiz-adv-x="1796" 
d="M676 553h-610v45q0 142 56 220.5t220 162.5q108 57 139 85.5t31 78.5t-34.5 74t-92.5 24q-71 0 -110 -31.5t-39 -91.5v-39h-168v47q0 117 82.5 187.5t238.5 70.5q152 0 226.5 -64.5t74.5 -170.5q0 -92 -54.5 -149.5t-207.5 -137.5q-101 -53 -134 -83.5t-34 -78.5h416
v-149zM1395 1364l-844 -1364h-141l843 1364h142zM1157 817h559q-8 -92 -29.5 -122.5t-87.5 -30.5h-294l-17 -211q89 69 207 69q116 0 177 -58.5t61 -164.5v-49q0 -122 -80.5 -195t-233.5 -73q-161 0 -234 65.5t-73 175.5v25h168v-12q0 -49 36 -81t101 -32t101 35.5t36 93.5
v35q0 51 -30 82.5t-94 31.5q-93 0 -160 -67l-144 24z" />
    <glyph glyph-name="threefifths.tab" horiz-adv-x="1796" 
d="M381 1386q146 0 226.5 -63t80.5 -162v-14q0 -67 -45 -115t-125 -65q176 -31 176 -187v-14q0 -102 -83.5 -166.5t-231.5 -64.5q-161 0 -241.5 66t-80.5 177v43h166v-35q0 -52 38 -81t112 -29q66 0 103.5 27.5t37.5 76.5v21q0 100 -158 100h-77v123h77q80 0 118 27.5
t38 74.5v17q0 49 -37 75.5t-102 26.5q-72 0 -111 -31t-39 -79v-37h-164v47q0 105 82 173t240 68zM1380 1364l-845 -1364h-140l844 1364h141zM1157 817h559q-8 -92 -29.5 -122.5t-87.5 -30.5h-294l-17 -211q89 69 207 69q116 0 177 -58.5t61 -164.5v-49q0 -122 -80.5 -195
t-233.5 -73q-161 0 -234 65.5t-73 175.5v25h168v-12q0 -49 36 -81t101 -32t101 35.5t36 93.5v35q0 51 -30 82.5t-94 31.5q-93 0 -160 -67l-144 24z" />
    <glyph glyph-name="fourfifths.tab" horiz-adv-x="1796" 
d="M385 1368h221v-510h111v-135h-111v-170h-164v170h-424v131zM1389 1364l-844 -1364h-142l844 1364h142zM442 858v375l-258 -375h258zM1157 817h559q-8 -92 -29.5 -122.5t-87.5 -30.5h-294l-17 -211q89 69 207 69q116 0 177 -58.5t61 -164.5v-49q0 -122 -80.5 -195
t-233.5 -73q-161 0 -234 65.5t-73 175.5v25h168v-12q0 -49 36 -81t101 -32t101 35.5t36 93.5v35q0 51 -30 82.5t-94 31.5q-93 0 -160 -67l-144 24z" />
    <glyph glyph-name="onesixth.tab" horiz-adv-x="1796" 
d="M692 553h-581v141h208v432h-219v140h103q86 0 122.5 25t47.5 85h129v-682h190v-141zM1425 1364l-843 -1364h-140l842 1364h141zM1419 -18q-155 0 -236 81t-81 242v184q0 164 84 254.5t244 90.5q80 0 140.5 -21t92.5 -56t47.5 -73.5t15.5 -81.5v-24h-167v12
q0 45 -32.5 73.5t-94.5 28.5q-84 0 -123 -47.5t-39 -130.5v-86q76 76 207 76q124 0 192 -60.5t68 -160.5v-35q0 -120 -83 -193t-235 -73zM1419 127q65 0 103.5 32t38.5 89v18q0 53 -37 85t-103 32q-65 0 -106 -30.5t-41 -82.5v-20q0 -59 39.5 -91t105.5 -32z" />
    <glyph glyph-name="fivesixths.tab" horiz-adv-x="1796" 
d="M117 1368h559q-8 -90 -30 -120.5t-89 -30.5h-293l-16 -211q94 69 207 69q114 0 174.5 -58.5t60.5 -164.5v-51q0 -121 -80 -193.5t-231 -72.5q-161 0 -235 65.5t-74 173.5v27h170v-15q0 -49 35 -79.5t102 -30.5q64 0 99.5 35t35.5 94v33q0 53 -30 83.5t-93 30.5
q-92 0 -162 -67l-143 24zM1401 1364l-844 -1364h-141l844 1364h141zM1419 -18q-155 0 -236 81t-81 242v184q0 164 84 254.5t244 90.5q80 0 140.5 -21t92.5 -56t47.5 -73.5t15.5 -81.5v-24h-167v12q0 45 -32.5 73.5t-94.5 28.5q-84 0 -123 -47.5t-39 -130.5v-86q76 76 207 76
q124 0 192 -60.5t68 -160.5v-35q0 -120 -83 -193t-235 -73zM1419 127q65 0 103.5 32t38.5 89v18q0 53 -37 85t-103 32q-65 0 -106 -30.5t-41 -82.5v-20q0 -59 39.5 -91t105.5 -32z" />
    <glyph glyph-name="oneeighth.tab" horiz-adv-x="1796" 
d="M692 553h-581v141h208v432h-219v140h103q86 0 122.5 25t47.5 85h129v-682h190v-141zM1413 1364l-844 -1364h-141l844 1364h141zM1417 838q151 0 232.5 -67.5t81.5 -170.5v-10q0 -121 -138 -178q148 -55 148 -189v-12q0 -106 -83.5 -168.5t-240.5 -62.5
q-156 0 -239.5 62.5t-83.5 168.5v12q0 135 149 189q-139 57 -139 178v10q0 103 81.5 170.5t231.5 67.5zM1417 696q-64 0 -101.5 -29t-37.5 -77v-21q0 -45 39 -73.5t100 -28.5q62 0 100.5 28t38.5 74v21q0 48 -37.5 77t-101.5 29zM1417 121q69 0 108.5 30t39.5 78v21
q0 47 -40.5 75.5t-107.5 28.5q-66 0 -106.5 -28.5t-40.5 -75.5v-21q0 -48 39 -78t108 -30z" />
    <glyph glyph-name="threeeighths.tab" horiz-adv-x="1796" 
d="M381 1386q146 0 226.5 -63t80.5 -162v-14q0 -67 -45 -115t-125 -65q176 -31 176 -187v-14q0 -102 -83.5 -166.5t-231.5 -64.5q-161 0 -241.5 66t-80.5 177v43h166v-35q0 -52 38 -81t112 -29q66 0 103.5 27.5t37.5 76.5v21q0 100 -158 100h-77v123h77q80 0 118 27.5
t38 74.5v17q0 49 -37 75.5t-102 26.5q-72 0 -111 -31t-39 -79v-37h-164v47q0 105 82 173t240 68zM1389 1364l-844 -1364h-142l844 1364h142zM1417 838q151 0 232.5 -67.5t81.5 -170.5v-10q0 -121 -138 -178q148 -55 148 -189v-12q0 -106 -83.5 -168.5t-240.5 -62.5
q-156 0 -239.5 62.5t-83.5 168.5v12q0 135 149 189q-139 57 -139 178v10q0 103 81.5 170.5t231.5 67.5zM1417 696q-64 0 -101.5 -29t-37.5 -77v-21q0 -45 39 -73.5t100 -28.5q62 0 100.5 28t38.5 74v21q0 48 -37.5 77t-101.5 29zM1417 121q69 0 108.5 30t39.5 78v21
q0 47 -40.5 75.5t-107.5 28.5q-66 0 -106.5 -28.5t-40.5 -75.5v-21q0 -48 39 -78t108 -30z" />
    <glyph glyph-name="fiveeighths.tab" horiz-adv-x="1796" 
d="M117 1368h559q-8 -90 -30 -120.5t-89 -30.5h-293l-16 -211q94 69 207 69q114 0 174.5 -58.5t60.5 -164.5v-51q0 -121 -80 -193.5t-231 -72.5q-161 0 -235 65.5t-74 173.5v27h170v-15q0 -49 35 -79.5t102 -30.5q64 0 99.5 35t35.5 94v33q0 53 -30 83.5t-93 30.5
q-92 0 -162 -67l-143 24zM1389 1364l-844 -1364h-142l844 1364h142zM1417 838q151 0 232.5 -67.5t81.5 -170.5v-10q0 -121 -138 -178q148 -55 148 -189v-12q0 -106 -83.5 -168.5t-240.5 -62.5q-156 0 -239.5 62.5t-83.5 168.5v12q0 135 149 189q-139 57 -139 178v10
q0 103 81.5 170.5t231.5 67.5zM1417 696q-64 0 -101.5 -29t-37.5 -77v-21q0 -45 39 -73.5t100 -28.5q62 0 100.5 28t38.5 74v21q0 48 -37.5 77t-101.5 29zM1417 121q69 0 108.5 30t39.5 78v21q0 47 -40.5 75.5t-107.5 28.5q-66 0 -106.5 -28.5t-40.5 -75.5v-21q0 -48 39 -78
t108 -30z" />
    <glyph glyph-name="seveneighths.tab" horiz-adv-x="1796" 
d="M66 1368h641v-96q-151 -169 -223 -336.5t-87 -382.5h-202q13 191 90.5 345t234.5 310h-454v160zM1309 1364l-844 -1364h-141l843 1364h142zM1417 838q151 0 232.5 -67.5t81.5 -170.5v-10q0 -121 -138 -178q148 -55 148 -189v-12q0 -106 -83.5 -168.5t-240.5 -62.5
q-156 0 -239.5 62.5t-83.5 168.5v12q0 135 149 189q-139 57 -139 178v10q0 103 81.5 170.5t231.5 67.5zM1417 696q-64 0 -101.5 -29t-37.5 -77v-21q0 -45 39 -73.5t100 -28.5q62 0 100.5 28t38.5 74v21q0 48 -37.5 77t-101.5 29zM1417 121q69 0 108.5 30t39.5 78v21
q0 47 -40.5 75.5t-107.5 28.5q-66 0 -106.5 -28.5t-40.5 -75.5v-21q0 -48 39 -78t108 -30z" />
    <glyph glyph-name="i.dot" horiz-adv-x="507" 
d="M129 1366h250v-213h-250v213zM135 979h238v-979h-238v979z" />
    <glyph glyph-name="fraction.tab" horiz-adv-x="286" 
d="M635 1364l-844 -1364h-141l844 1364h141z" />
    <glyph glyph-name="zero.num" 
d="M377 1391q154 0 242 -93t88 -258v-157q0 -167 -88 -260t-244 -93q-154 0 -242 93t-88 260v157q0 165 88 258t244 93zM377 1237q-75 0 -113.5 -51t-38.5 -148v-155q0 -97 38.5 -148t111.5 -51q153 0 153 199v155q0 97 -38 148t-113 51z" />
    <glyph glyph-name="one.num" horiz-adv-x="616" 
d="M307 1376h129v-823h-184v577h-180v136h75q76 0 112 25.5t48 84.5z" />
    <glyph glyph-name="one.num_alt" 
d="M692 553h-581v141h208v432h-219v140h103q86 0 122.5 25t47.5 85h129v-682h190v-141z" />
    <glyph glyph-name="two.num" 
d="M676 553h-610v45q0 142 56 220.5t220 162.5q108 57 139 85.5t31 78.5t-34.5 74t-92.5 24q-71 0 -110 -31.5t-39 -91.5v-39h-168v47q0 117 82.5 187.5t238.5 70.5q152 0 226.5 -64.5t74.5 -170.5q0 -92 -54.5 -149.5t-207.5 -137.5q-101 -53 -134 -83.5t-34 -78.5h416
v-149z" />
    <glyph glyph-name="three.num" 
d="M381 1386q146 0 226.5 -63t80.5 -162v-14q0 -67 -45 -115t-125 -65q176 -31 176 -187v-14q0 -102 -83.5 -166.5t-231.5 -64.5q-161 0 -241.5 66t-80.5 177v43h166v-35q0 -52 38 -81t112 -29q66 0 103.5 27.5t37.5 76.5v21q0 100 -158 100h-77v123h77q80 0 118 27.5
t38 74.5v17q0 49 -37 75.5t-102 26.5q-72 0 -111 -31t-39 -79v-37h-164v47q0 105 82 173t240 68z" />
    <glyph glyph-name="four.num" 
d="M385 1368h221v-510h111v-135h-111v-170h-164v170h-424v131zM442 858v375l-258 -375h258z" />
    <glyph glyph-name="five.num" 
d="M117 1368h559q-8 -90 -30 -120.5t-89 -30.5h-293l-16 -211q94 69 207 69q114 0 174.5 -58.5t60.5 -164.5v-51q0 -121 -80 -193.5t-231 -72.5q-161 0 -235 65.5t-74 173.5v27h170v-15q0 -49 35 -79.5t102 -30.5q64 0 99.5 35t35.5 94v33q0 53 -30 83.5t-93 30.5
q-92 0 -162 -67l-143 24z" />
    <glyph glyph-name="six.num" 
d="M379 532q-156 0 -238 82t-82 244v182q0 164 84.5 254t245.5 90q81 0 141 -20.5t92.5 -55.5t48 -73.5t15.5 -81.5v-23h-168v13q0 45 -33 72.5t-96 27.5q-160 0 -160 -176v-88q71 76 205 76q125 0 192.5 -60t67.5 -159v-35q0 -122 -82.5 -195.5t-232.5 -73.5zM377 678
q66 0 104.5 32t38.5 89v18q0 55 -36.5 87t-102.5 32t-107 -30.5t-41 -82.5v-22q0 -57 40 -90t104 -33z" />
    <glyph glyph-name="seven.num" 
d="M66 1368h641v-96q-151 -169 -223 -336.5t-87 -382.5h-202q13 191 90.5 345t234.5 310h-454v160z" />
    <glyph glyph-name="eight.num" 
d="M377 1389q151 0 232 -66.5t81 -171.5v-10q0 -122 -139 -176q149 -54 149 -191v-12q0 -104 -83.5 -167t-239.5 -63q-157 0 -240.5 62.5t-83.5 167.5v12q0 137 150 191q-140 53 -140 176v10q0 105 81.5 171.5t232.5 66.5zM377 1247q-64 0 -101.5 -29t-37.5 -77v-19
q0 -46 39 -74t100 -28t100 28t39 74v19q0 48 -37.5 77t-101.5 29zM377 672q69 0 108 30.5t39 79.5v21q0 46 -40.5 75t-106.5 29q-67 0 -107.5 -29t-40.5 -75v-21q0 -50 39 -80t109 -30z" />
    <glyph glyph-name="nine.num" 
d="M375 1389q157 0 238 -82t81 -244v-182q0 -165 -85 -255.5t-249 -90.5q-81 0 -142 20.5t-94.5 54.5t-49 73t-15.5 83v18h168v-6q0 -44 31 -73t102 -29q166 0 166 178v80q-71 -76 -211 -76q-123 0 -190.5 59.5t-67.5 157.5v43q0 123 83 197t235 74zM375 1241
q-65 0 -104.5 -33t-39.5 -88v-28q0 -51 38 -83t104 -32q65 0 107 31t42 82v26q0 59 -40.5 92t-106.5 33z" />
    <glyph glyph-name="zero.den" 
d="M377 838q154 0 242 -92t88 -257v-159q0 -166 -88 -258t-244 -92q-155 0 -242.5 92t-87.5 258v159q0 165 88 257t244 92zM377 684q-75 0 -113.5 -50.5t-38.5 -146.5v-155q0 -97 38.5 -148t111.5 -51q153 0 153 199v155q0 96 -38 146.5t-113 50.5z" />
    <glyph glyph-name="one.den" horiz-adv-x="616" 
d="M307 823h129v-823h-184v578h-180v135h75q75 0 111.5 26t48.5 84z" />
    <glyph glyph-name="one.den_alt" 
d="M692 0h-581v143h208v430h-219v140h103q85 0 122 26t48 86h129v-682h190v-143z" />
    <glyph glyph-name="two.den" 
d="M676 0h-610v47q0 140 56 218.5t220 164.5q108 57 139 85t31 77q0 50 -34.5 74t-92.5 24q-71 0 -110 -31.5t-39 -89.5v-41h-168v50q0 115 82.5 185.5t238.5 70.5q152 0 226.5 -65t74.5 -171q0 -90 -54.5 -147.5t-207.5 -139.5q-100 -53 -133.5 -83t-34.5 -76h416v-152z
" />
    <glyph glyph-name="three.den" 
d="M381 834q146 0 226.5 -63t80.5 -161v-16q0 -67 -45 -114t-125 -64q85 -15 130.5 -63t45.5 -124v-16q0 -100 -83.5 -165.5t-231.5 -65.5q-160 0 -241 66.5t-81 176.5v45h166v-34q0 -52 38.5 -82.5t111.5 -30.5q66 0 103.5 27.5t37.5 76.5v21q0 51 -37.5 75.5t-120.5 24.5
h-77v125h77q156 0 156 100v17q0 49 -37 76.5t-102 27.5q-72 0 -111 -31t-39 -79v-37h-164v45q0 106 82 174t240 68z" />
    <glyph glyph-name="four.den" 
d="M385 817h221v-512h111v-135h-111v-170h-164v170h-424v131zM442 305v377l-258 -377h258z" />
    <glyph glyph-name="five.den" 
d="M117 817h559q-8 -91 -30 -122t-89 -31h-293l-16 -211q89 69 207 69q114 0 174.5 -58.5t60.5 -164.5v-49q0 -122 -80 -195t-231 -73q-161 0 -235 65.5t-74 175.5v25h170v-12q0 -50 35.5 -81.5t101.5 -31.5q63 0 99 35.5t36 93.5v35q0 51 -30 82.5t-93 31.5q-92 0 -162 -67
l-143 24z" />
    <glyph glyph-name="six.den" 
d="M379 -18q-157 0 -238.5 81t-81.5 242v184q0 163 84.5 254t245.5 91q80 0 140.5 -21t93 -56t48 -73.5t15.5 -81.5v-24h-168v12q0 45 -33 73.5t-96 28.5q-82 0 -121 -47.5t-39 -130.5v-86q71 76 205 76q125 0 192.5 -60t67.5 -161v-35q0 -120 -82.5 -193t-232.5 -73z
M377 127q66 0 104.5 32t38.5 89v18q0 54 -36.5 85.5t-102.5 31.5t-107 -30.5t-41 -82.5v-20q0 -59 39.5 -91t104.5 -32z" />
    <glyph glyph-name="seven.den" 
d="M66 817h641v-98q-151 -168 -223 -335.5t-87 -383.5h-202q13 192 90.5 346.5t234.5 308.5h-454v162z" />
    <glyph glyph-name="eight.den" 
d="M377 838q150 0 231.5 -67.5t81.5 -170.5v-10q0 -121 -139 -178q149 -54 149 -189v-12q0 -106 -83.5 -168.5t-239.5 -62.5q-157 0 -240.5 62.5t-83.5 168.5v12q0 135 150 189q-140 56 -140 178v10q0 103 81.5 170.5t232.5 67.5zM377 696q-64 0 -101.5 -29t-37.5 -77v-21
q0 -45 39 -73.5t100 -28.5t100 28.5t39 73.5v21q0 48 -37.5 77t-101.5 29zM377 121q69 0 108 30t39 78v21q0 47 -40.5 75.5t-106.5 28.5q-67 0 -107.5 -28.5t-40.5 -75.5v-21q0 -48 39.5 -78t108.5 -30z" />
    <glyph glyph-name="nine.den" 
d="M375 836q157 0 238 -81.5t81 -242.5v-184q0 -165 -85 -254.5t-249 -89.5q-81 0 -142 20.5t-94.5 55t-49 73t-15.5 80.5v18h168v-6q0 -43 31 -71.5t102 -28.5q166 0 166 178v78q-71 -76 -211 -76q-123 0 -190.5 60.5t-67.5 158.5v43q0 122 83 195.5t235 73.5zM375 690
q-64 0 -104 -33.5t-40 -87.5v-28q0 -52 38 -83.5t104 -31.5q65 0 107 31t42 82v26q0 59 -40.5 92t-106.5 33z" />
    <glyph glyph-name="caron.alt" horiz-adv-x="1024" 
d="M422 1458h209l-105 -348h-120z" />
    <glyph glyph-name="acute.cap" horiz-adv-x="1021" 
d="M748 1898l-314 -348h-160l201 348h273z" />
    <glyph glyph-name="hungarumlaut.cap" horiz-adv-x="1021" 
d="M547 1898l-279 -348h-145l192 348h232zM899 1898l-281 -348h-143l193 348h231z" />
    <glyph glyph-name="grave.cap" horiz-adv-x="1021" 
d="M274 1898h275l199 -348h-160z" />
    <glyph glyph-name="circumflex.cap" horiz-adv-x="1024" 
d="M391 1880h244q51 -191 225 -266v-92q-110 19 -203.5 76t-142.5 126q-50 -69 -144 -126t-204 -76v92q174 75 225 266z" />
    <glyph glyph-name="caron.cap" horiz-adv-x="1024" 
d="M164 1911q109 -19 203 -76t145 -125q51 68 145 125t203 76v-92q-172 -73 -227 -267h-242q-55 194 -227 267v92z" />
    <glyph glyph-name="breve.cap" horiz-adv-x="1024" 
d="M512 1708q207 0 207 117q0 32 -8 73h90q24 -70 24 -133q0 -112 -85 -173.5t-228 -61.5t-228 61.5t-85 173.5q0 63 24 133h90q-8 -41 -8 -73q0 -117 207 -117z" />
    <glyph glyph-name="tilde.cap" horiz-adv-x="1021" 
d="M346 1872q57 0 101 -24t90 -66q5 -4 20.5 -18.5t21 -20t19 -16.5t21.5 -15.5t20 -10.5t23 -8.5t22 -2.5q35 0 54.5 24.5t19.5 67.5q0 20 -13 78h97q20 -68 20 -131q0 -93 -49 -150t-135 -57q-58 0 -103.5 24.5t-91.5 67.5q-4 4 -16 15t-16 14.5t-14.5 13t-16 13t-15 10.5
t-16 9.5t-15.5 6t-17 5t-17 1.5q-35 0 -54.5 -23.5t-19.5 -66.5q0 -17 13 -80h-97q-20 72 -20 133q0 92 49 149.5t135 57.5z" />
    <glyph glyph-name="macron.cap" horiz-adv-x="1024" 
d="M186 1737h652v-148h-652v148z" />
    <glyph glyph-name="dieresis.cap" horiz-adv-x="1024" 
d="M213 1784h209v-228h-209v228zM602 1784h209v-228h-209v228z" />
    <glyph glyph-name="dotaccent.cap" horiz-adv-x="1021" 
d="M387 1767h250v-211h-250v211z" />
    <glyph glyph-name="ring.cap" horiz-adv-x="1024" 
d="M512 1952q111 0 178.5 -63.5t67.5 -155.5q0 -93 -67.5 -157.5t-178.5 -64.5t-178.5 64t-67.5 158q0 92 67.5 155.5t178.5 63.5zM512 1860q-64 0 -102.5 -36.5t-38.5 -90.5t38.5 -91.5t102.5 -37.5t102.5 37.5t38.5 91.5q0 53 -38.5 90t-102.5 37z" />
    <glyph glyph-name="commaaccent.rot" horiz-adv-x="1024" 
d="M381 1151v207q0 111 67.5 182t190.5 96v-63q-70 -21 -111.5 -73.5t-40.5 -127.5h117v-221h-223z" />
    </font>
</defs>
</svg>
