<?xml version="1.0" standalone="no"?>
<!DOCTYPE svg PUBLIC "-//W3C//DTD SVG 1.1//EN" "http://www.w3.org/Graphics/SVG/1.1/DTD/svg11.dtd" >
<svg xmlns="http://www.w3.org/2000/svg" xmlns:xlink="http://www.w3.org/1999/xlink" version="1.1">
<metadata>
Created by FontForge 20201107 at Thu Apr  9 13:33:17 2015
 By 
Copyright (c) 2013 by Intelligent Design - Kostas Bartsokas. All rights reserved.
</metadata>
<defs>
<font id="ZonaBlack-Black" horiz-adv-x="500" >
  <font-face 
    font-family="Zona  Black"
    font-weight="400"
    font-stretch="normal"
    units-per-em="1000"
    panose-1="2 11 10 3 9 5 0 2 0 4"
    ascent="800"
    descent="-200"
    x-height="545"
    cap-height="705"
    bbox="-318 -198 1258 932"
    underline-thickness="20"
    underline-position="-133"
    unicode-range="U+000D-FB04"
  />
<missing-glyph 
 />
    <glyph glyph-name="f_igrave" unicode="f&#xec;" horiz-adv-x="676" 
d="M406 656q-53 0 -80.5 -12t-40 -29.5t-14 -36.5t-1.5 -33h354v-545h-189v396h-165v-399q0 -44 -13.5 -77.5t-36.5 -56t-54 -33.5t-67 -11q-32 0 -57.5 3t-42.5 8v144h9q27 0 42 5t22 18.5t8 36.5t1 58v304h-63v149h63v41q0 45 13.5 78.5t36.5 56t54.5 33.5t66.5 11
t78 -0.5t81 -0.5q44 -1 87 -1l99 -174h-111l-77 66q-1 0 -1 0.5t-1 0.5h-1z" />
    <glyph glyph-name="f_f" unicode="ff" horiz-adv-x="808" 
d="M799 607q-12 1 -22.5 1.5t-19.5 0.5q-30 0 -46.5 -4.5t-24 -13t-8.5 -20.5t-1 -26h123v-149h-123v-380q0 -44 -13.5 -77.5t-36.5 -56t-54 -33.5t-67 -11q-32 0 -57.5 3t-42.5 8v144h9q27 0 42 5t22 18.5t8 36.5t1 58v285h-214v-399q0 -44 -13.5 -77.5t-36.5 -56
t-54 -33.5t-67 -11q-32 0 -57.5 3t-42.5 8v144h9q27 0 42 5t22 18.5t8 36.5t1 58v304h-63v149h63v17q0 45 13.5 78.5t36.5 56t54.5 33.5t66.5 11t62 -3.5t44 -8.5q20 -5 34 -12v-134q-26 2 -44 3t-32 1q-17 0 -26.5 -2t-14 -7t-5 -13t-0.5 -20h214v41q0 45 13.5 78.5
t36.5 56t54.5 33.5t66.5 11t62 -3.5t44 -8.5q20 -5 34 -12v-134z" />
    <glyph glyph-name="f_i" unicode="fi" horiz-adv-x="682" 
d="M529 581q-21 0 -40 8t-33.5 22t-22.5 33t-8 40t8 40t22.5 33t33.5 22t40 8t40 -8t33 -22t22 -33t8 -40t-8 -40t-22 -33t-33 -22t-40 -8zM392 607q-12 1 -22.5 1.5t-19.5 0.5q-30 0 -46.5 -4.5t-24 -13t-8.5 -20.5t-1 -26h354v-545h-189v396h-165v-399q0 -44 -13.5 -77.5
t-36.5 -56t-54 -33.5t-67 -11q-32 0 -57.5 3t-42.5 8v144h9q27 0 42 5t22 18.5t8 36.5t1 58v304h-63v149h63v41q0 45 13.5 78.5t36.5 56t54.5 33.5t66.5 11t62 -3.5t44 -8.5q20 -5 34 -12v-134z" />
    <glyph glyph-name="f_l" unicode="fl" horiz-adv-x="704" 
d="M357 765q46 0 94.5 -10.5t88.5 -36t65 -67.5t25 -105v-546h-189v491q0 42 -6 67t-16.5 38t-26.5 17t-35 4q-17 0 -32 -2.5t-26 -10t-18 -22t-7 -37.5h121v-149h-121v-399q0 -44 -13.5 -77.5t-36.5 -56t-54 -33.5t-67 -11q-33 0 -58 3t-42 8v144h9q27 0 42 5t22 18.5
t8 36.5t1 58v304h-63v149h63q0 45 15 85t48 70t84.5 47.5t124.5 17.5z" />
    <glyph glyph-name="f_f_i" unicode="ffi" horiz-adv-x="1108" 
d="M958 581q-21 0 -40 8t-33.5 22t-22.5 33t-8 40t8 40t22.5 33t33.5 22t40 8t40 -8t33 -22t22 -33t8 -40t-8 -40t-22 -33t-33 -22t-40 -8zM864 396h-187v-380q0 -44 -13.5 -77.5t-36.5 -56t-54 -33.5t-67 -11q-32 0 -57.5 3t-42.5 8v144h9q27 0 42 5t22 18.5t8 36.5t1 58
v285h-214v-399q0 -44 -13.5 -77.5t-36.5 -56t-54 -33.5t-67 -11q-32 0 -57.5 3t-42.5 8v144h9q27 0 42 5t22 18.5t8 36.5t1 58v304h-63v149h63v17q0 45 13.5 78.5t36.5 56t54.5 33.5t66.5 11t62 -3.5t44 -8.5q20 -5 34 -12v-134q-26 2 -44 3t-32 1q-17 0 -26.5 -2t-14 -7
t-5 -13t-0.5 -20h214v41q0 45 13.5 78.5t36.5 56t54.5 33.5t66.5 11t62 -3.5t44 -8.5q20 -5 34 -12v-134q-12 1 -22.5 1.5t-19.5 0.5q-30 0 -46.5 -4.5t-24 -13t-8.5 -20.5t-1 -26h376v-545h-189v396z" />
    <glyph glyph-name="f_f_l" unicode="ffl" horiz-adv-x="1087" 
d="M760 765q46 0 94.5 -10.5t88.5 -36t65 -67.5t25 -105v-546h-189v491q0 38 -6 62.5t-16.5 38.5t-26.5 19.5t-35 5.5q-17 0 -32 -2.5t-26 -10t-18 -22t-7 -37.5h121v-149h-121v-380q0 -44 -13.5 -77.5t-36.5 -56t-54 -33.5t-67 -11q-33 0 -58 3t-42 8v144h9q27 0 42 5
t22 18.5t8 36.5t1 58v285h-214v-399q0 -44 -13.5 -77.5t-36.5 -56t-54 -33.5t-67 -11q-32 0 -57.5 3t-42.5 8v144h9q27 0 42 5t22 18.5t8 36.5t1 58v304h-63v149h63v17q0 45 13.5 78.5t36.5 56t54.5 33.5t66.5 11t62 -3.5t44 -8.5q20 -5 34 -12v-134q-26 2 -44 3t-32 1
q-17 0 -26.5 -2t-14 -7t-5 -13t-0.5 -20h214q0 45 15 85t48 70t84.5 47.5t124.5 17.5z" />
    <glyph glyph-name=".notdef" 
 />
    <glyph glyph-name=".null" horiz-adv-x="0" 
 />
    <glyph glyph-name=".null" horiz-adv-x="0" 
 />
    <glyph glyph-name="nonmarkingreturn" unicode="&#xd;" horiz-adv-x="277" 
 />
    <glyph glyph-name="space" unicode=" " horiz-adv-x="277" 
 />
    <glyph glyph-name="exclam" unicode="!" horiz-adv-x="324" 
d="M96 260l-31 444h195l-31 -444h-133zM162 196q22 0 41 -8t33 -22t22 -33t8 -40t-8 -40t-22 -33t-33 -22t-41 -8q-21 0 -40 8t-33 22t-22 33t-8 40t8 40t22 33t33 22t40 8z" />
    <glyph glyph-name="quotedbl" unicode="&#x22;" horiz-adv-x="537" 
d="M313 700h204l-127 -359h-100zM56 700h204l-127 -359h-99z" />
    <glyph glyph-name="numbersign" unicode="#" horiz-adv-x="706" 
d="M675 567v-156h-121l-18 -110h108v-156h-134l-25 -153h-137l25 153h-110l-25 -153h-138l26 153h-96v156h121l19 110h-109v156h135l23 140h137l-23 -140h110l23 140h137l-23 -140h95zM417 411h-110l-18 -110h110z" />
    <glyph glyph-name="dollar" unicode="$" horiz-adv-x="666" 
d="M385 435q58 -13 104 -30.5t78 -42.5t49.5 -60t17.5 -84q0 -50 -18 -90t-50.5 -69t-78.5 -46.5t-102 -21.5v-62h-80v62q-37 1 -68.5 5t-62 11.5t-62 20t-68.5 30.5l71 144q51 -24 97 -35t93 -14v119q-53 12 -98.5 28t-79 40.5t-52.5 60.5t-19 89q0 47 17 86.5t49.5 69
t78.5 47.5t104 21v39h80v-41q69 -6 123 -22t101 -34l-79 -148q-33 12 -70.5 23t-74.5 16v-112zM252 506q0 -17 11 -28t42 -22v96q-27 -3 -40 -15.5t-13 -30.5zM438 199q0 17 -11 28.5t-42 22.5v-97q53 8 53 46z" />
    <glyph glyph-name="percent" unicode="%" horiz-adv-x="899" 
d="M397 516q0 -47 -14 -84t-39 -62.5t-58 -39t-70 -13.5q-38 0 -70.5 13.5t-57.5 39t-39 62.5t-14 84t14 84t39 62.5t57.5 39t70.5 13.5q37 0 70 -13.5t58 -39t39 -62.5t14 -84zM157 516q0 -34 17.5 -57.5t41.5 -23.5q25 0 42 23.5t17 57.5q0 35 -17 58.5t-42 23.5
q-24 0 -41.5 -23.5t-17.5 -58.5zM683 387q37 0 70 -13.5t58 -39t39 -62.5t14 -84t-14 -83.5t-39 -62t-58 -39t-70 -13.5q-38 0 -70.5 13.5t-57.5 39t-39 62t-14 83.5t14 84t39 62.5t57.5 39t70.5 13.5zM683 107q25 0 42 23.5t17 57.5q0 35 -17 58.5t-42 23.5t-42 -23.5
t-17 -58.5q0 -34 17 -57.5t42 -23.5zM756 701l-483 -701h-135l483 701h135z" />
    <glyph glyph-name="ampersand" unicode="&#x26;" horiz-adv-x="698" 
d="M681 324q-12 -22 -26 -48q-13 -22 -30 -50t-40 -57l80 -80l-113 -100l-69 71q-38 -31 -81.5 -50.5t-91.5 -19.5q-60 0 -112.5 13.5t-91.5 41t-61.5 68.5t-22.5 96q0 60 38.5 110t101.5 79q-44 47 -44 116q0 53 17 91.5t46 63t67.5 36.5t82.5 12t83 -13.5t68 -37.5t46 -58
t17 -75q0 -29 -10 -57.5t-28.5 -53.5t-43.5 -45.5t-55 -32.5l77 -76q17 20 34 48t28 47zM331 587q-24 0 -40.5 -23t-16.5 -56q0 -17 7 -30t15 -22q10 -11 22 -18q19 7 35 17q14 8 25 21t11 32q0 33 -17 56t-41 23zM310 134q45 0 75 27l-123 127q-24 -11 -38.5 -30t-14.5 -42
q0 -17 8 -32t21.5 -26t32 -17.5t39.5 -6.5z" />
    <glyph glyph-name="quotesingle" unicode="'" horiz-adv-x="284" 
d="M56 700h208l-127 -359h-103z" />
    <glyph glyph-name="parenleft" unicode="(" horiz-adv-x="445" 
d="M226 296q0 -106 47.5 -188t131.5 -139l-62 -100q-67 34 -121 78t-92.5 98t-59 116.5t-20.5 134.5q0 71 20.5 134t59 116.5t92.5 98t121 78.5l62 -100q-84 -57 -131.5 -139t-47.5 -188z" />
    <glyph glyph-name="parenright" unicode=")" horiz-adv-x="445" 
d="M221 296q0 106 -47.5 188t-131.5 139l62 100q67 -34 121 -78.5t92.5 -98t59 -116.5t20.5 -134q0 -72 -20.5 -134.5t-59 -116.5t-92.5 -98t-121 -78l-62 100q84 57 131.5 139t47.5 188z" />
    <glyph glyph-name="asterisk" unicode="*" horiz-adv-x="425" 
d="M349 395l-96 62l5 -115h-88l6 115l-97 -62l-44 76l102 52l-102 53l44 76l97 -62l-6 115h88l-6 -115l97 62l44 -76l-102 -52l102 -53z" />
    <glyph glyph-name="plus" unicode="+" horiz-adv-x="640" 
d="M577 294h-178v-178h-156v178h-178v156h178v178h156v-178h178v-156z" />
    <glyph glyph-name="comma" unicode="," horiz-adv-x="284" 
d="M143 196q45 0 74 -30t29 -90q0 -32 -6.5 -68.5t-27.5 -68.5t-60 -53t-103 -21l-27 77q54 0 75 14t26 35q-36 8 -59.5 36t-23.5 66q0 21 8 40t22 33t33 22t40 8z" />
    <glyph glyph-name="hyphen" unicode="-" horiz-adv-x="408" 
d="M368 255h-328v156h328v-156z" />
    <glyph glyph-name="period" unicode="." horiz-adv-x="284" 
d="M246 93q0 -22 -8 -41t-22.5 -33t-33.5 -22t-40 -8t-40 8t-33 22t-22 33t-8 41q0 21 8 40t22 33t33 22t40 8t40 -8t33.5 -22t22.5 -33t8 -40z" />
    <glyph glyph-name="slash" unicode="/" horiz-adv-x="535" 
d="M405 798h154l-443 -926h-154z" />
    <glyph glyph-name="zero" unicode="0" horiz-adv-x="730" 
d="M366 714q67 0 126 -24.5t103 -71t69.5 -113.5t25.5 -153t-25.5 -153t-69.5 -113.5t-103 -71t-126 -24.5t-126 24.5t-103 71t-69.5 113.5t-25.5 153t25.5 153t69.5 113.5t103 71t126 24.5zM366 165q27 0 50.5 14.5t41 40t27.5 59.5t10 73t-10 73t-27.5 59.5t-41 40
t-50.5 14.5t-50.5 -14.5t-41 -40t-27.5 -59.5t-10 -73t10 -73t27.5 -59.5t41 -40t50.5 -14.5z" />
    <glyph glyph-name="one" unicode="1" horiz-adv-x="422" 
d="M355 705v-705h-195v521l-111 -24l-38 151l257 57h87z" />
    <glyph glyph-name="two" unicode="2" horiz-adv-x="624" 
d="M588 161v-161h-554v67q44 57 89 95t86.5 65t77.5 48t62.5 43t41.5 49.5t15 68.5q0 22 -8 41.5t-21.5 34t-32 23t-39.5 8.5q-12 0 -29.5 -5t-33.5 -17.5t-27 -33.5t-11 -53h-169v16q0 57 22 106t59.5 84t87.5 55t105 20t104.5 -20.5t87 -56t60 -84t22.5 -105.5
q0 -67 -19 -113.5t-48 -78.5t-65 -54.5t-70 -41.5h207z" />
    <glyph glyph-name="three" unicode="3" horiz-adv-x="621" 
d="M414 414q37 -12 69 -28.5t55 -40t36 -55t13 -73.5q0 -54 -20.5 -96t-57.5 -71.5t-89 -45t-116 -15.5q-42 0 -76.5 2t-66 7.5t-62.5 15.5t-65 26l70 146q54 -21 104 -28.5t103 -7.5q39 0 63 20.5t24 43.5v4q0 6 -3 19t-15.5 26.5t-37.5 24t-69 10.5h-72l-34 81l130 164
h-229v161h505v-85z" />
    <glyph glyph-name="four" unicode="4" horiz-adv-x="689" 
d="M666 290v-156h-89v-134h-188v134h-348l-34 81l420 490h150v-415h89zM389 432l-122 -142h122v142z" />
    <glyph glyph-name="five" unicode="5" horiz-adv-x="630" 
d="M365 458q54 0 96 -18t71 -50t44 -76.5t15 -96.5q0 -54 -20.5 -96t-57.5 -71.5t-89 -45t-116 -15.5q-42 0 -76.5 2t-66 7.5t-62.5 15.5t-65 26l70 146q54 -21 104.5 -28.5t102.5 -7.5q19 0 35.5 7t27.5 18t17.5 24t6.5 25q2 25 -8 45q-8 17 -28 31.5t-61 14.5
q-23 0 -50.5 -2.5t-50.5 -4.5q-27 -4 -55 -7l-77 43l10 360h478v-161h-315l-3 -96q25 5 55 8t68 3z" />
    <glyph glyph-name="six" unicode="6" horiz-adv-x="662" 
d="M393 459q35 0 74.5 -12t73.5 -39t56 -71t22 -107q0 -58 -22.5 -102.5t-62 -75t-92 -46.5t-112.5 -16t-112.5 24t-91.5 66.5t-62 101t-23 127.5q0 111 23 188.5t63.5 126t95 70t118.5 21.5q83 0 141.5 -20.5t109.5 -54.5l-83 -137q-30 23 -70 37t-86 14q-33 0 -54.5 -15
t-34.5 -37t-18.5 -47.5t-5.5 -46.5v-6q23 23 64.5 40t88.5 17zM330 329q-21 0 -39 -7.5t-31.5 -20.5t-21.5 -30.5t-8 -37.5t8 -37.5t21.5 -30.5t31.5 -20.5t39 -7.5t39 7.5t31.5 20.5t21.5 30.5t8 37.5t-8 37.5t-21.5 30.5t-31.5 20.5t-39 7.5z" />
    <glyph glyph-name="seven" unicode="7" horiz-adv-x="614" 
d="M585 705v-85l-311 -620h-210l275 544h-293v161h539z" />
    <glyph glyph-name="eight" unicode="8" horiz-adv-x="630" 
d="M500 377q48 -31 75.5 -74t27.5 -94q0 -55 -22.5 -96t-61.5 -68.5t-91.5 -41t-112.5 -13.5t-112.5 13.5t-91.5 41t-61.5 68.5t-22.5 96q0 51 27.5 94t75.5 74q-30 27 -47 61.5t-17 74.5q0 52 19.5 90.5t53.5 63t79.5 36.5t96.5 12q52 0 97.5 -12t79.5 -36.5t53.5 -63
t19.5 -90.5q0 -40 -17.5 -74.5t-47.5 -61.5zM315 586q-33 0 -57 -23t-24 -56t24 -56t57 -23q34 0 57.5 23t23.5 56t-23.5 56t-57.5 23zM315 134q42 0 71.5 23.5t29.5 57.5q0 17 -8 32t-21.5 26t-32 17.5t-39.5 6.5t-39 -6.5t-32 -17.5t-22 -26t-8 -32t8 -31.5t22 -25.5
t32 -17.5t39 -6.5z" />
    <glyph glyph-name="nine" unicode="9" horiz-adv-x="662" 
d="M267 246q-35 0 -74.5 12t-73 39t-56 70.5t-22.5 106.5q0 58 22.5 103t62 75.5t92 46.5t112.5 16t112.5 -24t92 -66.5t62 -101t22.5 -127.5q0 -111 -23 -188.5t-63 -126t-94.5 -70t-118.5 -21.5q-83 0 -142 20t-110 55l84 137q30 -23 69.5 -37t85.5 -14q33 0 55 15.5
t35 38t18.5 48.5t5.5 47v3q-23 -23 -65 -40t-89 -17zM330 376q21 0 39 7.5t31.5 20.5t21.5 30.5t8 37.5t-8 37.5t-21.5 30.5t-31.5 20.5t-39 7.5t-39 -7.5t-31.5 -20.5t-21.5 -30.5t-8 -37.5t8 -37.5t21.5 -30.5t31.5 -20.5t39 -7.5z" />
    <glyph glyph-name="colon" unicode=":" horiz-adv-x="294" 
d="M146 340q-21 0 -40 8t-33 22t-22 33t-8 40t8 40t22 33t33 22t40 8q22 0 41 -8t33 -22t22 -33t8 -40t-8 -40t-22 -33t-33 -22t-41 -8zM146 196q22 0 41 -8t33 -22t22 -33t8 -40q0 -44 -30 -74t-74 -30q-21 0 -40 8t-33 22t-22 33t-8 41q0 21 8 40t22 33t33 22t40 8z" />
    <glyph glyph-name="semicolon" unicode=";" horiz-adv-x="294" 
d="M146 340q-21 0 -40 8t-33 22t-22 33t-8 40t8 40t22 33t33 22t40 8t40 -8t33.5 -22t22.5 -33t8 -40t-8 -40t-22.5 -33t-33.5 -22t-40 -8zM146 196q45 0 74.5 -30t29.5 -90q0 -32 -6.5 -68.5t-27.5 -68.5t-60 -53t-104 -21l-26 77q27 0 45 3.5t29.5 10.5t17.5 15.5t8 19.5
q-35 8 -59 36t-24 66q0 21 8 40t22 33t33 22t40 8z" />
    <glyph glyph-name="less" unicode="&#x3c;" horiz-adv-x="644" 
d="M562 461l-243 -110l243 -109v-177l-497 243v86l497 244v-177z" />
    <glyph glyph-name="equal" unicode="=" horiz-adv-x="639" 
d="M564 588v-157h-491v157h491zM73 305h491v-157h-491v157z" />
    <glyph glyph-name="greater" unicode="&#x3e;" horiz-adv-x="644" 
d="M82 242l243 109l-243 110v177l497 -244v-86l-497 -243v177z" />
    <glyph glyph-name="question" unicode="?" horiz-adv-x="540" 
d="M262 715q58 0 105 -15.5t81 -45t52.5 -72.5t18.5 -97q0 -39 -14 -74t-41 -61.5t-68 -41.5t-95 -15l-5 -59h-133l-10 129l16 43h65q26 0 44.5 4.5t31.5 12.5q16 9 23.5 20t10.5 22q4 12 3 25q0 14 -7.5 27t-21.5 22q-10 7 -22.5 11t-27.5 4q-32 0 -63.5 -3.5t-63.5 -11.5
q-29 -7 -61 -21l-63 146q31 16 59.5 26t57 15.5t59.5 7.5t69 2zM229 196q22 0 41 -8t33 -22t22 -33t8 -40q0 -44 -30 -74t-74 -30q-21 0 -40 8t-33 22t-22 33t-8 41q0 21 8 40t22 33t33 22t40 8z" />
    <glyph glyph-name="at" unicode="@" horiz-adv-x="965" 
d="M486 724q91 0 171 -34.5t139.5 -93.5t94 -138.5t34.5 -170.5q0 -66 -27.5 -120t-78.5 -85q-15 -9 -32 -16q-38 -15 -84 -15q-54 0 -89.5 23.5t-49.5 58.5q-26 -36 -63.5 -56.5t-82.5 -20.5q-48 0 -85 17.5t-62 47t-38 67t-13 76.5q0 8 0.5 15.5t1.5 15.5q7 55 27.5 99
t50.5 75.5t67.5 48.5t78.5 17h10t10 -1q40 -4 68 -26t45 -54l9 61l150 -23l-31 -202q-3 -22 -5 -36.5t-3 -24.5t-1.5 -16.5t-0.5 -12.5q0 -30 10.5 -51.5t41.5 -21.5q13 0 28.5 5.5t30 17.5t27 31.5t19.5 47.5q2 14 3 28t1 28q0 77 -29 144.5t-79.5 118t-118.5 80t-145 29.5
t-144.5 -29.5t-118 -80t-80 -118t-29.5 -144.5t29.5 -145t80 -118.5t118 -79.5t144.5 -29q69 0 130 23t110 64l48 -48q-58 -51 -131.5 -79t-156.5 -28q-91 0 -171 34.5t-140 94.5t-94.5 140t-34.5 171t34.5 171t94.5 139.5t140 94t171 34.5zM533 303q0 32 -18.5 53.5
t-47.5 21.5q-30 0 -53.5 -24t-26.5 -59v-8q0 -32 18 -53.5t47 -21.5q31 0 54.5 24t26.5 59v8z" />
    <glyph glyph-name="A" unicode="A" horiz-adv-x="795" 
d="M533 117h-272l-51 -117h-204l345 705h92l346 -705h-204zM330 273h135l-68 153z" />
    <glyph glyph-name="B" unicode="B" horiz-adv-x="715" 
d="M499 443q40 -6 74.5 -25.5t60 -48.5t40 -66.5t14.5 -79.5q0 -44 -13.5 -84.5t-40.5 -71t-67 -49t-92 -18.5h-413v705h338q31 0 58.5 -12t47.5 -32t32 -47t12 -58q0 -34 -14 -63t-37 -50zM251 462h74q28 0 41 12t13 29t-12.5 29t-41.5 12h-74v-82zM364 161q67 0 93.5 22
t26.5 61q0 15 -6.5 29.5t-21 26t-37 18.5t-54.5 7h-113v-164h112z" />
    <glyph glyph-name="C" unicode="C" horiz-adv-x="730" 
d="M413 166q45 0 82 22t60 60l150 -123q-52 -63 -127.5 -99t-164.5 -36q-78 0 -146 28.5t-119 77.5t-80.5 115t-29.5 141t29.5 141t80.5 115.5t119 78t146 28.5q89 0 164.5 -36.5t127.5 -99.5l-150 -123q-23 38 -60 60t-82 22q-36 0 -67.5 -12.5t-55 -36.5t-37.5 -58.5
t-14 -78.5q0 -43 14 -77.5t37.5 -58.5t55 -37t67.5 -13z" />
    <glyph glyph-name="D" unicode="D" horiz-adv-x="765" 
d="M727 352q0 -70 -26 -132t-71 -109.5t-105.5 -77t-129.5 -33.5h-333v705h310q73 0 138 -27.5t113 -75.5t76 -112.5t28 -137.5zM378 171q33 1 61.5 16t49.5 39.5t33.5 57t12.5 68.5q0 37 -13 70.5t-35 58t-51.5 39t-63.5 14.5h-121v-363h127z" />
    <glyph glyph-name="E" unicode="E" horiz-adv-x="667" 
d="M630 161v-161h-568v705h547v-161h-358v-124h296v-156h-296v-103h379z" />
    <glyph glyph-name="F" unicode="F" horiz-adv-x="648" 
d="M251 544v-226h316v-161h-316v-157h-189v705h560v-161h-371z" />
    <glyph glyph-name="G" unicode="G" horiz-adv-x="769" 
d="M723 364v-270q-40 -32 -89 -56t-106 -36q-54 -12 -113 -12q-78 0 -146.5 28.5t-120 77.5t-81 115t-29.5 141t29.5 141t81 115t120 77.5t146.5 28.5q89 0 160.5 -27t122.5 -75l-121 -130q-30 27 -72 42t-90 15q-37 0 -69.5 -14.5t-57 -40t-38.5 -59.5t-14 -73
q0 -42 14 -78t38.5 -62.5t57 -41.5t69.5 -15q32 0 60 8.5t53 24.5v20h-127v156h322z" />
    <glyph glyph-name="H" unicode="H" horiz-adv-x="761" 
d="M699 705v-705h-189v155h-259v-155h-189v705h189v-389h259v389h189z" />
    <glyph glyph-name="I" unicode="I" horiz-adv-x="327" 
d="M261 0h-195v705h195v-705z" />
    <glyph glyph-name="J" unicode="J" horiz-adv-x="564" 
d="M511 705v-417q0 -71 -13.5 -120.5t-38 -83t-58 -53t-72.5 -31.5q-33 -10 -73 -10q-50 0 -94 18t-77.5 49.5t-54.5 73.5t-25 91l166 15q7 -32 26 -52t53 -20q13 0 25 5.5t21 14.5t14.5 21t5.5 25v474h195z" />
    <glyph glyph-name="K" unicode="K" horiz-adv-x="730" 
d="M736 0h-254l-185 208l-46 -53v-155h-189v705h189v-281l243 282h233l-305 -353z" />
    <glyph glyph-name="L" unicode="L" horiz-adv-x="616" 
d="M595 156v-156h-533v705h195v-549h338z" />
    <glyph glyph-name="M" unicode="M" horiz-adv-x="868" 
d="M806 705v-705h-195v293l-177 -225l-177 225v-293h-195v705h92l280 -356l280 356h92z" />
    <glyph glyph-name="N" unicode="N" horiz-adv-x="785" 
d="M723 705v-705h-92l-374 363v-363h-195v705h92l374 -363v363h195z" />
    <glyph glyph-name="O" unicode="O" horiz-adv-x="831" 
d="M414 714q78 0 147 -28.5t120 -77.5t80.5 -115t29.5 -141t-29.5 -141t-80.5 -115t-120 -77.5t-147 -28.5t-146.5 28.5t-120 77.5t-81 115t-29.5 141t29.5 141t81 115t120 77.5t146.5 28.5zM414 165q37 0 69.5 14.5t57 40t38.5 59.5t14 73t-14 73t-38.5 59.5t-57 40
t-69.5 14.5t-69.5 -14.5t-56.5 -40t-38 -59.5t-14 -73t14 -73t38 -59.5t56.5 -40t69.5 -14.5z" />
    <glyph glyph-name="P" unicode="P" horiz-adv-x="673" 
d="M363 705q81 0 137 -22t90 -59t49 -85.5t15 -100.5q0 -76 -23.5 -129.5t-66 -87.5t-101.5 -50t-130 -16h-76v-155h-195v705h301zM313 310q39 0 65 9.5t42 25.5t23 36.5t7 42.5q0 23 -6 44.5t-20 38.5t-37 27t-57 10h-73v-234h56z" />
    <glyph glyph-name="Q" unicode="Q" horiz-adv-x="831" 
d="M712 -17l-84 71q-46 -31 -100 -47.5t-114 -16.5q-78 0 -146.5 28.5t-120 77.5t-81 115t-29.5 141t29.5 141t81 115t120 77.5t146.5 28.5t146.5 -28.5t120 -77.5t81 -115t29.5 -141q0 -57 -17 -108t-47 -95l73 -61zM414 165q37 0 66 13l-41 34l88 105l50 -42q15 36 15 77
q0 39 -14 73t-38 59.5t-56.5 40t-69.5 14.5t-69.5 -14.5t-57 -40t-38.5 -59.5t-14 -73t14 -73t38.5 -59.5t57 -40t69.5 -14.5z" />
    <glyph glyph-name="R" unicode="R" horiz-adv-x="719" 
d="M361 155h-104v-155h-195v705h331q81 0 137 -22t90 -59t49 -85.5t15 -100.5q0 -88 -32 -150t-99 -96l153 -192h-232zM257 309h86q39 0 65 10t42 26t23 36.5t7 42.5q0 23 -6 44.5t-20 38.5t-37 27t-57 10h-103v-235z" />
    <glyph glyph-name="S" unicode="S" horiz-adv-x="652" 
d="M359 438q60 -13 108.5 -30.5t82.5 -43t52 -61t18 -85.5q0 -54 -20.5 -96t-57.5 -71.5t-89 -45t-116 -15.5q-47 0 -85 2.5t-73 10t-70.5 21t-77.5 34.5l70 144q66 -31 124 -41t119 -10q80 0 80 50q0 10 -5 19t-18.5 17t-36 15.5t-58.5 15.5q-56 13 -104 28.5t-83.5 40
t-56 61.5t-20.5 92q0 49 18.5 90t54 71t85.5 46.5t113 16.5q90 0 158.5 -18.5t123.5 -39.5l-78 -149q-24 9 -51 17.5t-54 14.5t-53.5 10t-50.5 4q-35 0 -52.5 -13.5t-17.5 -33.5q0 -12 5.5 -21t19 -17t37 -15t59.5 -15z" />
    <glyph glyph-name="T" unicode="T" horiz-adv-x="660" 
d="M638 544h-209v-544h-195v544h-210v161h614v-161z" />
    <glyph glyph-name="U" unicode="U" horiz-adv-x="758" 
d="M705 283q0 -46 -12 -88t-35.5 -77.5t-59 -63t-81.5 -43.5q-60 -21 -138 -21t-136 21q-76 26 -121.5 79.5t-61.5 123.5q-6 31 -6 69v422h189v-371q0 -96 34 -134t102 -38t103 38t35 134v371h189z" />
    <glyph glyph-name="V" unicode="V" horiz-adv-x="760" 
d="M541 705h212l-329 -705h-88l-328 705h211l161 -383z" />
    <glyph glyph-name="W" unicode="W" horiz-adv-x="1117" 
d="M818 0h-76l-184 390l-184 -390h-76l-284 705h210l121 -341l175 341h76l174 -341l121 341h210z" />
    <glyph glyph-name="X" unicode="X" horiz-adv-x="732" 
d="M498 705h214l-219 -348l229 -357h-219l-136 214l-136 -214h-219l230 357l-220 348h215l130 -205z" />
    <glyph glyph-name="Y" unicode="Y" horiz-adv-x="723" 
d="M725 705l-266 -468v-237h-195v237l-266 468h221l143 -264l142 264h221z" />
    <glyph glyph-name="Z" unicode="Z" horiz-adv-x="698" 
d="M659 620l-341 -459h341v-161h-619v81l343 463h-331v161h607v-85z" />
    <glyph glyph-name="bracketleft" unicode="[" horiz-adv-x="457" 
d="M222 565v-555h190v-137h-346v828h346v-136h-190z" />
    <glyph glyph-name="backslash" unicode="\" horiz-adv-x="535" 
d="M-24 798h154l443 -926h-154z" />
    <glyph glyph-name="bracketright" unicode="]" horiz-adv-x="457" 
d="M234 10v555h-190v136h346v-828h-346v137h190z" />
    <glyph glyph-name="asciicircum" unicode="^" 
d="M39 490l168 215h83l169 -215h-130l-80 107l-81 -107h-129z" />
    <glyph glyph-name="underscore" unicode="_" horiz-adv-x="600" 
d="M601 -136h-604v106h604v-106z" />
    <glyph glyph-name="grave" unicode="`" 
d="M88 756l177 16l110 -212h-86z" />
    <glyph glyph-name="a" unicode="a" horiz-adv-x="672" 
d="M621 545v-545h-189v29q-31 -18 -64 -28.5t-68 -10.5q-66 0 -116 24.5t-83 64t-49.5 90.5t-16.5 104t16.5 104t49.5 90.5t83 64t116 24.5q33 0 66.5 -9t65.5 -25v23h189zM432 358q-20 16 -45 25t-52 9q-40 0 -66.5 -17.5t-39.5 -44.5t-13 -57.5t13.5 -57.5t40 -44.5
t65.5 -17.5q27 0 52 9t45 25v171z" />
    <glyph glyph-name="b" unicode="b" horiz-adv-x="676" 
d="M372 555q57 0 106.5 -19.5t86 -56t58 -89t21.5 -118.5q0 -65 -21.5 -117.5t-58 -89t-86 -56.5t-106.5 -20q-65 0 -132 31v-20h-189v754h189v-229q32 14 65.5 22t66.5 8zM337 153q55 0 88 31t33 88q0 53 -33 86.5t-88 33.5q-27 0 -52 -9t-45 -25v-171q20 -16 45 -25t52 -9
z" />
    <glyph glyph-name="c" unicode="c" horiz-adv-x="569" 
d="M545 106q-37 -54 -94 -85t-123 -31q-62 0 -116.5 22t-95 60.5t-64 89.5t-23.5 110t23.5 110.5t64 90t95 60.5t116.5 22q69 0 125.5 -31t93.5 -84l-120 -109q-15 28 -41 44.5t-58 16.5q-24 0 -44.5 -9.5t-36 -26t-24.5 -38t-9 -46.5q0 -24 9 -46t24.5 -38t36 -25.5
t44.5 -9.5q32 0 58 16.5t41 44.5z" />
    <glyph glyph-name="d" unicode="d" horiz-adv-x="676" 
d="M625 754v-754h-189v19q-32 -14 -65.5 -22t-66.5 -8q-56 0 -105.5 20t-86.5 56.5t-58.5 89t-21.5 117.5q0 66 21.5 118.5t58.5 89t86.5 56t105.5 19.5q33 0 66.5 -8t65.5 -22v229h189zM339 153q27 0 52 9t45 25v171q-20 16 -45 25t-52 9q-54 0 -87.5 -33.5t-33.5 -86.5
q0 -57 33.5 -88t87.5 -31z" />
    <glyph glyph-name="e" unicode="e" horiz-adv-x="605" 
d="M575 221h-357q11 -35 39 -61t73 -26q34 0 62.5 18t48.5 50l118 -96q-38 -54 -102.5 -85t-146.5 -31q-62 0 -113.5 22t-88.5 60.5t-57.5 89.5t-20.5 110t20.5 110.5t57.5 90t88.5 60.5t113.5 22q63 0 112 -22t83.5 -61t52.5 -93.5t18 -118.5zM398 327q0 13 -3 28
t-12.5 27.5t-26.5 20.5t-46 8q-34 0 -57.5 -24.5t-34.5 -59.5h180z" />
    <glyph glyph-name="f" unicode="f" horiz-adv-x="404" 
d="M396 607q-12 1 -22.5 1.5t-19.5 0.5q-30 0 -46.5 -4.5t-24 -13t-8.5 -20.5t-1 -26h121v-149h-121v-399q0 -44 -13.5 -77.5t-36.5 -56t-54 -33.5t-67 -11q-32 0 -57.5 3t-42.5 8v144h9q27 0 42 5t22 18.5t8 36.5t1 58v304h-63v149h63v41q0 45 13.5 78.5t36.5 56t54.5 33.5
t66.5 11t62 -3.5t44 -8.5q20 -5 34 -12v-134z" />
    <glyph glyph-name="g" unicode="g" horiz-adv-x="676" 
d="M625 545v-422q0 -54 -15.5 -110t-50.5 -101t-92 -74t-140 -29q-53 0 -87 2.5t-61 7t-51.5 12t-57.5 16.5l36 132q25 -6 52 -13.5t55.5 -12.5t59 -6t62.5 5q42 8 63 34.5t29 60.5q-30 -12 -61 -18.5t-62 -6.5q-56 0 -105.5 18.5t-86.5 53.5t-58.5 84t-21.5 111t21.5 111.5
t58.5 84t86.5 52.5t105.5 18q65 0 132 -28v18h189zM218 288q0 -50 33 -77t88 -27q27 0 52 8t45 23v147q-41 30 -97 30q-55 0 -88 -29t-33 -75z" />
    <glyph glyph-name="h" unicode="h" horiz-adv-x="634" 
d="M353 555q65 0 109.5 -14t72 -45t39.5 -79.5t12 -117.5v-299h-189v299q0 48 -17 70.5t-62 22.5q-46 0 -78 -26v-366h-189v754h189v-222q55 23 113 23z" />
    <glyph glyph-name="i" unicode="i" horiz-adv-x="300" 
d="M55 545h189v-545h-189v545zM149 581q-21 0 -40 8t-33.5 22t-22.5 33t-8 40t8 40t22.5 33t33.5 22t40 8t40 -8t33 -22t22 -33t8 -40t-8 -40t-22 -33t-33 -22t-40 -8z" />
    <glyph glyph-name="j" unicode="j" horiz-adv-x="302" 
d="M55 545h189v-558q0 -44 -13.5 -77.5t-37 -56t-54.5 -33.5t-66 -11q-33 0 -58 3t-42 8v144h9q27 0 42 5t22 18.5t8 36.5t1 58v463zM149 581q-21 0 -40 8t-33.5 22t-22.5 33t-8 40t8 40t22.5 33t33.5 22t40 8t40 -8t33 -22t22 -33t8 -40t-8 -40t-22 -33t-33 -22t-40 -8z
" />
    <glyph glyph-name="k" unicode="k" horiz-adv-x="603" 
d="M608 0h-208l-108 186l-52 -59v-127h-189v754h189v-379l146 170h217l-187 -215z" />
    <glyph glyph-name="l" unicode="l" horiz-adv-x="300" 
d="M55 754h189v-754h-189v754z" />
    <glyph glyph-name="m" unicode="m" horiz-adv-x="971" 
d="M692 555q65 0 109.5 -14t72 -45t39.5 -79.5t12 -117.5v-299h-189v299q0 48 -17 70.5t-62 22.5q-23 0 -42.5 -7.5t-34.5 -20.5q2 -6 2.5 -18.5t0.5 -48.5v-297h-189v299q0 48 -15.5 70.5t-59.5 22.5q-46 0 -78 -29v-363h-189v545h189v-21q56 31 113 31q66 0 110 -14.5
t71 -46.5q35 29 75 45t82 16z" />
    <glyph glyph-name="n" unicode="n" horiz-adv-x="634" 
d="M353 555q65 0 109.5 -14t72 -45t39.5 -79.5t12 -117.5v-299h-189v299q0 48 -17 70.5t-62 22.5q-46 0 -78 -29v-363h-189v545h189v-21q56 31 113 31z" />
    <glyph glyph-name="o" unicode="o" horiz-adv-x="656" 
d="M327 555q62 0 116.5 -22t95 -60.5t64 -90t23.5 -110.5t-23.5 -110t-64 -89.5t-95 -60.5t-116.5 -22t-116.5 22t-95 60.5t-64 89.5t-23.5 110t23.5 110.5t64 90t95 60.5t116.5 22zM327 153q24 0 44.5 9.5t36 25.5t24.5 38t9 46q0 25 -9 46.5t-24.5 38t-36 26t-44.5 9.5
t-44.5 -9.5t-36 -26t-24.5 -38t-9 -46.5q0 -24 9 -46t24.5 -38t36 -25.5t44.5 -9.5z" />
    <glyph glyph-name="p" unicode="p" horiz-adv-x="676" 
d="M372 555q56 0 105.5 -19.5t86.5 -56t58.5 -89t21.5 -118.5q0 -65 -21.5 -117t-58.5 -89t-86.5 -56.5t-105.5 -19.5q-33 0 -66.5 8t-65.5 22v-195h-189v720h189v-20q32 14 65.5 22t66.5 8zM337 153q54 0 87.5 31t33.5 88q0 53 -33.5 86.5t-87.5 33.5q-27 0 -52 -9t-45 -25
v-171q20 -16 45 -25t52 -9z" />
    <glyph glyph-name="q" unicode="q" horiz-adv-x="676" 
d="M625 545v-720h-189v195q-32 -14 -65.5 -22t-67.5 -8q-56 0 -105.5 19.5t-86.5 56.5t-58 89t-21 117q0 66 21 118.5t58 89t86.5 56t105.5 19.5q34 0 67.5 -8t65.5 -22v20h189zM218 272q0 -57 33 -88t88 -31q27 0 52 9t45 25v171q-20 16 -45 25t-52 9q-55 0 -88 -33.5
t-33 -86.5z" />
    <glyph glyph-name="r" unicode="r" horiz-adv-x="428" 
d="M241 491q31 29 73 46.5t99 17.5v-201q-15 2 -28.5 3.5t-25.5 1.5q-36 0 -59 -10t-35.5 -25t-17.5 -34t-6 -37v-253h-189v545h189v-54z" />
    <glyph glyph-name="s" unicode="s" horiz-adv-x="514" 
d="M25 43l69 134q27 -12 49 -20t42.5 -13.5t40.5 -8t44 -2.5q23 0 34.5 7t11.5 18q0 6 -2.5 11t-10.5 9t-24 9t-44 11q-44 10 -80.5 23.5t-63.5 34t-42 50.5t-15 73q0 39 14.5 71.5t42 55.5t66.5 36t89 13q71 0 124 -14t96 -31l-63 -133q-38 14 -81 24t-80 10
q-26 0 -33.5 -5.5t-7.5 -16.5q0 -7 4 -12t14.5 -10t28.5 -10t46 -11q94 -20 143 -60t49 -117q0 -42 -16 -75.5t-45 -56.5t-70 -35t-90 -12q-37 0 -66.5 2t-57 8t-55.5 16t-61 27z" />
    <glyph glyph-name="t" unicode="t" horiz-adv-x="431" 
d="M276 396v-133q0 -36 1 -58.5t8 -36t21 -18.5t41 -5q11 0 23.5 0.5t27.5 1.5v-134q-15 -7 -35 -12q-17 -5 -43.5 -8t-61.5 -3q-36 0 -67 11t-54 33.5t-36.5 55.5t-13.5 78v228h-67v149h67v209h189v-209h124v-149h-124z" />
    <glyph glyph-name="u" unicode="u" horiz-adv-x="634" 
d="M583 545v-545h-189v21q-56 -31 -113 -31q-65 0 -109.5 14t-72 45t-39.5 79.5t-12 117.5v299h189v-299q0 -48 17 -70.5t62 -22.5q23 0 43 7.5t35 21.5v363h189z" />
    <glyph glyph-name="v" unicode="v" horiz-adv-x="625" 
d="M615 545l-258 -545h-88l-259 545h197l106 -236l105 236h197z" />
    <glyph glyph-name="w" unicode="w" horiz-adv-x="861" 
d="M849 545l-200 -545h-91l-127 279l-128 -279h-90l-201 545h187l83 -246l104 246h89l104 -246l84 246h186z" />
    <glyph glyph-name="x" unicode="x" horiz-adv-x="589" 
d="M209 0h-201l182 281l-178 264h209l74 -125l74 125h209l-179 -264l183 -281h-202l-85 126z" />
    <glyph glyph-name="y" unicode="y" horiz-adv-x="626" 
d="M615 545l-222 -574q-5 -12 -12 -24t-15 -23q-34 -51 -92.5 -83t-147.5 -32q-56 0 -93 3l25 135q18 -1 37 0t39 5q26 5 44 17.5t29 30.5l-196 545h197l103 -315l111 315h193z" />
    <glyph glyph-name="z" unicode="z" horiz-adv-x="563" 
d="M299 149h236v-149h-516v87l245 309h-222v149h502v-87z" />
    <glyph glyph-name="braceleft" unicode="{" horiz-adv-x="490" 
d="M452 595q-42 0 -66.5 -7.5t-37 -23.5t-15.5 -40.5t-3 -57.5v-64q0 -53 -19 -82t-64 -43q45 -14 64 -43t19 -82v-64q0 -33 3 -57.5t15.5 -40.5t37 -23.5t66.5 -7.5v-116q-57 0 -105.5 5t-84 22t-56 51t-20.5 92v12q0 55 -2.5 90.5t-17 56.5t-45.5 29t-88 8v136q57 0 88 8
t45.5 29t17 56.5t2.5 90.5v12q0 58 20.5 92t56 51.5t84 22t105.5 4.5v-116z" />
    <glyph glyph-name="bar" unicode="|" horiz-adv-x="355" 
d="M105 798h145v-926h-145v926z" />
    <glyph glyph-name="braceright" unicode="}" horiz-adv-x="490" 
d="M39 595v116q56 0 104.5 -4.5t84.5 -22t56.5 -51.5t20.5 -92v-12q0 -55 2.5 -90.5t17 -56.5t45.5 -29t87 -8v-136q-56 0 -87 -8t-45.5 -29t-17 -56.5t-2.5 -90.5v-12q0 -58 -20.5 -92t-56.5 -51t-84.5 -22t-104.5 -5v116q42 0 66 7.5t36.5 23t15.5 40t3 57.5v65
q0 53 19 82t65 43q-46 14 -65 43t-19 82v65q0 33 -3 57.5t-15.5 40t-36.5 23t-66 7.5z" />
    <glyph glyph-name="asciitilde" unicode="~" horiz-adv-x="505" 
d="M41 225q0 83 36 128.5t88 45.5q23 0 45.5 -6t43 -13.5t38 -13.5t29.5 -6q21 0 35.5 16.5t24.5 39.5l82 -10q0 -39 -9.5 -71.5t-26.5 -55t-39.5 -35t-48.5 -12.5q-23 0 -45.5 6t-43 13.5t-38 13.5t-29.5 6q-21 0 -36 -16t-25 -39z" />
    <glyph glyph-name="exclamdown" unicode="&#xa1;" horiz-adv-x="324" 
d="M229 445l31 -445h-195l31 445h133zM162 509q-21 0 -40 8t-33 22t-22 33t-8 40t8 40t22 33t33 22t40 8t40 -8t33.5 -22t22.5 -33t8 -40t-8 -40t-22.5 -33t-33.5 -22t-40 -8z" />
    <glyph glyph-name="cent" unicode="&#xa2;" horiz-adv-x="575" 
d="M359 220q26 7 47.5 23t35.5 39l118 -98q-41 -50 -100 -79t-129 -30l-15 -75h-119l19 97q-41 16 -74.5 43t-58.5 62t-38.5 76.5t-13.5 86.5q0 60 23 112.5t63 92t94 62.5t115 23l12 59h118l-15 -80q72 -29 119 -87l-118 -98q-7 10 -14.5 18.5t-16.5 16.5zM192 365
q0 -36 14.5 -67t39.5 -51l52 263q-23 -6 -42.5 -19t-33.5 -32.5t-22 -43t-8 -50.5z" />
    <glyph glyph-name="sterling" unicode="&#xa3;" horiz-adv-x="639" 
d="M604 0h-561v85l99 61q-3 23 -6.5 47t-5.5 50h-87v137h77q-1 9 -1 18.5v18.5q0 70 13.5 119.5t38 83t58 53.5t72.5 32q33 10 72 10q71 0 129 -35t90 -92l-122 -107q-13 24 -35.5 41.5t-55.5 17.5q-26 0 -45.5 -20t-19.5 -68q0 -18 0.5 -36t1.5 -36h211v-137h-199l12 -87
h264v-156z" />
    <glyph glyph-name="KB" unicode="&#xa4;" horiz-adv-x="973" 
d="M651 619q51 -20 82.5 -66t31.5 -103q0 -58 -31.5 -104t-82.5 -66q-20 -51 -66 -82.5t-103 -31.5q-58 0 -104 31.5t-66 82.5q-51 20 -82.5 66t-31.5 104q0 57 31.5 103t82.5 66q20 51 66 82.5t104 31.5q57 0 103 -31.5t66 -82.5zM460 294v134h-112v-22v-112h43v69z
M460 471v134l-69 -69v69h-43v-112v-22h112zM538 294q16 0 30 6t24.5 16.5t16.5 25t6 30.5q0 34 -24 56h-88v-134h35zM591 471q24 22 24 56q0 16 -6 30.5t-16.5 25t-24.5 16.5t-30 6h-35v-134h88zM247 47q15 -7 30 -7q10 0 10 6v1q0 4 -14 8q-14 3 -23.5 8.5t-9.5 19.5
q0 12 8.5 20t24.5 8q11 0 20 -2.5t16 -4.5l-10 -19q-6 2 -13 4t-13 2q-9 0 -9 -6q0 -3 3 -5t12 -4q15 -3 24 -9t9 -18q0 -14 -9.5 -21.5t-26.5 -7.5q-11 0 -19 2t-19 7zM851 109h28l-34 -58v-1v-2v-26h-24v26v2v1l-33 58h27l18 -32zM320 22v88h24v-88h-24zM690 66
q0 -18 -12 -30.5t-29 -13.5h-3h-6h-24v88h3h21h6q18 0 31 -13t13 -31zM647 43q8 0 13.5 6.5t5.5 16.5q0 9 -6 15.5t-14 6.5h-1h-5v-45h5h2zM159 66q0 -18 -12 -30.5t-30 -13.5h-2h-7h-23v88h2h21h7q18 0 31 -13t13 -31zM115 43q8 0 14 6.5t6 16.5q0 9 -6 15.5t-14 6.5h-1h-6
v-45h6h1zM424 66h13v-17v-16q-12 -8 -25 -11q-8 -2 -14 -2q-20 0 -33.5 13.5t-13.5 32.5t13.5 32t33.5 13q21 0 36 -13l-16 -16q-9 7 -20 7q-9 0 -15.5 -6.5t-6.5 -16.5q0 -11 6.5 -18t15.5 -7q6 0 14 4v4h-16v17h16h12zM777 75q17 -7 17 -26q0 -11 -6.5 -19t-20.5 -8h-24
h-11h-12v88h20h3h16q14 0 20 -5.5t6 -13.5q0 -10 -8 -16zM748 90h-5v-11h14q7 0 7 5q0 6 -6 6h-10zM754 41q15 0 15 11q0 10 -18 10h-8v-21h11zM563 41h42v-19h-42h-4h-20v88h20h4h40v-20h-40v-12h27v-17h-27v-20zM190 41h42v-19h-42h-5h-19v88h19h5h39v-20h-39v-12h26v-17
h-26v-20zM504 110h24v-69v-19h-11l-13 12l-34 33v-45h-24v69v19h11l13 -13l34 -33v46zM225 -152q0 4 4 4q3 0 3 -4q0 -3 -3 -3q-4 0 -4 3zM830 -152q0 4 4 4q3 0 3 -4q0 -3 -3 -3q-4 0 -4 3zM683 -113v-4h-21v-18h20v-4h-20v-11h22v-5h-26v42h25zM366 -113v-4h-21v-18h20v-4
h-20v-11h22v-5h-26v42h25zM527 -113v-4h-21v-18h20v-4h-20v-11h22v-5h-26v42h25zM301 -117v4h30v-4h-13v-38h-5v38h-12zM578 -117v4h30v-4h-13v-38h-4v38h-13zM864 -138h15v-11q-1 -2 -4.5 -4t-11.5 -2q-10 0 -16 6t-6 15t6 15.5t15 6.5t16 -7l-3 -3q-5 6 -13 6q-7 0 -12 -5
t-5 -13q0 -7 5 -12t12 -5q8 0 13 4v5h-11v4zM478 -138h15v-11q-2 -2 -5.5 -4t-11.5 -2q-9 0 -15.5 6t-6.5 15t6.5 15.5t15.5 6.5t16 -7l-3 -3q-6 6 -13 6t-12 -5t-5 -13q0 -7 4.5 -12t12.5 -5t12 4v5h-10v4zM765 -138h15v-11q-2 -2 -5.5 -4t-11.5 -2q-10 0 -16 6t-6 15
t6.5 15.5t15.5 6.5t16 -7l-4 -3q-5 6 -12 6q-8 0 -12.5 -5t-4.5 -13q0 -7 4.5 -12t12.5 -5t12 4v5h-10v4zM380 -113v-37h19v-5h-24v42h5zM413 -113v-37h20v-5h-24v42h4zM248 -113v-42h-4v42h4zM732 -113v-42h-4v42h4zM445 -113v-42h-4v42h4zM906 -144l10 -11h-6l-8 10
q-1 0 -1.5 -0.5t-1.5 -0.5h-6v-9h-4v42h4h6q7 0 11 -4q6 -6 6 -12q0 -7 -6 -13zM899 -142q2 0 2.5 0.5t2.5 0.5q7 3 7 12q0 12 -12 12h-6v-25h6zM636 -114q13 -5 13 -20q0 -11 -9 -17q-6 -4 -12 -4h-12v42h12q6 0 8 -1zM628 -150q7 0 12 4.5t5 11.5q0 8 -5 12.5t-12 4.5h-7
v-33h7zM709 -131q10 -5 10 -12q0 -12 -13 -12q-12 0 -14 9l3 2q2 -7 11 -7q8 0 8 8q0 6 -7 8q-13 6 -13 12q0 5 3.5 8t8.5 3q6 0 10 -7l-3 -2q-2 5 -7 5q-7 0 -7 -7q0 -5 10 -8zM287 -113h4v-42h-4l-22 33q-2 2 -2 3v-2v-34h-4v42h4l22 -31l2 -4v2v33zM565 -113h4v-42h-4
l-23 33q-1 1 -1 1.5t-1 1.5q1 -1 1 -2v-34h-5v42h5l21 -31q3 -3 3 -4v2v33zM817 -113h4v-42h-4l-23 33q0 1 -0.5 1.5t-0.5 1.5v-2v-34h-4v42h4l22 -31l2 -4v2v33zM97 -112h4l-13 -42h-5l-8 29q0 1 -0.5 2t-0.5 2v1v-1q0 -1 -0.5 -2t-0.5 -2l-8 -29h-4l-14 42h5l10 -33
q0 -4 1 -4v1q0 2 1 4l8 32h4l8 -32q0 -2 0.5 -2.5t0.5 -1.5t1 -1v1q0 2 1 3zM157 -112h4l-13 -42h-5l-7 29q-1 1 -1 4q0 1 -1 1v-1q0 -1 -0.5 -2t-0.5 -2l-8 -29h-4l-14 42h5l10 -33v-3q0 -1 1 -1v1q0 2 1 4l8 32h5l8 -32v-4q0 -1 1 -1v1q0 2 1 3zM219 -112h4l-13 -42h-5
l-8 29q0 1 -0.5 2t-0.5 2v1v-1q0 -1 -0.5 -2t-0.5 -2l-8 -29h-4l-14 42h5l10 -33v-3q0 -1 1 -1v1q0 2 1 4l8 32h4l8 -32q0 -2 0.5 -2.5t0.5 -1.5t1 -1v1q0 2 1 3z" />
    <glyph glyph-name="yen" unicode="&#xa5;" horiz-adv-x="730" 
d="M531 356h120v-119h-188v-50h188v-120h-188v-67h-195v67h-188v120h188v50h-188v119h119l-197 349h221l142 -264l143 264h221z" />
    <glyph glyph-name="brokenbar" unicode="&#xa6;" horiz-adv-x="355" 
d="M105 798h145v-383h-145v383zM105 256h145v-383h-145v383z" />
    <glyph glyph-name="section" unicode="&#xa7;" horiz-adv-x="626" 
d="M579 339q0 -13 -7.5 -28.5t-19 -29t-24.5 -24t-24 -12.5q13 -14 19.5 -32.5t6.5 -47.5q0 -42 -16 -75t-45 -56t-69.5 -35t-90.5 -12q-37 0 -66.5 2t-57 8t-55.5 16t-61 27l69 124q50 -25 86 -34t75 -9h15q24 1 35 12t11 22q0 6 -2 11t-10.5 9t-24.5 9t-44 11
q-35 8 -75.5 16.5t-75.5 24t-58.5 41t-23.5 68.5q0 36 21 63.5t56 46.5q-21 16 -33 36t-12 47q0 38 14.5 70t42 55.5t67 36.5t88.5 13q35 0 71.5 -4t70 -10.5t63 -14.5t50.5 -17l-63 -133q-19 7 -43 14.5t-50 13.5t-52.5 9.5t-50.5 3.5q-26 0 -33 -9t-7 -20q0 -6 4 -11.5
t14.5 -10t28.5 -9.5t46 -11q47 -11 90.5 -18.5t76.5 -23.5t53 -44t20 -79zM324 381q-24 6 -48.5 12t-47.5 13q-19 -5 -30 -17t-11 -23q0 -12 11.5 -21.5t31 -16.5t45 -12.5t52.5 -10.5l56 -11q22 4 38.5 12.5t16.5 25.5q0 13 -29 25t-85 24z" />
    <glyph glyph-name="dieresis" unicode="&#xa8;" 
d="M359 744q35 0 59.5 -24.5t24.5 -59.5t-24.5 -59.5t-59.5 -24.5q-18 0 -33.5 6.5t-27 18t-18 27t-6.5 32.5t6.5 32.5t18 27t27 18t33.5 6.5zM143 744q35 0 59.5 -24.5t24.5 -59.5t-24.5 -59.5t-59.5 -24.5q-18 0 -33.5 6.5t-27 18t-18 27t-6.5 32.5t6.5 32.5t18 27t27 18
t33.5 6.5z" />
    <glyph glyph-name="copyright" unicode="&#xa9;" horiz-adv-x="830" 
d="M416 718q76 0 142 -29t114.5 -78.5t76.5 -116t28 -140.5t-28 -140t-77 -116t-115.5 -79t-142.5 -29t-142 29t-114.5 78.5t-76.5 116t-28 140.5t28 140t77 116t115 79t143 29zM726 354q0 65 -23.5 122.5t-65 100t-98.5 67.5t-123 25q-67 0 -124 -25t-99 -68t-66 -101
t-24 -123t24 -122t65.5 -100t98.5 -67.5t123 -24.5q67 0 124 25t99 68t65.5 100.5t23.5 122.5zM418 246q24 0 44 13t33 34l82 -71q-28 -36 -69.5 -57t-89.5 -21q-42 0 -79.5 16.5t-65.5 45t-44 66.5t-16 82q0 43 16 81.5t44 66.5t65.5 44.5t79.5 16.5q48 0 89.5 -21
t69.5 -57l-82 -71q-13 22 -33 34.5t-44 12.5q-20 0 -37 -8.5t-29.5 -23t-20 -34t-7.5 -41.5q0 -23 7.5 -42.5t20 -34t29.5 -23t37 -8.5z" />
    <glyph glyph-name="ordfeminine" unicode="&#xaa;" horiz-adv-x="511" 
d="M452 697v-381h-133v20q-44 -27 -92 -27q-62 0 -103.5 29.5t-62 73.5t-20.5 95t21 95t62 73.5t103 29.5q23 0 46 -6.5t46 -17.5v16h133zM319 566q-29 24 -67 24q-42 0 -63 -26t-21 -57.5t21 -57.5t63 -26q38 0 67 24v119z" />
    <glyph glyph-name="guillemotleft" unicode="&#xab;" horiz-adv-x="631" 
d="M30 266l176 260l121 -89l-130 -171l130 -170l-121 -90zM292 266l176 260l121 -89l-130 -171l130 -170l-121 -90z" />
    <glyph glyph-name="logicalnot" unicode="&#xac;" horiz-adv-x="594" 
d="M546 189h-156v178h-356v156h512v-334z" />
    <glyph glyph-name="uni00AD" unicode="&#xad;" horiz-adv-x="408" 
d="M368 255h-328v156h328v-156z" />
    <glyph glyph-name="registered" unicode="&#xae;" horiz-adv-x="830" 
d="M417 718q76 0 142 -29t114.5 -78.5t76.5 -116t28 -140.5t-28 -140t-77 -116t-115.5 -79t-142.5 -29t-142 29t-114.5 78.5t-76.5 116t-28 140.5t28 140t77 116t115 79t143 29zM727 354q0 65 -23.5 122.5t-65 100t-98.5 67.5t-123 25q-67 0 -124.5 -25t-99.5 -68
t-65.5 -101t-23.5 -123t23.5 -122t65.5 -100t99 -67.5t123 -24.5q67 0 124 25t99 68t65.5 100.5t23.5 122.5zM536 138l-107 106q-4 -1 -14 -1h-61v-89h-112v407h190q47 0 79.5 -13t52.5 -34t28.5 -49t8.5 -58q0 -87 -53 -128l64 -63zM354 322h50q44 0 61.5 22.5t17.5 50.5
q0 29 -15.5 52.5t-53.5 23.5h-60v-149z" />
    <glyph glyph-name="macron" unicode="&#xaf;" 
d="M62 708h376v-116h-376v116z" />
    <glyph glyph-name="degree" unicode="&#xb0;" horiz-adv-x="472" 
d="M236 364q-37 0 -70 14t-58 38t-39.5 56.5t-14.5 69.5q0 36 15 68.5t40 57t58 38.5t69 14t69 -14t58 -38.5t40 -57.5t15 -70q0 -36 -14.5 -68t-39.5 -56t-58 -38t-70 -14zM236 456q36 0 60 24.5t24 61.5q0 36 -24.5 60.5t-59.5 24.5t-59.5 -25t-24.5 -62q0 -35 24 -59.5
t60 -24.5z" />
    <glyph glyph-name="plusminus" unicode="&#xb1;" horiz-adv-x="640" 
d="M577 367h-178v-178h-156v178h-178v156h178v178h156v-178h178v-156zM577 0h-512v156h512v-156z" />
    <glyph glyph-name="twosuperior" unicode="&#xb2;" horiz-adv-x="415" 
d="M365 393v-94h-322v47q27 39 64.5 65.5t71 48t57 43t23.5 50.5q0 26 -17 44t-42 18q-7 0 -17 -3t-19 -10.5t-15.5 -19.5t-6.5 -31h-99v9q0 34 13 62.5t35 49t51 32t61 11.5t61 -12t50.5 -32.5t34.5 -49t13 -61.5q0 -48 -30.5 -93.5t-78.5 -73.5h112z" />
    <glyph glyph-name="threesuperior" unicode="&#xb3;" horiz-adv-x="415" 
d="M252 537q44 -14 72 -39t28 -74q0 -62 -44.5 -96.5t-118.5 -34.5q-24 0 -44 1.5t-38 4.5t-35.5 9t-37.5 15l40 84q32 -13 60.5 -17t58.5 -4q16 0 33 9.5t17 29.5q0 4 -1.5 11.5t-9 15t-22 13.5t-39.5 6h-41l-20 46l75 95h-131v92h290v-49z" />
    <glyph glyph-name="acute" unicode="&#xb4;" 
d="M213 560h-86l110 212l177 -16z" />
    <glyph glyph-name="mu" unicode="&#xb5;" horiz-adv-x="638" 
d="M586 545v-545h-189v17q-22 -13 -45.5 -20t-48.5 -7q-17 0 -32.5 4t-30.5 12v-181h-189v720h189v-299q0 -48 17 -70.5t62 -22.5q23 0 43 7.5t35 21.5v363h189z" />
    <glyph glyph-name="paragraph" unicode="&#xb6;" horiz-adv-x="596" 
d="M534 700v-700h-195v220h-21q-65 0 -119 15.5t-93.5 45.5t-61.5 74.5t-22 103.5q0 58 21 103t59 75.5t92.5 46.5t120.5 16h219zM341 525h-26q-27 0 -43.5 -12.5t-16.5 -36.5t17.5 -36t43.5 -12h25v97z" />
    <glyph glyph-name="periodcentered" unicode="&#xb7;" horiz-adv-x="284" 
d="M246 313q0 -21 -8 -40t-22 -33t-33 -22t-41 -8q-21 0 -40 8t-33 22t-22 33t-8 40t8 40t22 33t33 22t40 8q22 0 41 -8t33 -22t22 -33t8 -40z" />
    <glyph glyph-name="cedilla" unicode="&#xb8;" 
d="M201 15h125l-72 -145l-177 16z" />
    <glyph glyph-name="onesuperior" unicode="&#xb9;" horiz-adv-x="415" 
d="M288 705v-406h-112v300l-64 -14l-22 87l148 33h50z" />
    <glyph glyph-name="ordmasculine" unicode="&#xba;" horiz-adv-x="507" 
d="M249 705q43 0 81 -15.5t66.5 -42.5t45 -63t16.5 -77t-16.5 -77t-45 -62.5t-66.5 -42t-81 -15.5q-44 0 -82 15.5t-66 42t-44.5 62.5t-16.5 77t16.5 77t44.5 63t66 42.5t82 15.5zM249 424q33 0 56.5 24.5t23.5 58.5q0 35 -23.5 59.5t-56.5 24.5t-56.5 -24.5t-23.5 -59.5
q0 -34 23.5 -58.5t56.5 -24.5z" />
    <glyph glyph-name="guillemotright" unicode="&#xbb;" horiz-adv-x="631" 
d="M423 6l-121 90l130 170l-130 171l121 89l176 -260zM161 6l-121 90l130 170l-130 171l121 89l176 -260z" />
    <glyph glyph-name="onequarter" unicode="&#xbc;" horiz-adv-x="919" 
d="M651 700h135l-539 -700h-135zM262 705v-406h-112v300l-64 -14l-22 87l148 33h50zM870 167v-90h-52v-77h-108v77h-201l-20 47l243 283h86v-240h52zM710 249l-71 -82h71v82z" />
    <glyph glyph-name="onehalf" unicode="&#xbd;" horiz-adv-x="957" 
d="M651 700h135l-539 -700h-135zM262 705v-406h-112v300l-64 -14l-22 87l148 33h50zM885 94v-94h-322v47q27 39 64.5 65.5t71 48t57 43t23.5 50.5q0 26 -17 44t-42 18q-7 0 -17 -3t-19 -10.5t-15.5 -19.5t-6.5 -31h-99v9q0 34 13 62.5t35 49t51 32t61 11.5t61 -12
t50.5 -32.5t34.5 -49t13 -61.5q0 -48 -30.5 -93.5t-78.5 -73.5h112z" />
    <glyph glyph-name="threequarters" unicode="&#xbe;" horiz-adv-x="919" 
d="M651 700h135l-539 -700h-135zM870 167v-90h-52v-77h-108v77h-201l-20 47l243 283h86v-240h52zM710 249l-71 -82h71v82zM252 537q44 -14 72 -39t28 -74q0 -62 -44.5 -96.5t-118.5 -34.5q-24 0 -44 1.5t-38 4.5t-35.5 9t-37.5 15l40 84q32 -13 60.5 -17t58.5 -4
q16 0 33 9.5t17 29.5q0 4 -1.5 11.5t-9 15t-22 13.5t-39.5 6h-41l-20 46l75 95h-131v92h290v-49z" />
    <glyph glyph-name="questiondown" unicode="&#xbf;" horiz-adv-x="540" 
d="M522 40q-31 -15 -59 -25t-56.5 -15.5t-60 -7.5t-69.5 -2q-58 0 -105 15.5t-80.5 45t-52 72.5t-18.5 97q0 39 13.5 74t41 61.5t68 41.5t94.5 15l5 58h135l8 -129l-16 -42h-65q-26 0 -44.5 -4.5t-31.5 -12.5t-20.5 -17t-11 -18t-4.5 -16.5t-1 -11.5v-4q0 -29 29 -50
q20 -14 50 -14q32 0 64 3t64 12q14 4 29 9t31 11zM310 509q-21 0 -40 8t-33.5 22t-22.5 33t-8 40t8 40t22.5 33t33.5 22t40 8t40 -8t33 -22t22 -33t8 -40t-8 -40t-22 -33t-33 -22t-40 -8z" />
    <glyph glyph-name="Agrave" unicode="&#xc0;" horiz-adv-x="795" 
d="M533 117h-272l-51 -117h-204l345 705h92l346 -705h-204zM330 273h135l-68 153zM151 916l202 16l104 -185h-111z" />
    <glyph glyph-name="Aacute" unicode="&#xc1;" horiz-adv-x="795" 
d="M533 117h-272l-51 -117h-204l345 705h92l346 -705h-204zM330 273h135l-68 153zM454 747h-111l104 185l202 -16z" />
    <glyph glyph-name="Acircumflex" unicode="&#xc2;" horiz-adv-x="795" 
d="M341 912h114l148 -165h-122l-84 81l-84 -81h-120zM533 117h-272l-51 -117h-204l345 705h92l346 -705h-204zM330 273h135l-68 153z" />
    <glyph glyph-name="Atilde" unicode="&#xc3;" horiz-adv-x="795" 
d="M533 117h-272l-51 -117h-204l345 705h92l346 -705h-204zM330 273h135l-68 153zM182 740q0 83 36 128.5t88 45.5q23 0 45.5 -6t43 -13.5t38 -13.5t29.5 -6q21 0 36 16.5t25 39.5l81 -10q0 -39 -9.5 -71t-26.5 -55t-39.5 -35.5t-48.5 -12.5q-23 0 -45.5 6t-43 13.5
t-38 13.5t-29.5 6q-21 0 -35.5 -16t-24.5 -39z" />
    <glyph glyph-name="Adieresis" unicode="&#xc4;" horiz-adv-x="795" 
d="M533 117h-272l-51 -117h-204l345 705h92l346 -705h-204zM330 273h135l-68 153zM506 903q35 0 59.5 -24.5t24.5 -59.5t-24.5 -59.5t-59.5 -24.5q-18 0 -33.5 6.5t-27 18t-18 27t-6.5 32.5t6.5 32.5t18 27t27 18t33.5 6.5zM290 903q35 0 59.5 -24.5t24.5 -59.5t-24.5 -59.5
t-59.5 -24.5q-18 0 -33.5 6.5t-27 18t-18 27t-6.5 32.5t6.5 32.5t18 27t27 18t33.5 6.5z" />
    <glyph glyph-name="Aring" unicode="&#xc5;" horiz-adv-x="795" 
d="M533 117h-272l-51 -117h-204l327 669q-26 16 -42 42.5t-16 60.5q0 24 10 46t27 38.5t39.5 26t46.5 9.5t46.5 -9.5t39.5 -26t27 -39t10 -47.5q0 -32 -16.5 -59t-43.5 -43l328 -668h-204zM398 713q24 0 40.5 16.5t16.5 42.5q0 24 -17 40.5t-40 16.5q-24 0 -40.5 -17
t-16.5 -42q0 -24 16 -40.5t41 -16.5zM330 273h135l-68 153z" />
    <glyph glyph-name="AE" unicode="&#xc6;" horiz-adv-x="1063" 
d="M1025 161v-161h-568v117h-207l-51 -117h-204l345 705h664v-161h-358v-124h296v-156h-296v-103h379zM319 273h138v255h-26z" />
    <glyph glyph-name="Ccedilla" unicode="&#xc7;" horiz-adv-x="730" 
d="M317 2q-60 15 -111.5 48t-88.5 79t-58 103t-21 120q0 75 29.5 141t80.5 115.5t119 78t146 28.5q89 0 164.5 -36.5t127.5 -99.5l-150 -123q-23 38 -60 60t-82 22q-36 0 -67.5 -12.5t-55 -36.5t-37.5 -58.5t-14 -78.5q0 -43 14 -77.5t37.5 -58.5t55 -37t67.5 -13
q45 0 82 22t60 60l150 -123q-48 -58 -116.5 -93.5t-149.5 -40.5l-63 -121l-177 16z" />
    <glyph glyph-name="Egrave" unicode="&#xc8;" horiz-adv-x="667" 
d="M121 916l202 16l104 -185h-111zM630 161v-161h-568v705h547v-161h-358v-124h296v-156h-296v-103h379z" />
    <glyph glyph-name="Eacute" unicode="&#xc9;" horiz-adv-x="667" 
d="M363 747h-111l104 185l202 -16zM630 161v-161h-568v705h547v-161h-358v-124h296v-156h-296v-103h379z" />
    <glyph glyph-name="Ecircumflex" unicode="&#xca;" horiz-adv-x="667" 
d="M291 912h114l148 -165h-122l-84 81l-84 -81h-120zM630 161v-161h-568v705h547v-161h-358v-124h296v-156h-296v-103h379z" />
    <glyph glyph-name="Edieresis" unicode="&#xcb;" horiz-adv-x="667" 
d="M456 903q35 0 59.5 -24.5t24.5 -59.5t-24.5 -59.5t-59.5 -24.5q-18 0 -33.5 6.5t-27 18t-18 27t-6.5 32.5t6.5 32.5t18 27t27 18t33.5 6.5zM240 903q35 0 59.5 -24.5t24.5 -59.5t-24.5 -59.5t-59.5 -24.5q-18 0 -33.5 6.5t-27 18t-18 27t-6.5 32.5t6.5 32.5t18 27t27 18
t33.5 6.5zM630 161v-161h-568v705h547v-161h-358v-124h296v-156h-296v-103h379z" />
    <glyph glyph-name="Igrave" unicode="&#xcc;" horiz-adv-x="327" 
d="M261 0h-195v705h195v-705zM-83 916l202 16l104 -185h-111z" />
    <glyph glyph-name="Iacute" unicode="&#xcd;" horiz-adv-x="327" 
d="M261 0h-195v705h195v-705zM221 747h-111l104 185l202 -16z" />
    <glyph glyph-name="Icircumflex" unicode="&#xce;" horiz-adv-x="327" 
d="M261 0h-195v705h195v-705zM106 912h114l148 -165h-122l-84 81l-84 -81h-120z" />
    <glyph glyph-name="Idieresis" unicode="&#xcf;" horiz-adv-x="327" 
d="M261 0h-195v705h195v-705zM271 903q35 0 59.5 -24.5t24.5 -59.5t-24.5 -59.5t-59.5 -24.5q-18 0 -33.5 6.5t-27 18t-18 27t-6.5 32.5t6.5 32.5t18 27t27 18t33.5 6.5zM55 903q35 0 59.5 -24.5t24.5 -59.5t-24.5 -59.5t-59.5 -24.5q-18 0 -33.5 6.5t-27 18t-18 27
t-6.5 32.5t6.5 32.5t18 27t27 18t33.5 6.5z" />
    <glyph glyph-name="Eth" unicode="&#xd0;" horiz-adv-x="815" 
d="M31 429h80v276h310q73 0 138 -27.5t113 -75.5t76 -112.5t28 -137.5q0 -70 -26 -132t-71 -109.5t-105.5 -77t-129.5 -33.5h-333v275h-80v154zM427 171q33 1 61.5 16t49.5 39.5t33.5 57t12.5 68.5q0 37 -13 70.5t-35 58t-51.5 39t-63.5 14.5h-121v-105h123v-154h-123v-104
h127z" />
    <glyph glyph-name="Ntilde" unicode="&#xd1;" horiz-adv-x="785" 
d="M723 705v-705h-92l-374 363v-363h-195v705h92l374 -363v363h195zM182 740q0 83 36 128.5t88 45.5q23 0 45.5 -6t43 -13.5t38 -13.5t29.5 -6q21 0 36 16.5t25 39.5l81 -10q0 -39 -9.5 -71t-26.5 -55t-39.5 -35.5t-48.5 -12.5q-23 0 -45.5 6t-43 13.5t-38 13.5t-29.5 6
q-21 0 -35.5 -16t-24.5 -39z" />
    <glyph glyph-name="Ograve" unicode="&#xd2;" horiz-adv-x="831" 
d="M414 714q78 0 147 -28.5t120 -77.5t80.5 -115t29.5 -141t-29.5 -141t-80.5 -115t-120 -77.5t-147 -28.5t-146.5 28.5t-120 77.5t-81 115t-29.5 141t29.5 141t81 115t120 77.5t146.5 28.5zM414 165q37 0 69.5 14.5t57 40t38.5 59.5t14 73t-14 73t-38.5 59.5t-57 40
t-69.5 14.5t-69.5 -14.5t-56.5 -40t-38 -59.5t-14 -73t14 -73t38 -59.5t56.5 -40t69.5 -14.5zM171 916l202 16l104 -185h-111z" />
    <glyph glyph-name="Oacute" unicode="&#xd3;" horiz-adv-x="831" 
d="M414 714q78 0 147 -28.5t120 -77.5t80.5 -115t29.5 -141t-29.5 -141t-80.5 -115t-120 -77.5t-147 -28.5t-146.5 28.5t-120 77.5t-81 115t-29.5 141t29.5 141t81 115t120 77.5t146.5 28.5zM414 165q37 0 69.5 14.5t57 40t38.5 59.5t14 73t-14 73t-38.5 59.5t-57 40
t-69.5 14.5t-69.5 -14.5t-56.5 -40t-38 -59.5t-14 -73t14 -73t38 -59.5t56.5 -40t69.5 -14.5zM473 747h-111l104 185l202 -16z" />
    <glyph glyph-name="Ocircumflex" unicode="&#xd4;" horiz-adv-x="831" 
d="M414 714q78 0 147 -28.5t120 -77.5t80.5 -115t29.5 -141t-29.5 -141t-80.5 -115t-120 -77.5t-147 -28.5t-146.5 28.5t-120 77.5t-81 115t-29.5 141t29.5 141t81 115t120 77.5t146.5 28.5zM414 165q37 0 69.5 14.5t57 40t38.5 59.5t14 73t-14 73t-38.5 59.5t-57 40
t-69.5 14.5t-69.5 -14.5t-56.5 -40t-38 -59.5t-14 -73t14 -73t38 -59.5t56.5 -40t69.5 -14.5zM359 912h114l148 -165h-122l-84 81l-84 -81h-120z" />
    <glyph glyph-name="Otilde" unicode="&#xd5;" horiz-adv-x="831" 
d="M414 714q78 0 147 -28.5t120 -77.5t80.5 -115t29.5 -141t-29.5 -141t-80.5 -115t-120 -77.5t-147 -28.5t-146.5 28.5t-120 77.5t-81 115t-29.5 141t29.5 141t81 115t120 77.5t146.5 28.5zM414 165q37 0 69.5 14.5t57 40t38.5 59.5t14 73t-14 73t-38.5 59.5t-57 40
t-69.5 14.5t-69.5 -14.5t-56.5 -40t-38 -59.5t-14 -73t14 -73t38 -59.5t56.5 -40t69.5 -14.5zM205 740q0 83 36 128.5t88 45.5q23 0 45.5 -6t43 -13.5t38 -13.5t29.5 -6q21 0 36 16.5t25 39.5l81 -10q0 -39 -9.5 -71t-26.5 -55t-39.5 -35.5t-48.5 -12.5q-23 0 -45.5 6
t-43 13.5t-38 13.5t-29.5 6q-21 0 -35.5 -16t-24.5 -39z" />
    <glyph glyph-name="Odieresis" unicode="&#xd6;" horiz-adv-x="831" 
d="M414 714q78 0 147 -28.5t120 -77.5t80.5 -115t29.5 -141t-29.5 -141t-80.5 -115t-120 -77.5t-147 -28.5t-146.5 28.5t-120 77.5t-81 115t-29.5 141t29.5 141t81 115t120 77.5t146.5 28.5zM414 165q37 0 69.5 14.5t57 40t38.5 59.5t14 73t-14 73t-38.5 59.5t-57 40
t-69.5 14.5t-69.5 -14.5t-56.5 -40t-38 -59.5t-14 -73t14 -73t38 -59.5t56.5 -40t69.5 -14.5zM526 903q35 0 59.5 -24.5t24.5 -59.5t-24.5 -59.5t-59.5 -24.5q-18 0 -33.5 6.5t-27 18t-18 27t-6.5 32.5t6.5 32.5t18 27t27 18t33.5 6.5zM310 903q35 0 59.5 -24.5t24.5 -59.5
t-24.5 -59.5t-59.5 -24.5q-18 0 -33.5 6.5t-27 18t-18 27t-6.5 32.5t6.5 32.5t18 27t27 18t33.5 6.5z" />
    <glyph glyph-name="multiply" unicode="&#xd7;" horiz-adv-x="648" 
d="M596 155l-110 -111l-161 161l-161 -161l-111 111l161 161l-161 161l111 110l161 -161l161 161l110 -110l-161 -161l161 -161v0z" />
    <glyph glyph-name="Oslash" unicode="&#xd8;" horiz-adv-x="831" 
d="M131 112q-44 48 -69 109.5t-25 130.5q0 75 29.5 141t81 115t120 77.5t146.5 28.5q53 0 101.5 -13.5t90.5 -37.5l36 42h158l-101 -117q43 -48 67.5 -108t24.5 -128q0 -75 -29.5 -141t-80.5 -115t-120 -77.5t-147 -28.5q-52 0 -99 12.5t-89 35.5l-33 -38h-158zM236 352
q0 -50 22 -92l227 263q-35 16 -71 16q-37 0 -69.5 -14.5t-56.5 -40t-38 -59.5t-14 -73zM414 165q37 0 69.5 14.5t57 40t38.5 59.5t14 73q0 23 -5.5 45.5t-15.5 42.5l-225 -262q29 -13 67 -13z" />
    <glyph glyph-name="Ugrave" unicode="&#xd9;" horiz-adv-x="758" 
d="M139 916l202 16l104 -185h-111zM705 283q0 -46 -12 -88t-35.5 -77.5t-59 -63t-81.5 -43.5q-60 -21 -138 -21t-136 21q-76 26 -121.5 79.5t-61.5 123.5q-6 31 -6 69v422h189v-371q0 -96 34 -134t102 -38t103 38t35 134v371h189z" />
    <glyph glyph-name="Uacute" unicode="&#xda;" horiz-adv-x="758" 
d="M426 747h-111l104 185l202 -16zM705 283q0 -46 -12 -88t-35.5 -77.5t-59 -63t-81.5 -43.5q-60 -21 -138 -21t-136 21q-76 26 -121.5 79.5t-61.5 123.5q-6 31 -6 69v422h189v-371q0 -96 34 -134t102 -38t103 38t35 134v371h189z" />
    <glyph glyph-name="Ucircumflex" unicode="&#xdb;" horiz-adv-x="758" 
d="M322 912h114l148 -165h-122l-84 81l-84 -81h-120zM705 283q0 -46 -12 -88t-35.5 -77.5t-59 -63t-81.5 -43.5q-60 -21 -138 -21t-136 21q-76 26 -121.5 79.5t-61.5 123.5q-6 31 -6 69v422h189v-371q0 -96 34 -134t102 -38t103 38t35 134v371h189z" />
    <glyph glyph-name="Udieresis" unicode="&#xdc;" horiz-adv-x="758" 
d="M486 906q35 0 59.5 -24.5t24.5 -59.5t-24.5 -59.5t-59.5 -24.5q-18 0 -33.5 6.5t-27 18t-18 27t-6.5 32.5t6.5 32.5t18 27t27 18t33.5 6.5zM270 906q35 0 59.5 -24.5t24.5 -59.5t-24.5 -59.5t-59.5 -24.5q-18 0 -33.5 6.5t-27 18t-18 27t-6.5 32.5t6.5 32.5t18 27t27 18
t33.5 6.5zM705 283q0 -46 -12 -88t-35.5 -77.5t-59 -63t-81.5 -43.5q-60 -21 -138 -21t-136 21q-76 26 -121.5 79.5t-61.5 123.5q-6 31 -6 69v422h189v-371q0 -96 34 -134t102 -38t103 38t35 134v371h189z" />
    <glyph glyph-name="Yacute" unicode="&#xdd;" horiz-adv-x="723" 
d="M401 747h-111l104 185l202 -16zM725 705l-266 -468v-237h-195v237l-266 468h221l143 -264l142 264h221z" />
    <glyph glyph-name="Thorn" unicode="&#xde;" horiz-adv-x="682" 
d="M62 700h194v-80h106q66 0 120 -17.5t92 -51.5t58.5 -83t20.5 -113q0 -68 -22.5 -118.5t-62.5 -84t-95.5 -50.5t-120.5 -17h-96v-85h-194v700zM348 240q52 0 81.5 30t29.5 83q0 56 -29 83.5t-83 27.5h-91v-224h92z" />
    <glyph glyph-name="germandbls" unicode="&#xdf;" horiz-adv-x="676" 
d="M523 416q57 -26 89 -70.5t32 -101.5q0 -65 -21.5 -112.5t-58.5 -79t-86.5 -47t-105.5 -15.5h-18.5t-18.5 2v154h10q22 0 42.5 5t36.5 16.5t25 30.5t9 46q0 39 -27.5 63t-78.5 24h-17v138q19 0 32.5 7t22 18.5t12 25t3.5 25.5q0 30 -23 50t-58 20q-24 0 -40 -7.5t-26 -19
t-14 -25t-4 -24.5v-714h-189v677q1 61 22.5 110t58.5 82.5t86 51.5t105 18t103.5 -15t82 -44.5t54 -72t19.5 -97.5q0 -36 -15.5 -66t-43.5 -53z" />
    <glyph glyph-name="agrave" unicode="&#xe0;" horiz-adv-x="666" 
d="M620 545v-545h-189v29q-31 -18 -64 -28.5t-68 -10.5q-56 0 -105.5 20t-86.5 56.5t-58.5 89t-21.5 117.5q0 66 21.5 118.5t58.5 89t86.5 56t105.5 19.5q33 0 66.5 -9t65.5 -25v23h189zM431 358q-20 16 -45 25t-52 9q-55 0 -88 -33.5t-33 -85.5q0 -57 33 -88.5t88 -31.5
q27 0 52 9t45 25v171zM70 758l202 16l104 -185h-111z" />
    <glyph glyph-name="aacute" unicode="&#xe1;" horiz-adv-x="666" 
d="M620 545v-545h-189v29q-31 -18 -64 -28.5t-68 -10.5q-56 0 -105.5 20t-86.5 56.5t-58.5 89t-21.5 117.5q0 66 21.5 118.5t58.5 89t86.5 56t105.5 19.5q33 0 66.5 -9t65.5 -25v23h189zM431 358q-20 16 -45 25t-52 9q-55 0 -88 -33.5t-33 -85.5q0 -57 33 -88.5t88 -31.5
q27 0 52 9t45 25v171zM341 589h-111l104 185l202 -16z" />
    <glyph glyph-name="acircumflex" unicode="&#xe2;" horiz-adv-x="666" 
d="M620 545v-545h-189v29q-31 -18 -64 -28.5t-68 -10.5q-56 0 -105.5 20t-86.5 56.5t-58.5 89t-21.5 117.5q0 66 21.5 118.5t58.5 89t86.5 56t105.5 19.5q33 0 66.5 -9t65.5 -25v23h189zM431 358q-20 16 -45 25t-52 9q-55 0 -88 -33.5t-33 -85.5q0 -57 33 -88.5t88 -31.5
q27 0 52 9t45 25v171zM240 752h114l148 -165h-122l-84 81l-84 -81h-120z" />
    <glyph glyph-name="atilde" unicode="&#xe3;" horiz-adv-x="666" 
d="M620 545v-545h-189v29q-31 -18 -64 -28.5t-68 -10.5q-56 0 -105.5 20t-86.5 56.5t-58.5 89t-21.5 117.5q0 66 21.5 118.5t58.5 89t86.5 56t105.5 19.5q33 0 66.5 -9t65.5 -25v23h189zM431 358q-20 16 -45 25t-52 9q-55 0 -88 -33.5t-33 -85.5q0 -57 33 -88.5t88 -31.5
q27 0 52 9t45 25v171zM84 583q0 83 36 128.5t88 45.5q23 0 45.5 -6t43 -13.5t38 -13.5t29.5 -6q21 0 36 16.5t25 39.5l81 -10q0 -39 -9.5 -71t-26.5 -55t-39.5 -35.5t-48.5 -12.5q-23 0 -45.5 6t-43 13.5t-38 13.5t-29.5 6q-21 0 -35.5 -16t-24.5 -39z" />
    <glyph glyph-name="adieresis" unicode="&#xe4;" horiz-adv-x="666" 
d="M620 545v-545h-189v29q-31 -18 -64 -28.5t-68 -10.5q-56 0 -105.5 20t-86.5 56.5t-58.5 89t-21.5 117.5q0 66 21.5 118.5t58.5 89t86.5 56t105.5 19.5q33 0 66.5 -9t65.5 -25v23h189zM431 358q-20 16 -45 25t-52 9q-55 0 -88 -33.5t-33 -85.5q0 -57 33 -88.5t88 -31.5
q27 0 52 9t45 25v171zM437 748q35 0 59.5 -24.5t24.5 -59.5t-24.5 -59.5t-59.5 -24.5q-18 0 -33.5 6.5t-27 18t-18 27t-6.5 32.5t6.5 32.5t18 27t27 18t33.5 6.5zM221 748q35 0 59.5 -24.5t24.5 -59.5t-24.5 -59.5t-59.5 -24.5q-18 0 -33.5 6.5t-27 18t-18 27t-6.5 32.5
t6.5 32.5t18 27t27 18t33.5 6.5z" />
    <glyph glyph-name="aring" unicode="&#xe5;" horiz-adv-x="666" 
d="M337 591q-26 0 -50 10.5t-42.5 28t-29.5 41t-11 49.5t11 49t29.5 40t42.5 27t50 10t50 -10t42.5 -27.5t29.5 -40.5t11 -50q0 -26 -11 -49t-29.5 -40t-42.5 -27.5t-50 -10.5zM337 652q28 0 47.5 19.5t19.5 48.5q0 26 -19.5 45.5t-47.5 19.5t-47.5 -19.5t-19.5 -47.5
q0 -27 19.5 -46.5t47.5 -19.5zM620 545v-545h-189v29q-31 -18 -64 -28.5t-68 -10.5q-56 0 -105.5 20t-86.5 56.5t-58.5 89t-21.5 117.5q0 66 21.5 118.5t58.5 89t86.5 56t105.5 19.5q33 0 66.5 -9t65.5 -25v23h189zM431 358q-20 16 -45 25t-52 9q-55 0 -88 -33.5t-33 -85.5
q0 -57 33 -88.5t88 -31.5q27 0 52 9t45 25v171z" />
    <glyph glyph-name="ae" unicode="&#xe6;" horiz-adv-x="1073" 
d="M428 0v29q-32 -18 -65 -28.5t-68 -10.5q-56 0 -105.5 19.5t-86.5 56.5t-58 89t-21 117q0 66 21 118.5t58 89t86.5 56t105.5 19.5q33 0 67 -8.5t66 -24.5v23h189v-37q30 20 66 32.5t77 14.5q4 1 8 1h8h1q68 0 118.5 -24.5t84 -65t50 -94t16.5 -112.5q0 -9 -0.5 -19
t-1.5 -20h-361q11 -45 41 -67t75 -22q35 0 63.5 13t57.5 42l105 -87q-40 -51 -96.5 -80.5t-135.5 -29.5q-54 0 -97.5 13.5t-78.5 39.5v-43h-189zM428 358q-20 16 -45.5 26.5t-51.5 10.5q-27 0 -50.5 -9.5t-40 -26t-26 -39t-9.5 -48.5q0 -57 35.5 -89.5t90.5 -32.5
q26 0 51.5 10.5t45.5 26.5v171zM868 318q-5 45 -30 71.5t-64 26.5q-38 0 -62 -26.5t-32 -71.5h188z" />
    <glyph glyph-name="ccedilla" unicode="&#xe7;" horiz-adv-x="569" 
d="M545 106q-35 -51 -87.5 -81t-113.5 -34l-63 -121l-177 16l68.5 68.5l35.5 35.5l13.5 13.5t2.5 3.5q-43 15 -78.5 41t-61.5 60.5t-40.5 76t-14.5 87.5q0 59 23.5 110.5t64 90t95 60.5t116.5 22q69 0 125.5 -31t93.5 -84l-120 -109q-15 28 -41 44.5t-58 16.5
q-24 0 -44.5 -9.5t-36 -26t-24.5 -38t-9 -46.5q0 -24 9 -46t24.5 -38t36 -25.5t44.5 -9.5q32 0 58 16.5t41 44.5z" />
    <glyph glyph-name="egrave" unicode="&#xe8;" horiz-adv-x="605" 
d="M575 221h-357q11 -35 39 -61t73 -26q34 0 62.5 18t48.5 50l118 -96q-38 -54 -102.5 -85t-146.5 -31q-62 0 -113.5 22t-88.5 60.5t-57.5 89.5t-20.5 110t20.5 110.5t57.5 90t88.5 60.5t113.5 22q63 0 112 -22t83.5 -61t52.5 -93.5t18 -118.5zM398 327q0 13 -3 28
t-12.5 27.5t-26.5 20.5t-46 8q-34 0 -57.5 -24.5t-34.5 -59.5h180zM60 758l202 16l104 -185h-111z" />
    <glyph glyph-name="eacute" unicode="&#xe9;" horiz-adv-x="605" 
d="M575 221h-357q11 -35 39 -61t73 -26q34 0 62.5 18t48.5 50l118 -96q-38 -54 -102.5 -85t-146.5 -31q-62 0 -113.5 22t-88.5 60.5t-57.5 89.5t-20.5 110t20.5 110.5t57.5 90t88.5 60.5t113.5 22q63 0 112 -22t83.5 -61t52.5 -93.5t18 -118.5zM398 327q0 13 -3 28
t-12.5 27.5t-26.5 20.5t-46 8q-34 0 -57.5 -24.5t-34.5 -59.5h180zM351 589h-111l104 185l202 -16z" />
    <glyph glyph-name="ecircumflex" unicode="&#xea;" horiz-adv-x="605" 
d="M575 221h-357q11 -35 39 -61t73 -26q34 0 62.5 18t48.5 50l118 -96q-38 -54 -102.5 -85t-146.5 -31q-62 0 -113.5 22t-88.5 60.5t-57.5 89.5t-20.5 110t20.5 110.5t57.5 90t88.5 60.5t113.5 22q63 0 112 -22t83.5 -61t52.5 -93.5t18 -118.5zM398 327q0 13 -3 28
t-12.5 27.5t-26.5 20.5t-46 8q-34 0 -57.5 -24.5t-34.5 -59.5h180zM242 752h114l148 -165h-122l-84 81l-84 -81h-120z" />
    <glyph glyph-name="edieresis" unicode="&#xeb;" horiz-adv-x="605" 
d="M575 221h-357q11 -35 39 -61t73 -26q34 0 62.5 18t48.5 50l118 -96q-38 -54 -102.5 -85t-146.5 -31q-62 0 -113.5 22t-88.5 60.5t-57.5 89.5t-20.5 110t20.5 110.5t57.5 90t88.5 60.5t113.5 22q63 0 112 -22t83.5 -61t52.5 -93.5t18 -118.5zM398 327q0 13 -3 28
t-12.5 27.5t-26.5 20.5t-46 8q-34 0 -57.5 -24.5t-34.5 -59.5h180zM407 748q35 0 59.5 -24.5t24.5 -59.5t-24.5 -59.5t-59.5 -24.5q-18 0 -33.5 6.5t-27 18t-18 27t-6.5 32.5t6.5 32.5t18 27t27 18t33.5 6.5zM191 748q35 0 59.5 -24.5t24.5 -59.5t-24.5 -59.5t-59.5 -24.5
q-18 0 -33.5 6.5t-27 18t-18 27t-6.5 32.5t6.5 32.5t18 27t27 18t33.5 6.5z" />
    <glyph glyph-name="igrave" unicode="&#xec;" horiz-adv-x="300" 
d="M55 545h189v-545h-189v545zM-89 758l202 16l104 -185h-111z" />
    <glyph glyph-name="iacute" unicode="&#xed;" horiz-adv-x="300" 
d="M55 545h189v-545h-189v545zM199 589h-111l104 185l202 -16z" />
    <glyph glyph-name="icircumflex" unicode="&#xee;" horiz-adv-x="300" 
d="M55 545h189v-545h-189v545zM94 752h114l148 -165h-122l-84 81l-84 -81h-120z" />
    <glyph glyph-name="idieresis" unicode="&#xef;" horiz-adv-x="300" 
d="M55 545h189v-545h-189v545zM257 748q35 0 59.5 -24.5t24.5 -59.5t-24.5 -59.5t-59.5 -24.5q-18 0 -33.5 6.5t-27 18t-18 27t-6.5 32.5t6.5 32.5t18 27t27 18t33.5 6.5zM41 748q35 0 59.5 -24.5t24.5 -59.5t-24.5 -59.5t-59.5 -24.5q-18 0 -33.5 6.5t-27 18t-18 27
t-6.5 32.5t6.5 32.5t18 27t27 18t33.5 6.5z" />
    <glyph glyph-name="eth" unicode="&#xf0;" horiz-adv-x="656" 
d="M353 754l44 -58q23 8 43 15t35 12q18 6 32 11l62 -90l-103 -36q33 -43 62 -85.5t50.5 -86t34 -88.5t12.5 -91v-17q-4 -53 -28.5 -98.5t-65 -79t-93 -53t-112.5 -19.5q-62 0 -116.5 21t-95 57t-64 84.5t-23.5 104.5q0 51 18.5 94.5t57.5 75.5t99 50t144 18l-42 56
l-140 -48q-19 24 -33 43q-13 17 -23 30.5t-9 15.5l11 4t30 11t43.5 15.5t53.5 18.5l-86 113h202zM326 144q24 0 44.5 9t36 24t24.5 35.5t9 44.5t-9 44.5t-24.5 35.5t-36.5 23.5t-44 8.5q-24 0 -44.5 -9t-36 -24t-24.5 -35.5t-9 -43.5q0 -24 9 -44.5t24.5 -35.5t36 -24
t44.5 -9z" />
    <glyph glyph-name="ntilde" unicode="&#xf1;" horiz-adv-x="634" 
d="M353 555q65 0 109.5 -14t72 -45t39.5 -79.5t12 -117.5v-299h-189v299q0 48 -17 70.5t-62 22.5q-46 0 -78 -29v-363h-189v545h189v-21q56 31 113 31zM109 583q0 83 36 128.5t88 45.5q23 0 45.5 -6t43 -13.5t38 -13.5t29.5 -6q21 0 36 16.5t25 39.5l81 -10q0 -39 -9.5 -71
t-26.5 -55t-39.5 -35.5t-48.5 -12.5q-23 0 -45.5 6t-43 13.5t-38 13.5t-29.5 6q-21 0 -35.5 -16t-24.5 -39z" />
    <glyph glyph-name="ograve" unicode="&#xf2;" horiz-adv-x="656" 
d="M327 555q62 0 116.5 -22t95 -60.5t64 -90t23.5 -110.5t-23.5 -110t-64 -89.5t-95 -60.5t-116.5 -22t-116.5 22t-95 60.5t-64 89.5t-23.5 110t23.5 110.5t64 90t95 60.5t116.5 22zM327 153q24 0 44.5 9.5t36 25.5t24.5 38t9 46q0 25 -9 46.5t-24.5 38t-36 26t-44.5 9.5
t-44.5 -9.5t-36 -26t-24.5 -38t-9 -46.5q0 -24 9 -46t24.5 -38t36 -25.5t44.5 -9.5zM85 758l202 16l104 -185h-111z" />
    <glyph glyph-name="oacute" unicode="&#xf3;" horiz-adv-x="656" 
d="M327 555q62 0 116.5 -22t95 -60.5t64 -90t23.5 -110.5t-23.5 -110t-64 -89.5t-95 -60.5t-116.5 -22t-116.5 22t-95 60.5t-64 89.5t-23.5 110t23.5 110.5t64 90t95 60.5t116.5 22zM327 153q24 0 44.5 9.5t36 25.5t24.5 38t9 46q0 25 -9 46.5t-24.5 38t-36 26t-44.5 9.5
t-44.5 -9.5t-36 -26t-24.5 -38t-9 -46.5q0 -24 9 -46t24.5 -38t36 -25.5t44.5 -9.5zM379 589h-111l104 185l202 -16z" />
    <glyph glyph-name="ocircumflex" unicode="&#xf4;" horiz-adv-x="656" 
d="M327 555q62 0 116.5 -22t95 -60.5t64 -90t23.5 -110.5t-23.5 -110t-64 -89.5t-95 -60.5t-116.5 -22t-116.5 22t-95 60.5t-64 89.5t-23.5 110t23.5 110.5t64 90t95 60.5t116.5 22zM327 153q24 0 44.5 9.5t36 25.5t24.5 38t9 46q0 25 -9 46.5t-24.5 38t-36 26t-44.5 9.5
t-44.5 -9.5t-36 -26t-24.5 -38t-9 -46.5q0 -24 9 -46t24.5 -38t36 -25.5t44.5 -9.5zM270 752h114l148 -165h-122l-84 81l-84 -81h-120z" />
    <glyph glyph-name="otilde" unicode="&#xf5;" horiz-adv-x="656" 
d="M327 555q62 0 116.5 -22t95 -60.5t64 -90t23.5 -110.5t-23.5 -110t-64 -89.5t-95 -60.5t-116.5 -22t-116.5 22t-95 60.5t-64 89.5t-23.5 110t23.5 110.5t64 90t95 60.5t116.5 22zM327 153q24 0 44.5 9.5t36 25.5t24.5 38t9 46q0 25 -9 46.5t-24.5 38t-36 26t-44.5 9.5
t-44.5 -9.5t-36 -26t-24.5 -38t-9 -46.5q0 -24 9 -46t24.5 -38t36 -25.5t44.5 -9.5zM117 583q0 83 36 128.5t88 45.5q23 0 45.5 -6t43 -13.5t38 -13.5t29.5 -6q21 0 36 16.5t25 39.5l81 -10q0 -39 -9.5 -71t-26.5 -55t-39.5 -35.5t-48.5 -12.5q-23 0 -45.5 6t-43 13.5
t-38 13.5t-29.5 6q-21 0 -35.5 -16t-24.5 -39z" />
    <glyph glyph-name="odieresis" unicode="&#xf6;" horiz-adv-x="656" 
d="M327 555q62 0 116.5 -22t95 -60.5t64 -90t23.5 -110.5t-23.5 -110t-64 -89.5t-95 -60.5t-116.5 -22t-116.5 22t-95 60.5t-64 89.5t-23.5 110t23.5 110.5t64 90t95 60.5t116.5 22zM327 153q24 0 44.5 9.5t36 25.5t24.5 38t9 46q0 25 -9 46.5t-24.5 38t-36 26t-44.5 9.5
t-44.5 -9.5t-36 -26t-24.5 -38t-9 -46.5q0 -24 9 -46t24.5 -38t36 -25.5t44.5 -9.5zM437 748q35 0 59.5 -24.5t24.5 -59.5t-24.5 -59.5t-59.5 -24.5q-18 0 -33.5 6.5t-27 18t-18 27t-6.5 32.5t6.5 32.5t18 27t27 18t33.5 6.5zM221 748q35 0 59.5 -24.5t24.5 -59.5
t-24.5 -59.5t-59.5 -24.5q-18 0 -33.5 6.5t-27 18t-18 27t-6.5 32.5t6.5 32.5t18 27t27 18t33.5 6.5z" />
    <glyph glyph-name="divide" unicode="&#xf7;" horiz-adv-x="526" 
d="M488 256h-448v156h448v-156zM259 472q-19 0 -36 7.5t-30 20t-20.5 29.5t-7.5 36t7.5 36t20.5 29.5t30 20t36 7.5t36 -7.5t29.5 -20t20 -29.5t7.5 -36t-7.5 -36t-20 -29.5t-29.5 -20t-36 -7.5zM259 10q-19 0 -36 7.5t-30 20t-20.5 29.5t-7.5 36t7.5 36t20.5 29.5t30 20
t36 7.5t36 -7.5t29.5 -20t20 -29.5t7.5 -36t-7.5 -36t-20 -29.5t-29.5 -20t-36 -7.5z" />
    <glyph glyph-name="oslash" unicode="&#xf8;" horiz-adv-x="656" 
d="M98 90q-33 37 -51.5 83t-18.5 99q0 59 23.5 110.5t64 90t95 60.5t116.5 22q42 0 81 -10.5t73 -29.5l28 31h133l-85 -94q32 -37 50.5 -82.5t18.5 -97.5q0 -59 -23.5 -110t-64 -89.5t-95 -60.5t-116.5 -22q-42 0 -79.5 10t-70.5 28l-26 -29h-134zM213 272q0 -23 8 -45
l143 158q-15 7 -37 7q-24 0 -44.5 -9.5t-36 -26t-24.5 -38t-9 -46.5zM327 153q24 0 44.5 9.5t36 25.5t24.5 38t9 46q0 21 -8 42l-140 -156q14 -5 34 -5z" />
    <glyph glyph-name="ugrave" unicode="&#xf9;" horiz-adv-x="634" 
d="M85 758l202 16l104 -185h-111zM583 545v-545h-189v21q-56 -31 -113 -31q-65 0 -109.5 14t-72 45t-39.5 79.5t-12 117.5v299h189v-299q0 -48 17 -70.5t62 -22.5q23 0 43 7.5t35 21.5v363h189z" />
    <glyph glyph-name="uacute" unicode="&#xfa;" horiz-adv-x="634" 
d="M583 545v-545h-189v21q-56 -31 -113 -31q-65 0 -109.5 14t-72 45t-39.5 79.5t-12 117.5v299h189v-299q0 -48 17 -70.5t62 -22.5q23 0 43 7.5t35 21.5v363h189zM354 589h-111l104 185l202 -16z" />
    <glyph glyph-name="ucircumflex" unicode="&#xfb;" horiz-adv-x="634" 
d="M260 752h114l148 -165h-122l-84 81l-84 -81h-120zM583 545v-545h-189v21q-56 -31 -113 -31q-65 0 -109.5 14t-72 45t-39.5 79.5t-12 117.5v299h189v-299q0 -48 17 -70.5t62 -22.5q23 0 43 7.5t35 21.5v363h189z" />
    <glyph glyph-name="udieresis" unicode="&#xfc;" horiz-adv-x="634" 
d="M429 748q35 0 59.5 -24.5t24.5 -59.5t-24.5 -59.5t-59.5 -24.5q-18 0 -33.5 6.5t-27 18t-18 27t-6.5 32.5t6.5 32.5t18 27t27 18t33.5 6.5zM213 748q35 0 59.5 -24.5t24.5 -59.5t-24.5 -59.5t-59.5 -24.5q-18 0 -33.5 6.5t-27 18t-18 27t-6.5 32.5t6.5 32.5t18 27t27 18
t33.5 6.5zM583 545v-545h-189v21q-56 -31 -113 -31q-65 0 -109.5 14t-72 45t-39.5 79.5t-12 117.5v299h189v-299q0 -48 17 -70.5t62 -22.5q23 0 43 7.5t35 21.5v363h189z" />
    <glyph glyph-name="yacute" unicode="&#xfd;" horiz-adv-x="626" 
d="M615 545l-222 -574q-5 -12 -12 -24t-15 -23q-34 -51 -92.5 -83t-147.5 -32q-56 0 -93 3l25 135h16q14 0 29 1t31 4q26 5 44 17.5t29 30.5l-196 545h197l103 -315l111 315h193zM350 589h-111l104 185l202 -16z" />
    <glyph glyph-name="thorn" unicode="&#xfe;" horiz-adv-x="676" 
d="M372 555q56 0 105.5 -19.5t86.5 -56t58.5 -89t21.5 -118.5q0 -65 -21.5 -117t-58.5 -89t-86.5 -56.5t-105.5 -19.5q-33 0 -66.5 8t-65.5 22v-195h-189v929h189v-229q32 14 65.5 22t66.5 8zM337 153q54 0 87.5 31t33.5 88q0 53 -33.5 86.5t-87.5 33.5q-27 0 -52 -9
t-45 -25v-171q20 -16 45 -25t52 -9z" />
    <glyph glyph-name="ydieresis" unicode="&#xff;" horiz-adv-x="626" 
d="M615 545l-222 -574q-5 -12 -12 -24t-15 -23q-34 -51 -92.5 -83t-147.5 -32q-56 0 -93 3l25 135q18 -1 37 0t39 5q26 5 44 17.5t29 30.5l-196 545h197l103 -315l111 315h193zM420 748q35 0 59.5 -24.5t24.5 -59.5t-24.5 -59.5t-59.5 -24.5q-18 0 -33.5 6.5t-27 18t-18 27
t-6.5 32.5t6.5 32.5t18 27t27 18t33.5 6.5zM204 748q35 0 59.5 -24.5t24.5 -59.5t-24.5 -59.5t-59.5 -24.5q-18 0 -33.5 6.5t-27 18t-18 27t-6.5 32.5t6.5 32.5t18 27t27 18t33.5 6.5z" />
    <glyph glyph-name="dotlessi" unicode="&#x131;" horiz-adv-x="300" 
d="M251 0h-195v541h195v-541z" />
    <glyph glyph-name="Lslash" unicode="&#x141;" horiz-adv-x="659" 
d="M31 396l74 22v287h195v-230l179 53v-177l-179 -53v-142h338v-156h-533v241l-74 -22v177z" />
    <glyph glyph-name="lslash" unicode="&#x142;" horiz-adv-x="401" 
d="M23 396l74 22v287h195v-230l85 27v-177l-85 -27v-298h-195v241l-74 -22v177z" />
    <glyph glyph-name="OE" unicode="&#x152;" horiz-adv-x="1078" 
d="M40 352q0 73 28 137.5t76 112.5t112.5 75.5t138.5 27.5h622v-161h-358v-124h296v-156h-296v-103h379v-161h-666q-69 4 -129.5 33.5t-105.5 76.5t-71 109.5t-26 132.5zM470 171v363h-75q-34 0 -63.5 -14.5t-51.5 -39t-35 -58t-13 -70.5q0 -36 12.5 -68.5t33.5 -57
t49.5 -39.5t61.5 -16h81z" />
    <glyph glyph-name="oe" unicode="&#x153;" horiz-adv-x="1013" 
d="M320 -11q-62 0 -115 22.5t-92 60.5t-61.5 89.5t-22.5 110.5q0 58 22.5 109.5t62.5 90t93.5 61t116.5 22.5t113.5 -21.5t86.5 -59.5q35 38 83 59.5t106 21.5q69 0 119.5 -24t84 -64.5t50 -94t16.5 -113.5q0 -9 -0.5 -19t-1.5 -20h-361q11 -45 41 -67t75 -22q35 0 63.5 13
t57.5 42l105 -87q-40 -51 -96.5 -80.5t-135.5 -29.5q-66 0 -118.5 21.5t-89.5 59.5q-37 -38 -88 -59.5t-114 -21.5zM805 317q-5 45 -30 71.5t-64 26.5q-38 0 -62 -26.5t-32 -71.5h188zM326 150q25 0 46 9.5t35 26t22 39t8 47.5t-8.5 47t-23.5 38.5t-35.5 26.5t-45.5 10
t-45.5 -9.5t-34.5 -26t-22 -39t-8 -47.5t8.5 -47t23.5 -38.5t35.5 -26.5t44.5 -10z" />
    <glyph glyph-name="Scaron" unicode="&#x160;" horiz-adv-x="652" 
d="M359 438q60 -13 108.5 -30.5t82.5 -43t52 -61t18 -85.5q0 -54 -20.5 -96t-57.5 -71.5t-89 -45t-116 -15.5q-47 0 -85 2.5t-73 10t-70.5 21t-77.5 34.5l70 144q66 -31 124 -41t119 -10q80 0 80 50q0 10 -5 19t-18.5 17t-36 15.5t-58.5 15.5q-56 13 -104 28.5t-83.5 40
t-56 61.5t-20.5 92q0 49 18.5 90t54 71t85.5 46.5t113 16.5q90 0 158.5 -18.5t123.5 -39.5l-78 -149q-24 9 -51 17.5t-54 14.5t-53.5 10t-50.5 4q-35 0 -52.5 -13.5t-17.5 -33.5q0 -12 5.5 -21t19 -17t37 -15t59.5 -15zM377 748h-114l-148 165h122l84 -81l84 81h120z" />
    <glyph glyph-name="scaron" unicode="&#x161;" horiz-adv-x="514" 
d="M94 177q27 -12 49 -20t42.5 -13.5t40.5 -8t44 -2.5q23 0 34.5 7t11.5 18q0 6 -2.5 11t-10.5 9t-24 9t-44 11q-44 10 -80.5 23.5t-63.5 34t-42 50.5t-15 73q0 39 14.5 71.5t42 55.5t66.5 36t89 13q71 0 124 -14t96 -31l-63 -133q-38 14 -81 24t-80 10q-26 0 -33.5 -5.5
t-7.5 -16.5q0 -7 4 -12t14.5 -10t28.5 -10t46 -11q94 -20 143 -60t49 -117q0 -42 -16 -75.5t-45 -56.5t-70 -35t-90 -12q-37 0 -66.5 2t-57 8t-55.5 16t-61 27zM317 586h-114l-148 165h122l84 -81l84 81h120z" />
    <glyph glyph-name="Ydieresis" unicode="&#x178;" horiz-adv-x="723" 
d="M470 903q35 0 59.5 -24.5t24.5 -59.5t-24.5 -59.5t-59.5 -24.5q-18 0 -33.5 6.5t-27 18t-18 27t-6.5 32.5t6.5 32.5t18 27t27 18t33.5 6.5zM254 903q35 0 59.5 -24.5t24.5 -59.5t-24.5 -59.5t-59.5 -24.5q-18 0 -33.5 6.5t-27 18t-18 27t-6.5 32.5t6.5 32.5t18 27t27 18
t33.5 6.5zM725 705l-266 -468v-237h-195v237l-266 468h221l143 -264l142 264h221z" />
    <glyph glyph-name="Zcaron" unicode="&#x17d;" horiz-adv-x="698" 
d="M659 620l-341 -459h341v-161h-619v81l343 463h-331v161h607v-85zM411 748h-114l-148 165h122l84 -81l84 81h120z" />
    <glyph glyph-name="zcaron" unicode="&#x17e;" horiz-adv-x="563" 
d="M299 149h236v-149h-516v87l245 307h-222v149h502v-87zM343 586h-114l-148 165h122l84 -81l84 81h120z" />
    <glyph glyph-name="florin" unicode="&#x192;" horiz-adv-x="553" 
d="M529 597q-33 3 -55 3q-25 0 -39.5 -4.5t-23 -15.5t-13 -30t-10.5 -48l-1 -4h92v-149h-121l-24 -130q-8 -45 -28 -78.5t-48 -56t-61.5 -34t-68.5 -11.5q-17 0 -26.5 1t-16.5 2.5t-13 3.5t-14 4v145h8q28 0 44.5 8t26.5 25t16 42.5t13 61.5l3 17h-61v149h90l16 78
q9 45 29 78.5t47.5 56t61 33.5t68.5 11t57 -3.5t33 -8.5q13 -5 19 -12v-134z" />
    <glyph glyph-name="circumflex" unicode="&#x2c6;" 
d="M193 752h114l148 -165h-122l-84 81l-84 -81h-120z" />
    <glyph glyph-name="caron" unicode="&#x2c7;" 
d="M307 587h-114l-148 165h122l84 -81l84 81h120z" />
    <glyph glyph-name="breve" unicode="&#x2d8;" 
d="M250 585q-85 0 -137.5 38t-59.5 119l111 10q9 -26 28.5 -42t57.5 -16t57.5 16t28.5 42l111 -10q-7 -81 -59.5 -119t-137.5 -38z" />
    <glyph glyph-name="dotaccent" unicode="&#x2d9;" 
d="M253 746q35 0 59.5 -24.5t24.5 -59.5t-24.5 -59.5t-59.5 -24.5q-18 0 -33.5 6.5t-27 18t-18 27t-6.5 32.5t6.5 32.5t18 27t27 18t33.5 6.5z" />
    <glyph glyph-name="ring" unicode="&#x2da;" 
d="M250 591q-26 0 -50 10.5t-42.5 28t-29.5 41t-11 49.5t11 49t29.5 40t42.5 27t50 10t50 -10t42.5 -27.5t29.5 -40.5t11 -50q0 -26 -11 -49t-29.5 -40t-42.5 -27.5t-50 -10.5zM250 652q28 0 47.5 19.5t19.5 48.5q0 26 -19.5 45.5t-47.5 19.5t-47.5 -19.5t-19.5 -47.5
q0 -27 19.5 -46.5t47.5 -19.5z" />
    <glyph glyph-name="ogonek" unicode="&#x2db;" 
d="M381 -164q-30 -3 -56 -3q-82 0 -124.5 28.5t-42.5 80.5q0 34 19 68h122q-5 -20 -5 -34q0 -26 20.5 -41.5t66.5 -16.5v-82z" />
    <glyph glyph-name="tilde" unicode="&#x2dc;" 
d="M36 573q0 83 36 128.5t88 45.5q23 0 45.5 -6t43 -13.5t38 -13.5t29.5 -6q21 0 36 16.5t25 39.5l81 -10q0 -39 -9.5 -71t-26.5 -55t-39.5 -35.5t-48.5 -12.5q-23 0 -45.5 6t-43 13.5t-38 13.5t-29.5 6q-21 0 -35.5 -16t-24.5 -39z" />
    <glyph glyph-name="hungarumlaut" unicode="&#x2dd;" 
d="M129 772l156 -54l30 54l166 -57l-143 -127h-123l59 108l-120 -108h-124z" />
    <glyph glyph-name="uni037E" unicode="&#x37e;" horiz-adv-x="294" 
d="M146 340q-21 0 -40 8t-33 22t-22 33t-8 40t8 40t22 33t33 22t40 8t40 -8t33.5 -22t22.5 -33t8 -40t-8 -40t-22.5 -33t-33.5 -22t-40 -8zM146 196q45 0 74.5 -30t29.5 -90q0 -32 -6.5 -68.5t-27.5 -68.5t-60 -53t-104 -21l-26 77q27 0 45 3.5t29.5 10.5t17.5 15.5t8 19.5
q-35 8 -59 36t-24 66q0 21 8 40t22 33t33 22t40 8z" />
    <glyph glyph-name="tonos" unicode="&#x384;" 
d="M213 560h-86l110 212l177 -16z" />
    <glyph glyph-name="dieresistonos" unicode="&#x385;" horiz-adv-x="570" 
d="M254 802l141 -33l-94 -180h-94zM477 744q35 0 59.5 -24.5t24.5 -59.5t-24.5 -59.5t-59.5 -24.5q-18 0 -33.5 6.5t-27 18t-18 27t-6.5 32.5t6.5 32.5t18 27t27 18t33.5 6.5zM91 744q35 0 59.5 -24.5t24.5 -59.5t-24.5 -59.5t-59.5 -24.5q-18 0 -33.5 6.5t-27 18t-18 27
t-6.5 32.5t6.5 32.5t18 27t27 18t33.5 6.5z" />
    <glyph glyph-name="Alphatonos" unicode="&#x386;" horiz-adv-x="795" 
d="M533 117h-272l-51 -117h-204l345 705h92l346 -705h-204zM330 273h135l-68 153zM33 537h-111l104 185l202 -16z" />
    <glyph glyph-name="anoteleia" unicode="&#x387;" horiz-adv-x="284" 
d="M246 313q0 -21 -8 -40t-22 -33t-33 -22t-41 -8q-21 0 -40 8t-33 22t-22 33t-8 40t8 40t22 33t33 22t40 8q22 0 41 -8t33 -22t22 -33t8 -40z" />
    <glyph glyph-name="Epsilontonos" unicode="&#x388;" horiz-adv-x="667" 
d="M-167 537h-111l104 185l202 -16zM630 161v-161h-568v705h547v-161h-358v-124h296v-156h-296v-103h379z" />
    <glyph glyph-name="Etatonos" unicode="&#x389;" horiz-adv-x="761" 
d="M-167 537h-111l104 185l202 -16zM699 705v-705h-189v155h-259v-155h-189v705h189v-389h259v389h189z" />
    <glyph glyph-name="Iotatonos" unicode="&#x38a;" horiz-adv-x="327" 
d="M261 0h-195v705h195v-705zM-167 537h-111l104 185l202 -16z" />
    <glyph glyph-name="Omicrontonos" unicode="&#x38c;" horiz-adv-x="831" 
d="M414 714q78 0 147 -28.5t120 -77.5t80.5 -115t29.5 -141t-29.5 -141t-80.5 -115t-120 -77.5t-147 -28.5t-146.5 28.5t-120 77.5t-81 115t-29.5 141t29.5 141t81 115t120 77.5t146.5 28.5zM414 165q37 0 69.5 14.5t57 40t38.5 59.5t14 73t-14 73t-38.5 59.5t-57 40
t-69.5 14.5t-69.5 -14.5t-56.5 -40t-38 -59.5t-14 -73t14 -73t38 -59.5t56.5 -40t69.5 -14.5zM-75 537h-111l104 185l202 -16z" />
    <glyph glyph-name="Upsilontonos" unicode="&#x38e;" horiz-adv-x="723" 
d="M-207 537h-111l104 185l202 -16zM725 705l-266 -468v-237h-195v237l-266 468h221l143 -264l142 264h221z" />
    <glyph glyph-name="Omegatonos" unicode="&#x38f;" horiz-adv-x="829" 
d="M791 379q0 -39 -9.5 -73t-25 -62t-36.5 -49.5t-45 -33.5h107v-161h-314v175q54 18 89 70.5t35 133.5q0 41 -14 73.5t-38 55t-56.5 34t-69.5 11.5t-69.5 -11.5t-57 -34t-38.5 -55t-14 -73.5q0 -81 35 -133.5t89 -70.5v-175h-313v161h106q-24 12 -44.5 33.5t-36.5 49.5
t-25 62t-9 73q0 88 29.5 152t80.5 104.5t120 60t147 19.5t146.5 -19.5t120 -60t81 -104.5t29.5 -152zM-79 537h-111l104 185l202 -16z" />
    <glyph glyph-name="iotadieresistonos" unicode="&#x390;" horiz-adv-x="300" 
d="M55 545h189v-545h-189v545zM142 802l141 -33l-94 -180h-94zM365 744q35 0 59.5 -24.5t24.5 -59.5t-24.5 -59.5t-59.5 -24.5q-18 0 -33.5 6.5t-27 18t-18 27t-6.5 32.5t6.5 32.5t18 27t27 18t33.5 6.5zM-21 744q35 0 59.5 -24.5t24.5 -59.5t-24.5 -59.5t-59.5 -24.5
q-18 0 -33.5 6.5t-27 18t-18 27t-6.5 32.5t6.5 32.5t18 27t27 18t33.5 6.5z" />
    <glyph glyph-name="Alpha" unicode="&#x391;" horiz-adv-x="795" 
d="M533 117h-272l-51 -117h-204l345 705h92l346 -705h-204zM330 273h135l-68 153z" />
    <glyph glyph-name="Beta" unicode="&#x392;" horiz-adv-x="715" 
d="M499 443q40 -6 74.5 -25.5t60 -48.5t40 -66.5t14.5 -79.5q0 -44 -13.5 -84.5t-40.5 -71t-67 -49t-92 -18.5h-413v705h338q31 0 58.5 -12t47.5 -32t32 -47t12 -58q0 -34 -14 -63t-37 -50zM251 462h74q28 0 41 12t13 29t-12.5 29t-41.5 12h-74v-82zM364 161q67 0 93.5 22
t26.5 61q0 15 -6.5 29.5t-21 26t-37 18.5t-54.5 7h-113v-164h112z" />
    <glyph glyph-name="Gamma" unicode="&#x393;" horiz-adv-x="618" 
d="M595 544h-338v-544h-195v705h533v-161z" />
    <glyph glyph-name="uni0394" unicode="&#x394;" horiz-adv-x="785" 
d="M774 0h-766l338 705h90zM281 161h220l-110 256z" />
    <glyph glyph-name="Epsilon" unicode="&#x395;" horiz-adv-x="667" 
d="M630 161v-161h-568v705h547v-161h-358v-124h296v-156h-296v-103h379z" />
    <glyph glyph-name="Zeta" unicode="&#x396;" horiz-adv-x="698" 
d="M659 620l-341 -459h341v-161h-619v81l343 463h-331v161h607v-85z" />
    <glyph glyph-name="Eta" unicode="&#x397;" horiz-adv-x="761" 
d="M699 705v-705h-189v155h-259v-155h-189v705h189v-389h259v389h189z" />
    <glyph glyph-name="Theta" unicode="&#x398;" horiz-adv-x="831" 
d="M414 714q78 0 146.5 -28.5t120 -77.5t81 -115t29.5 -141t-29.5 -141t-81 -115t-120 -77.5t-146.5 -28.5t-146.5 28.5t-120 77.5t-81 115t-29.5 141t29.5 141t81 115t120 77.5t146.5 28.5zM414 165q37 0 69.5 14.5t57 40t38.5 59.5t14 73t-14 73t-38.5 59.5t-57 40
t-69.5 14.5t-69.5 -14.5t-56.5 -40t-38 -59.5t-14 -73t14 -73t38 -59.5t56.5 -40t69.5 -14.5zM307 430h214v-156h-214v156z" />
    <glyph glyph-name="Iota" unicode="&#x399;" horiz-adv-x="327" 
d="M261 0h-195v705h195v-705z" />
    <glyph glyph-name="Kappa" unicode="&#x39a;" horiz-adv-x="730" 
d="M736 0h-254l-185 208l-46 -53v-155h-189v705h189v-281l243 282h233l-305 -353z" />
    <glyph glyph-name="Lambda" unicode="&#x39b;" horiz-adv-x="774" 
d="M760 0h-203l-171 407l-171 -407h-203l330 705h88z" />
    <glyph glyph-name="Mu" unicode="&#x39c;" horiz-adv-x="868" 
d="M806 705v-705h-195v293l-177 -225l-177 225v-293h-195v705h92l280 -356l280 356h92z" />
    <glyph glyph-name="Nu" unicode="&#x39d;" horiz-adv-x="785" 
d="M723 705v-705h-92l-374 363v-363h-195v705h92l374 -363v363h195z" />
    <glyph glyph-name="Xi" unicode="&#x39e;" horiz-adv-x="708" 
d="M115 274v156h492v-156h-492zM669 544h-616v161h616v-161zM674 161v-161h-626v161h626z" />
    <glyph glyph-name="Omicron" unicode="&#x39f;" horiz-adv-x="831" 
d="M414 714q78 0 147 -28.5t120 -77.5t80.5 -115t29.5 -141t-29.5 -141t-80.5 -115t-120 -77.5t-147 -28.5t-146.5 28.5t-120 77.5t-81 115t-29.5 141t29.5 141t81 115t120 77.5t146.5 28.5zM414 165q37 0 69.5 14.5t57 40t38.5 59.5t14 73t-14 73t-38.5 59.5t-57 40
t-69.5 14.5t-69.5 -14.5t-56.5 -40t-38 -59.5t-14 -73t14 -73t38 -59.5t56.5 -40t69.5 -14.5z" />
    <glyph glyph-name="Pi" unicode="&#x3a0;" horiz-adv-x="750" 
d="M689 705v-705h-189v544h-248v-544h-189v705h626z" />
    <glyph glyph-name="Rho" unicode="&#x3a1;" horiz-adv-x="673" 
d="M363 705q81 0 137 -22t90 -59t49 -85.5t15 -100.5q0 -76 -23.5 -129.5t-66 -87.5t-101.5 -50t-130 -16h-76v-155h-195v705h301zM313 310q39 0 65 9.5t42 25.5t23 36.5t7 42.5q0 23 -6 44.5t-20 38.5t-37 27t-57 10h-73v-234h56z" />
    <glyph glyph-name="Sigma" unicode="&#x3a3;" horiz-adv-x="690" 
d="M653 161v-161h-616v85l214 267l-199 268v85h592v-161h-316l142 -192l-148 -191h331z" />
    <glyph glyph-name="Tau" unicode="&#x3a4;" horiz-adv-x="660" 
d="M638 544h-209v-544h-195v544h-210v161h614v-161z" />
    <glyph glyph-name="Upsilon" unicode="&#x3a5;" horiz-adv-x="723" 
d="M725 705l-266 -468v-237h-195v237l-266 468h221l143 -264l142 264h221z" />
    <glyph glyph-name="Phi" unicode="&#x3a6;" horiz-adv-x="915" 
d="M881 362v-9q-1 -63 -27.5 -118t-71.5 -96t-104 -64.5t-125 -23.5v-51h-189v51q-62 1 -119 23t-101.5 61t-73.5 94.5t-34 123.5v10q1 63 27.5 118t71.5 96t104 64.5t125 23.5v40h189v-40q63 -2 121.5 -24.5t103.5 -62t73 -95t30 -121.5zM225 358q0 -29 9 -55t26.5 -45
t43.5 -30t60 -11v282q-69 -1 -104 -41.5t-35 -99.5zM553 217q34 0 60 11t43.5 30t26.5 45t9 55t-9 55t-26.5 45t-43.5 30t-60 11v-282z" />
    <glyph glyph-name="Chi" unicode="&#x3a7;" horiz-adv-x="732" 
d="M498 705h214l-219 -348l229 -357h-219l-136 214l-136 -214h-219l230 357l-220 348h215l130 -205z" />
    <glyph glyph-name="Psi" unicode="&#x3a8;" horiz-adv-x="877" 
d="M831 705v-258q-3 -61 -27.5 -114.5t-65 -93t-93.5 -62t-112 -22.5v-155h-189v155q-59 0 -113 22.5t-95 62t-65.5 93t-24.5 114.5v258h189v-258q1 -27 7.5 -50t19.5 -40t33 -26.5t49 -9.5v384h189v-384q29 0 49.5 9.5t33.5 26.5t19 40t8 50v258h188z" />
    <glyph glyph-name="uni03A9" unicode="&#x3a9;" horiz-adv-x="829" 
d="M791 379q0 -39 -9.5 -73t-25 -62t-36.5 -49.5t-45 -33.5h107v-161h-314v175q54 18 89 70.5t35 133.5q0 41 -14 73.5t-38 55t-56.5 34t-69.5 11.5t-69.5 -11.5t-57 -34t-38.5 -55t-14 -73.5q0 -81 35 -133.5t89 -70.5v-175h-313v161h106q-24 12 -44.5 33.5t-36.5 49.5
t-25 62t-9 73q0 88 29.5 152t80.5 104.5t120 60t147 19.5t146.5 -19.5t120 -60t81 -104.5t29.5 -152z" />
    <glyph glyph-name="Iotadieresis" unicode="&#x3aa;" horiz-adv-x="327" 
d="M261 0h-195v705h195v-705zM271 903q35 0 59.5 -24.5t24.5 -59.5t-24.5 -59.5t-59.5 -24.5q-18 0 -33.5 6.5t-27 18t-18 27t-6.5 32.5t6.5 32.5t18 27t27 18t33.5 6.5zM55 903q35 0 59.5 -24.5t24.5 -59.5t-24.5 -59.5t-59.5 -24.5q-18 0 -33.5 6.5t-27 18t-18 27
t-6.5 32.5t6.5 32.5t18 27t27 18t33.5 6.5z" />
    <glyph glyph-name="Upsilondieresis" unicode="&#x3ab;" horiz-adv-x="723" 
d="M725 705l-266 -468v-237h-195v237l-266 468h221l143 -264l142 264h221zM471 903q35 0 59.5 -24.5t24.5 -59.5t-24.5 -59.5t-59.5 -24.5q-18 0 -33.5 6.5t-27 18t-18 27t-6.5 32.5t6.5 32.5t18 27t27 18t33.5 6.5zM255 903q35 0 59.5 -24.5t24.5 -59.5t-24.5 -59.5
t-59.5 -24.5q-18 0 -33.5 6.5t-27 18t-18 27t-6.5 32.5t6.5 32.5t18 27t27 18t33.5 6.5z" />
    <glyph glyph-name="alphatonos" unicode="&#x3ac;" horiz-adv-x="675" 
d="M620 545v-545h-189v29q-31 -18 -64 -28.5t-68 -10.5q-56 0 -105.5 20t-86.5 56.5t-58.5 89t-21.5 117.5q0 66 21.5 118.5t58.5 89t86.5 56t105.5 19.5q33 0 66.5 -9t65.5 -25v23h189zM431 358q-20 16 -45 25t-52 9q-55 0 -88 -33.5t-33 -85.5q0 -57 33 -88.5t88 -31.5
q27 0 52 9t45 25v171zM361 589h-111l104 185l202 -16z" />
    <glyph glyph-name="epsilontonos" unicode="&#x3ad;" horiz-adv-x="578" 
d="M559 61q-33 -16 -64 -29t-63 -22.5t-67 -14.5t-76 -5q-57 0 -104 8.5t-81.5 27t-53.5 49.5t-19 76q0 53 27 83t76 45q-39 18 -61 46.5t-22 69.5q0 47 18.5 78t51.5 49t78.5 25.5t99.5 7.5q71 0 132.5 -19t117.5 -45l-72 -112q-93 35 -152 35q-42 0 -67.5 -11t-25.5 -30
q0 -6 2 -14.5t11 -16t26.5 -12.5t48.5 -5h88v-98h-113q-24 0 -39.5 -5.5t-24.5 -13.5t-12.5 -17.5t-3.5 -18.5q0 -5 4.5 -12t14 -13t24.5 -10t37 -4q29 0 52 3t44.5 8.5t44 14.5t50.5 21zM351 589h-111l104 185l202 -16z" />
    <glyph glyph-name="etatonos" unicode="&#x3ae;" horiz-adv-x="634" 
d="M353 555q65 0 109.5 -14t72 -45t39.5 -79.5t12 -117.5v-299h-189v299q0 48 -17 70.5t-62 22.5q-46 0 -78 -29v-363h-189v545h189v-21q56 31 113 31zM361 589h-111l104 185l202 -16z" />
    <glyph glyph-name="iotatonos" unicode="&#x3af;" horiz-adv-x="300" 
d="M55 545h189v-545h-189v545zM208 589h-111l104 185l202 -16z" />
    <glyph glyph-name="upsilondieresistonos" unicode="&#x3b0;" horiz-adv-x="621" 
d="M575 219q0 -54 -22 -97t-59 -72t-85 -44.5t-99 -15.5q-48 0 -95.5 14.5t-85 43.5t-60.5 71.5t-23 99.5v326h189v-286q0 -25 1.5 -45.5t8.5 -35.5t22.5 -23t42.5 -8q28 0 43 9t22 24.5t8.5 36t1.5 42.5v286h190v-326zM281 802l141 -33l-94 -180h-94zM504 744
q35 0 59.5 -24.5t24.5 -59.5t-24.5 -59.5t-59.5 -24.5q-18 0 -33.5 6.5t-27 18t-18 27t-6.5 32.5t6.5 32.5t18 27t27 18t33.5 6.5zM118 744q35 0 59.5 -24.5t24.5 -59.5t-24.5 -59.5t-59.5 -24.5q-18 0 -33.5 6.5t-27 18t-18 27t-6.5 32.5t6.5 32.5t18 27t27 18t33.5 6.5z
" />
    <glyph glyph-name="alpha" unicode="&#x3b1;" horiz-adv-x="675" 
d="M624 545v-545h-189v29q-31 -18 -64 -28.5t-68 -10.5q-56 0 -105.5 20t-86.5 56.5t-58.5 89t-21.5 117.5q0 66 21.5 118.5t58.5 89t86.5 56t105.5 19.5q33 0 66.5 -9t65.5 -25v23h189zM435 358q-20 16 -45 25t-52 9q-55 0 -88 -33.5t-33 -85.5q0 -57 33 -88.5t88 -31.5
q27 0 52 9t45 25v171z" />
    <glyph glyph-name="beta" unicode="&#x3b2;" horiz-adv-x="673" 
d="M524 417q57 -27 89 -71.5t32 -101.5q0 -65 -21.5 -112.5t-58.5 -79t-86.5 -47t-105.5 -15.5q-33 0 -66.5 7.5t-65.5 22.5v-195h-189v677q0 61 21.5 110t58.5 83t86 52t105 18q57 0 104.5 -15t82 -44.5t54 -72.5t19.5 -98q0 -36 -15.5 -66t-43.5 -52zM324 615
q-27 0 -43.5 -7.5t-25 -19t-11.5 -25t-3 -24.5v-70h99q36 2 51 23t15 53q0 35 -23 52.5t-59 17.5zM340 146q24 0 46 5t38 16t25.5 30t9.5 47q0 39 -27.5 63t-78.5 24h-112v-144q20 -16 46 -28.5t53 -12.5z" />
    <glyph glyph-name="gamma" unicode="&#x3b3;" horiz-adv-x="625" 
d="M611 545l-204 -549v-171h-189v175l-208 545h193l109 -287l107 287h192z" />
    <glyph glyph-name="delta" unicode="&#x3b4;" horiz-adv-x="651" 
d="M362 605q59 -51 107.5 -89.5t83 -76t53.5 -80.5t19 -102v-17q-4 -53 -28.5 -98.5t-65 -79t-93 -53t-112.5 -19.5q-62 0 -116.5 21t-95 57t-64 84.5t-23.5 104.5q0 51 22.5 93.5t58.5 74t82 49t94 17.5l-197 176v87h459v-149h-184zM326 144q24 0 44.5 9t36 24t24.5 35.5
t9 44.5t-9 44.5t-24.5 35.5t-36.5 23.5t-44 8.5q-24 0 -44.5 -9t-36 -24t-24.5 -35.5t-9 -43.5q0 -24 9 -44.5t24.5 -35.5t36 -24t44.5 -9z" />
    <glyph glyph-name="epsilon" unicode="&#x3b5;" horiz-adv-x="578" 
d="M559 61q-33 -16 -64 -29t-63 -22.5t-67 -14.5t-76 -5q-57 0 -104 8.5t-81.5 27t-53.5 49.5t-19 76q0 53 27 83t76 45q-39 18 -61 46.5t-22 69.5q0 47 18.5 78t51.5 49t78.5 25.5t99.5 7.5q71 0 132.5 -19t117.5 -45l-72 -112q-93 35 -152 35q-42 0 -67.5 -11t-25.5 -30
q0 -6 2 -14.5t11 -16t26.5 -12.5t48.5 -5h88v-98h-113q-24 0 -39.5 -5.5t-24.5 -13.5t-12.5 -17.5t-3.5 -18.5q0 -5 4.5 -12t14 -13t24.5 -10t37 -4q29 0 52 3t44.5 8.5t44 14.5t50.5 21z" />
    <glyph glyph-name="zeta" unicode="&#x3b6;" horiz-adv-x="539" 
d="M560 640q-28 -19 -64 -47t-74 -63t-75 -74.5t-65.5 -79.5t-46.5 -79.5t-18 -74.5q0 -33 26 -48.5t64.5 -25t83 -18.5t80.5 -27q33 -17 50 -46t17 -62q0 -27 -11 -54t-34 -50q-26 -25 -52 -40.5t-47 -23.5q-25 -11 -48 -15l-63 92q33 26 47.5 42.5t14.5 26.5q0 9 -10 14
t-27 7q-48 7 -98.5 20t-91.5 37t-67.5 61.5t-26.5 93.5q0 52 25 108.5t66 110t94 100.5t109 80h-245v149h487v-114z" />
    <glyph glyph-name="eta" unicode="&#x3b7;" horiz-adv-x="634" 
d="M353 555q65 0 109.5 -14t72 -45t39.5 -79.5t12 -117.5v-299h-189v299q0 48 -17 70.5t-62 22.5q-46 0 -78 -29v-363h-189v545h189v-21q56 31 113 31z" />
    <glyph glyph-name="theta" unicode="&#x3b8;" horiz-adv-x="642" 
d="M322 754q59 0 111 -25.5t90.5 -74.5t61 -120t22.5 -162t-22.5 -162t-61 -120t-90.5 -74.5t-111 -25.5t-111 25.5t-90.5 74.5t-61 120t-22.5 162t22.5 162t61 120t90.5 74.5t111 25.5zM322 606q-27 0 -47 -16.5t-33.5 -40.5t-20 -52t-6.5 -51q80 0 123.5 0.5t63.5 1
t23.5 1l3.5 0.5q0 29 -8.5 57t-23 50.5t-34 36t-41.5 13.5zM322 137q27 0 47 16.5t33.5 40.5t20 52t6.5 51h-123.5t-63.5 -0.5t-23.5 -1l-3.5 -0.5q0 -29 8.5 -57t23 -50.5t34 -36.5t41.5 -14z" />
    <glyph glyph-name="iota" unicode="&#x3b9;" horiz-adv-x="300" 
d="M55 545h189v-545h-189v545z" />
    <glyph glyph-name="kappa" unicode="&#x3ba;" horiz-adv-x="603" 
d="M608 0h-208l-108 186l-52 -59v-127h-189v544h189v-169l146 170h217l-187 -215z" />
    <glyph glyph-name="lambda" unicode="&#x3bb;" horiz-adv-x="600" 
d="M597 0h-203l-92 315l-86 -315h-202l213 541q-19 41 -39.5 58.5t-46.5 22.5q-17 3 -33.5 0.5t-32.5 -4.5v140q13 2 27 4.5t31 2.5q91 0 155.5 -50.5t94.5 -140.5z" />
    <glyph glyph-name="uni03BC" unicode="&#x3bc;" horiz-adv-x="638" 
d="M586 545v-545h-189v17q-22 -13 -45.5 -20t-48.5 -7q-17 0 -32.5 4t-30.5 12v-181h-189v720h189v-299q0 -48 17 -70.5t62 -22.5q23 0 43 7.5t35 21.5v363h189z" />
    <glyph glyph-name="nu" unicode="&#x3bd;" horiz-adv-x="625" 
d="M615 545l-259 -545h-87l-259 545h197l106 -236l105 236h197z" />
    <glyph glyph-name="xi" unicode="&#x3be;" horiz-adv-x="561" 
d="M558 640q-37 -7 -84.5 -18t-89.5 -27.5t-70.5 -39t-28.5 -52.5q0 -27 21 -46t53.5 -31t71 -17.5t74.5 -5.5v-124q-137 -2 -207 -26t-70 -52q0 -22 12.5 -34t33 -19t47.5 -10.5t55.5 -7t57.5 -9t53 -16.5q35 -16 52 -45.5t17 -63.5q0 -28 -11 -55t-34 -50
q-25 -25 -49.5 -40.5t-44.5 -23.5q-23 -11 -44 -15l-72 92q32 25 45 41t13 26t-10.5 15t-27.5 8q-49 7 -101.5 20.5t-95.5 37t-70.5 60.5t-27.5 92q0 61 42 99.5t108 60.5q-36 23 -58 55.5t-22 76.5q0 33 13.5 60t36.5 49h-85v149h497v-114z" />
    <glyph glyph-name="omicron" unicode="&#x3bf;" horiz-adv-x="656" 
d="M327 555q62 0 116.5 -22t95 -60.5t64 -90t23.5 -110.5t-23.5 -110t-64 -89.5t-95 -60.5t-116.5 -22t-116.5 22t-95 60.5t-64 89.5t-23.5 110t23.5 110.5t64 90t95 60.5t116.5 22zM327 153q24 0 44.5 9.5t36 25.5t24.5 38t9 46q0 25 -9 46.5t-24.5 38t-36 26t-44.5 9.5
t-44.5 -9.5t-36 -26t-24.5 -38t-9 -46.5q0 -24 9 -46t24.5 -38t36 -25.5t44.5 -9.5z" />
    <glyph glyph-name="pi" unicode="&#x3c0;" horiz-adv-x="630" 
d="M579 545v-545h-190v390h-149v-390h-189v545h528z" />
    <glyph glyph-name="rho" unicode="&#x3c1;" horiz-adv-x="657" 
d="M337 555q56 0 108.5 -19.5t93 -56t65 -89t24.5 -118.5q0 -65 -21.5 -117t-58.5 -89t-86.5 -56.5t-105.5 -19.5q-68 0 -132 30v-195h-189v453q0 60 23.5 111t64.5 88t96 57.5t118 20.5zM321 153q54 0 87.5 31t33.5 88q0 53 -30.5 86.5t-85.5 33.5q-8 0 -25 -3.5t-34 -13.5
t-30 -28t-13 -48v-112q20 -16 45 -25t52 -9z" />
    <glyph glyph-name="uni03C2" unicode="&#x3c2;" horiz-adv-x="566" 
d="M447 93q30 -14 49.5 -44t19.5 -65q0 -34 -18.5 -65t-47 -55t-62.5 -40.5t-66 -21.5l-63 92q38 30 56 47t18 27q0 11 -29 16q-54 8 -103.5 32t-88 61.5t-61 86.5t-22.5 108q0 60 24.5 111.5t65.5 90t95.5 60t113.5 21.5q66 0 124 -30t95 -85l-120 -109q-15 28 -41 44.5
t-58 16.5q-24 0 -44.5 -9.5t-36 -26t-24.5 -38t-9 -46.5q0 -48 24 -74.5t59.5 -43t76 -29.5t73.5 -32z" />
    <glyph glyph-name="sigma" unicode="&#x3c3;" horiz-adv-x="680" 
d="M648 396h-107q45 -26 62 -60t17 -81q0 -51 -22.5 -99t-61.5 -85t-92.5 -59t-115.5 -22t-116.5 22t-95 60.5t-64 89.5t-23.5 110t23.5 109t64 86.5t95 57t116.5 20.5h320v-149zM328 153q24 0 44.5 9.5t36 25.5t24.5 38t9 46q0 25 -9 46.5t-24.5 38t-36 26t-44.5 9.5
t-44.5 -9.5t-36 -26t-24.5 -38t-9 -46.5q0 -24 9 -46t24.5 -38t36 -25.5t44.5 -9.5z" />
    <glyph glyph-name="tau" unicode="&#x3c4;" horiz-adv-x="512" 
d="M491 396h-140v-396h-189v396h-142v149h471v-149z" />
    <glyph glyph-name="upsilon" unicode="&#x3c5;" horiz-adv-x="621" 
d="M575 219q0 -54 -22 -97t-59 -72t-85 -44.5t-99 -15.5q-48 0 -95.5 14.5t-85 43.5t-60.5 71.5t-23 99.5v326h189v-286q0 -25 1.5 -45.5t8.5 -35.5t22.5 -23t42.5 -8q28 0 43 9t22 24.5t8.5 36t1.5 42.5v286h190v-326z" />
    <glyph glyph-name="phi" unicode="&#x3c6;" horiz-adv-x="839" 
d="M813 267q0 -55 -24.5 -105t-66.5 -88.5t-97.5 -61t-116.5 -22.5v-165h-176v165q-61 0 -116.5 22.5t-97.5 61t-66.5 88.5t-24.5 105q0 45 14.5 86.5t41 76t63.5 62t81 45.5l60 -135q-22 -6 -36.5 -20t-23 -31.5t-12 -38t-3.5 -40.5q0 -26 6.5 -51t20.5 -44.5t37 -31
t56 -10.5v410q60 12 123 12q68 0 132.5 -16t114.5 -50.5t80.5 -89.5t30.5 -134zM508 135q33 -1 56 10.5t37 31t20.5 44.5t6.5 51t-6 51t-20.5 44.5t-37.5 31.5t-56 11v-275z" />
    <glyph glyph-name="chi" unicode="&#x3c7;" horiz-adv-x="589" 
d="M209 0h-201l182 281l-178 264h209l74 -125l74 125h209l-179 -264l183 -281h-202l-85 126z" />
    <glyph glyph-name="psi" unicode="&#x3c8;" horiz-adv-x="830" 
d="M785 545v-326q0 -72 -38.5 -129t-114.5 -83q-29 -10 -60.5 -13t-66.5 -4v-165h-181v165q-32 0 -67.5 4.5t-59.5 12.5q-76 26 -114.5 83t-38.5 129v326h189v-286q0 -22 4 -42t14.5 -35t28 -24.5t44.5 -10.5v469h181v-469q28 0 45.5 8t27.5 23t14 35.5t4 45.5v286h189z" />
    <glyph glyph-name="omega" unicode="&#x3c9;" horiz-adv-x="865" 
d="M563 555q56 0 105.5 -19.5t86.5 -56t58.5 -89t21.5 -118.5q0 -65 -16.5 -117t-47.5 -89t-75.5 -56.5t-100.5 -19.5q-71 0 -109 30t-54 72q-17 -42 -55 -72t-108 -30q-57 0 -101.5 19.5t-75 56.5t-47 89t-16.5 117q0 66 21 118.5t58 89t86.5 56t105.5 19.5v-167
q-39 -11 -62 -41.5t-23 -74.5q0 -57 15.5 -88t50.5 -31q22 0 35 11t19 28t7.5 37.5t1.5 39.5v75h176v-75q0 -19 1 -39.5t7 -37.5t18.5 -28t35.5 -11q35 0 51 31t16 88q0 44 -23.5 74.5t-62.5 41.5v167z" />
    <glyph glyph-name="iotadieresis" unicode="&#x3ca;" horiz-adv-x="300" 
d="M55 545h189v-545h-189v545zM257 748q35 0 59.5 -24.5t24.5 -59.5t-24.5 -59.5t-59.5 -24.5q-18 0 -33.5 6.5t-27 18t-18 27t-6.5 32.5t6.5 32.5t18 27t27 18t33.5 6.5zM41 748q35 0 59.5 -24.5t24.5 -59.5t-24.5 -59.5t-59.5 -24.5q-18 0 -33.5 6.5t-27 18t-18 27
t-6.5 32.5t6.5 32.5t18 27t27 18t33.5 6.5z" />
    <glyph glyph-name="upsilondieresis" unicode="&#x3cb;" horiz-adv-x="621" 
d="M575 219q0 -54 -22 -97t-59 -72t-85 -44.5t-99 -15.5q-48 0 -95.5 14.5t-85 43.5t-60.5 71.5t-23 99.5v326h189v-286q0 -25 1.5 -45.5t8.5 -35.5t22.5 -23t42.5 -8q28 0 43 9t22 24.5t8.5 36t1.5 42.5v286h190v-326zM418 748q35 0 59.5 -24.5t24.5 -59.5t-24.5 -59.5
t-59.5 -24.5q-18 0 -33.5 6.5t-27 18t-18 27t-6.5 32.5t6.5 32.5t18 27t27 18t33.5 6.5zM202 748q35 0 59.5 -24.5t24.5 -59.5t-24.5 -59.5t-59.5 -24.5q-18 0 -33.5 6.5t-27 18t-18 27t-6.5 32.5t6.5 32.5t18 27t27 18t33.5 6.5z" />
    <glyph glyph-name="omicrontonos" unicode="&#x3cc;" horiz-adv-x="656" 
d="M327 555q62 0 116.5 -22t95 -60.5t64 -90t23.5 -110.5t-23.5 -110t-64 -89.5t-95 -60.5t-116.5 -22t-116.5 22t-95 60.5t-64 89.5t-23.5 110t23.5 110.5t64 90t95 60.5t116.5 22zM327 153q24 0 44.5 9.5t36 25.5t24.5 38t9 46q0 25 -9 46.5t-24.5 38t-36 26t-44.5 9.5
t-44.5 -9.5t-36 -26t-24.5 -38t-9 -46.5q0 -24 9 -46t24.5 -38t36 -25.5t44.5 -9.5zM387 589h-111l104 185l202 -16z" />
    <glyph glyph-name="upsilontonos" unicode="&#x3cd;" horiz-adv-x="621" 
d="M575 219q0 -54 -22 -97t-59 -72t-85 -44.5t-99 -15.5q-48 0 -95.5 14.5t-85 43.5t-60.5 71.5t-23 99.5v326h189v-286q0 -25 1.5 -45.5t8.5 -35.5t22.5 -23t42.5 -8q28 0 43 9t22 24.5t8.5 36t1.5 42.5v286h190v-326zM364 589h-111l104 185l202 -16z" />
    <glyph glyph-name="omegatonos" unicode="&#x3ce;" horiz-adv-x="888" 
d="M485 589h-111l104 185l202 -16zM563 555q56 0 105.5 -19.5t86.5 -56t58.5 -89t21.5 -118.5q0 -65 -16.5 -117t-47.5 -89t-75.5 -56.5t-100.5 -19.5q-71 0 -109 30t-54 72q-17 -42 -55 -72t-108 -30q-57 0 -101.5 19.5t-75 56.5t-47 89t-16.5 117q0 66 21 118.5t58 89
t86.5 56t105.5 19.5v-167q-39 -11 -62 -41.5t-23 -74.5q0 -57 15.5 -88t50.5 -31q22 0 35 11t19 28t7.5 37.5t1.5 39.5v75h176v-75q0 -19 1 -39.5t7 -37.5t18.5 -28t35.5 -11q35 0 51 31t16 88q0 44 -23.5 74.5t-62.5 41.5v167z" />
    <glyph glyph-name="endash" unicode="&#x2013;" horiz-adv-x="528" 
d="M487 255h-448v156h448v-156z" />
    <glyph glyph-name="emdash" unicode="&#x2014;" horiz-adv-x="898" 
d="M858 255h-818v156h818v-156z" />
    <glyph glyph-name="quoteleft" unicode="&#x2018;" horiz-adv-x="284" 
d="M138 371q-45 0 -74 30t-29 90q0 31 6.5 68t27.5 68.5t59.5 52.5t103.5 21l27 -77q-54 0 -75 -13.5t-25 -35.5q35 -7 58.5 -35t23.5 -66q0 -21 -8 -40t-22 -33t-33 -22t-40 -8z" />
    <glyph glyph-name="quoteright" unicode="&#x2019;" horiz-adv-x="284" 
d="M144 706q45 0 74.5 -30t29.5 -90q0 -31 -6.5 -68t-27.5 -68.5t-60 -52.5t-104 -21l-26 76q53 0 74 14t26 35q-36 8 -59.5 36t-23.5 66q0 21 8 40t22 33t33 22t40 8z" />
    <glyph glyph-name="quotesinglbase" unicode="&#x201a;" horiz-adv-x="284" 
d="M141 196q45 0 74.5 -30t29.5 -90q0 -32 -6.5 -68.5t-27.5 -68.5t-60 -53t-104 -21l-26 77q27 0 45 3.5t29.5 10.5t17.5 15.5t8 19.5q-35 8 -59 36t-24 66q0 21 8 40t22 33t33 22t40 8z" />
    <glyph glyph-name="quotedblleft" unicode="&#x201c;" horiz-adv-x="547" 
d="M403 371q-45 0 -74 30t-29 90q0 31 6.5 68t27.5 68.5t60 52.5t104 21l26 -77q-54 0 -75 -13.5t-25 -35.5q35 -7 59 -35t24 -66q0 -21 -8 -40t-22.5 -33t-33.5 -22t-40 -8zM138 371q-45 0 -74 30t-29 90q0 31 6.5 68t27.5 68.5t59.5 52.5t103.5 21l27 -77q-54 0 -75 -13.5
t-25 -35.5q35 -7 58.5 -35t23.5 -66q0 -21 -8 -40t-22 -33t-33 -22t-40 -8z" />
    <glyph glyph-name="quotedblright" unicode="&#x201d;" horiz-adv-x="547" 
d="M144 706q45 0 74.5 -30t29.5 -90q0 -31 -6.5 -68t-27.5 -68.5t-60 -52.5t-104 -21l-26 76q53 0 74 14t26 35q-36 8 -59.5 36t-23.5 66q0 21 8 40t22 33t33 22t40 8zM409 706q45 0 74.5 -30t29.5 -90q0 -31 -6.5 -68t-27.5 -68.5t-60 -52.5t-104 -21l-26 76q27 0 45 3.5
t29.5 10.5t17.5 15.5t8 19.5q-35 8 -59 36t-24 66q0 21 8 40t22 33t33 22t40 8z" />
    <glyph glyph-name="quotedblbase" unicode="&#x201e;" horiz-adv-x="546" 
d="M142 196q45 0 74 -30t29 -90q0 -32 -6.5 -68.5t-27.5 -68.5t-60 -53t-104 -21l-26 77q27 0 45 3.5t29.5 10.5t17.5 15.5t8 19.5q-35 8 -59 36t-24 66q0 21 8 40t22.5 33t33.5 22t40 8zM407 196q45 0 74 -30t29 -90q0 -32 -6.5 -68.5t-27 -68.5t-59.5 -53t-104 -21l-26 77
q53 0 74 14t26 35q-36 8 -59.5 36t-23.5 66q0 21 8 40t22 33t33 22t40 8z" />
    <glyph glyph-name="dagger" unicode="&#x2020;" horiz-adv-x="410" 
d="M369 512l-103 6l-22 -1v-120l6 -140h-88l6 140l-1 120h-21l-104 -5v87l104 -5h20l-4 106h88l-5 -106h21l103 6v-88v0z" />
    <glyph glyph-name="daggerdbl" unicode="&#x2021;" horiz-adv-x="430" 
d="M254 182h21l104 5v-87l-104 5h-21l5 -105h-87l5 105h-21l-104 -6v88l103 -5h22v58l-6 112h1l5 112v58h-21l-104 -5v87l103 -5h21l-5 106h88l-5 -106h21l104 6v-88l-104 6l-21 -1v-58l5 -112v0l-6 -112l1 -58v0z" />
    <glyph glyph-name="bullet" unicode="&#x2022;" 
d="M394 352q0 -30 -11.5 -56.5t-31 -46t-45.5 -30.5t-56 -11t-56.5 11t-46 30.5t-31 46t-11.5 56.5t11.5 56t31 45.5t46 31t56.5 11.5t56 -11.5t45.5 -31t31 -45.5t11.5 -56z" />
    <glyph glyph-name="ellipsis" unicode="&#x2026;" horiz-adv-x="840" 
d="M141 196q21 0 40 -8t33 -22t22 -33t8 -40t-8 -40t-22 -33t-33 -22t-40 -8t-40 8t-33.5 22t-22.5 33t-8 40t8 40t22.5 33t33.5 22t40 8zM421 196q21 0 40 -8t33 -22t22 -33t8 -40t-8 -40t-22 -33t-33 -22t-40 -8t-40 8t-33.5 22t-22.5 33t-8 40t8 40t22.5 33t33.5 22t40 8
zM701 196q21 0 40 -8t33 -22t22 -33t8 -40t-8 -40t-22 -33t-33 -22t-40 -8t-40 8t-33.5 22t-22.5 33t-8 40t8 40t22.5 33t33.5 22t40 8z" />
    <glyph glyph-name="perthousand" unicode="&#x2030;" horiz-adv-x="1295" 
d="M395 516q0 -47 -14 -84t-39 -62.5t-58 -39t-70 -13.5q-38 0 -70.5 13.5t-57.5 39t-39 62.5t-14 84t14 84t39 62.5t57.5 39t70.5 13.5q37 0 70 -13.5t58 -39t39 -62.5t14 -84zM155 516q0 -34 17.5 -57.5t41.5 -23.5q25 0 42 23.5t17 57.5q0 35 -17 58.5t-42 23.5
q-24 0 -41.5 -23.5t-17.5 -58.5zM681 387q37 0 70 -13.5t58 -39t39 -62.5t14 -84t-14 -83.5t-39 -62t-58 -39t-70 -13.5q-38 0 -70.5 13.5t-57.5 39t-39 62t-14 83.5t14 84t39 62.5t57.5 39t70.5 13.5zM681 107q25 0 42 23.5t17 57.5q0 35 -17 58.5t-42 23.5
q-24 0 -41.5 -23.5t-17.5 -58.5q0 -34 17.5 -57.5t41.5 -23.5zM1077 387q37 0 70 -13.5t58 -39t39 -62.5t14 -84t-14 -83.5t-39 -62t-58 -39t-70 -13.5q-38 0 -70.5 13.5t-57.5 39t-39 62t-14 83.5t14 84t39 62.5t57.5 39t70.5 13.5zM1077 107q24 0 41.5 23.5t17.5 57.5
q0 35 -17.5 58.5t-41.5 23.5q-25 0 -42 -23.5t-17 -58.5q0 -34 17 -57.5t42 -23.5zM754 701l-483 -701h-135l483 701h135z" />
    <glyph glyph-name="guilsinglleft" unicode="&#x2039;" horiz-adv-x="357" 
d="M30 266l176 260l121 -89l-130 -171l130 -170l-121 -90z" />
    <glyph glyph-name="guilsinglright" unicode="&#x203a;" horiz-adv-x="357" 
d="M151 6l-121 90l130 170l-130 171l121 89l176 -260z" />
    <glyph glyph-name="fraction" unicode="&#x2044;" horiz-adv-x="501" 
d="M393 758h158l-465 -856h-159z" />
    <glyph glyph-name="Euro" unicode="&#x20ac;" horiz-adv-x="704" 
d="M424 165q28 0 47 5t33.5 14t25.5 21.5t22 27.5l131 -111q-45 -65 -112 -98.5t-147 -33.5q-55 0 -105 16.5t-91 48.5t-70.5 78.5t-44.5 106.5h-82v85h70q0 7 -0.5 13.5t-0.5 13.5t0.5 13.5t0.5 12.5h-70v85h82q15 60 44.5 106.5t70.5 79t91 49t105 16.5q80 0 147 -34
t112 -98l-131 -112q-11 15 -22 27.5t-25.5 21.5t-33.5 14.5t-47 5.5q-32 0 -59 -20.5t-44 -55.5h142v-85h-166q-1 -6 -1.5 -12.5t-0.5 -13.5t0.5 -13.5t1.5 -13.5h166v-85h-142q17 -35 44 -55t59 -20z" />
    <glyph glyph-name="uni2117" unicode="&#x2117;" horiz-adv-x="865" 
 />
    <glyph glyph-name="trademark" unicode="&#x2122;" horiz-adv-x="695" 
d="M287 630h-92v-243h-86v243h-93v69h271v-69zM665 699v-312h-86v130l-79 -100l-78 100v-130h-86v312h41l123 -158l124 158h41z" />
    <glyph glyph-name="Omega" unicode="&#x2126;" horiz-adv-x="829" 
d="M791 379q0 -39 -9.5 -73t-25 -62t-36.5 -49.5t-45 -33.5h107v-161h-314v175q54 18 89 70.5t35 133.5q0 41 -14 73.5t-38 55t-56.5 34t-69.5 11.5t-69.5 -11.5t-57 -34t-38.5 -55t-14 -73.5q0 -81 35 -133.5t89 -70.5v-175h-313v161h106q-24 12 -44.5 33.5t-36.5 49.5
t-25 62t-9 73q0 88 29.5 152t80.5 104.5t120 60t147 19.5t146.5 -19.5t120 -60t81 -104.5t29.5 -152z" />
    <glyph glyph-name="partialdiff" unicode="&#x2202;" horiz-adv-x="662" 
d="M271 458q46 0 88 -16.5t65 -39.5q1 21 -2.5 43.5t-15.5 42.5t-35 37t-62 26q-24 6 -51.5 3t-50.5 -9t-39 -12.5t-18 -7.5l-79 144q87 46 252 46q59 0 113 -21.5t95.5 -70t66 -126t24.5 -188.5q0 -70 -22.5 -128.5t-62 -101t-92 -66.5t-112.5 -24t-112.5 16t-91.5 46.5
t-62 75.5t-23 103q0 63 22.5 106.5t56 70.5t73.5 39t75 12zM333 329q-21 0 -39 -7.5t-31.5 -20.5t-21.5 -30.5t-8 -37.5t8 -37.5t21.5 -30.5t31.5 -20.5t39 -7.5t39 7.5t31.5 20.5t21.5 30.5t8 37.5t-8 37.5t-21.5 30.5t-31.5 20.5t-39 7.5z" />
    <glyph glyph-name="Delta" unicode="&#x2206;" horiz-adv-x="785" 
d="M774 0h-766l338 705h90zM281 161h220l-110 256z" />
    <glyph glyph-name="product" unicode="&#x220f;" horiz-adv-x="762" 
d="M76 705h626v-866h-189v705h-248v-705h-189v866v0z" />
    <glyph glyph-name="summation" unicode="&#x2211;" horiz-adv-x="700" 
d="M649 705v-161h-313l202 -272l-202 -272h313v-161h-591v85l258 348l-258 348v85h591v0z" />
    <glyph glyph-name="minus" unicode="&#x2212;" horiz-adv-x="528" 
d="M487 255h-448v156h448v-156z" />
    <glyph glyph-name="radical" unicode="&#x221a;" horiz-adv-x="852" 
d="M801 915h176l-103 -210l-329 -705h-88l-259 557h-162v148h304l172 -411l289 621v0z" />
    <glyph glyph-name="infinity" unicode="&#x221e;" horiz-adv-x="862" 
d="M800 367q0 -47 -16 -84t-42 -62.5t-61 -39t-72 -13.5q-54 0 -97 26t-85 77q-42 -51 -84.5 -77t-96.5 -26q-38 0 -72.5 13.5t-60.5 39t-42 62.5t-16 84t16 84t42 62.5t60.5 39t72.5 13.5q54 0 96.5 -26t84.5 -77q42 51 85 77t97 26q37 0 72 -13.5t61 -39t42 -62.5t16 -84z
M266 305q33 0 52.5 18t40.5 44q-21 26 -40.5 44t-52.5 18q-25 0 -43 -14t-18 -48t18 -48t43 -14zM589 305q25 0 43 14t18 48t-18 48t-43 14q-33 0 -52.5 -18t-41.5 -44q22 -26 41.5 -44t52.5 -18z" />
    <glyph glyph-name="integral" unicode="&#x222b;" horiz-adv-x="584" 
d="M533 607q-45 3 -70.5 1.5t-39 -13.5t-19 -37t-12.5 -67l-79 -504q-7 -44 -26 -77.5t-45.5 -56t-59.5 -33.5t-69 -11q-32 0 -56.5 3t-41.5 8l23 144q31 -1 48 3.5t27 18t15 36.5t11 60l80 504q7 45 25.5 78t45 55.5t59.5 33.5t69 11q35 0 60.5 -3.5t42.5 -8.5
q19 -5 33 -11l-21 -134v0z" />
    <glyph glyph-name="approxequal" unicode="&#x2248;" horiz-adv-x="626" 
d="M423 571q35 0 64 13.5t51 33.5l51 -139q-23 -21 -59.5 -40.5t-86.5 -19.5q-28 0 -54.5 8.5t-53 19t-55 19.5t-60.5 9q-38 0 -72.5 -14.5t-57.5 -29.5l-49 132q7 6 23 16.5t37 21t46.5 18.5t52.5 8q32 0 60.5 -9t55 -19.5t53 -19t54.5 -8.5zM423 288q35 0 64 13.5t51 33.5
l51 -139q-23 -21 -59.5 -40.5t-86.5 -19.5q-28 0 -54.5 8.5t-53 19t-55 19.5t-60.5 9q-38 0 -72.5 -14.5t-57.5 -29.5l-49 132q7 6 23 16.5t37 21t46.5 18.5t52.5 8q32 0 60.5 -9t55 -19.5t53 -19t54.5 -8.5z" />
    <glyph glyph-name="notequal" unicode="&#x2260;" horiz-adv-x="639" 
d="M77 19q7 16 18 36q8 17 20.5 40.5t26.5 52.5h-69v157h150l64 126h-214v157h295q31 60 50.5 99t20.5 39h133l-71 -138h63v-157h-143l-64 -126h207v-157h-287l-66 -129h-134z" />
    <glyph glyph-name="lessequal" unicode="&#x2264;" horiz-adv-x="628" 
d="M562 0h-497v156h497v-156zM562 580l-243 -110l243 -109v-177l-497 243v86l497 244v-177z" />
    <glyph glyph-name="greaterequal" unicode="&#x2265;" horiz-adv-x="627" 
d="M562 0h-497v156h497v-156zM65 361l243 109l-243 110v177l497 -244v-86l-497 -243v177z" />
    <glyph glyph-name="lozenge" unicode="&#x25ca;" horiz-adv-x="509" 
d="M286 754l187 -377l-187 -377h-65l-186 377l186 377h65zM254 278l48 99l-48 99l-49 -99z" />
    <glyph glyph-name="intelligentdesign" horiz-adv-x="967" 
d="M652 619q51 -20 82.5 -66t31.5 -103q0 -58 -31.5 -104t-82.5 -66q-20 -51 -66 -82.5t-104 -31.5t-103.5 31.5t-66.5 82.5q-51 20 -82.5 66t-31.5 104q0 57 31.5 103t82.5 66q21 51 66.5 82.5t103.5 31.5t103.5 -31.5t66.5 -82.5zM461 363v65h-69v-22v-112h69v69zM461 536
v69h-69v-112v-22h69v65zM504 297q24 4 44.5 16t35.5 29.5t23.5 39.5t8.5 46h-62h-32h-18v-65v-66zM529 471h87q0 24 -8.5 46t-23.5 39.5t-35.5 29.5t-44.5 16v-66v-65h15h10zM750 109h27l-33 -58v-1v-2v-26h-24v26v2v1l-33 58h27l18 -32zM286 111q20 0 33.5 -13t13.5 -32
t-13.5 -32.5t-33.5 -13.5t-33.5 13.5t-13.5 32.5t13.5 32t33.5 13zM286 42q9 0 15.5 7t6.5 17t-6.5 16.5t-15.5 6.5q-10 0 -16.5 -6.5t-6.5 -16.5t6.5 -17t16.5 -7zM604 66q0 -18 -12 -30.5t-29 -13.5h-3h-6h-24v88h3h21h6q19 0 31.5 -13t12.5 -31zM561 43q8 0 13.5 6.5
t5.5 16.5q0 9 -6 15.5t-14 6.5h-1h-5v-45h5h2zM422 109v-52q0 -11 -6 -20.5t-18 -13.5q-8 -3 -17 -3q-10 0 -17 3q-10 3 -15.5 10t-7.5 15q0 2 -0.5 4.5t-0.5 4.5v52h24v-46q0 -12 4.5 -16.5t12.5 -4.5t12.5 4.5t4.5 16.5v46h24zM234 90h-18v-32h17v-17h-17v-19h-24v19h-5
v17h5v52h12h12h18v-20zM492 110h24v-69v-19h-11l-13 12l-34 33v-45h-24v69v19h11l13 -13l34 -33v46zM678 48q5 -5 15 -10l-9 -21q-18 7 -32 24h-2h-13v-19h-24v88h15h9h17q20 0 28 -10t8 -24q0 -19 -12 -28zM637 90v-32h11q11 0 16 9q0 2 0.5 3.5t0.5 3.5q0 6 -3.5 11
t-11.5 5h-13zM226 -152q0 4 3 4q4 0 4 -4q0 -3 -4 -3q-3 0 -3 3zM831 -152q0 4 3 4q4 0 4 -4q0 -3 -4 -3q-3 0 -3 3zM684 -113v-4h-22v-18h20v-4h-20v-11h23v-5h-27v42h26zM367 -113v-4h-22v-18h20v-4h-20v-11h22v-5h-26v42h26zM528 -113v-4h-22v-18h20v-4h-20v-11h22v-5
h-26v42h26zM301 -117v4h30v-4h-13v-38h-4v38h-13zM578 -117v4h30v-4h-13v-38h-4v38h-13zM865 -138h15v-11q-2 -2 -5.5 -4t-11.5 -2q-9 0 -15.5 6t-6.5 15t6.5 15.5t15.5 6.5t16 -7l-4 -3q-5 6 -12 6q-8 0 -12.5 -5t-4.5 -13q0 -7 4.5 -12t12.5 -5t12 4v5h-10v4zM479 -138h14
v-11q-1 -2 -4.5 -4t-11.5 -2q-10 0 -16 6t-6 15t6.5 15.5t14.5 6.5q9 0 16 -7l-3 -3q-5 6 -13 6q-7 0 -12 -5t-5 -13q0 -7 5 -12t13 -5q7 0 12 4v5h-10v4zM765 -138h15v-11q-1 -2 -5 -4t-11 -2q-10 0 -16 6t-6 15t6 15.5t15 6.5t16 -7l-3 -3q-5 6 -13 6q-7 0 -12 -5t-5 -13
q0 -7 4.5 -12t12.5 -5t12 4v5h-10v4zM380 -113v-37h20v-5h-24v42h4zM413 -113v-37h20v-5h-24v42h4zM248 -113v-42h-4v42h4zM733 -113v-42h-4v42h4zM446 -113v-42h-4v42h4zM907 -144l10 -11h-6l-9 10q-1 -1 -2 -1h-6v-9h-5v42h5h6q7 0 10 -4q6 -5 6 -12q0 -9 -6 -13
q-1 0 -3 -2zM900 -142q1 0 2 0.5t2 0.5q8 3 8 12q0 5 -3.5 8.5t-8.5 3.5h-6v-25h6zM637 -114q5 -2 9 -7.5t4 -12.5q0 -10 -9 -17q-8 -4 -12 -4h-12v42h12q5 0 8 -1zM629 -150q16 0 16 16q0 17 -16 17h-8v-33h8zM709 -131q11 -6 11 -12q0 -12 -13 -12q-11 0 -15 9l3 2
q3 -7 12 -7q8 0 8 8q0 6 -7 8q-13 5 -13 12q0 11 11 11q7 0 11 -7l-3 -2q-3 5 -8 5q-7 0 -7 -7q0 -5 10 -8zM288 -113h4v-42h-4l-23 33q-1 1 -1 1.5t-1 1.5v-2v-34h-4v42h4l22 -31q2 -2 2 -2.5t1 -1.5v2v33zM565 -113h5v-42h-5l-22 33q-2 2 -2 3v-2v-34h-4v42h4l22 -31l2 -4
v2v33zM817 -113h5v-42h-5l-22 33q-2 2 -2 3v-2v-34h-4v42h4l22 -31q2 -2 2 -2.5t1 -1.5q-1 1 -1 2v33zM97 -112h5l-14 -42h-4l-8 29q-1 1 -1 4v1q-1 0 -1 -1t-0.5 -2t-0.5 -2l-7 -29h-5l-13 42h4l10 -33q0 -1 0.5 -1.5t0.5 -1.5v-1v1q0 1 0.5 1.5t0.5 2.5l8 32h5l8 -32
q0 -2 0.5 -2.5t0.5 -1.5v-1v1q0 1 0.5 1.5t0.5 1.5zM157 -112h5l-14 -42h-4l-8 29q-1 1 -1 4v1q-1 0 -1 -1v-4l-8 -29h-5l-13 42h4l10 -33q0 -1 0.5 -1.5t0.5 -1.5v-1q1 0 1 1q0 2 1 4l8 32h4l8 -32q0 -2 0.5 -2.5t0.5 -1.5v-1q1 0 1 4zM219 -112h5l-14 -42h-4l-8 29
q-1 1 -1 4v1q-1 0 -1 -1t-0.5 -2t-0.5 -2l-7 -29h-5l-13 42h4l10 -33q0 -1 0.5 -1.5t0.5 -1.5v-1v1q0 1 0.5 1.5t0.5 2.5l8 32h5l8 -32q0 -2 0.5 -2.5t0.5 -1.5v-1v1q0 1 0.5 1.5t0.5 1.5z" />
    </font>
</defs>
</svg>
