<?xml version="1.0" standalone="no"?>
<!DOCTYPE svg PUBLIC "-//W3C//DTD SVG 1.1//EN" "http://www.w3.org/Graphics/SVG/1.1/DTD/svg11.dtd" >
<svg xmlns="http://www.w3.org/2000/svg" xmlns:xlink="http://www.w3.org/1999/xlink" version="1.1">
<metadata></metadata>
<defs>
<font id="europa-lightlightitalic" horiz-adv-x="1060" >
<font-face units-per-em="2048" ascent="1536" descent="-512" />
<missing-glyph horiz-adv-x="557" />
<glyph unicode="&#xfb01;" horiz-adv-x="1071" d="M193 836l18 98h201l57 332q25 137 124 222t234 85q141 0 225 -86.5t60 -220.5l-8 -54q-4 -23 -23 -38t-41 -15t-34.5 15t-8.5 38l4 29q19 98 -22.5 162.5t-151.5 64.5q-109 0 -174.5 -64.5t-81.5 -162.5l-53 -307h240l-19 -98h-239l-146 -836h-106l145 836h-200zM784 0 l164 934h107l-164 -934h-107z" />
<glyph unicode="&#xfb02;" horiz-adv-x="1071" d="M193 836l18 98h201l57 332q25 137 124 222t234 85q141 0 225 -86.5t60 -220.5l-221 -1266h-107l217 1241q19 98 -22.5 162.5t-151.5 64.5q-108 0 -172.5 -64.5t-83.5 -162.5l-53 -307h240l-19 -98h-239l-146 -836h-106l145 836h-200z" />
<glyph unicode="&#xfb03;" horiz-adv-x="1607" d="M193 836l18 98h201l57 332q25 137 124 222t234 85q86 0 154.5 -34.5t103.5 -96.5q50 62 122.5 96.5t156.5 34.5q141 0 225 -86.5t60 -220.5l-9 -54q-4 -23 -22.5 -38t-40.5 -15t-34.5 15t-8.5 38l4 29q19 98 -22.5 162.5t-151.5 64.5q-109 0 -174.5 -64.5t-81.5 -162.5 l-53 -307h239l-18 -98h-240l-145 -836h-107l220 1262q11 90 -31.5 148t-145.5 58q-109 0 -174.5 -64.5t-81.5 -162.5l-53 -307h240l-19 -98h-239l-146 -836h-106l145 836h-200zM1321 0l164 934h106l-164 -934h-106z" />
<glyph unicode="&#xfb04;" horiz-adv-x="1607" d="M193 836l18 98h201l57 332q25 137 124 222t234 85q86 0 154.5 -34.5t103.5 -96.5q50 62 122.5 96.5t156.5 34.5q141 0 225 -86.5t60 -220.5l-222 -1266h-106l217 1241q19 98 -22.5 162.5t-151.5 64.5q-109 0 -174.5 -64.5t-81.5 -162.5l-53 -307h239l-18 -98h-240 l-145 -836h-107l220 1262q11 90 -31.5 148t-145.5 58q-109 0 -174.5 -64.5t-81.5 -162.5l-53 -307h240l-19 -98h-239l-146 -836h-106l145 836h-200z" />
<glyph horiz-adv-x="0" />
<glyph horiz-adv-x="682" />
<glyph horiz-adv-x="0" />
<glyph horiz-adv-x="0" />
<glyph unicode=" "  horiz-adv-x="557" />
<glyph unicode="&#x09;" horiz-adv-x="557" />
<glyph unicode="&#xa0;" horiz-adv-x="557" />
<glyph unicode="!" horiz-adv-x="524" d="M188 57q0 34 24 58t58 24t58 -24t24 -58t-24 -58t-58 -24t-58 24t-24 58zM272 371l189 1063h106l-188 -1063h-107z" />
<glyph unicode="&#x22;" horiz-adv-x="684" d="M330 946l86 488h102l-86 -488h-102zM584 946l86 488h102l-86 -488h-102z" />
<glyph unicode="#" horiz-adv-x="1298" d="M188 487l19 99h276l92 295h-266l19 98h278l156 485l96 -14l-149 -471h288l156 485l96 -14l-149 -471h270l-18 -98h-283l-92 -295h272l-18 -99h-287l-162 -516l-98 15l158 501h-289l-162 -516l-98 15l158 501h-263zM586 586h288l93 295h-289z" />
<glyph unicode="$" horiz-adv-x="1187" d="M213 264l100 53q3 -9 8.5 -23t28.5 -51.5t51 -67.5t78 -58t107 -35l108 616q-65 32 -113 65.5t-89 77t-62.5 98t-21.5 118.5q0 150 118 271t303 130l29 164h92l-30 -168q47 -6 89.5 -20.5t73 -32.5t56 -39t42 -40.5t27.5 -35.5t16 -26l5 -9l-90 -55q-3 5 -8.5 14.5 t-26 33.5t-45.5 43.5t-67.5 39t-90.5 25.5l-102 -582l28 -12q140 -67 208.5 -147.5t68.5 -202.5q0 -184 -129 -302t-316 -129l-28 -165h-92l28 168q-77 8 -142 40.5t-102.5 72.5t-64 79t-36.5 66zM516 1057q0 -82 50.5 -137.5t148.5 -106.5l94 537q-127 -14 -210 -95 t-83 -198zM678 82q61 8 116.5 32t101 63.5t72.5 99t27 131.5q0 87 -56 144t-159 107z" />
<glyph unicode="%" horiz-adv-x="1458" d="M186 0l1231 1493l66 -57l-1231 -1493zM262 1106q0 99 56.5 182t138.5 126.5t164 43.5q127 0 208.5 -77t81.5 -203q0 -99 -56 -182.5t-138 -128t-164 -44.5q-127 0 -209 78.5t-82 204.5zM360 1106q0 -82 48 -135t139 -53q104 0 186 76t82 184q0 82 -48.5 134t-139.5 52 q-104 0 -185.5 -75.5t-81.5 -182.5zM811 258q0 75 33 142t85 112t115.5 71.5t124.5 26.5q128 0 209.5 -77t81.5 -203q0 -99 -56 -182.5t-138 -128t-164 -44.5q-127 0 -209 78.5t-82 204.5zM909 258q0 -82 48 -135t139 -53q104 0 186 76t82 184q0 82 -48.5 134t-139.5 52 q-104 0 -185.5 -75.5t-81.5 -182.5z" />
<glyph unicode="&#x26;" horiz-adv-x="1431" d="M209 283q0 46 11 86t39.5 79.5t59 71t88 74t107.5 75.5t135 87q-107 114 -135 152q-72 96 -72 198q0 149 118 250.5t280 101.5q152 0 243 -79.5t91 -202.5q0 -30 -6 -59.5t-15 -53.5t-26.5 -50.5t-31 -45.5t-40 -44t-43 -39.5t-48.5 -39t-48 -36t-51.5 -36.5t-49.5 -35 l334 -354q3 4 9 12.5t22.5 41.5t32 74.5t35 115t34.5 159.5h107q-13 -89 -34.5 -171.5t-44 -136t-43 -94t-33.5 -58.5l-13 -19l217 -231l-76 -76l-209 221q-95 -103 -242 -174.5t-290 -71.5q-105 0 -186 25.5t-129 69t-72.5 97.5t-24.5 116zM319 283q0 -53 24 -93.5 t66.5 -63.5t95.5 -34.5t116 -11.5q128 0 255.5 64.5t206.5 150.5l-366 389q-43 -31 -104 -71t-97 -64t-78 -58t-65 -62t-38.5 -66t-15.5 -80zM553 1106q0 -36 12 -70.5t36 -67t44 -55t53.5 -55.5t46.5 -47q12 8 53 35.5t61.5 42.5t57.5 44t58 53t44 55.5t33.5 65t10.5 69.5 q0 78 -61.5 128t-161.5 50q-69 0 -134 -28.5t-109 -87t-44 -132.5z" />
<glyph unicode="'" horiz-adv-x="307" d="M268 946l86 488h103l-86 -488h-103z" />
<glyph unicode="(" horiz-adv-x="630" d="M217 346q0 330 131.5 616.5t378.5 571.5l82 -68q-229 -258 -355 -531t-126 -587q0 -273 168 -614l-99 -60q-89 183 -134.5 341t-45.5 331z" />
<glyph unicode=")" horiz-adv-x="630" d="M31 -254q105 126 186.5 246.5t151.5 260.5t107.5 293.5t37.5 309.5q0 167 -40.5 316.5t-121.5 310.5l92 51q90 -186 135.5 -345t45.5 -333q0 -170 -36 -327.5t-107.5 -304.5t-158.5 -275.5t-208 -274.5z" />
<glyph unicode="*" horiz-adv-x="815" d="M270 1176l29 75l270 -92l54 299h82l-52 -295l287 88l25 -73l-299 -95l127 -237l-72 -41l-127 235l-211 -237l-64 51l209 231z" />
<glyph unicode="+" horiz-adv-x="1064" d="M145 438l19 99h411l74 421h103l-74 -421h412l-19 -99h-412l-75 -438h-103l76 438h-412z" />
<glyph unicode="," horiz-adv-x="448" d="M27 -274l235 454l92 -49l-239 -450z" />
<glyph unicode="-" horiz-adv-x="681" d="M143 436l19 99h547l-19 -99h-547z" />
<glyph unicode="." horiz-adv-x="434" d="M143 57q0 34 24 58t58 24t58 -24t24 -58t-24 -58t-58 -24t-58 24t-24 58z" />
<glyph unicode="/" horiz-adv-x="993" d="M-2 -207l1135 1829l86 -53l-1137 -1827z" />
<glyph unicode="0" horiz-adv-x="1212" d="M190 524q0 121 26.5 249t81.5 250.5t131 219.5t184.5 156t232.5 59q108 0 190.5 -42t133.5 -117.5t76.5 -173.5t25.5 -216q0 -100 -18.5 -206.5t-54 -211t-92 -197.5t-126.5 -164.5t-163 -113t-197 -41.5q-108 0 -191.5 42t-135 117t-78 173.5t-26.5 216.5zM303 524 q0 -73 10.5 -137t35 -121t60.5 -98t90.5 -64.5t121.5 -23.5q86 0 163.5 38t135.5 102.5t104 148t75 176.5t44.5 186t15.5 178q0 91 -17 168.5t-52.5 141t-97.5 99.5t-146 36q-86 0 -164 -38t-136 -102.5t-105.5 -148t-77 -177t-45 -186.5t-15.5 -178z" />
<glyph unicode="1" horiz-adv-x="794" d="M252 1133l432 301h92l-252 -1434h-106l225 1282l-338 -233z" />
<glyph unicode="2" horiz-adv-x="1089" d="M115 0l665 686q110 112 151 166q101 133 101 264q0 102 -66.5 170t-193.5 68q-52 0 -100.5 -14t-84 -36t-66.5 -48.5t-51.5 -53t-35.5 -48.5t-22 -36l-6 -14l-95 51l8.5 17t26 42.5t44.5 60t64.5 63.5t84.5 60.5t105.5 42.5t127.5 17q167 0 269 -94t102 -248 q0 -97 -51 -199t-189 -245l-555 -574h639l-16 -98h-856z" />
<glyph unicode="3" horiz-adv-x="1114" d="M145 285l101 45q2 -10 7 -27t27.5 -60t53.5 -76t90.5 -60t132.5 -27q106 0 196 42.5t146.5 125t56.5 188.5q0 111 -76 175.5t-216 64.5h-84l18 106h74q144 0 250 96.5t106 243.5q0 103 -71 167.5t-187 64.5q-49 0 -95 -11.5t-79.5 -30t-62.5 -41.5t-48 -45.5t-33 -41 t-20 -30.5l-6 -11l-92 51q5 11 15.5 28.5t49.5 63t85 80.5t123 63.5t163 28.5q163 0 265 -93.5t102 -242.5q0 -258 -260 -391q8 -2 20.5 -6.5t45 -25.5t57 -50.5t45 -86t20.5 -126.5q0 -133 -69.5 -239.5t-185 -164t-253.5 -57.5q-70 0 -131 17t-101.5 44.5t-73.5 60.5 t-52 66t-32 60.5t-17 44.5z" />
<glyph unicode="4" horiz-adv-x="1105" d="M76 408l921 1026h101l-164 -928h199l-17 -98h-198l-72 -408h-107l72 408h-735zM289 506h538l131 745z" />
<glyph unicode="5" horiz-adv-x="1177" d="M190 270l103 45q2 -10 7 -25.5t28 -56t53.5 -71.5t89.5 -56.5t131 -25.5q83 0 162.5 35.5t139 94t96 139.5t36.5 167q0 135 -83.5 216t-233.5 81q-62 0 -125.5 -17.5t-110 -42t-84.5 -49t-57 -42.5l-20 -17l139 789h792l-18 -99h-686l-86 -487q15 8 41 19.5t97 31 t132 19.5q186 0 301 -107t115 -295q0 -143 -73.5 -268t-200 -199t-273.5 -74q-70 0 -131 16.5t-101.5 42.5t-73.5 57t-52 62.5t-32 57.5t-18 43z" />
<glyph unicode="6" horiz-adv-x="1122" d="M176 371q0 155 125 336q43 60 191 253t274 356l127 163l80 -64l-441 -555q74 39 185 39q93 0 168.5 -32.5t123.5 -87t73.5 -123t25.5 -144.5q0 -135 -70.5 -258.5t-194 -201t-265.5 -77.5q-98 0 -176.5 34t-126.5 90.5t-73.5 126t-25.5 145.5zM289 371 q0 -128 79.5 -209.5t209.5 -81.5q81 0 158.5 35.5t134.5 94t91.5 138.5t34.5 164q0 128 -79.5 205.5t-212.5 77.5q-170 0 -293 -124t-123 -300z" />
<glyph unicode="7" horiz-adv-x="1040" d="M195 31l905 1304h-760l18 99h930l-1009 -1457z" />
<glyph unicode="8" horiz-adv-x="1155" d="M195 334q0 138 84.5 254.5t222.5 177.5q-58 38 -97.5 109.5t-39.5 150.5q0 112 63 212.5t167 160t220 59.5q87 0 156.5 -27.5t112 -73.5t65 -102.5t22.5 -117.5q0 -117 -63 -218t-180 -161q76 -41 124 -123t48 -180q0 -127 -72 -238.5t-190 -176.5t-248 -65 q-96 0 -172.5 29t-124.5 79.5t-73 114.5t-25 136zM305 334q0 -114 76.5 -184t208.5 -70q99 0 189.5 46.5t149 134t58.5 194.5q0 115 -76.5 184.5t-208.5 69.5q-102 0 -192.5 -47t-147.5 -134t-57 -194zM477 1026q0 -102 67.5 -161.5t174.5 -59.5q86 0 163.5 41.5t127 119 t49.5 171.5q0 102 -68.5 159.5t-175.5 57.5q-133 0 -235.5 -93.5t-102.5 -234.5z" />
<glyph unicode="9" horiz-adv-x="1122" d="M266 920q0 135 69 258.5t192 201.5t268 78q95 0 173 -33t127 -87.5t75 -122t26 -140.5q0 -173 -117 -342q-43 -60 -190.5 -252.5t-273.5 -354.5l-126 -163l-79 60l434 550q-74 -38 -185 -38q-93 0 -169 32.5t-124 86.5t-74 122.5t-26 143.5zM377 920q0 -126 80.5 -203.5 t212.5 -77.5q168 0 291.5 124t123.5 298q0 129 -79 211t-211 82q-167 0 -292.5 -130.5t-125.5 -303.5z" />
<glyph unicode=":" horiz-adv-x="450" d="M152 57q0 34 23.5 58t57.5 24t58 -24t24 -58t-24 -58t-58 -24t-57.5 24t-23.5 58zM297 877q0 34 24 57.5t58 23.5t58 -23.5t24 -57.5t-24 -58t-58 -24t-58 24t-24 58z" />
<glyph unicode=";" horiz-adv-x="448" d="M27 -274l235 454l92 -49l-239 -450zM297 877q0 34 24 57.5t58 23.5t58 -23.5t24 -57.5t-24 -58t-58 -24t-58 24t-24 58z" />
<glyph unicode="&#x3c;" horiz-adv-x="1064" d="M113 500l18 110l1018 406l-19 -113l-897 -354l773 -352l-19 -103z" />
<glyph unicode="=" horiz-adv-x="1064" d="M166 309l18 99h840l-18 -99h-840zM215 588l18 98h840l-18 -98h-840z" />
<glyph unicode="&#x3e;" horiz-adv-x="1064" d="M111 94l18 113l895 354l-770 352l18 103l875 -406l-19 -110z" />
<glyph unicode="?" horiz-adv-x="978" d="M266 1176q3 6 7.5 16t23.5 39.5t41 56t60 59t80.5 56t102.5 39.5t126 16q161 0 261.5 -87.5t100.5 -233.5q0 -58 -18 -110t-46.5 -95t-84 -93.5t-111 -91.5t-145.5 -104q-12 -8 -20.5 -28.5t-12.5 -37.5t-11 -60q-1 -7 -2 -11l-24 -137h-107l33 184q14 79 32 110.5 t75 73.5q24 18 70 51.5t69.5 51.5t59.5 48t54.5 53.5t38.5 55t28.5 66.5t8.5 74q0 95 -64.5 156t-184.5 61q-53 0 -100.5 -12.5t-81.5 -32t-62.5 -43.5t-46.5 -48t-30.5 -43.5t-17.5 -32.5l-6 -12zM414 57q0 34 24 58t58 24t58 -24t24 -58t-24 -58t-58 -24t-58 24t-24 58z " />
<glyph unicode="@" horiz-adv-x="1636" d="M211 600q0 170 70.5 328.5t187.5 274.5t278 185.5t334 69.5q280 0 440 -164t160 -426q0 -124 -27.5 -224.5t-69.5 -162t-95.5 -103t-102.5 -57.5t-94 -16q-61 0 -103 31.5t-42 97.5v10q-4 -6 -12 -15t-36 -33t-60 -42.5t-83.5 -33.5t-107.5 -15q-98 0 -176 61t-78 171 q0 130 103.5 208t252.5 78q39 0 78 -9.5t66.5 -22.5t49 -26t32.5 -23l10 -9l10 60q6 35 6 63q0 174 -201 174q-57 0 -119.5 -19t-95.5 -38l-34 -19l-41 80q16 9 43 22.5t103.5 36.5t143.5 23q150 0 222.5 -62.5t72.5 -174.5q0 -32 -6 -62l-59 -334q-2 -8 -2 -26 q0 -66 84 -66q47 0 94.5 29t89.5 84.5t68 150.5t26 213q0 223 -133.5 363.5t-376.5 140.5q-156 0 -301 -63t-249.5 -167.5t-167 -246.5t-62.5 -295q0 -152 68 -274.5t194 -193.5t287 -71q55 0 112 9.5t99.5 22.5t77.5 26.5t53 22.5l18 10l35 -80q-21 -11 -57 -27t-140 -43 t-198 -27q-191 0 -338 84t-224 225.5t-77 315.5zM686 537q0 -65 52 -105.5t149 -40.5q44 0 87.5 15t74 37t54.5 44t36 37l12 15l18 104q-3 4 -9 10t-27 22.5t-44.5 29t-61 22.5t-77.5 10q-68 0 -126 -19.5t-98 -66.5t-40 -114z" />
<glyph unicode="A" horiz-adv-x="1310" d="M25 0l823 1434h119l319 -1434h-108l-93 418h-704l-236 -418h-120zM440 516h623l-170 799z" />
<glyph unicode="B" horiz-adv-x="1128" d="M180 0l252 1434h389q163 0 255.5 -79t92.5 -214q0 -85 -21.5 -155.5t-49.5 -110.5t-64.5 -70t-57 -40t-36.5 -15q12 -4 28 -10.5t47 -28.5t54.5 -50.5t42 -79t18.5 -110.5q0 -221 -133.5 -346t-375.5 -125h-441zM303 98h324q107 2 185 31.5t121.5 80t64 110.5t20.5 131 q0 105 -59.5 171t-198.5 66h-352zM424 786h301q87 0 153.5 29t104.5 78t57 106t19 121q0 215 -266 215h-273z" />
<glyph unicode="C" horiz-adv-x="1378" d="M203 608q0 177 66 335t178 271t265.5 178.5t323.5 65.5q69 0 133 -12t111 -31t88.5 -42t69.5 -46.5t48 -42.5t29 -31l9 -12l-76 -63q-5 7 -15 19t-47 42.5t-80.5 53.5t-116.5 42t-153 19q-153 0 -288 -59t-230 -159t-150 -237.5t-55 -290.5q0 -110 33 -205.5t94.5 -167.5 t157 -113.5t213.5 -41.5q85 0 167.5 20.5t140 50t103 58.5t67.5 49l22 21l63 -74q-9 -9 -25.5 -24.5t-72.5 -55.5t-117.5 -70t-156 -55t-191.5 -25q-144 0 -261 52t-192 140.5t-115 201.5t-40 239z" />
<glyph unicode="D" horiz-adv-x="1370" d="M180 0l252 1434h391q273 0 433.5 -156t160.5 -416q0 -179 -56.5 -335t-161.5 -274t-267 -185.5t-361 -67.5h-391zM303 98h264h17q166 0 302 56q142 59 233.5 163.5t140.5 244t49 300.5q0 219 -135 346t-390 127h-264z" />
<glyph unicode="E" horiz-adv-x="1101" d="M180 0l252 1434h795l-19 -99h-688l-96 -551h639l-16 -98h-639l-105 -588h701l-17 -98h-807z" />
<glyph unicode="F" horiz-adv-x="1067" d="M180 0l252 1434h785l-19 -103h-678l-96 -547h637l-17 -98h-636l-121 -686h-107z" />
<glyph unicode="G" horiz-adv-x="1482" d="M203 606q0 166 63 321t171.5 272.5t264.5 188t332 70.5q73 0 140.5 -11t116.5 -28.5t91 -38.5t69 -42t46.5 -38.5t28.5 -28.5l8 -11l-76 -68q-5 7 -14.5 17.5t-46 38.5t-80.5 49.5t-120 39t-163 17.5q-156 0 -292 -61t-229 -163.5t-146.5 -238.5t-53.5 -285 q0 -147 59.5 -265t178.5 -189.5t278 -71.5q85 0 164 13t130.5 31t91 36.5t57.5 31.5l18 13l80 448h-391l16 101h496l-107 -607q-9 -7 -25 -18.5t-71 -41t-115 -52.5t-154 -41.5t-190 -18.5q-182 0 -325.5 82.5t-222 226t-78.5 322.5z" />
<glyph unicode="H" horiz-adv-x="1398" d="M180 0l252 1434h107l-115 -650h825l115 650h106l-251 -1434h-107l121 686h-825l-121 -686h-107z" />
<glyph unicode="I" horiz-adv-x="524" d="M209 0l252 1434h106l-252 -1434h-106z" />
<glyph unicode="J" horiz-adv-x="954" d="M57 178l88 66q3 -7 9.5 -18t30.5 -39t51.5 -50t73.5 -39.5t96 -17.5q138 0 221.5 87.5t107.5 221.5l185 1045h106l-184 -1045q-35 -197 -152 -305.5t-284 -108.5q-70 0 -131.5 21t-99.5 50.5t-66.5 59.5t-40.5 51z" />
<glyph unicode="K" horiz-adv-x="1165" d="M180 0l252 1434h107l-121 -691l747 691h150l-778 -715l628 -719h-141l-614 702l-123 -702h-107z" />
<glyph unicode="L" horiz-adv-x="999" d="M180 0l252 1434h107l-236 -1336h684l-16 -98h-791z" />
<glyph unicode="M" horiz-adv-x="1658" d="M180 0l252 1434h100l394 -881l688 881h117l-252 -1434h-107l217 1233l-688 -875l-399 875l-217 -1233h-105z" />
<glyph unicode="N" horiz-adv-x="1454" d="M180 0l252 1434h107l655 -1270l225 1270h107l-252 -1434h-107l-657 1274l-223 -1274h-107z" />
<glyph unicode="O" horiz-adv-x="1597" d="M203 614q0 171 65 327t175.5 269.5t265.5 180.5t327 67q142 0 258.5 -51.5t192.5 -139.5t117 -203t41 -245q0 -137 -41.5 -265t-117.5 -232.5t-178 -182.5t-230.5 -121t-266.5 -43q-142 0 -258.5 51.5t-192 139.5t-116.5 203t-41 245zM313 614q0 -108 32.5 -204t93 -170 t157 -117t215.5 -43q155 0 290.5 59t230 159t148.5 235.5t54 285.5q0 108 -32.5 204t-93 170t-157 117.5t-215.5 43.5q-206 0 -373 -101t-258.5 -270t-91.5 -369z" />
<glyph unicode="P" horiz-adv-x="1052" d="M180 0l252 1434h367q172 0 278.5 -94.5t106.5 -243.5q0 -105 -31 -192.5t-93.5 -156t-167 -107t-241.5 -38.5h-260l-104 -602h-107zM410 700h262q190 0 295.5 106t105.5 273q0 118 -76 187t-215 69h-262z" />
<glyph unicode="Q" horiz-adv-x="1615" d="M203 614q0 171 65 327t175.5 269.5t265.5 180.5t327 67q142 0 258.5 -51.5t192.5 -139.5t117 -203t41 -245q0 -180 -70.5 -340.5t-196.5 -279.5l162 -170l-72 -70l-168 176q-216 -160 -489 -160q-142 0 -258.5 51.5t-192 139.5t-116.5 203t-41 245zM313 614 q0 -108 32.5 -204t93 -170t157 -117t215.5 -43q234 0 418 131l-240 256l72 70l246 -263q107 104 167 245.5t60 299.5q0 108 -32.5 204t-93 170t-157 117.5t-215.5 43.5q-206 0 -373 -101t-258.5 -270t-91.5 -369z" />
<glyph unicode="R" horiz-adv-x="1099" d="M180 0l252 1434h346q186 0 293 -94t107 -234q0 -84 -20 -155t-50.5 -118t-73.5 -84.5t-84 -58.5t-86 -35t-75.5 -19t-57.5 -7l299 -629h-123l-293 623h-219l-108 -623h-107zM414 725h245q185 0 296.5 92t111.5 273q0 81 -45 137t-111 80t-145 24h-246z" />
<glyph unicode="S" horiz-adv-x="1097" d="M160 264l96 53q3 -10 10 -26t33 -56.5t59 -72t90 -57t123 -25.5q67 0 131.5 20.5t119 60t87.5 104t33 143.5q0 36 -9.5 66.5t-30 56.5t-41.5 46t-57 41t-62.5 34.5t-69.5 33.5q-72 34 -124.5 67.5t-99 78t-70.5 101.5t-24 124q0 74 34 146t92.5 128.5t143.5 91.5t179 35 q55 0 105 -11.5t86.5 -29.5t67.5 -40.5t51.5 -44.5t35 -40t21.5 -30l6 -11l-86 -57q-3 7 -10 17.5t-31.5 38t-54.5 48.5t-81.5 38.5t-109.5 17.5q-143 0 -241.5 -84.5t-98.5 -212.5q0 -31 9 -59.5t21.5 -50.5t38 -45t46.5 -39t59 -36.5t64 -33.5t73 -35 q140 -67 208.5 -147.5t68.5 -202.5q0 -97 -41 -179.5t-108.5 -137t-153.5 -85.5t-177 -31q-86 0 -160 30t-118 72t-76 84.5t-45 72.5z" />
<glyph unicode="T" horiz-adv-x="1036" d="M266 1335l19 99h970l-18 -99h-432l-234 -1335h-106l233 1335h-432z" />
<glyph unicode="U" horiz-adv-x="1380" d="M274 539l158 895h107q-74 -413 -156 -885q-14 -71 -14 -134q0 -30 3 -57q10 -86 45.5 -148t107.5 -96t177 -34q206 0 328 125t160 344l156 885h106l-158 -895q-46 -261 -196.5 -412.5t-395.5 -151.5q-251 0 -362 154q-79 110 -79 271q0 65 13 139z" />
<glyph unicode="V" horiz-adv-x="1220" d="M264 1434h111l268 -1209l696 1209h121l-858 -1475z" />
<glyph unicode="W" horiz-adv-x="1923" d="M260 1434h109l211 -1170l579 1170h111l164 -1160l614 1160h119l-789 -1475l-194 1298l-656 -1298z" />
<glyph unicode="X" horiz-adv-x="1202" d="M43 0l625 739l-340 695h123l290 -607l504 607h133l-585 -695l366 -739h-123l-313 651l-547 -651h-133z" />
<glyph unicode="Y" horiz-adv-x="1163" d="M285 1434h116l293 -762l563 762h125l-649 -871l-98 -563h-107l99 563z" />
<glyph unicode="Z" horiz-adv-x="1155" d="M49 0l1100 1335h-819l18 99h1010l-1102 -1336h836l-17 -98h-1026z" />
<glyph unicode="[" horiz-adv-x="630" d="M90 -471l350 1987h344l-16 -99h-238l-317 -1790h238l-17 -98h-344z" />
<glyph unicode="\" horiz-adv-x="993" d="M334 1583l94 27l487 -1829l-96 -27z" />
<glyph unicode="]" horiz-adv-x="628" d="M88 -471l16 98h238l317 1790h-237l16 99h344l-350 -1987h-344z" />
<glyph unicode="^" horiz-adv-x="1097" d="M203 717l569 831h98l275 -831h-117l-221 704l-475 -704h-129z" />
<glyph unicode="_" horiz-adv-x="1024" d="M2 -471l18 106h852l-18 -106h-852z" />
<glyph unicode="`" horiz-adv-x="540" d="M276 1362l80 70l269 -318l-76 -65z" />
<glyph unicode="a" horiz-adv-x="1034" d="M145 252q0 84 38 153t100 112t136.5 66t151.5 23q53 0 103.5 -9t84.5 -22t60 -26t39 -22l12 -9l13 70q6 38 6 65q0 60 -19.5 101.5t-54.5 62.5t-73 29t-87 8q-76 0 -155.5 -21.5t-121.5 -42.5l-42 -22l-47 100q19 10 52.5 25t129.5 40t184 25q171 0 257.5 -75.5 t86.5 -200.5q0 -32 -6 -70l-106 -612h-96l26 160q-6 -8 -16.5 -20t-47 -44t-76 -56.5t-101 -44.5t-123.5 -20q-135 0 -221.5 75.5t-86.5 201.5zM256 252q0 -84 64.5 -128t154.5 -44q57 0 114.5 19.5t98.5 47t73.5 55t48.5 46.5l17 20l27 158q-4 3 -11.5 8.5t-34.5 19 t-57 23.5t-79 18.5t-101 8.5q-53 0 -107 -16t-101.5 -46t-77 -79.5t-29.5 -110.5z" />
<glyph unicode="b" horiz-adv-x="1161" d="M180 0l273 1548h104l-135 -762q18 22 42 44t69.5 54.5t108 53t130.5 20.5q180 0 293 -109.5t113 -303.5q0 -151 -70 -282t-195.5 -209.5t-277.5 -78.5q-68 0 -127 19t-95 45.5t-62.5 53.5t-36.5 46l-11 19l-27 -158h-96zM334 279q3 -8 9 -21.5t30.5 -48t55.5 -60.5 t86 -47.5t120 -21.5q122 0 221.5 65t154 171t54.5 229q0 137 -78.5 223t-214.5 86q-67 0 -130 -21.5t-105.5 -52t-75 -61.5t-47.5 -53l-15 -21z" />
<glyph unicode="c" horiz-adv-x="983" d="M147 391q0 149 72.5 279t201.5 209t284 79q73 0 137 -18t103 -44t67.5 -52t40.5 -44l12 -18l-86 -61q-3 5 -10 14t-32 32t-53.5 40.5t-77 32t-101.5 14.5q-127 0 -230.5 -66.5t-159 -172t-55.5 -224.5q0 -135 81 -223t224 -88q56 0 111.5 16.5t95 40t71 47t47.5 40.5 l15 16l72 -80q-7 -8 -19.5 -20t-54.5 -44t-87 -56.5t-113.5 -44.5t-137.5 -20q-196 0 -307 119.5t-111 296.5z" />
<glyph unicode="d" horiz-adv-x="1161" d="M145 385q0 158 74.5 290.5t199 207.5t267.5 75q68 0 127 -18.5t94 -45.5t60 -54t35 -46l10 -18l137 772h104l-272 -1548h-96l26 162q-5 -8 -15.5 -20.5t-46.5 -44.5t-76.5 -57t-107 -45t-137.5 -20q-171 0 -277 114t-106 296zM258 385q0 -135 78.5 -220t212.5 -85 q65 0 128 23.5t106.5 57t77.5 66.5t51 57l16 23l59 340q-3 8 -9 22t-30 50t-55 63t-86.5 49.5t-120.5 22.5q-119 0 -218 -66t-154.5 -173.5t-55.5 -229.5z" />
<glyph unicode="e" d="M147 375q0 114 41.5 220.5t112 186.5t171 128t212.5 48q176 0 284.5 -110t108.5 -283q0 -27 -12 -141h-805q-3 -27 -3 -52q-1 -117 71 -196q88 -96 237 -96q56 0 111.5 17t94.5 41.5t70 49t47 41.5l15 17l70 -80q-7 -8 -19.5 -21t-54.5 -45.5t-87 -58t-112.5 -46 t-134.5 -20.5q-193 0 -305.5 113t-112.5 287zM276 522h691q2 25 2 39q0 37 -8 75t-29 78t-52 70.5t-82 50t-114 19.5q-75 0 -141 -25t-110.5 -62t-79 -84t-52 -87t-25.5 -74z" />
<glyph unicode="f" horiz-adv-x="661" d="M193 836l18 98h201l63 366q24 131 105 202t196 71q45 0 87 -10.5t61 -20.5l20 -10l-47 -94q-55 30 -121 30q-164 0 -198 -196l-60 -338h246l-19 -98h-245l-146 -836h-106l145 836h-200z" />
<glyph unicode="g" horiz-adv-x="1128" d="M43 -317l74 79q5 -6 14.5 -16.5t41.5 -37t68.5 -46.5t94.5 -36.5t119 -16.5q174 0 279 99.5t134 264.5l31 174q-5 -7 -15 -18.5t-44.5 -41t-74 -52.5t-104 -41.5t-133.5 -18.5q-169 0 -276 114.5t-107 295.5q0 158 74.5 290.5t199 207.5t267.5 75q72 0 132.5 -20 t95.5 -49t60 -58t34 -49l10 -20l31 172h96l-168 -957q-40 -227 -176 -350t-346 -123q-73 0 -142 18.5t-116 45t-83.5 52.5t-53.5 44zM258 385q0 -135 78.5 -220t212.5 -85q65 0 128 22.5t106 54t77 63.5t50 54l16 23l61 350q-3 8 -9 22t-30 50t-55 63t-86.5 49.5 t-120.5 22.5q-119 0 -218 -66t-154.5 -173.5t-55.5 -229.5z" />
<glyph unicode="h" horiz-adv-x="1093" d="M180 0l273 1548h106l-135 -762q143 172 340 172q69 0 126.5 -21.5t100.5 -64t59 -113.5q8 -36 8 -78q0 -40 -7 -85l-105 -596h-106l100 580q8 47 8 85q0 80 -36 124q-54 65 -187 65q-65 0 -126.5 -28.5t-103.5 -70t-64 -69.5t-32 -45l-112 -641h-107z" />
<glyph unicode="i" horiz-adv-x="458" d="M176 0l164 934h106l-163 -934h-107zM344 1237q0 34 24 58t58 24t58 -24t24 -58t-24 -58t-58 -24t-58 24t-24 58z" />
<glyph unicode="j" horiz-adv-x="503" d="M-117 -453l49 93q45 -31 88 -31q19 0 34.5 2t36 11t36 23.5t29 42.5t20.5 66l209 1180h107l-211 -1196q-22 -120 -93.5 -177t-167.5 -57q-36 0 -70.5 11t-50.5 21zM389 1237q0 34 24 58t58 24t58 -24t24 -58t-24 -58t-58 -24t-58 24t-24 58z" />
<glyph unicode="k" horiz-adv-x="962" d="M180 0l273 1548h106l-184 -1042l536 428h156l-565 -453l448 -481h-145l-436 467l-82 -467h-107z" />
<glyph unicode="l" horiz-adv-x="466" d="M180 0l277 1548h102l-272 -1548h-107z" />
<glyph unicode="m" horiz-adv-x="1572" d="M147 0l164 934h97l-27 -148q5 7 13.5 18.5t39 41t65 52.5t89.5 41.5t114 18.5q86 0 155 -44.5t91 -135.5q6 9 18 24t44 44t68.5 52.5t92 41.5t113.5 18q42 0 81 -10.5t76.5 -35t60.5 -64.5q24 -40 35 -98q4 -24 4 -50q0 -39 -9 -86l-107 -614h-106l102 582q8 49 8 89 q0 75 -29 117q-45 66 -159 66q-49 0 -96 -18.5t-78.5 -45t-56 -53t-36.5 -45.5l-11 -18l-119 -674h-107l103 582q8 48 8 88q0 75 -30 118q-46 66 -159 66q-49 0 -96.5 -18.5t-80.5 -45t-58.5 -53t-37.5 -45.5l-13 -18l-119 -674h-107z" />
<glyph unicode="n" d="M147 0l164 934h97l-31 -170q5 8 15 21t44 46.5t72 59t98.5 46.5t124.5 21q58 0 113.5 -21.5t101.5 -63.5t67 -114q12 -41 12 -88q0 -36 -7 -75l-105 -596h-106l100 580q7 41 7 76q0 84 -42 131q-60 67 -180 67q-58 0 -113 -22.5t-92 -55t-66 -64.5t-43 -54l-13 -23 l-111 -635h-107z" />
<glyph unicode="o" horiz-adv-x="1097" d="M147 383q0 153 72.5 285t200 211t278.5 79q185 0 300.5 -112.5t115.5 -296.5q0 -151 -74 -283.5t-202 -211.5t-277 -79q-184 0 -299 112t-115 296zM258 383q0 -134 78.5 -218.5t224.5 -84.5q128 0 231 66.5t157.5 173.5t54.5 229q0 135 -79.5 220t-226.5 85 q-127 0 -229 -67t-156.5 -174t-54.5 -230z" />
<glyph unicode="p" horiz-adv-x="1128" d="M63 -471l248 1405h97l-29 -162q5 8 14.5 20.5t43.5 44.5t72.5 56.5t100.5 44.5t129 20q191 0 298.5 -114t107.5 -299q0 -120 -43 -226.5t-116 -181.5t-172 -118.5t-208 -43.5q-65 0 -123 17.5t-93.5 42.5t-62 50t-37.5 43l-11 17l-109 -616h-107zM301 276q2 -4 5 -11 t15 -27.5t27 -39t41 -41t55.5 -39t72 -27.5t89.5 -11q121 0 220 65t152.5 171t53.5 229q0 136 -79.5 222.5t-213.5 86.5q-66 0 -129 -22.5t-105.5 -54t-75.5 -63.5t-49 -54l-15 -23z" />
<glyph unicode="q" horiz-adv-x="1128" d="M145 385q0 158 74.5 290.5t199 207.5t267.5 75q72 0 132.5 -20t95.5 -49t60 -58t34 -49l10 -20l31 172h96l-248 -1405h-106l108 616q-19 -23 -44.5 -45t-72 -54t-113.5 -51.5t-141 -19.5q-171 0 -277 114t-106 296zM258 385q0 -135 78.5 -220t212.5 -85q65 0 128 22.5 t106 54t77 63.5t50 54l16 23l59 340q-1 5 -4 12.5t-14.5 30t-25.5 43t-39.5 45.5t-54.5 43t-71 30.5t-90 12.5q-119 0 -218 -66t-154.5 -173.5t-55.5 -229.5z" />
<glyph unicode="r" horiz-adv-x="673" d="M147 0l164 934h97l-27 -152q4 7 12 19t36 42.5t60 53.5t85 42t110 19q35 0 70 -6t53 -12l18 -6l-43 -103q-65 23 -141 23q-44 0 -88 -19.5t-75.5 -47.5t-56.5 -56t-37 -47l-13 -20l-117 -664h-107z" />
<glyph unicode="s" horiz-adv-x="915" d="M104 170l86 70q4 -7 11 -17.5t33 -38t57 -48.5t83 -38.5t109 -17.5q43 0 88.5 10t89.5 30.5t72.5 59t28.5 88.5q0 33 -17 58t-52.5 43t-72 29t-92.5 24q-140 31 -214 91.5t-74 160.5q0 116 105 200t255 84q63 0 120.5 -13.5t94.5 -33t65.5 -38.5t41.5 -33l12 -13l-72 -75 q-4 4 -11.5 11t-32.5 24.5t-53 31t-73 24.5t-92 11q-61 0 -115.5 -18t-94.5 -61t-40 -105q0 -28 13.5 -50t33 -36t55 -27.5t65 -21t78.5 -19.5q6 -1 9 -2q270 -63 270 -250q0 -66 -35.5 -121.5t-92.5 -91.5t-125.5 -56t-137.5 -20q-76 0 -143 20t-108.5 48.5t-72 57.5 t-43.5 49z" />
<glyph unicode="t" horiz-adv-x="772" d="M182 836l19 98h223l53 301h107l-54 -301h318l-19 -98h-317l-100 -574q-5 -30 -5 -54q0 -128 130 -128q32 0 67.5 12t54.5 24l19 13l45 -92q-11 -7 -29.5 -17.5t-71 -27.5t-98.5 -17q-124 0 -183 81q-44 60 -44 138q0 28 6 58l103 584h-224z" />
<glyph unicode="u" d="M203 202q-4 25 -4 53q0 39 8 83l104 596h107l-103 -580q-8 -44 -8 -80q0 -81 38 -127q55 -67 177 -67q58 0 113.5 21t94 51t68 60.5t44.5 51.5l14 21l115 649h106l-164 -934h-96l29 166q-5 -8 -15 -21t-44 -45.5t-72 -58t-98.5 -46t-124.5 -20.5q-52 0 -98.5 13.5 t-87 41.5t-67 70t-36.5 102z" />
<glyph unicode="v" horiz-adv-x="966" d="M180 934h109l221 -752l487 752h117l-639 -975z" />
<glyph unicode="w" horiz-adv-x="1523" d="M184 934h111l174 -723l422 723h65l164 -723l430 723h117l-590 -975l-186 780l-463 -780z" />
<glyph unicode="x" horiz-adv-x="999" d="M53 0l467 481l-276 453h127l221 -379l352 379h139l-436 -453l299 -481h-127l-246 406l-383 -406h-137z" />
<glyph unicode="y" horiz-adv-x="1001" d="M-4 -426l59 88q6 -6 16.5 -15t43 -23.5t65.5 -14.5q49 0 88 32.5t80 102.5l139 246l-294 944h110l258 -834l471 834h117q-680 -1184 -713 -1239q-60 -103 -121.5 -147t-144.5 -44q-43 0 -86.5 17.5t-65.5 34.5z" />
<glyph unicode="z" horiz-adv-x="952" d="M78 0l762 836h-574l19 98h762l-764 -836h594l-17 -98h-782z" />
<glyph unicode="{" horiz-adv-x="638" d="M160 463l22 119q35 0 61.5 3.5t57.5 16t53 34t40.5 60.5t27.5 92l88 494q22 124 84 179t182 55h41l-16 -99h-21q-70 0 -110 -29t-56 -118l-86 -482q-13 -77 -40.5 -130.5t-65 -80.5t-73.5 -38t-79 -13l-2 -8q28 -1 50.5 -6t46.5 -16t39 -30t27.5 -47.5t12 -68.5t-7.5 -94 l-86 -481q-16 -89 14 -118.5t99 -29.5h20l-16 -98h-41q-90 0 -147 61t-37 172l88 494q9 39 6 69.5t-8 52t-19.5 37t-29 25t-36 14.5t-40.5 7t-43 2z" />
<glyph unicode="|" horiz-adv-x="532" d="M129 -471l350 1987h107l-350 -1987h-107z" />
<glyph unicode="}" horiz-adv-x="638" d="M4 -471l16 98h21q69 0 109.5 29.5t56.5 118.5l86 481q13 77 40.5 130.5t65 80.5t73.5 38t79 13l2 8q-28 1 -50.5 6t-46.5 16t-39 30t-27.5 47.5t-12 68.5t7.5 94l86 482q16 89 -14 118t-99 29h-20l16 99h41q101 0 153.5 -58.5t31.5 -175.5l-88 -494q-9 -39 -6 -69t8 -52 t19.5 -37.5t29 -24.5t36 -14t40.5 -7t43 -2l-23 -119q-35 0 -61.5 -3.5t-57.5 -16.5t-53 -34.5t-40.5 -60.5t-27.5 -92l-88 -494q-22 -122 -82 -177.5t-184 -55.5h-41z" />
<glyph unicode="~" horiz-adv-x="837" d="M152 635q2 7 6.5 19.5t23.5 43.5t43.5 54.5t69.5 43t98 19.5q43 0 89 -18.5t78 -41t69 -41t65 -18.5q33 0 61 12.5t43.5 30t26.5 35.5t15 30l4 13l90 -43q-2 -7 -7 -19.5t-24.5 -43.5t-44.5 -54.5t-70 -43t-98 -19.5q-43 0 -89 18.5t-78 41t-69 41t-65 18.5 q-53 0 -90 -30.5t-48 -60.5l-11 -30z" />
<glyph unicode="&#xa1;" horiz-adv-x="524" d="M121 -487l188 1062h107l-189 -1062h-106zM336 889q0 34 24 58t58 24t58 -24t24 -58t-24 -58t-58 -24t-58 24t-24 58z" />
<glyph unicode="&#xa2;" horiz-adv-x="1187" d="M248 391q0 143 65.5 268.5t184.5 206t266 90.5l33 187h88l-33 -187q63 -6 118.5 -26t89.5 -44.5t59 -48t35 -39.5l11 -16l-84 -63q-3 5 -9.5 13t-28.5 29.5t-48.5 39t-69.5 33t-91 18.5l-138 -772q53 4 105 21.5t87.5 39.5t64 44t41.5 37l14 14l69 -76q-6 -7 -18.5 -19 t-53 -43.5t-84 -55.5t-110 -44.5t-133.5 -22.5l-29 -168h-88l31 175q-164 23 -254 136t-90 273zM360 391q0 -122 65.5 -206t184.5 -101l135 766q-168 -23 -276.5 -157t-108.5 -302z" />
<glyph unicode="&#xa3;" horiz-adv-x="1187" d="M166 27q3 7 8.5 19t27 43.5t47 57t69 49.5t92.5 31q55 37 92 104.5t37 133.5q0 38 -11.5 83.5t-22.5 71.5l-11 27h-222l19 98h168q-70 173 -70 273q0 186 137 313t332 127q76 0 141.5 -21t104 -50.5t66 -59.5t38.5 -51l11 -21l-93 -57q-3 6 -9 16.5t-29 37.5t-51 47.5 t-76 37.5t-103 17q-146 0 -251 -92.5t-105 -243.5q0 -51 18 -109.5t62 -163.5h393l-19 -98h-340q35 -74 35 -164q0 -158 -108 -266q39 -9 88 -44t97.5 -64t96.5 -29q40 0 74 14.5t54 35t34 40.5t19 34l6 15l90 -49q-3 -8 -9 -21t-29.5 -46.5t-52.5 -59.5t-79 -47t-107 -21 q-53 0 -98.5 15t-78 36t-62.5 42t-65 36t-72 15q-41 0 -75.5 -14.5t-55 -34.5t-35 -40.5t-19.5 -35.5l-6 -14z" />
<glyph unicode="&#xa4;" horiz-adv-x="1150" d="M102 231l166 140q-59 100 -59 223q0 100 42.5 196.5t117.5 172.5l-109 133l86 73l109 -133q146 101 303 101q169 0 286 -105l166 142l70 -82l-168 -142q62 -100 62 -225q0 -102 -42 -198t-116 -171l106 -129l-86 -73l-108 131q-143 -99 -303 -99q-171 0 -289 103 l-164 -139zM311 594q0 -132 88.5 -219.5t225.5 -87.5q110 0 213 59t168 161t65 218q0 133 -88 221t-225 88q-110 0 -213.5 -59.5t-168.5 -162t-65 -218.5z" />
<glyph unicode="&#xa5;" horiz-adv-x="1187" d="M168 553l16 96h420l-53 135h-342l16 97h289l-217 553h117l293 -762l563 762h125l-414 -553h289l-17 -97h-344l-100 -135h420l-17 -96h-469l-96 -553h-106l96 553h-469z" />
<glyph unicode="&#xa6;" horiz-adv-x="532" d="M129 -471l141 799h107l-141 -799h-107zM338 717l141 799h107l-142 -799h-106z" />
<glyph unicode="&#xa7;" horiz-adv-x="1040" d="M129 -229l88 63q3 -5 8.5 -13.5t26 -30.5t45 -39t66.5 -30.5t90 -13.5q118 0 206.5 68t88.5 182q0 30 -8 56t-25.5 48.5t-34.5 39.5t-47 36t-50 30.5t-56.5 30.5t-53.5 29q-38 21 -53.5 30t-47 29.5t-45.5 33.5t-35 36t-30 44.5t-16.5 51t-7.5 62.5q0 111 84.5 197.5 t218.5 117.5q-84 51 -131.5 114t-47.5 161q0 141 121 247.5t285 106.5q66 0 124 -17.5t93.5 -42t61.5 -49t37 -41.5l10 -18l-90 -63q-3 5 -8.5 13.5t-26 30.5t-45 39t-66.5 30.5t-90 13.5q-113 0 -204 -68.5t-91 -181.5q0 -26 7 -50t17.5 -42.5t30 -37.5t35 -32t43.5 -30 t45.5 -26t50 -26t48.5 -26q40 -22 64.5 -36.5t60.5 -42.5t56.5 -55t36 -67.5t15.5 -85.5q0 -111 -83.5 -197t-217.5 -119q83 -52 129.5 -114t46.5 -160q0 -145 -119.5 -249.5t-285.5 -104.5q-66 0 -123.5 17.5t-93 42t-61 49t-35.5 42.5zM344 514q0 -29 10 -53.5t22.5 -41.5 t39 -36t45 -29.5t56 -30t56.5 -30.5q53 5 104.5 22.5t97.5 47t74 77.5t28 107q0 25 -6 46t-20 39t-27 31.5t-38 29t-41 24.5t-48 25.5t-48 25.5q-53 -3 -105.5 -21t-98 -48.5t-73.5 -79t-28 -105.5z" />
<glyph unicode="&#xa8;" horiz-adv-x="800" d="M350 1237q0 34 24 58t58 24t58 -24t24 -58t-24 -58t-58 -24t-58 24t-24 58zM721 1237q0 34 24 58t58 24t58 -24t24 -58t-24 -58t-58 -24t-58 24t-24 58z" />
<glyph unicode="&#xa9;" horiz-adv-x="1679" d="M215 600q0 129 40.5 255t117.5 234t181 191t240.5 130.5t286.5 47.5q145 0 265 -48t200 -131.5t124 -197t44 -243.5q0 -162 -64 -317.5t-175 -276.5t-275 -195t-350 -74q-116 0 -217.5 31.5t-177 88.5t-130 134.5t-82.5 172t-28 198.5zM305 600q0 -149 65.5 -271 t191 -195t288.5 -73q159 0 303.5 63.5t247 169t163 248t60.5 296.5q0 233 -148.5 383.5t-394.5 150.5q-159 0 -303.5 -62.5t-247.5 -167t-164 -246.5t-61 -296zM578 649q0 124 59.5 232t166 173.5t234.5 65.5q60 0 113 -15t85.5 -36t56.5 -42.5t34 -36.5l10 -15l-71 -51 q-3 4 -8.5 11.5t-26 26.5t-45 33.5t-64.5 26.5t-84 12q-158 0 -263 -115.5t-105 -269.5q0 -112 67.5 -185t186.5 -73q46 0 91.5 13.5t78 33.5t58.5 39.5t39 32.5l13 14l60 -65q-6 -6 -16 -16.5t-45 -37t-72 -47t-93.5 -37t-113.5 -16.5q-163 0 -254.5 98.5t-91.5 245.5z" />
<glyph unicode="&#xaa;" horiz-adv-x="626" d="M244 1038q0 93 74.5 151t177.5 58q42 0 81 -13.5t57 -26.5l19 -13l9 39q2 12 2 33q0 98 -117 98q-37 0 -82 -11t-71 -23l-27 -11l-37 88q12 6 32.5 14.5t80.5 22.5t116 14q98 0 151.5 -49.5t53.5 -122.5q0 -23 -2 -33l-66 -370h-90l17 82q-3 -4 -9 -10.5t-26 -23 t-41.5 -29.5t-53 -23.5t-63.5 -10.5q-78 0 -132 45t-54 125zM342 1038q0 -41 33 -60.5t80 -19.5q27 0 55 8.5t48 21t36.5 25t24.5 21.5l8 8l14 82q-53 37 -145 37q-59 0 -106.5 -30t-47.5 -93z" />
<glyph unicode="&#xab;" horiz-adv-x="929" d="M129 510l412 451l73 -72l-360 -387l240 -400l-91 -59zM440 502l432 459l74 -72l-381 -395l238 -390l-92 -61z" />
<glyph unicode="&#xac;" horiz-adv-x="1380" d="M195 895l16 98h1208l-102 -583h-103l86 485h-1105z" />
<glyph unicode="&#xad;" horiz-adv-x="681" d="M143 436l19 99h547l-19 -99h-547z" />
<glyph unicode="&#xae;" horiz-adv-x="829" d="M229 1036q0 108 57 205.5t157 157t216 59.5q148 0 235 -92t87 -227q0 -81 -33.5 -158t-90 -135t-136 -93.5t-166.5 -35.5q-149 0 -237.5 92t-88.5 227zM307 1036q0 -105 70 -174t178 -69q144 0 248 101t104 245q0 105 -70 175t-178 70q-143 0 -247.5 -102t-104.5 -246z M461 899l67 385h123q50 0 83.5 -31t23.5 -88q-15 -91 -107 -114l74 -152h-72l-69 145h-35l-25 -145h-63zM561 1106h53q72 0 84 59q6 31 -11 45.5t-52 14.5h-53z" />
<glyph unicode="&#xaf;" horiz-adv-x="643" d="M221 1194l19 98h618l-18 -98h-619z" />
<glyph unicode="&#xb0;" horiz-adv-x="679" d="M246 1126q0 130 100 231t234 101q126 0 195 -74.5t69 -183.5q0 -131 -100 -231.5t-234 -100.5q-125 0 -194.5 74.5t-69.5 183.5zM340 1126q0 -71 47 -117t123 -46q91 0 164.5 71t73.5 166q0 72 -46 118t-122 46q-94 0 -167 -71.5t-73 -166.5z" />
<glyph unicode="&#xb1;" horiz-adv-x="1064" d="M92 0l17 98h880l-16 -98h-881zM186 537l17 98h389l59 336h103l-60 -336h389l-16 -98h-389l-62 -349h-102l61 349h-389z" />
<glyph unicode="&#xb2;" horiz-adv-x="718" d="M209 807q414 379 420 385q4 4 25.5 25t29 29t25 28t25 33t18 32.5t14.5 39t4 40.5q0 61 -41.5 103.5t-116.5 42.5q-41 0 -78.5 -15t-61 -36t-41.5 -42t-26 -36l-8 -15l-75 41l5.5 11t16.5 26.5t28 37.5t40.5 39.5t53 37t66.5 26.5t80 11q116 0 183 -66t67 -166 q0 -71 -43 -133t-125 -141l-270 -256h377l-15 -82h-577z" />
<glyph unicode="&#xb3;" horiz-adv-x="733" d="M254 989l80 37q2 -6 5 -15.5t17 -34.5t32.5 -44.5t52 -35t73.5 -15.5q84 0 149.5 50t65.5 134q0 58 -41.5 92.5t-112.5 34.5h-57l14 80h43q74 0 134.5 46t60.5 124q0 50 -39 86.5t-108 36.5q-38 0 -72 -12t-55.5 -28.5t-37 -33.5t-22.5 -29l-6 -12l-74 45q3 6 9.5 16.5 t30.5 37.5t52.5 47.5t75.5 37.5t99 17q114 0 176.5 -60t62.5 -149q0 -145 -141 -207q4 -1 10.5 -3.5t23.5 -14.5t30 -29t23.5 -49.5t10.5 -73.5q0 -120 -88.5 -195t-216.5 -75q-59 0 -107 20t-75 48.5t-46 57t-26 48.5z" />
<glyph unicode="&#xb4;" horiz-adv-x="540" d="M301 1120l358 305l66 -75l-360 -303z" />
<glyph unicode="&#xb5;" horiz-adv-x="1081" d="M72 -471l247 1405h107l-104 -594q-23 -130 33.5 -195t174.5 -65q58 0 113.5 21t94 51t68 60.5t44.5 51.5l14 21l115 649h106l-163 -934h-97l29 166q-5 -8 -15 -21t-44 -45.5t-72 -58t-98.5 -46t-124.5 -20.5t-126 27.5t-100 73.5l-96 -547h-106z" />
<glyph unicode="&#xb6;" horiz-adv-x="1163" d="M291 874q0 264 156.5 412t422.5 148h357l-322 -1819h-106l303 1720h-144l-303 -1720h-106l149 848q-103 0 -196.5 53.5t-152 149t-58.5 208.5z" />
<glyph unicode="&#xb7;" horiz-adv-x="434" d="M260 717q0 34 24 58t58 24t58 -24t24 -58t-24 -58t-58 -24t-58 24t-24 58z" />
<glyph unicode="&#xb8;" horiz-adv-x="645" d="M129 -477l178 373l105 -11l-181 -397z" />
<glyph unicode="&#xb9;" horiz-adv-x="565" d="M272 1401l328 237h78l-148 -831h-86l125 706l-254 -182z" />
<glyph unicode="&#xba;" horiz-adv-x="663" d="M238 1126q0 132 96.5 232t234.5 100q124 0 195.5 -76.5t71.5 -185.5q0 -132 -97.5 -230t-236.5 -98q-124 0 -194 74.5t-70 183.5zM336 1126q0 -70 46.5 -115.5t119.5 -45.5q96 0 164.5 67.5t68.5 163.5q0 70 -47 118t-119 48q-95 0 -164 -71t-69 -165z" />
<glyph unicode="&#xbb;" horiz-adv-x="929" d="M180 117l381 395l-235 389l88 60l272 -459l-434 -459zM516 117l361 391l-244 393l88 60l280 -463l-413 -455z" />
<glyph unicode="&#xbc;" horiz-adv-x="1699" d="M311 1196l328 238h78l-148 -832h-86l125 707l-254 -183zM369 0l1230 1493l66 -57l-1231 -1493zM1004 190l557 641h73l-98 -559h111l-15 -82h-110l-35 -190h-86l35 190h-432zM1178 272h272l70 398z" />
<glyph unicode="&#xbd;" horiz-adv-x="1699" d="M285 0l1231 1493l65 -57l-1231 -1493zM311 1196l328 238h78l-148 -832h-86l125 707l-254 -183zM1038 0q414 379 420 385q4 4 25.5 25t29 29t25 28t25 33t18 32.5t14.5 39t4 40.5q0 61 -41 103.5t-116 42.5q-41 0 -78.5 -15t-61 -36t-41.5 -42t-26 -36l-8 -15l-76 41 q4 8 11 20.5t33 45t56.5 57.5t82 45.5t108.5 20.5q116 0 183 -66t67 -166q0 -71 -43 -133t-125 -141l-271 -256h377l-14 -82h-578z" />
<glyph unicode="&#xbe;" horiz-adv-x="1699" d="M223 784l80 37q2 -6 5 -15.5t17 -34.5t32.5 -44.5t52 -35t73.5 -15.5q84 0 149.5 50t65.5 134q0 58 -41 92.5t-112 34.5h-58l15 80h43q74 0 134 46t60 124q0 50 -39 86.5t-108 36.5q-38 0 -72 -12t-55.5 -29t-37 -33.5t-21.5 -28.5l-7 -12l-73 45q3 6 9.5 16.5t30.5 37.5 t52 47.5t75 37.5t99 17q114 0 176.5 -60t62.5 -149q0 -145 -141 -207q4 -1 10.5 -3.5t23.5 -14.5t30 -29t23.5 -49.5t10.5 -73.5q0 -120 -88.5 -195t-216.5 -75q-59 0 -107 20t-75 48.5t-46 57t-25 48.5zM406 0l1230 1493l66 -57l-1231 -1493zM1006 190l557 641h73l-98 -559 h111l-15 -82h-110l-35 -190h-86l35 190h-432zM1180 272h272l70 398z" />
<glyph unicode="&#xbf;" horiz-adv-x="978" d="M84 -190q0 58 18 110t46.5 94.5t84.5 93t110.5 91.5t145.5 104q12 8 20.5 28.5t12.5 37.5t11 60q1 7 2 11l24 138h107l-33 -185q-14 -79 -32 -110.5t-75 -73.5q-24 -18 -62 -45.5t-61 -44.5t-54.5 -42.5t-50.5 -44.5t-40.5 -46t-33 -52.5t-19.5 -57.5t-8 -66 q0 -95 64.5 -156.5t184.5 -61.5q53 0 100.5 12.5t81.5 32t62.5 43.5t46.5 48t30.5 43.5t18.5 32.5l5 12l96 -45q-3 -6 -7.5 -16t-23.5 -39.5t-41 -56.5t-60 -59.5t-80.5 -56t-102.5 -39.5t-126 -16q-161 0 -261.5 88t-100.5 234zM575 889q0 34 24 58t58 24t58 -24t24 -58 t-24 -58t-58 -24t-58 24t-24 58z" />
<glyph unicode="&#xc0;" horiz-adv-x="1310" d="M25 0l823 1434h119l319 -1434h-108l-93 418h-704l-236 -418h-120zM440 516h623l-170 799zM680 1849l80 70l268 -317l-76 -66z" />
<glyph unicode="&#xc1;" horiz-adv-x="1310" d="M25 0l823 1434h119l319 -1434h-108l-93 418h-704l-236 -418h-120zM440 516h623l-170 799zM829 1610l359 305l65 -76l-360 -303z" />
<glyph unicode="&#xc2;" horiz-adv-x="1310" d="M25 0l823 1434h119l319 -1434h-108l-93 418h-704l-236 -418h-120zM440 516h623l-170 799zM594 1630l352 228l301 -236l-69 -74l-240 191l-285 -191z" />
<glyph unicode="&#xc3;" horiz-adv-x="1310" d="M25 0l823 1434h119l319 -1434h-108l-93 418h-704l-236 -418h-120zM440 516h623l-170 799zM596 1655q2 6 6 16t20.5 36t37.5 45.5t58.5 35.5t82.5 16q53 0 135 -45t115 -45q27 0 49 10.5t34 25t20.5 29.5t11.5 25l3 11l86 -52q-2 -6 -6 -16t-20 -36t-37 -45.5t-58.5 -35.5 t-82.5 -16q-53 0 -135 45t-115 45q-27 0 -49.5 -10.5t-35 -25t-21.5 -29t-12 -25.5l-3 -10z" />
<glyph unicode="&#xc4;" horiz-adv-x="1310" d="M25 0l823 1434h119l319 -1434h-108l-93 418h-704l-236 -418h-120zM440 516h623l-170 799zM662 1724q0 34 23.5 58t57.5 24t58 -24t24 -58t-24 -58t-58 -24t-57.5 24t-23.5 58zM1032 1724q0 34 24 58t58 24t58 -24t24 -58t-24 -58t-58 -24t-58 24t-24 58z" />
<glyph unicode="&#xc5;" horiz-adv-x="1310" d="M25 0l823 1434h119l319 -1434h-108l-93 418h-704l-236 -418h-120zM440 516h623l-170 799zM731 1698q0 88 68 156.5t162 68.5q80 0 132 -49t52 -131q0 -87 -66.5 -156t-160.5 -69q-80 0 -133.5 49.5t-53.5 130.5zM817 1698q0 -42 28 -69t73 -27q61 0 102 41t41 100 q0 43 -27.5 70.5t-72.5 27.5q-62 0 -103 -43.5t-41 -99.5z" />
<glyph unicode="&#xc6;" horiz-adv-x="1771" d="M23 0l1087 1434h786l-18 -99h-604l-96 -551h555l-17 -98h-555l-104 -588h616l-16 -98h-723l72 418h-539l-315 -418h-129zM543 516h481l145 827z" />
<glyph unicode="&#xc7;" horiz-adv-x="1378" d="M203 608q0 177 66 335t178 271t265.5 178.5t323.5 65.5q69 0 133 -12t111 -31t88.5 -42t69.5 -46.5t48 -42.5t29 -31l9 -12l-76 -63q-5 7 -15 19t-47 42.5t-80.5 53.5t-116.5 42t-153 19q-153 0 -288 -59t-230 -159t-150 -237.5t-55 -290.5q0 -110 33 -205.5t94.5 -167.5 t157 -113.5t213.5 -41.5q85 0 167.5 20.5t140 50t103 58.5t67.5 49l22 21l63 -74q-9 -9 -25.5 -24.5t-72.5 -55.5t-117.5 -70t-156 -55t-191.5 -25q-144 0 -261 52t-192 140.5t-115 201.5t-40 239zM506 -477l178 373l104 -11l-180 -397z" />
<glyph unicode="&#xc8;" horiz-adv-x="1101" d="M180 0l252 1434h795l-19 -99h-688l-96 -551h639l-16 -98h-639l-105 -588h701l-17 -98h-807zM623 1862l79 69l269 -317l-76 -66z" />
<glyph unicode="&#xc9;" horiz-adv-x="1101" d="M180 0l252 1434h795l-19 -99h-688l-96 -551h639l-16 -98h-639l-105 -588h701l-17 -98h-807zM666 1622l358 305l66 -76l-361 -303z" />
<glyph unicode="&#xca;" horiz-adv-x="1101" d="M180 0l252 1434h795l-19 -99h-688l-96 -551h639l-16 -98h-639l-105 -588h701l-17 -98h-807zM516 1655l352 227l301 -235l-69 -74l-240 190l-285 -190z" />
<glyph unicode="&#xcb;" horiz-adv-x="1101" d="M180 0l252 1434h795l-19 -99h-688l-96 -551h639l-16 -98h-639l-105 -588h701l-17 -98h-807zM592 1724q0 34 24 58t58 24t58 -24t24 -58t-24 -58t-58 -24t-58 24t-24 58zM963 1724q0 34 23.5 58t57.5 24t58 -24t24 -58t-24 -58t-58 -24t-57.5 24t-23.5 58z" />
<glyph unicode="&#xcc;" horiz-adv-x="524" d="M209 0l252 1434h106l-252 -1434h-106zM281 1849l79 70l269 -317l-76 -66z" />
<glyph unicode="&#xcd;" horiz-adv-x="524" d="M209 0l252 1434h106l-252 -1434h-106zM406 1610l358 305l65 -76l-360 -303z" />
<glyph unicode="&#xce;" horiz-adv-x="524" d="M190 1569l353 227l301 -235l-70 -74l-239 190l-285 -190zM209 0l252 1434h106l-252 -1434h-106z" />
<glyph unicode="&#xcf;" horiz-adv-x="524" d="M209 0l252 1434h106l-252 -1434h-106zM299 1724q0 34 24 58t58 24t58 -24t24 -58t-24 -58t-58 -24t-58 24t-24 58zM670 1724q0 34 24 58t58 24t58 -24t24 -58t-24 -58t-58 -24t-58 24t-24 58z" />
<glyph unicode="&#xd0;" horiz-adv-x="1388" d="M170 686l16 98h150l115 650h391q273 0 433.5 -156t160.5 -416q0 -179 -56.5 -335t-161.5 -274t-267 -185.5t-361 -67.5h-391l120 686h-149zM322 98h264q176 -3 318.5 56t234 163.5t140 244t48.5 300.5q0 219 -134.5 346t-389.5 127h-264l-97 -551h432l-16 -98h-434z" />
<glyph unicode="&#xd1;" horiz-adv-x="1454" d="M180 0l252 1434h107l655 -1270l225 1270h107l-252 -1434h-107l-657 1274l-223 -1274h-107zM668 1696q2 6 6 16t20 36t37 45.5t58.5 35.5t82.5 16q42 0 89.5 -22.5t89.5 -45t71 -22.5q27 0 49 10.5t34.5 25t21 29t11.5 24.5l3 11l86 -51q-2 -6 -6 -16t-20.5 -36 t-37.5 -45.5t-58.5 -35.5t-82.5 -16q-42 0 -89.5 22.5t-89.5 45t-71 22.5q-27 0 -49 -10.5t-34.5 -25t-21.5 -29t-12 -24.5l-3 -11z" />
<glyph unicode="&#xd2;" horiz-adv-x="1597" d="M203 614q0 171 65 327t175.5 269.5t265.5 180.5t327 67q142 0 258.5 -51.5t192.5 -139.5t117 -203t41 -245q0 -137 -41.5 -265t-117.5 -232.5t-178 -182.5t-230.5 -121t-266.5 -43q-142 0 -258.5 51.5t-192 139.5t-116.5 203t-41 245zM313 614q0 -108 32.5 -204t93 -170 t157 -117t215.5 -43q155 0 290.5 59t230 159t148.5 235.5t54 285.5q0 108 -32.5 204t-93 170t-157 117.5t-215.5 43.5q-206 0 -373 -101t-258.5 -270t-91.5 -369zM840 1870l80 69l268 -317l-76 -66z" />
<glyph unicode="&#xd3;" horiz-adv-x="1597" d="M203 614q0 171 65 327t175.5 269.5t265.5 180.5t327 67q142 0 258.5 -51.5t192.5 -139.5t117 -203t41 -245q0 -137 -41.5 -265t-117.5 -232.5t-178 -182.5t-230.5 -121t-266.5 -43q-142 0 -258.5 51.5t-192 139.5t-116.5 203t-41 245zM313 614q0 -108 32.5 -204t93 -170 t157 -117t215.5 -43q155 0 290.5 59t230 159t148.5 235.5t54 285.5q0 108 -32.5 204t-93 170t-157 117.5t-215.5 43.5q-206 0 -373 -101t-258.5 -270t-91.5 -369zM883 1630l358 305l66 -75l-361 -304z" />
<glyph unicode="&#xd4;" horiz-adv-x="1597" d="M203 614q0 171 65 327t175.5 269.5t265.5 180.5t327 67q142 0 258.5 -51.5t192.5 -139.5t117 -203t41 -245q0 -137 -41.5 -265t-117.5 -232.5t-178 -182.5t-230.5 -121t-266.5 -43q-142 0 -258.5 51.5t-192 139.5t-116.5 203t-41 245zM313 614q0 -108 32.5 -204t93 -170 t157 -117t215.5 -43q155 0 290.5 59t230 159t148.5 235.5t54 285.5q0 108 -32.5 204t-93 170t-157 117.5t-215.5 43.5q-206 0 -373 -101t-258.5 -270t-91.5 -369zM741 1651l353 227l301 -236l-70 -73l-240 190l-284 -190z" />
<glyph unicode="&#xd5;" horiz-adv-x="1597" d="M203 614q0 171 65 327t175.5 269.5t265.5 180.5t327 67q142 0 258.5 -51.5t192.5 -139.5t117 -203t41 -245q0 -137 -41.5 -265t-117.5 -232.5t-178 -182.5t-230.5 -121t-266.5 -43q-142 0 -258.5 51.5t-192 139.5t-116.5 203t-41 245zM313 614q0 -108 32.5 -204t93 -170 t157 -117t215.5 -43q155 0 290.5 59t230 159t148.5 235.5t54 285.5q0 108 -32.5 204t-93 170t-157 117.5t-215.5 43.5q-206 0 -373 -101t-258.5 -270t-91.5 -369zM754 1655q2 6 6 16t20 36t37 45.5t58.5 35.5t82.5 16q42 0 89.5 -22.5t89.5 -45t71 -22.5q27 0 49 10.5 t34.5 25t21 29.5t11.5 25l3 11l86 -52q-2 -6 -6 -16t-20.5 -36t-37.5 -45.5t-58.5 -35.5t-82.5 -16q-42 0 -89.5 22.5t-89.5 45t-71 22.5q-27 0 -49 -10.5t-34.5 -25t-21.5 -29t-12 -25.5l-3 -10z" />
<glyph unicode="&#xd6;" horiz-adv-x="1597" d="M203 614q0 171 65 327t175.5 269.5t265.5 180.5t327 67q142 0 258.5 -51.5t192.5 -139.5t117 -203t41 -245q0 -137 -41.5 -265t-117.5 -232.5t-178 -182.5t-230.5 -121t-266.5 -43q-142 0 -258.5 51.5t-192 139.5t-116.5 203t-41 245zM313 614q0 -108 32.5 -204t93 -170 t157 -117t215.5 -43q155 0 290.5 59t230 159t148.5 235.5t54 285.5q0 108 -32.5 204t-93 170t-157 117.5t-215.5 43.5q-206 0 -373 -101t-258.5 -270t-91.5 -369zM795 1724q0 34 24 58t58 24t57.5 -24t23.5 -58t-23.5 -58t-57.5 -24t-58 24t-24 58zM1165 1724q0 34 24 58 t58 24t58 -24t24 -58t-24 -58t-58 -24t-58 24t-24 58z" />
<glyph unicode="&#xd7;" horiz-adv-x="1064" d="M123 166l428 364l-293 357l80 67l297 -362l428 362l61 -73l-430 -365l295 -358l-80 -68l-299 363l-426 -363z" />
<glyph unicode="&#xd8;" horiz-adv-x="1613" d="M164 20l174 173q-135 173 -135 421q0 171 65 327t175.5 269.5t265.5 180.5t327 67q260 0 426 -166l197 193l65 -70l-200 -196q121 -168 121 -400q0 -137 -41.5 -265t-117.5 -232.5t-178 -182.5t-230.5 -121t-266.5 -43q-246 0 -408 146l-174 -170zM313 614 q0 -204 103 -346l968 949q-134 137 -348 137q-206 0 -373 -101t-258.5 -270t-91.5 -369zM481 197q126 -117 330 -117q155 0 290.5 59t230 159t148.5 235.5t54 285.5q0 183 -88 322z" />
<glyph unicode="&#xd9;" horiz-adv-x="1380" d="M274 539l158 895h107q-74 -413 -156 -885q-21 -105 -11 -191t45.5 -148t107.5 -96t177 -34q206 0 328 125t160 344l156 885h106l-158 -895q-46 -261 -196.5 -412.5t-395.5 -151.5q-251 0 -362 154t-66 410zM709 1862l79 69l269 -317l-76 -66z" />
<glyph unicode="&#xda;" horiz-adv-x="1380" d="M274 539l158 895h107q-74 -413 -156 -885q-21 -105 -11 -191t45.5 -148t107.5 -96t177 -34q206 0 328 125t160 344l156 885h106l-158 -895q-46 -261 -196.5 -412.5t-395.5 -151.5q-251 0 -362 154t-66 410zM819 1622l359 305l65 -76l-360 -303z" />
<glyph unicode="&#xdb;" horiz-adv-x="1380" d="M274 539l158 895h107q-74 -413 -156 -885q-21 -105 -11 -191t45.5 -148t107.5 -96t177 -34q206 0 328 125t160 344l156 885h106l-158 -895q-46 -261 -196.5 -412.5t-395.5 -151.5q-251 0 -362 154t-66 410zM633 1651l352 227l301 -236l-69 -73l-240 190l-285 -190z" />
<glyph unicode="&#xdc;" horiz-adv-x="1380" d="M274 539l158 895h107q-74 -413 -156 -885q-21 -105 -11 -191t45.5 -148t107.5 -96t177 -34q206 0 328 125t160 344l156 885h106l-158 -895q-46 -261 -196.5 -412.5t-395.5 -151.5q-251 0 -362 154t-66 410zM707 1724q0 34 23.5 58t57.5 24t58 -24t24 -58t-24 -58t-58 -24 t-57.5 24t-23.5 58zM1077 1724q0 34 24 58t58 24t58 -24t24 -58t-24 -58t-58 -24t-58 24t-24 58z" />
<glyph unicode="&#xdd;" horiz-adv-x="1163" d="M285 1434h116l293 -762l563 762h125l-649 -871l-98 -563h-107l99 563zM735 1620l359 305l65 -76l-360 -303z" />
<glyph unicode="&#xde;" horiz-adv-x="1101" d="M180 0l252 1434h107l-45 -260h272q193 0 299 -88t106 -248q0 -233 -142 -354.5t-406 -121.5h-273l-63 -362h-107zM367 461h264q428 0 428 377q0 237 -320 237h-264z" />
<glyph unicode="&#xdf;" horiz-adv-x="1200" d="M180 0q107 608 201 1139q34 198 161 316t316 118q48 0 94.5 -10.5t92.5 -35.5t81 -61.5t56.5 -92.5t21.5 -124q0 -75 -22.5 -139t-54 -103.5t-70.5 -69t-68.5 -42t-50.5 -16.5q5 -1 14 -3.5t34 -13.5t48 -26t51.5 -43t48.5 -62.5t34 -87.5t14 -115q0 -117 -33.5 -212 t-90 -157.5t-134.5 -104.5t-163 -60.5t-179 -18.5h-70l18 99h52q126 0 222 36t154 99.5t86.5 144t28.5 174.5q0 60 -17 110t-54 93t-105 67.5t-162 24.5l17 95q94 4 163.5 36t106.5 81.5t54.5 102.5t17.5 111q0 98 -62.5 158.5t-191.5 60.5q-144 0 -237.5 -97.5 t-119.5 -244.5l-196 -1126h-107z" />
<glyph unicode="&#xe0;" horiz-adv-x="1034" d="M145 252q0 84 38 153t100 112t136.5 66t151.5 23q53 0 103.5 -9t84.5 -22t60 -26t39 -22l12 -9l13 70q6 38 6 65q0 60 -19.5 101.5t-54.5 62.5t-73 29t-87 8q-76 0 -155.5 -21.5t-121.5 -42.5l-42 -22l-47 100q19 10 52.5 25t129.5 40t184 25q171 0 257.5 -75.5 t86.5 -200.5q0 -32 -6 -70l-106 -612h-96l26 160q-6 -8 -16.5 -20t-47 -44t-76 -56.5t-101 -44.5t-123.5 -20q-135 0 -221.5 75.5t-86.5 201.5zM256 252q0 -84 64.5 -128t154.5 -44q57 0 114.5 19.5t98.5 47t73.5 55t48.5 46.5l17 20l27 158q-4 3 -11.5 8.5t-34.5 19 t-57 23.5t-79 18.5t-101 8.5q-53 0 -107 -16t-101.5 -46t-77 -79.5t-29.5 -110.5zM481 1399l80 69l268 -317l-75 -66z" />
<glyph unicode="&#xe1;" horiz-adv-x="1034" d="M145 252q0 84 38 153t100 112t136.5 66t151.5 23q53 0 103.5 -9t84.5 -22t60 -26t39 -22l12 -9l13 70q6 38 6 65q0 60 -19.5 101.5t-54.5 62.5t-73 29t-87 8q-76 0 -155.5 -21.5t-121.5 -42.5l-42 -22l-47 100q19 10 52.5 25t129.5 40t184 25q171 0 257.5 -75.5 t86.5 -200.5q0 -32 -6 -70l-106 -612h-96l26 160q-6 -8 -16.5 -20t-47 -44t-76 -56.5t-101 -44.5t-123.5 -20q-135 0 -221.5 75.5t-86.5 201.5zM256 252q0 -84 64.5 -128t154.5 -44q57 0 114.5 19.5t98.5 47t73.5 55t48.5 46.5l17 20l27 158q-4 3 -11.5 8.5t-34.5 19 t-57 23.5t-79 18.5t-101 8.5q-53 0 -107 -16t-101.5 -46t-77 -79.5t-29.5 -110.5zM580 1159l358 305l66 -75l-361 -304z" />
<glyph unicode="&#xe2;" horiz-adv-x="1034" d="M145 252q0 84 38 153t100 112t136.5 66t151.5 23q53 0 103.5 -9t84.5 -22t60 -26t39 -22l12 -9l13 70q6 38 6 65q0 60 -19.5 101.5t-54.5 62.5t-73 29t-87 8q-76 0 -155.5 -21.5t-121.5 -42.5l-42 -22l-47 100q19 10 52.5 25t129.5 40t184 25q171 0 257.5 -75.5 t86.5 -200.5q0 -32 -6 -70l-106 -612h-96l26 160q-6 -8 -16.5 -20t-47 -44t-76 -56.5t-101 -44.5t-123.5 -20q-135 0 -221.5 75.5t-86.5 201.5zM256 252q0 -84 64.5 -128t154.5 -44q57 0 114.5 19.5t98.5 47t73.5 55t48.5 46.5l17 20l27 158q-4 3 -11.5 8.5t-34.5 19 t-57 23.5t-79 18.5t-101 8.5q-53 0 -107 -16t-101.5 -46t-77 -79.5t-29.5 -110.5zM367 1190l352 227l301 -235l-70 -74l-239 190l-285 -190z" />
<glyph unicode="&#xe3;" horiz-adv-x="1034" d="M145 252q0 84 38 153t100 112t136.5 66t151.5 23q53 0 103.5 -9t84.5 -22t60 -26t39 -22l12 -9l13 70q6 38 6 65q0 60 -19.5 101.5t-54.5 62.5t-73 29t-87 8q-76 0 -155.5 -21.5t-121.5 -42.5l-42 -22l-47 100q19 10 52.5 25t129.5 40t184 25q171 0 257.5 -75.5 t86.5 -200.5q0 -32 -6 -70l-106 -612h-96l26 160q-6 -8 -16.5 -20t-47 -44t-76 -56.5t-101 -44.5t-123.5 -20q-135 0 -221.5 75.5t-86.5 201.5zM256 252q0 -84 64.5 -128t154.5 -44q57 0 114.5 19.5t98.5 47t73.5 55t48.5 46.5l17 20l27 158q-4 3 -11.5 8.5t-34.5 19 t-57 23.5t-79 18.5t-101 8.5q-53 0 -107 -16t-101.5 -46t-77 -79.5t-29.5 -110.5zM375 1204q2 6 6 16t20.5 36t37.5 46t58.5 36t82.5 16q54 0 135 -45t114 -45q27 0 49 10.5t34.5 25t21 29t11.5 25.5l3 10l86 -51q-2 -6 -6 -16t-20.5 -36t-37.5 -46t-58.5 -36t-82.5 -16 q-42 0 -89.5 22.5t-89 45t-70.5 22.5q-27 0 -49.5 -10.5t-35 -25t-21.5 -29t-12 -24.5l-3 -11z" />
<glyph unicode="&#xe4;" horiz-adv-x="1034" d="M145 252q0 84 38 153t100 112t136.5 66t151.5 23q53 0 103.5 -9t84.5 -22t60 -26t39 -22l12 -9l13 70q6 38 6 65q0 60 -19.5 101.5t-54.5 62.5t-73 29t-87 8q-76 0 -155.5 -21.5t-121.5 -42.5l-42 -22l-47 100q19 10 52.5 25t129.5 40t184 25q171 0 257.5 -75.5 t86.5 -200.5q0 -32 -6 -70l-106 -612h-96l26 160q-6 -8 -16.5 -20t-47 -44t-76 -56.5t-101 -44.5t-123.5 -20q-135 0 -221.5 75.5t-86.5 201.5zM256 252q0 -84 64.5 -128t154.5 -44q57 0 114.5 19.5t98.5 47t73.5 55t48.5 46.5l17 20l27 158q-4 3 -11.5 8.5t-34.5 19 t-57 23.5t-79 18.5t-101 8.5q-53 0 -107 -16t-101.5 -46t-77 -79.5t-29.5 -110.5zM451 1237q0 34 23.5 58t57.5 24t58 -24t24 -58t-24 -58t-58 -24t-57.5 24t-23.5 58zM821 1237q0 34 24 58t58 24t58 -24t24 -58t-24 -58t-58 -24t-58 24t-24 58z" />
<glyph unicode="&#xe5;" horiz-adv-x="1034" d="M145 252q0 84 38 153t100 112t136.5 66t151.5 23q53 0 103.5 -9t84.5 -22t60 -26t39 -22l12 -9l13 70q6 38 6 65q0 60 -19.5 101.5t-54.5 62.5t-73 29t-87 8q-76 0 -155.5 -21.5t-121.5 -42.5l-42 -22l-47 100q19 10 52.5 25t129.5 40t184 25q171 0 257.5 -75.5 t86.5 -200.5q0 -32 -6 -70l-106 -612h-96l26 160q-6 -8 -16.5 -20t-47 -44t-76 -56.5t-101 -44.5t-123.5 -20q-135 0 -221.5 75.5t-86.5 201.5zM256 252q0 -84 64.5 -128t154.5 -44q57 0 114.5 19.5t98.5 47t73.5 55t48.5 46.5l17 20l27 158q-4 3 -11.5 8.5t-34.5 19 t-57 23.5t-79 18.5t-101 8.5q-53 0 -107 -16t-101.5 -46t-77 -79.5t-29.5 -110.5zM526 1290q0 88 68 157t162 69q80 0 132 -49.5t52 -131.5q0 -87 -66.5 -156t-160.5 -69q-80 0 -133.5 49.5t-53.5 130.5zM612 1290q0 -42 28 -69t73 -27q61 0 102 41t41 100q0 43 -27.5 71 t-72.5 28q-62 0 -103 -44t-41 -100z" />
<glyph unicode="&#xe6;" horiz-adv-x="1746" d="M139 229q0 78 32.5 136t89.5 91.5t126 49.5t150 16h321l8 49q6 30 6 62q0 103 -66 162t-177 59q-73 0 -147.5 -20t-113.5 -40l-38 -20l-43 96q18 10 49.5 24.5t121.5 39t171 24.5q141 0 226.5 -59t107.5 -151q74 97 181.5 153.5t231.5 56.5q176 0 284.5 -110t108.5 -283 q0 -18 -10 -123q0 -3 -1 -9t-1 -9h-805q-2 -16 -2 -47q0 -133 85.5 -215t221.5 -82q56 0 111.5 16.5t94 40t69.5 47t46 40.5l15 16l76 -80q-7 -8 -19.5 -20t-54 -44t-86.5 -56.5t-114 -44.5t-138 -20q-146 0 -248 66.5t-145 179.5q-157 -246 -428 -246q-123 0 -210 67.5 t-87 186.5zM250 229q0 -73 61.5 -111t153.5 -38q71 0 138.5 29.5t113 72.5t75 88.5t35.5 81.5l15 72q-117 2 -285 2q-57 0 -106 -8t-97 -28t-76 -61t-28 -100zM969 522h690q2 25 2 39q0 37 -8 75t-29 78t-52 70.5t-82 50t-114 19.5q-75 0 -141 -25t-110 -62t-78.5 -84 t-52 -87t-25.5 -74z" />
<glyph unicode="&#xe7;" horiz-adv-x="983" d="M147 391q0 149 72.5 279t201.5 209t284 79q73 0 137 -18t103 -44t67.5 -52t40.5 -44l12 -18l-86 -61q-3 5 -10 14t-32 32t-53.5 40.5t-77 32t-101.5 14.5q-127 0 -230.5 -66.5t-159 -172t-55.5 -224.5q0 -135 81 -223t224 -88q56 0 111.5 16.5t95 40t71 47t47.5 40.5 l15 16l72 -80q-7 -8 -19.5 -20t-54.5 -44t-87 -56.5t-113.5 -44.5t-137.5 -20q-196 0 -307 119.5t-111 296.5zM256 -477l178 373l105 -11l-181 -397z" />
<glyph unicode="&#xe8;" d="M147 375q0 114 41.5 220.5t112 186.5t171 128t212.5 48q176 0 284.5 -110t108.5 -283q0 -27 -12 -141h-805q-19 -152 68.5 -248t236.5 -96q56 0 111.5 17t94.5 41.5t70 49t47 41.5l15 17l70 -80q-7 -8 -19.5 -21t-54.5 -45.5t-87 -58t-112.5 -46t-134.5 -20.5 q-193 0 -305.5 113t-112.5 287zM276 522h691q2 25 2 39q0 37 -8 75t-29 78t-52 70.5t-82 50t-114 19.5q-75 0 -141 -25t-110.5 -62t-79 -84t-52 -87t-25.5 -74zM483 1397l80 69l268 -317l-75 -66z" />
<glyph unicode="&#xe9;" d="M147 375q0 114 41.5 220.5t112 186.5t171 128t212.5 48q176 0 284.5 -110t108.5 -283q0 -27 -12 -141h-805q-19 -152 68.5 -248t236.5 -96q56 0 111.5 17t94.5 41.5t70 49t47 41.5l15 17l70 -80q-7 -8 -19.5 -21t-54.5 -45.5t-87 -58t-112.5 -46t-134.5 -20.5 q-193 0 -305.5 113t-112.5 287zM276 522h691q2 25 2 39q0 37 -8 75t-29 78t-52 70.5t-82 50t-114 19.5q-75 0 -141 -25t-110.5 -62t-79 -84t-52 -87t-25.5 -74zM575 1155l359 305l65 -76l-360 -303z" />
<glyph unicode="&#xea;" d="M147 375q0 114 41.5 220.5t112 186.5t171 128t212.5 48q176 0 284.5 -110t108.5 -283q0 -27 -12 -141h-805q-19 -152 68.5 -248t236.5 -96q56 0 111.5 17t94.5 41.5t70 49t47 41.5l15 17l70 -80q-7 -8 -19.5 -21t-54.5 -45.5t-87 -58t-112.5 -46t-134.5 -20.5 q-193 0 -305.5 113t-112.5 287zM276 522h691q2 25 2 39q0 37 -8 75t-29 78t-52 70.5t-82 50t-114 19.5q-75 0 -141 -25t-110.5 -62t-79 -84t-52 -87t-25.5 -74zM391 1190l352 227l301 -235l-69 -74l-240 190l-284 -190z" />
<glyph unicode="&#xeb;" d="M147 375q0 114 41.5 220.5t112 186.5t171 128t212.5 48q176 0 284.5 -110t108.5 -283q0 -27 -12 -141h-805q-19 -152 68.5 -248t236.5 -96q56 0 111.5 17t94.5 41.5t70 49t47 41.5l15 17l70 -80q-7 -8 -19.5 -21t-54.5 -45.5t-87 -58t-112.5 -46t-134.5 -20.5 q-193 0 -305.5 113t-112.5 287zM276 522h691q2 25 2 39q0 37 -8 75t-29 78t-52 70.5t-82 50t-114 19.5q-75 0 -141 -25t-110.5 -62t-79 -84t-52 -87t-25.5 -74zM459 1237q0 34 24 58t58 24t58 -24t24 -58t-24 -58t-58 -24t-58 24t-24 58zM829 1237q0 34 24 58t58 24t58 -24 t24 -58t-24 -58t-58 -24t-58 24t-24 58z" />
<glyph unicode="&#xec;" horiz-adv-x="458" d="M176 0l164 934h106l-163 -934h-107zM190 1399l80 69l269 -317l-76 -66z" />
<glyph unicode="&#xed;" horiz-adv-x="458" d="M172 0l164 934h106l-163 -934h-107zM270 1159l359 305l65 -75l-360 -304z" />
<glyph unicode="&#xee;" horiz-adv-x="524" d="M121 1190l352 227l301 -235l-69 -74l-240 190l-285 -190zM209 0l164 934h106l-164 -934h-106z" />
<glyph unicode="&#xef;" horiz-adv-x="501" d="M168 1237q0 34 24 58t58 24t58 -24t24 -58t-24 -58t-58 -24t-58 24t-24 58zM197 0l163 934h107l-164 -934h-106zM539 1237q0 34 24 58t58 24t57.5 -24t23.5 -58t-23.5 -58t-57.5 -24t-58 24t-24 58z" />
<glyph unicode="&#xf0;" horiz-adv-x="1114" d="M147 383q0 146 69 277t197.5 214.5t284.5 83.5q99 0 178.5 -33t124.5 -94q-21 120 -83.5 231t-145.5 189l-303 -131l-29 80l260 113q-51 45 -111.5 85.5t-94.5 58.5l-35 18l49 94q18 -8 48.5 -23.5t112 -69t146.5 -114.5l270 115l33 -80l-235 -101q115 -120 182.5 -273 t67.5 -368q0 -100 -21.5 -196t-67.5 -184t-112 -154.5t-162 -106t-209 -39.5q-194 0 -304 116t-110 292zM258 383q0 -134 78.5 -218.5t224.5 -84.5q122 0 224.5 66t160.5 174t58 229q0 135 -79.5 220t-226.5 85q-121 0 -223 -66t-159.5 -174t-57.5 -231z" />
<glyph unicode="&#xf1;" horiz-adv-x="1069" d="M147 0l164 934h97l-31 -170q5 8 15 21t44 46.5t72 59t98.5 46.5t124.5 21q58 0 113.5 -21.5t101.5 -63.5t67 -114t5 -163l-105 -596h-106l100 580q25 140 -35.5 207t-179.5 67q-58 0 -113 -22.5t-92 -55t-66 -64.5t-43 -54l-13 -23l-111 -635h-107zM403 1204q2 6 6 16 t20.5 36t37.5 46t58.5 36t82.5 16q42 0 89.5 -22.5t89.5 -45t71 -22.5q27 0 49 10.5t34.5 25t21 29t11.5 25.5l3 10l86 -51q-2 -6 -6 -16t-20.5 -36t-37.5 -46t-58.5 -36t-82.5 -16q-42 0 -89.5 22.5t-89.5 45t-71 22.5q-27 0 -49.5 -10.5t-35 -25t-21.5 -29t-12 -24.5 l-3 -11z" />
<glyph unicode="&#xf2;" horiz-adv-x="1097" d="M147 383q0 153 72.5 285t200 211t278.5 79q185 0 300.5 -112.5t115.5 -296.5q0 -151 -74 -283.5t-202 -211.5t-277 -79q-184 0 -299 112t-115 296zM258 383q0 -134 78.5 -218.5t224.5 -84.5q128 0 231 66.5t157.5 173.5t54.5 229q0 135 -79.5 220t-226.5 85 q-127 0 -229 -67t-156.5 -174t-54.5 -230zM524 1399l80 69l268 -317l-75 -66z" />
<glyph unicode="&#xf3;" horiz-adv-x="1097" d="M147 383q0 153 72.5 285t200 211t278.5 79q185 0 300.5 -112.5t115.5 -296.5q0 -151 -74 -283.5t-202 -211.5t-277 -79q-184 0 -299 112t-115 296zM258 383q0 -134 78.5 -218.5t224.5 -84.5q128 0 231 66.5t157.5 173.5t54.5 229q0 135 -79.5 220t-226.5 85 q-127 0 -229 -67t-156.5 -174t-54.5 -230zM575 1159l359 305l65 -75l-360 -304z" />
<glyph unicode="&#xf4;" horiz-adv-x="1097" d="M147 383q0 153 72.5 285t200 211t278.5 79q185 0 300.5 -112.5t115.5 -296.5q0 -151 -74 -283.5t-202 -211.5t-277 -79q-184 0 -299 112t-115 296zM258 383q0 -134 78.5 -218.5t224.5 -84.5q128 0 231 66.5t157.5 173.5t54.5 229q0 135 -79.5 220t-226.5 85 q-127 0 -229 -67t-156.5 -174t-54.5 -230zM418 1169l352 228l301 -236l-70 -74l-239 191l-285 -191z" />
<glyph unicode="&#xf5;" horiz-adv-x="1097" d="M147 383q0 153 72.5 285t200 211t278.5 79q185 0 300.5 -112.5t115.5 -296.5q0 -151 -74 -283.5t-202 -211.5t-277 -79q-184 0 -299 112t-115 296zM258 383q0 -134 78.5 -218.5t224.5 -84.5q128 0 231 66.5t157.5 173.5t54.5 229q0 135 -79.5 220t-226.5 85 q-127 0 -229 -67t-156.5 -174t-54.5 -230zM418 1204q2 6 6 16t20.5 36t37.5 46t58.5 36t82.5 16q42 0 89.5 -22.5t89 -45t70.5 -22.5q27 0 49 10.5t34.5 25t21 29t11.5 25.5l3 10l86 -51q-2 -6 -6 -16t-20.5 -36t-37.5 -46t-58.5 -36t-82.5 -16q-54 0 -135 45t-114 45 q-27 0 -49.5 -10.5t-35 -25t-21.5 -29t-12 -24.5l-3 -11z" />
<glyph unicode="&#xf6;" horiz-adv-x="1097" d="M147 383q0 153 72.5 285t200 211t278.5 79q185 0 300.5 -112.5t115.5 -296.5q0 -151 -74 -283.5t-202 -211.5t-277 -79q-184 0 -299 112t-115 296zM258 383q0 -134 78.5 -218.5t224.5 -84.5q128 0 231 66.5t157.5 173.5t54.5 229q0 135 -79.5 220t-226.5 85 q-127 0 -229 -67t-156.5 -174t-54.5 -230zM487 1237q0 34 24 58t58 24t58 -24t24 -58t-24 -58t-58 -24t-58 24t-24 58zM858 1237q0 34 24 58t58 24t58 -24t24 -58t-24 -58t-58 -24t-58 24t-24 58z" />
<glyph unicode="&#xf7;" horiz-adv-x="1064" d="M174 465l16 98h881l-16 -98h-881zM477 160q0 34 24 58t58 24t58 -24t24 -58t-24 -58t-58 -24t-58 24t-24 58zM604 877q0 34 24 57.5t58 23.5t58 -23.5t24 -57.5t-24 -58t-58 -24t-58 24t-24 58z" />
<glyph unicode="&#xf8;" horiz-adv-x="1114" d="M129 31l102 100q-75 104 -75 252q0 153 72.5 285t200 211t278.5 79q161 0 272 -90l115 113l61 -61l-115 -113q82 -109 82 -258q0 -151 -74 -283.5t-202 -211.5t-277 -79q-165 0 -278 93l-101 -99zM266 383q0 -103 45 -174l592 584q-77 61 -196 61q-127 0 -229.5 -67 t-157 -174.5t-54.5 -229.5zM367 143q75 -63 202 -63q128 0 231 66.5t157.5 173.5t54.5 229q0 107 -49 180z" />
<glyph unicode="&#xf9;" d="M203 202.5q-10 59.5 4 135.5l104 596h107l-103 -580q-25 -140 30 -207t177 -67q58 0 113.5 21t94 51t68 60.5t44.5 51.5l14 21l115 649h106l-164 -934h-96l29 166q-5 -8 -15 -21t-44 -45.5t-72 -58t-98.5 -46t-124.5 -20.5q-52 0 -98.5 13.5t-87 41.5t-67 70.5t-36.5 102 zM471 1399l80 69l268 -317l-76 -66z" />
<glyph unicode="&#xfa;" d="M203 202.5q-10 59.5 4 135.5l104 596h107l-103 -580q-25 -140 30 -207t177 -67q58 0 113.5 21t94 51t68 60.5t44.5 51.5l14 21l115 649h106l-164 -934h-96l29 166q-5 -8 -15 -21t-44 -45.5t-72 -58t-98.5 -46t-124.5 -20.5q-52 0 -98.5 13.5t-87 41.5t-67 70.5t-36.5 102 zM582 1155l358 305l66 -76l-361 -303z" />
<glyph unicode="&#xfb;" d="M203 202.5q-10 59.5 4 135.5l104 596h107l-103 -580q-25 -140 30 -207t177 -67q58 0 113.5 21t94 51t68 60.5t44.5 51.5l14 21l115 649h106l-164 -934h-96l29 166q-5 -8 -15 -21t-44 -45.5t-72 -58t-98.5 -46t-124.5 -20.5q-52 0 -98.5 13.5t-87 41.5t-67 70.5t-36.5 102 zM389 1190l352 227l301 -235l-69 -74l-240 190l-284 -190z" />
<glyph unicode="&#xfc;" d="M203 202.5q-10 59.5 4 135.5l104 596h107l-103 -580q-25 -140 30 -207t177 -67q58 0 113.5 21t94 51t68 60.5t44.5 51.5l14 21l115 649h106l-164 -934h-96l29 166q-5 -8 -15 -21t-44 -45.5t-72 -58t-98.5 -46t-124.5 -20.5q-52 0 -98.5 13.5t-87 41.5t-67 70.5t-36.5 102 zM461 1237q0 34 24 58t58 24t58 -24t24 -58t-24 -58t-58 -24t-58 24t-24 58zM831 1237q0 34 24 58t58 24t58 -24t24 -58t-24 -58t-58 -24t-58 24t-24 58z" />
<glyph unicode="&#xfd;" horiz-adv-x="1001" d="M-4 -426l59 88q6 -6 16.5 -15t43 -23.5t65.5 -14.5q49 0 88 32.5t80 102.5l139 246l-294 944h110l258 -834l471 834h117q-680 -1184 -713 -1239q-60 -103 -121.5 -147t-144.5 -44q-43 0 -86.5 17.5t-65.5 34.5zM524 1157l359 305l65 -76l-360 -303z" />
<glyph unicode="&#xfe;" horiz-adv-x="1161" d="M96 -471l248 1405l88 502h107l-115 -645q19 23 43.5 45.5t68 53t105.5 49.5t131 19q191 0 298.5 -114t107.5 -299q0 -120 -44 -226.5t-117.5 -181.5t-173 -118.5t-208.5 -43.5q-70 0 -131.5 20.5t-100 51.5t-60.5 55t-32 43l-108 -616h-107zM336 285q1 -7 9.5 -25.5 t31.5 -50.5t54 -60t85.5 -48.5t118.5 -20.5q122 0 221.5 65t154 171t54.5 229q0 136 -79.5 222.5t-213.5 86.5q-60 0 -119 -20t-97.5 -44t-76.5 -59.5t-51.5 -52.5t-27.5 -35q-2 -3 -3 -4v-2z" />
<glyph unicode="&#xff;" horiz-adv-x="1001" d="M-4 -426l59 88q6 -6 16.5 -15t43 -23.5t65.5 -14.5q49 0 88 32.5t80 102.5l139 246l-294 944h110l258 -834l471 834h117q-680 -1184 -713 -1239q-60 -103 -121.5 -147t-144.5 -44q-43 0 -86.5 17.5t-65.5 34.5zM418 1237q0 34 24 58t58 24t58 -24t24 -58t-24 -58t-58 -24 t-58 24t-24 58zM788 1237q0 34 24 58t58 24t58 -24t24 -58t-24 -58t-58 -24t-58 24t-24 58z" />
<glyph unicode="&#x152;" horiz-adv-x="1732" d="M201 594q0 247 103.5 437t297.5 296.5t449 106.5h807l-19 -107h-631l-94 -536h582l-21 -107h-581l-101 -578h643l-18 -106h-819q-269 0 -433.5 165.5t-164.5 428.5zM322 594q0 -217 134.5 -352.5t360.5 -135.5h62l215 1221h-62q-138 0 -255 -38.5t-200 -106.5t-141 -161 t-86 -201t-28 -226z" />
<glyph unicode="&#x153;" horiz-adv-x="1904" d="M147 383q0 153 72.5 285t200 211t278.5 79q140 0 243 -67t146 -184q72 116 187.5 183.5t253.5 67.5q176 0 284.5 -110t108.5 -283q0 -27 -12 -141h-805q-19 -152 68.5 -248t236.5 -96q56 0 111.5 16.5t94 40t69.5 47t46 40.5l15 16l76 -80q-7 -8 -19.5 -20t-54 -44 t-86.5 -56.5t-114 -44.5t-138 -20q-149 0 -250.5 67t-142.5 183q-77 -115 -197 -182.5t-258 -67.5q-184 0 -299 112t-115 296zM258 383q0 -134 78.5 -218.5t224.5 -84.5q128 0 231 66.5t157.5 173.5t54.5 229q0 135 -79.5 220t-226.5 85q-127 0 -229 -67t-156.5 -174 t-54.5 -230zM1120 522h690q2 25 2 39q0 48 -14 95t-44.5 93.5t-89 75.5t-136.5 29q-75 0 -141 -25t-110.5 -62t-79 -84t-52 -87t-25.5 -74z" />
<glyph unicode="&#x178;" horiz-adv-x="1163" d="M285 1434h116l293 -762l563 762h125l-649 -871l-98 -563h-107l99 563zM590 1724q0 34 24 58t58 24t58 -24t24 -58t-24 -58t-58 -24t-58 24t-24 58zM961 1724q0 34 23.5 58t57.5 24t58 -24t24 -58t-24 -58t-58 -24t-57.5 24t-23.5 58z" />
<glyph unicode="&#x2c6;" horiz-adv-x="856" d="M301 1143l352 227l301 -235l-69 -74l-240 190l-285 -190z" />
<glyph unicode="&#x2dc;" horiz-adv-x="798" d="M297 1208q2 6 6 16t20.5 36t37.5 46t58.5 36t82.5 16q42 0 89.5 -22.5t89.5 -45t71 -22.5q27 0 49 10.5t34 25t20.5 29t11.5 25.5l3 10l86 -51q-2 -6 -6 -16t-20 -36t-37 -46t-58.5 -36t-82.5 -16q-42 0 -89.5 22.5t-89.5 45t-71 22.5q-27 0 -49.5 -10.5t-35 -25 t-21.5 -29t-12 -24.5l-3 -11z" />
<glyph unicode="&#x2000;" horiz-adv-x="969" />
<glyph unicode="&#x2001;" horiz-adv-x="1939" />
<glyph unicode="&#x2002;" horiz-adv-x="969" />
<glyph unicode="&#x2003;" horiz-adv-x="1939" />
<glyph unicode="&#x2004;" horiz-adv-x="646" />
<glyph unicode="&#x2005;" horiz-adv-x="484" />
<glyph unicode="&#x2006;" horiz-adv-x="323" />
<glyph unicode="&#x2007;" horiz-adv-x="323" />
<glyph unicode="&#x2008;" horiz-adv-x="242" />
<glyph unicode="&#x2009;" horiz-adv-x="387" />
<glyph unicode="&#x200a;" horiz-adv-x="107" />
<glyph unicode="&#x2010;" horiz-adv-x="681" d="M143 436l19 99h547l-19 -99h-547z" />
<glyph unicode="&#x2011;" horiz-adv-x="681" d="M143 436l19 99h547l-19 -99h-547z" />
<glyph unicode="&#x2012;" horiz-adv-x="681" d="M143 436l19 99h547l-19 -99h-547z" />
<glyph unicode="&#x2013;" horiz-adv-x="1024" d="M78 451l18 98h1024l-18 -98h-1024z" />
<glyph unicode="&#x2014;" horiz-adv-x="2048" d="M78 451l18 98h2048l-18 -98h-2048z" />
<glyph unicode="&#x2018;" horiz-adv-x="307" d="M268 946l86 488h103l-86 -488h-103z" />
<glyph unicode="&#x2019;" horiz-adv-x="307" d="M268 946l86 488h103l-86 -488h-103z" />
<glyph unicode="&#x201a;" horiz-adv-x="307" d="M51 -287l86 488h103l-86 -488h-103z" />
<glyph unicode="&#x201c;" horiz-adv-x="684" d="M330 946l86 488h102l-86 -488h-102zM584 946l86 488h102l-86 -488h-102z" />
<glyph unicode="&#x201d;" horiz-adv-x="684" d="M330 946l86 488h102l-86 -488h-102zM584 946l86 488h102l-86 -488h-102z" />
<glyph unicode="&#x201e;" horiz-adv-x="684" d="M113 -287l86 488h102l-86 -488h-102zM367 -287l86 488h102l-86 -488h-102z" />
<glyph unicode="&#x2022;" horiz-adv-x="1024" d="M457 717q0 75 52.5 127.5t127.5 52.5t127.5 -52.5t52.5 -127.5t-52.5 -127.5t-127.5 -52.5t-127.5 52.5t-52.5 127.5z" />
<glyph unicode="&#x2026;" horiz-adv-x="2048" d="M274 57q0 34 24 58t58 24t58 -24t24 -58t-24 -58t-58 -24t-58 24t-24 58zM950 57q0 34 24 58t58 24t58 -24t24 -58t-24 -58t-58 -24t-58 24t-24 58zM1626 57q0 34 24 58t58 24t58 -24t24 -58t-24 -58t-58 -24t-58 24t-24 58z" />
<glyph unicode="&#x202f;" horiz-adv-x="387" />
<glyph unicode="&#x2039;" horiz-adv-x="610" d="M129 510l412 451l73 -72l-360 -387l240 -400l-91 -59z" />
<glyph unicode="&#x203a;" horiz-adv-x="610" d="M147 117l381 395l-235 389l88 60l272 -459l-434 -459z" />
<glyph unicode="&#x205f;" horiz-adv-x="484" />
<glyph unicode="&#x20ac;" horiz-adv-x="1187" d="M164 553l16 96h156q2 25 10 68q7 40 14 67h-155l16 97h164q87 255 292 416t468 161q64 0 123.5 -11t86.5 -21l27 -11l-53 -92q-70 31 -203 31q-199 0 -370 -128.5t-254 -344.5h547l-17 -97h-559q-7 -27 -14 -67q-8 -43 -10 -68h559l-17 -96h-547q6 -216 130.5 -344.5 t326.5 -128.5q55 0 109 9t81 17l27 9l27 -99q-117 -41 -262 -41q-241 0 -394.5 163t-156.5 415h-168z" />
<glyph unicode="&#x2122;" horiz-adv-x="1546" d="M270 1356l15 78h526l-14 -78h-224l-118 -680h-84l118 680h-219zM831 676l134 758h88l192 -424l334 424h98l-133 -758h-84l111 624l-344 -438l-201 438l-111 -624h-84z" />
<glyph unicode="&#x25fc;" horiz-adv-x="931" d="M0 0v932h932v-932h-932z" />
</font>
</defs>
</svg>
